osu file format v14

[General]
AudioFilename: audio.mp3
AudioLeadIn: 0
PreviewTime: 40475
Countdown: 0
SampleSet: Drum
StackLeniency: 0.7
Mode: 0
LetterboxInBreaks: 0
WidescreenStoryboard: 1

[Editor]
DistanceSpacing: 1.6
BeatDivisor: 4
GridSize: 32
TimelineZoom: 1.4

[Metadata]
Title:Inertia Split
TitleUnicode:Inertia Split
Artist:Aethoro
ArtistUnicode:Aethoro
Creator:LMT
Version:Extra
Source:Corsace Open 2023
Tags:co23 ro hr2 vinxis mishima yurara instrumental electronic featured artist fa epic Corsace Open 2023: Penance
BeatmapID:4547774
BeatmapSetID:2044069

[Difficulty]
HPDrainRate:5
CircleSize:5
OverallDifficulty:8
ApproachRate:9
SliderMultiplier:1.4
SliderTickRate:1

[Events]
//Background and Video events
0,0,"final_-_full_res.jpg",0,0
//Break Periods
2,67675,72375
2,73675,78375
2,79675,90875
//Storyboard Layer 0 (Background)
//Storyboard Layer 1 (Fail)
//Storyboard Layer 2 (Pass)
//Storyboard Layer 3 (Foreground)
//Storyboard Layer 4 (Overlay)
//Storyboard Sound Samples

[TimingPoints]
2975,750,4,3,0,50,1,0
26975,500,4,3,0,50,1,0
38975,500,3,3,0,50,1,0
40475,500,6,3,0,50,1,0
40475,-66.6666666666667,6,3,0,50,0,0
52475,500,3,3,0,50,1,0
53975,500,6,3,0,50,1,0
53975,-66.6666666666667,6,3,0,50,0,0
65975,500,3,3,0,50,1,0
67475,750,4,3,0,40,1,0
67475,-100,4,3,0,40,0,0
91475,-50,4,3,0,50,0,0
117975,-200,4,3,0,50,0,0
118475,500,6,3,0,50,1,0
118475,-50,6,3,0,50,0,0
128975,-50,6,3,0,50,0,0
148475,-100,6,3,0,5,0,0

[Colours]
Combo1 : 196,98,0
Combo2 : 128,128,255
Combo3 : 128,128,192
Combo4 : 255,128,64

[HitObjects]
127,108,26975,6,0,P|95:129|43:115,1,70,2|0,0:0|0:0,0:0:0:0:
14,77,27350,2,0,P|18:57|42:36,1,35,2|0,0:0|0:0,0:0:0:0:
384,175,27725,5,0,0:0:0:0:
369,205,27850,1,2,0:0:0:0:
376,238,27975,1,4,0:0:0:0:
406,258,28100,1,2,0:0:0:0:
443,259,28225,1,0,0:0:0:0:
284,118,28475,2,0,L|275:211,1,70,0|2,1:0|0:2,0:0:0:0:
218,220,28850,1,2,0:2:0:0:
159,256,28975,2,0,B|138:287|138:287|165:347,1,70,4|0,0:0|0:0,0:0:0:0:
220,321,29350,2,0,L|225:369,1,35,2|4,0:0|0:0,0:0:0:0:
136,180,29725,1,2,0:0:0:0:
136,180,29975,5,4,0:0:0:0:
136,180,30475,1,4,0:0:0:0:
136,180,30975,1,4,0:0:0:0:
136,180,31475,1,4,0:0:0:0:
352,156,31725,6,0,L|360:212,1,35,0|2,0:0|0:0,0:0:0:0:
364,226,31975,1,0,0:0:0:0:
370,263,32100,1,2,0:0:0:0:
473,46,32350,1,2,0:0:0:0:
454,82,32475,5,4,0:0:0:0:
403,32,32600,1,0,1:0:0:0:
336,21,32725,1,0,1:0:0:0:
269,37,32850,1,0,1:0:0:0:
216,83,32975,6,0,P|199:130|192:174,1,70,0|0,1:0|0:0,0:0:0:0:
162,37,33350,2,0,P|154:18|121:-6,1,35,2|0,0:0|0:0,0:0:0:0:
33,21,33600,6,0,L|14:4,2,17.5,2|0|0,0:0|0:0|0:0,0:0:0:0:
58,60,33850,1,2,0:0:0:0:
48,104,33975,2,0,P|34:142|30:178,1,70,4|0,0:0|0:0,0:0:0:0:
77,220,34350,2,0,P|76:242|64:261,1,35,2|0,0:0|0:0,0:0:0:0:
317,370,34725,6,0,P|303:357|298:331,1,35,2|2,0:0|0:0,0:0:0:0:
383,246,34975,2,0,P|363:289|353:334,1,70,4|0,0:0|0:0,0:0:0:0:
441,189,35350,2,0,P|447:212|443:232,1,35,2|4,0:2|0:0,0:0:0:0:
313,0,35725,1,2,0:0:0:0:
400,30,35975,2,0,P|367:129|359:178,3,140,4|4|4|4,0:0|0:0|0:0|0:0,0:0:0:0:
49,197,37725,6,0,P|53:214|54:244,1,35,0|2,0:0|0:0,0:0:0:0:
55,274,37975,1,0,0:0:0:0:
29,303,38100,1,2,0:0:0:0:
216,355,38350,5,2,0:0:0:0:
201,315,38475,1,4,0:0:0:0:
216,274,38600,1,2,0:0:0:0:
249,251,38725,1,2,0:2:0:0:
422,355,38975,5,4,0:0:0:0:
403,335,39100,1,0,0:0:0:0:
425,317,39225,1,0,0:0:0:0:
458,227,39350,5,4,0:0:0:0:
482,206,39475,1,0,0:0:0:0:
465,178,39600,1,0,0:0:0:0:
379,56,39725,5,4,0:0:0:0:
349,83,39850,1,0,0:0:0:0:
364,120,39975,1,0,0:0:0:0:
450,108,40100,5,4,0:0:0:0:
464,97,40225,1,0,0:0:0:0:
444,90,40350,1,0,0:0:0:0:
363,197,40475,6,0,B|328:199|263:232|254:277|185:250,1,157.500006008148,4|0,1:0|0:0,0:0:0:0:
167,209,40975,1,4,0:0:0:0:
94,199,41100,1,2,0:2:0:0:
30,238,41225,1,2,0:2:0:0:
10,306,41350,1,2,0:2:0:0:
136,364,41475,6,0,B|158:346|158:346|143:310,1,52.5000020027161,4|2,0:0|0:2,0:0:0:0:
93,274,41725,2,0,L|81:326,1,52.5000020027161,2|2,0:2|0:2,0:0:0:0:
254,45,41975,6,0,B|259:16|259:16|309:6,1,52.5000020027161,4|2,0:0|0:2,0:0:0:0:
324,73,42225,2,0,L|315:135,1,52.5000020027161,2|2,0:2|0:2,0:0:0:0:
306,220,42475,5,6,0:0:0:0:
368,191,42600,1,0,0:0:0:0:
432,211,42725,1,0,0:0:0:0:
456,274,42850,1,2,0:0:0:0:
299,228,42975,5,0,0:0:0:0:
230,216,43100,1,2,0:0:0:0:
179,166,43225,1,4,0:0:0:0:
183,97,43350,1,0,0:0:0:0:
297,218,43475,6,0,P|282:274|267:374,1,157.500006008148,4|2,1:0|0:2,0:0:0:0:
199,362,43975,2,0,B|188:371|188:371|162:358,2,26.2500010013581,4|0|0,0:0|0:0|0:0,0:0:0:0:
122,320,44225,1,2,0:0:0:0:
56,308,44350,1,2,0:0:0:0:
14,245,44475,6,0,L|6:184,1,52.5000020027161,4|2,0:0|0:2,0:0:0:0:
56,147,44725,2,0,B|65:126|65:126|43:88,1,52.5000020027161,2|2,0:2|0:2,0:0:0:0:
345,209,44975,6,0,B|325:230|325:230|343:267,1,52.5000020027161,4|2,0:0|0:2,0:0:0:0:
397,274,45225,2,0,L|406:331,1,52.5000020027161,2|2,0:2|0:2,0:0:0:0:
458,238,45475,5,2,0:0:0:0:
458,238,45537,1,2,0:0:0:0:
458,238,45600,1,2,0:0:0:0:
420,174,45725,1,2,0:0:0:0:
472,130,45850,1,2,0:0:0:0:
438,75,45975,2,0,P|441:50|452:11,1,52.5000020027161,4|2,0:0|0:0,0:0:0:0:
371,101,46225,2,0,P|372:66|376:26,1,52.5000020027161,2|2,0:0|0:0,0:0:0:0:
136,74,46475,6,0,B|185:70|209:96|210:126|285:126,1,157.500006008148,4|0,1:0|0:0,0:0:0:0:
318,186,46975,1,4,0:0:0:0:
318,186,47037,1,0,0:0:0:0:
318,186,47100,1,2,0:2:0:0:
272,234,47225,1,2,0:2:0:0:
317,280,47350,1,2,0:2:0:0:
274,332,47475,6,0,P|281:362|282:390,1,52.5000020027161,4|2,0:0|0:2,0:0:0:0:
195,244,47725,2,0,P|207:292|212:317,1,52.5000020027161,2|2,0:2|0:2,0:0:0:0:
46,117,47975,6,0,P|39:84|29:56,1,52.5000020027161,4|2,0:0|0:2,0:0:0:0:
133,180,48225,2,0,P|123:146|111:117,1,52.5000020027161,2|2,0:2|0:2,0:0:0:0:
25,240,48475,5,6,0:0:0:0:
50,254,48558,1,2,0:0:0:0:
69,277,48641,1,2,0:0:0:0:
77,303,48725,1,2,0:0:0:0:
122,363,48850,1,2,0:0:0:0:
194,346,48975,2,0,P|201:318|224:272,1,52.5000020027161,4|2,0:0|0:0,0:0:0:0:
275,265,49225,2,0,P|308:249|341:243,1,52.5000020027161,4|0,0:0|0:0,0:0:0:0:
508,155,49475,6,0,B|457:147|432:167|407:192|351:180,1,157.500006008148,4|2,1:0|0:2,0:0:0:0:
292,146,49975,1,4,0:0:0:0:
292,146,50037,1,0,0:0:0:0:
292,146,50100,1,0,0:0:0:0:
224,177,50225,1,2,0:0:0:0:
150,172,50350,1,2,0:0:0:0:
102,124,50475,6,0,P|90:93|74:67,1,52.5000020027161,4|2,0:0|0:2,0:0:0:0:
71,11,50725,2,0,P|46:5|5:6,1,52.5000020027161,2|2,0:2|0:2,0:0:0:0:
337,56,50975,6,0,P|369:63|402:77,1,52.5000020027161,4|2,0:0|0:2,0:0:0:0:
432,124,51225,2,0,P|456:165|464:188,1,52.5000020027161,2|2,0:2|0:2,0:0:0:0:
474,243,51475,5,2,0:0:0:0:
474,243,51537,1,2,0:0:0:0:
474,243,51600,1,2,0:0:0:0:
434,304,51725,1,2,0:0:0:0:
369,323,51850,1,2,0:0:0:0:
301,301,51975,2,0,P|291:273|287:242,1,52.5000020027161,4|2,0:0|0:0,0:0:0:0:
180,208,52225,2,0,P|208:240|224:268,1,52.5000020027161,2|2,0:0|0:0,0:0:0:0:
136,160,52475,5,4,0:0:0:0:
82,117,52600,1,0,0:0:0:0:
16,102,52725,1,0,0:0:0:0:
149,90,52850,5,4,0:0:0:0:
214,75,52975,1,0,0:0:0:0:
263,28,53100,1,0,0:0:0:0:
371,183,53225,5,4,0:0:0:0:
338,129,53350,1,0,0:0:0:0:
281,97,53475,1,0,0:0:0:0:
457,24,53600,5,4,0:0:0:0:
403,60,53725,1,0,0:0:0:0:
338,61,53850,1,0,0:0:0:0:
411,128,53975,6,0,P|388:158|337:276,1,157.500006008148,4|0,1:0|0:0,0:0:0:0:
362,336,54475,1,6,0:0:0:0:
392,352,54558,1,2,0:0:0:0:
428,352,54641,1,2,0:0:0:0:
456,338,54725,2,0,P|477:344|507:359,1,52.5000020027161,2|2,0:0|0:0,0:0:0:0:
285,324,54975,2,0,P|216:340|177:367,1,105.000004005432,4|0,0:0|0:0,0:0:0:0:
100,247,55350,1,2,0:0:0:0:
157,289,55475,2,0,P|136:316|121:352,1,52.5000020027161,4|2,0:0|0:0,0:0:0:0:
58,337,55725,2,0,P|45:300|31:273,1,52.5000020027161,0|2,0:0|0:0,0:0:0:0:
57,158,55975,5,2,0:0:0:0:
88,144,56058,1,2,0:0:0:0:
120,147,56141,1,2,0:0:0:0:
146,164,56225,2,0,P|167:193|183:226,1,52.5000020027161,2|2,0:0|0:0,0:0:0:0:
245,218,56475,5,4,0:0:0:0:
298,254,56600,1,0,0:0:0:0:
364,256,56725,1,2,0:0:0:0:
423,225,56850,1,0,0:0:0:0:
463,171,56975,6,0,P|446:83|425:3,1,157.500006008148,4|0,1:0|0:0,0:0:0:0:
361,1,57475,1,6,0:0:0:0:
347,26,57558,1,2,0:0:0:0:
340,52,57641,1,2,0:0:0:0:
340,78,57725,2,0,P|342:110|348:137,1,52.5000020027161,2|2,0:0|0:0,0:0:0:0:
175,77,57975,2,0,P|228:93|278:124,1,105.000004005432,4|2,0:0|0:0,0:0:0:0:
290,186,58350,1,0,0:0:0:0:
248,243,58475,2,0,P|231:264|217:306,1,52.5000020027161,4|2,0:0|0:2,0:0:0:0:
281,328,58725,2,0,P|283:347|285:389,1,52.5000020027161,2|2,0:2|0:2,0:0:0:0:
208,366,58975,5,6,0:0:0:0:
172,377,59058,1,2,0:0:0:0:
139,372,59141,1,2,0:0:0:0:
111,355,59225,1,2,0:0:0:0:
74,301,59350,1,2,0:0:0:0:
87,233,59475,2,0,P|92:195|111:161,1,52.5000020027161,4|2,0:0|0:2,0:0:0:0:
30,83,59725,2,0,P|44:112|49:151,1,52.5000020027161,2|2,0:2|0:2,0:0:0:0:
113,114,59975,1,4,0:0:0:0:
183,132,60100,6,0,P|201:147|224:177,2,52.5000020027161,2|2|2,0:0|0:0|0:0,0:0:0:0:
359,50,60475,1,4,0:0:0:0:
327,109,60600,5,2,0:2:0:0:
327,109,60662,1,2,0:2:0:0:
327,109,60725,2,0,P|354:135|368:152,2,52.5000020027161,2|2|4,0:2|0:0|0:0,0:0:0:0:
422,250,61100,5,2,0:0:0:0:
355,269,61225,1,2,0:0:0:0:
425,258,61350,2,0,P|460:267|492:281,1,52.5000020027161,2|4,0:0|0:0,0:0:0:0:
268,324,61600,5,2,0:0:0:0:
209,353,61725,1,2,0:0:0:0:
144,331,61850,1,2,0:0:0:0:
103,277,61975,1,6,0:0:0:0:
89,247,62058,1,2,0:0:0:0:
92,214,62141,1,2,0:0:0:0:
111,190,62225,1,2,0:0:0:0:
128,123,62350,2,0,P|120:88|105:62,1,52.5000020027161,2|4,0:0|0:0,0:0:0:0:
174,35,62600,5,2,0:0:0:0:
233,2,62725,1,2,0:0:0:0:
301,22,62850,1,2,0:0:0:0:
340,77,62975,1,4,1:0:0:0:
400,43,63100,6,0,P|428:38|468:34,2,52.5000020027161
424,124,63475,5,6,0:0:0:0:
406,160,63558,1,2,0:0:0:0:
369,178,63641,1,2,0:0:0:0:
329,173,63725,2,0,P|319:201|310:256,2,52.5000020027161,2|2|4,0:0|0:0|0:0,0:0:0:0:
381,274,64100,5,2,0:0:0:0:
445,302,64225,1,2,0:0:0:0:
380,286,64350,2,0,P|385:317|390:357,1,52.5000020027161,2|4,0:0|0:0,0:0:0:0:
168,306,64600,5,2,0:0:0:0:
111,335,64725,1,2,0:0:0:0:
168,298,64850,1,2,0:0:0:0:
173,232,64975,5,6,0:0:0:0:
168,200,65058,1,2,0:0:0:0:
157,173,65141,1,2,0:0:0:0:
143,151,65225,1,2,0:0:0:0:
82,124,65350,1,2,0:0:0:0:
38,72,65475,2,0,P|47:34|64:4,1,52.5000020027161,4|0,0:0|0:0,0:0:0:0:
13,138,65725,2,0,P|26:177|30:217,1,52.5000020027161,2|0,0:0|0:0,0:0:0:0:
115,56,65975,5,4,0:0:0:0:
174,91,66100,1,0,0:0:0:0:
239,77,66225,1,0,0:0:0:0:
217,151,66350,5,4,0:0:0:0:
286,142,66475,1,0,0:0:0:0:
341,99,66600,1,0,0:0:0:0:
358,170,66725,5,4,0:0:0:0:
409,121,66850,1,0,0:0:0:0:
422,54,66975,1,0,0:0:0:0:
480,101,67100,5,4,0:0:0:0:
462,167,67225,1,0,0:0:0:0:
459,232,67350,1,0,0:0:0:0:
483,291,67475,1,4,1:0:0:0:
253,182,72975,6,0,L|248:216,4,23.3333333333333,2|2|2|2|2,0:0|0:0|0:0|0:0|0:0,0:0:0:0:
253,182,78975,6,0,L|248:216,4,23.3333333333333,2|2|2|2|2,0:0|0:0|0:0|0:0|0:0,0:0:0:0:
89,132,91475,6,0,P|142:187|189:317,1,186.666666666667,4|2,1:0|0:0,0:0:0:0:
103,342,92225,2,0,P|62:342|22:285,1,93.3333333333333,2|0,0:2|0:0,0:0:0:0:
86,275,92600,1,2,0:0:0:0:
350,168,92850,1,2,0:0:0:0:
292,205,92975,2,0,P|312:257|326:329,1,93.3333333333333,2|0,0:2|0:0,0:0:0:0:
381,230,93350,2,0,P|399:288|422:350,1,93.3333333333333,2|0,0:2|0:0,0:0:0:0:
468,270,93725,2,0,P|485:341|495:380,1,93.3333333333333,2|0,0:2|0:0,0:0:0:0:
454,65,94350,5,2,0:0:0:0:
396,31,94475,2,0,P|309:39|241:54,1,140,2|2,0:0|0:2,0:0:0:0:
218,104,94975,1,2,0:2:0:0:
218,104,95037,1,2,0:2:0:0:
218,104,95100,1,2,0:2:0:0:
149,135,95225,2,0,P|86:129|37:6,1,186.666666666667,2|0,0:2|0:0,0:0:0:0:
2,158,95850,5,2,0:0:0:0:
66,196,95975,2,0,P|89:245|102:318,1,93.3333333333333,2|0,0:2|0:0,0:0:0:0:
163,252,96350,2,0,P|180:306|194:366,1,93.3333333333333,2|2,0:2|0:2,0:0:0:0:
250,291,96725,2,0,P|269:347|278:386,1,93.3333333333333,2|0,0:0|0:0,0:0:0:0:
291,31,97350,5,2,0:2:0:0:
214,37,97475,2,0,P|247:96|297:185,1,140,4|0,1:0|0:0,0:0:0:0:
351,135,97975,2,0,P|354:165|357:214,1,46.6666666666667,2|0,0:0|0:0,0:0:0:0:
430,195,98225,1,2,0:2:0:0:
430,195,98287,2,0,P|414:242|399:307,1,116.666666666667,2|2,0:2|0:0,0:0:0:0:
242,234,98850,1,2,0:0:0:0:
186,183,98975,2,0,P|125:193|87:199,1,93.3333333333333,2|0,0:2|0:0,0:0:0:0:
131,121,99350,2,0,P|47:136|12:141,1,93.3333333333333,2|0,0:2|0:0,0:0:0:0:
92,57,99725,2,0,P|15:68|-20:72,1,93.3333333333333,2|0,0:2|0:0,0:0:0:0:
358,102,100350,5,2,0:2:0:0:
422,132,100475,2,0,P|399:184|374:274,1,140,2|2,0:3|0:2,0:0:0:0:
441,311,100975,1,2,0:2:0:0:
441,311,101037,1,0,0:0:0:0:
441,311,101100,1,2,0:2:0:0:
492,261,101225,2,0,P|471:195|354:178,1,186.666666666667,2|2,0:2|0:0,0:0:0:0:
2,158,101850,5,2,0:0:0:0:
66,196,101975,2,0,P|89:245|102:318,1,93.3333333333333,2|0,0:0|0:0,0:0:0:0:
163,252,102350,2,0,P|180:306|194:366,1,93.3333333333333,2|2,0:0|0:0,0:0:0:0:
250,291,102725,2,0,P|269:347|278:386,1,93.3333333333333,2|2,0:0|0:2,0:0:0:0:
485,250,103350,5,0,0:0:0:0:
477,255,103475,5,4,1:2:0:0:
452,224,103600,1,2,0:2:0:0:
413,212,103725,1,2,0:2:0:0:
371,217,103850,1,2,0:2:0:0:
331,237,103975,1,2,0:2:0:0:
298,273,104100,1,2,0:2:0:0:
257,295,104225,1,2,0:0:0:0:
211,305,104350,1,2,0:2:0:0:
165,296,104475,1,2,0:2:0:0:
127,268,104600,1,2,0:2:0:0:
107,228,104725,1,2,0:2:0:0:
115,183,104850,1,2,0:2:0:0:
147,148,104975,5,2,0:0:0:0:
107,173,105100,1,2,0:2:0:0:
64,174,105225,1,2,0:2:0:0:
26,157,105350,1,2,0:2:0:0:
8,117,105475,1,2,0:2:0:0:
12,73,105600,1,2,0:2:0:0:
42,35,105725,1,2,0:0:0:0:
88,20,105850,1,2,0:2:0:0:
137,28,105975,1,2,0:2:0:0:
171,63,106100,1,2,0:2:0:0:
211,88,106225,1,2,0:2:0:0:
259,89,106350,1,2,0:0:0:0:
298,56,106475,6,0,P|292:89|287:124,1,46.6666666666667,2|0,0:0|0:0,0:0:0:0:
350,151,106725,2,0,P|344:183|340:214,1,46.6666666666667,2|0,0:0|0:0,0:0:0:0:
403,244,106975,2,0,P|396:278|394:307,1,46.6666666666667,2|0,0:0|0:0,0:0:0:0:
301,71,107225,6,0,P|295:104|290:139,1,46.6666666666667,2|0,0:0|0:0,0:0:0:0:
353,166,107475,2,0,P|347:198|343:229,1,46.6666666666667,2|0,0:0|0:0,0:0:0:0:
406,259,107725,2,0,P|399:293|397:322,1,46.6666666666667,2|2,0:0|0:2,0:0:0:0:
304,89,107975,6,0,P|298:122|293:157,1,46.6666666666667,2|0,0:0|0:0,0:0:0:0:
356,184,108225,2,0,P|350:216|346:247,1,46.6666666666667
409,277,108475,2,0,P|402:311|400:340,1,46.6666666666667,2|0,0:2|0:0,0:0:0:0:
454,370,108725,1,2,0:2:0:0:
61,317,109350,5,2,0:0:0:0:
61,317,109475,2,0,P|49:228|18:131,1,186.666666666667,4|2,1:0|0:2,0:0:0:0:
170,41,110225,2,0,P|156:67|153:99,1,46.6666666666667,2|2,0:0|0:0,0:0:0:0:
195,135,110475,2,0,B|238:132|279:162|289:190|349:173,1,140,2|2,0:0|0:0,0:0:0:0:
399,205,110975,2,0,P|391:267|271:278,1,186.666666666667,2|2,0:0|0:2,0:0:0:0:
327,32,111725,2,0,P|417:38|533:55,1,186.666666666667,2|2,0:0|0:2,0:0:0:0:
272,70,112350,5,2,0:0:0:0:
206,42,112475,2,0,P|173:45|149:55,1,46.6666666666667,2|0,0:2|0:0,0:0:0:0:
94,40,112725,2,0,P|70:52|39:71,1,46.6666666666667,2|0,0:2|0:0,0:0:0:0:
11,123,112975,2,0,P|69:131|229:190,1,186.666666666667,2|0,0:2|0:0,0:0:0:0:
214,204,113600,1,2,0:2:0:0:
251,226,113725,1,2,0:2:0:0:
296,218,113850,1,2,0:2:0:0:
329,186,113975,2,0,P|342:235|373:372,1,186.666666666667,2|0,0:0|0:0,0:0:0:0:
240,298,114725,2,0,B|191:289|142:298|117:328|47:306,1,186.666666666667,2|2,0:0|0:0,0:0:0:0:
0,136,115350,5,2,0:0:0:0:
0,136,115475,2,0,P|74:139|133:243,1,186.666666666667,2|2,0:0|0:2,0:0:0:0:
160,257,116100,1,2,0:2:0:0:
199,275,116225,1,2,0:0:0:0:
241,273,116350,1,2,0:2:0:0:
277,243,116475,1,2,0:2:0:0:
288,205,116600,1,2,0:2:0:0:
266,164,116725,1,2,0:2:0:0:
268,120,116850,5,2,0:0:0:0:
268,120,116975,2,0,B|325:120|359:140|372:174|430:152,1,140,2|0,0:0|0:0,0:0:0:0:
454,120,117475,1,2,0:0:0:0:
474,268,117975,6,0,L|480:289,1,11.6666666666667,2|2,0:2|0:2,0:0:0:0:
463,257,118225,6,0,L|469:278,1,11.6666666666667,2|2,0:2|0:2,0:0:0:0:
409,303,118475,6,0,P|397:328|383:376,4,56,4|2|2|2|2,1:0|0:2|0:2|0:2|0:2,0:0:0:0:
363,256,118975,1,4,0:0:0:0:
327,243,119075,1,2,0:2:0:0:
288,259,119175,1,2,0:2:0:0:
248,281,119275,1,2,0:2:0:0:
206,273,119375,1,2,0:2:0:0:
187,239,119475,2,0,P|185:222|186:166,2,56,4|2|2,0:0|0:2|0:2,0:0:0:0:
116,167,119775,2,0,P|131:130|160:101,1,56,2|2,0:2|0:2,0:0:0:0:
144,50,119975,5,6,0:0:0:0:
104,37,120075,1,2,0:2:0:0:
64,50,120175,1,2,0:2:0:0:
45,83,120275,1,2,0:2:0:0:
51,125,120375,1,2,0:2:0:0:
51,125,120475,5,4,0:0:0:0:
14,148,120575,1,2,0:2:0:0:
13,189,120675,1,2,0:2:0:0:
46,217,120775,1,2,0:2:0:0:
76,244,120875,1,2,0:2:0:0:
83,285,120975,1,4,0:0:0:0:
61,315,121075,1,2,0:2:0:0:
32,320,121175,1,2,0:2:0:0:
14,311,121275,1,2,0:2:0:0:
9,298,121375,1,2,0:2:0:0:
14,291,121475,6,0,P|27:307|40:355,4,56,4|2|2|2|2,1:0|0:2|0:2|0:2|0:2,0:0:0:0:
71,251,121975,1,4,0:0:0:0:
114,237,122075,1,2,0:2:0:0:
157,249,122175,1,2,0:2:0:0:
192,279,122275,1,2,0:2:0:0:
236,289,122375,1,2,0:2:0:0:
280,271,122475,1,4,0:0:0:0:
304,235,122575,1,2,0:2:0:0:
306,193,122675,1,2,0:2:0:0:
275,161,122775,1,2,0:2:0:0:
260,114,122875,1,2,0:2:0:0:
283,75,122975,6,0,P|292:103|298:141,2,56,4|2|2,0:0|0:2|0:2,0:0:0:0:
366,111,123275,2,0,P|371:152|372:180,1,56,2|2,0:2|0:2,0:0:0:0:
92,175,123475,6,0,P|84:194|73:241,2,56,4|2|2,0:0|0:2|0:2,0:0:0:0:
8,222,123775,2,0,P|7:255|17:301,1,56,2|2,0:2|0:2,0:0:0:0:
178,260,123975,5,4,0:0:0:0:
225,255,124075,1,2,0:2:0:0:
266,281,124175,1,2,0:2:0:0:
301,318,124275,1,2,0:2:0:0:
353,321,124375,1,2,0:2:0:0:
392,286,124475,5,4,1:0:0:0:
392,286,124975,5,4,0:0:0:0:
333,218,125141,1,2,0:0:0:0:
401,148,125308,1,2,0:0:0:0:
331,100,125475,5,4,0:0:0:0:
271,121,125600,1,2,0:0:0:0:
207,117,125725,1,2,0:0:0:0:
153,80,125850,1,2,0:0:0:0:
126,19,125975,2,0,P|89:10|53:3,4,56,4|2|2|2|2,0:0|0:0|0:0|0:0|0:0,0:0:0:0:
83,85,126475,5,4,0:0:0:0:
75,87,126558,1,2,0:2:0:0:
66,88,126641,1,2,0:2:0:0:
57,87,126725,2,0,P|28:82|5:70,2,46.6666666666667,2|2|2,0:2|0:2|0:2,0:0:0:0:
42,157,126975,2,0,P|22:165|-1:178,2,46.6666666666667,4|2|2,0:0|0:2|0:2,0:0:0:0:
111,189,127225,2,0,P|98:217|94:256,2,46.6666666666667,2|2|2,0:2|0:2|0:2,0:0:0:0:
181,209,127475,5,4,1:0:0:0:
192,212,127558,1,2,0:2:0:0:
202,216,127641,1,2,0:2:0:0:
213,222,127724,1,2,0:2:0:0:
222,229,127808,1,2,0:2:0:0:
230,237,127891,1,2,0:2:0:0:
238,246,127974,1,2,0:2:0:0:
244,256,128058,1,2,0:2:0:0:
250,266,128141,1,2,0:2:0:0:
254,277,128224,1,2,0:2:0:0:
257,288,128308,1,2,0:2:0:0:
258,300,128391,1,2,0:2:0:0:
259,314,128475,2,0,P|252:343|244:365,5,46.6666666666667,4|2|2|2|2|2,0:0|0:0|0:0|0:0|0:0|0:0,0:0:0:0:
335,297,128975,5,4,1:0:0:0:
373,240,129100,1,0,0:0:0:0:
433,206,129225,1,0,0:0:0:0:
359,162,129350,5,4,0:2:0:0:
319,109,129475,1,0,0:0:0:0:
256,81,129600,1,0,0:0:0:0:
367,54,129725,5,4,1:0:0:0:
430,43,129850,1,0,0:0:0:0:
486,11,129975,1,0,0:0:0:0:
298,24,130100,5,4,0:2:0:0:
237,5,130225,1,0,0:0:0:0:
174,14,130350,1,0,0:0:0:0:
128,60,130475,5,4,1:0:0:0:
128,60,130975,6,0,L|48:44,1,70,4|2,0:0|0:0,0:0:0:0:
73,120,131225,2,0,L|-7:104,1,70,2|2,0:0|0:0,0:0:0:0:
378,355,131475,6,0,L|458:371,1,70,4|2,0:0|0:0,0:0:0:0:
433,295,131725,2,0,L|513:311,1,70,2|2,0:0|0:0,0:0:0:0:
134,55,131975,6,0,L|54:39,1,70,4|2,0:0|0:0,0:0:0:0:
79,115,132225,2,0,L|-1:99,1,70,2|2,0:0|0:0,0:0:0:0:
384,350,132475,6,0,L|464:366,1,70,4|2,0:0|0:2,0:0:0:0:
439,290,132725,2,0,L|519:306,1,70,2|2,0:0|0:0,0:0:0:0:
294,68,132975,5,4,0:0:0:0:
236,117,133100,1,2,0:0:0:0:
283,176,133225,1,2,0:0:0:0:
231,226,133350,1,2,0:0:0:0:
266,287,133475,2,0,P|197:298|34:334,1,210,4|0,1:0|0:0,0:0:0:0:
70,251,133975,6,0,P|28:234|-11:223,1,70,4|2,0:0|0:0,0:0:0:0:
72,177,134225,2,0,P|29:164|-9:149,1,70,2|2,0:0|0:0,0:0:0:0:
447,188,134475,6,0,P|489:171|528:160,1,70,4|2,0:0|0:0,0:0:0:0:
445,114,134725,2,0,P|488:101|526:86,1,70,2|2,0:0|0:0,0:0:0:0:
70,267,134975,6,0,P|28:250|-11:239,1,70,4|2,0:0|0:0,0:0:0:0:
72,193,135225,2,0,P|29:180|-9:165,1,70,2|2,0:0|0:0,0:0:0:0:
182,146,135475,5,6,0:0:0:0:
222,157,135558,1,2,0:0:0:0:
241,198,135641,1,2,0:0:0:0:
234,239,135725,1,2,0:0:0:0:
289,284,135850,1,2,0:0:0:0:
230,316,135975,2,0,P|209:350|197:377,1,70,4|2,0:0|0:0,0:0:0:0:
251,80,136225,2,0,P|222:40|210:3,1,70,2|2,0:0|0:0,0:0:0:0:
316,136,136475,2,0,P|399:38|493:10,1,210,4|0,1:0|0:0,0:0:0:0:
502,90,136975,6,0,P|492:137|482:196,1,70,4|2,0:0|0:0,0:0:0:0:
411,140,137225,2,0,P|421:187|431:246,1,70,2|2,0:0|0:0,0:0:0:0:
0,253,137475,6,0,P|10:300|20:359,1,70,4|2,0:0|0:0,0:0:0:0:
91,303,137725,2,0,P|81:350|71:409,1,70,2|2,0:0|0:0,0:0:0:0:
509,97,137975,6,0,P|499:144|489:203,1,70,4|2,0:0|0:0,0:0:0:0:
418,147,138225,2,0,P|428:194|438:253,1,70,2|2,0:0|0:0,0:0:0:0:
7,260,138475,6,0,P|17:307|27:366,1,70,4|2,0:0|0:0,0:0:0:0:
98,310,138725,2,0,P|88:357|78:416,1,70,2|2,0:0|0:0,0:0:0:0:
257,247,138975,5,4,0:0:0:0:
198,209,139100,1,2,0:0:0:0:
246,155,139225,1,2,0:0:0:0:
195,109,139350,1,2,0:0:0:0:
243,54,139475,5,4,1:0:0:0:
225,117,139600,1,0,0:0:0:0:
207,182,139725,1,0,0:0:0:0:
122,188,139850,5,4,0:2:0:0:
99,254,139975,1,0,0:0:0:0:
76,319,140100,1,0,0:0:0:0:
28,240,140225,5,4,1:0:0:0:
93,258,140350,1,0,0:0:0:0:
159,289,140475,1,0,0:0:0:0:
245,264,140600,5,4,0:2:0:0:
308,290,140725,1,0,0:0:0:0:
369,320,140850,1,0,0:0:0:0:
279,354,140975,5,4,1:0:0:0:
304,297,141100,1,0,0:0:0:0:
338,232,141225,1,0,0:0:0:0:
418,225,141350,5,4,0:2:0:0:
439,160,141475,1,0,0:0:0:0:
465,94,141600,1,0,0:0:0:0:
504,181,141725,5,4,1:0:0:0:
432,155,141850,1,0,0:0:0:0:
369,131,141975,1,0,0:0:0:0:
297,145,142100,5,4,0:2:0:0:
228,125,142225,1,0,0:0:0:0:
165,105,142350,1,2,0:2:0:0:
486,368,142975,5,2,0:2:0:0:
256,192,143100,12,0,148475,0:0:0:0:
