osu file format v14

[General]
AudioFilename: audio.mp3
AudioLeadIn: 0
PreviewTime: 37083
Countdown: 0
SampleSet: Soft
StackLeniency: 0.7
Mode: 2
LetterboxInBreaks: 0
WidescreenStoryboard: 0

[Editor]
DistanceSpacing: 1.2
BeatDivisor: 4
GridSize: 16
TimelineZoom: 1

[Metadata]
Title:Deertracks
TitleUnicode:Deertracks
Artist:Aethoro
ArtistUnicode:Aethoro
Creator:Razor Sharp
Version:Tranquillity
Source:
Tags:electronic instrumental epic folk featured artist fa spiritcdance mg mpg mappers' guild
BeatmapID:4469506
BeatmapSetID:2126258

[Difficulty]
HPDrainRate:5
CircleSize:4.3
OverallDifficulty:8.5
ApproachRate:8.5
SliderMultiplier:3.5
SliderTickRate:0.5

[Events]
//Background and Video events
0,0,"deer.jpg",0,0
//Break Periods
//Storyboard Layer 0 (Background)
//Storyboard Layer 1 (Fail)
//Storyboard Layer 2 (Pass)
//Storyboard Layer 3 (Foreground)
//Storyboard Layer 4 (Overlay)
//Storyboard Sound Samples

[TimingPoints]
160,576.923076923077,4,2,1,40,1,0
160,-47.2972972972973,4,2,1,40,0,0
448,-47.2972972972973,4,2,1,30,0,0
4775,-47.2972972972973,4,2,1,40,0,0
5063,-47.2972972972973,4,2,1,30,0,0
9390,-47.2972972972973,4,2,1,40,0,0
9678,-47.2972972972973,4,2,1,30,0,0
14006,-47.2972972972973,4,2,1,40,0,0
14294,-47.2972972972973,4,2,1,30,0,0
17467,-47.2972972972973,4,2,1,40,0,0
19198,-47.2972972972973,4,2,1,55,0,0
37515,-47.2972972972973,4,2,1,20,0,0
37660,-47.2972972972973,4,2,1,55,0,0
38092,-47.2972972972973,4,2,1,20,0,0
38237,-47.2972972972973,4,2,1,55,0,0
38958,-47.2972972972973,4,2,1,20,0,0
39103,-47.2972972972973,4,2,1,55,0,0
40544,-47.2972972972973,4,2,1,20,0,0
40689,-47.2972972972973,4,2,1,55,0,0
41986,-47.2972972972973,4,2,1,20,0,0
42131,-47.2972972972973,4,2,1,55,0,0
42419,-47.2972972972973,4,2,1,20,0,0
42564,-47.2972972972973,4,2,1,55,0,0
42852,-47.2972972972973,4,2,1,20,0,0
42997,-47.2972972972973,4,2,1,55,0,0
43285,-47.2972972972973,4,2,1,20,0,0
43430,-47.2972972972973,4,2,1,55,0,0
43717,-47.2972972972973,4,2,1,20,0,0
43862,-47.2972972972973,4,2,1,55,0,0
49775,-47.2972972972973,4,2,1,20,0,0
49920,-47.2972972972973,4,2,1,55,0,0
51650,-47.2972972972973,4,2,1,20,0,0
51795,-47.2972972972973,4,2,1,55,0,0
52083,-47.2972972972973,4,2,1,20,0,0
52228,-47.2972972972973,4,2,1,55,0,0
52515,-47.2972972972973,4,2,1,20,0,0
52660,-47.2972972972973,4,2,1,55,0,0
52948,-47.2972972972973,4,2,1,20,0,0
53093,-47.2972972972973,4,2,1,55,0,0
53525,-47.2972972972973,4,2,1,20,0,0
53670,-47.2972972972973,4,2,1,55,0,0
53958,-47.2972972972973,4,2,1,20,0,0
54103,-47.2972972972973,4,2,1,55,0,0
54390,-47.2972972972973,4,2,1,20,0,0
54535,-47.2972972972973,4,2,1,55,0,0
54823,-47.2972972972973,4,2,1,20,0,0
54967,-30.1724137931035,4,2,1,55,0,0
55544,-47.2972972972973,4,2,1,20,0,0
55833,-47.2972972972973,4,2,1,16,0,0
56121,-47.2972972972973,4,2,1,15,0,0
56410,-47.2972972972973,4,2,1,14,0,0
56698,-47.2972972972973,4,2,1,13,0,0
56986,-47.2972972972973,4,2,1,12,0,0
57275,-47.2972972972973,4,2,1,11,0,0
57563,-47.2972972972973,4,2,1,10,0,0
57852,-47.2972972972973,4,2,1,9,0,0
58140,-47.2972972972973,4,2,1,8,0,0
58429,-47.2972972972973,4,2,1,7,0,0
58717,-47.2972972972973,4,2,1,6,0,0
59006,-47.2972972972973,4,2,1,5,0,0
59294,-47.2972972972973,4,2,1,6,0,0
59583,-47.2972972972973,4,2,1,7,0,0
59871,-47.2972972972973,4,2,1,8,0,0
60160,-47.2972972972973,4,2,1,9,0,0
60448,-47.2972972972973,4,2,1,10,0,0
60736,-47.2972972972973,4,2,1,12,0,0
61025,-47.2972972972973,4,2,1,14,0,0
61313,-47.2972972972973,4,2,1,16,0,0
61602,-47.2972972972973,4,2,1,18,0,0
61890,-47.2972972972973,4,2,1,20,0,0
62179,-47.2972972972973,4,2,1,22,0,0
62467,-47.2972972972973,4,2,1,24,0,0
62756,-47.2972972972973,4,2,1,26,0,0
63044,-47.2972972972973,4,2,1,28,0,0
63333,-47.2972972972973,4,2,1,30,0,0
63621,-47.2972972972973,4,2,1,40,0,0
64775,-47.2972972972973,4,2,1,70,0,1
83092,-47.2972972972973,4,2,1,70,0,0
83236,-47.2972972972973,4,2,1,70,0,1
102275,-47.2972972972973,4,2,1,30,0,0
120160,-66.0377358490566,4,2,1,20,0,0
138621,-47.2972972972973,4,2,1,50,0,0
157083,-47.2972972972973,4,2,1,55,0,0
157515,-47.2972972972973,4,2,1,20,0,0
157660,-47.2972972972973,4,2,1,55,0,0
158092,-47.2972972972973,4,2,1,20,0,0
158237,-47.2972972972973,4,2,1,55,0,0
158958,-47.2972972972973,4,2,1,20,0,0
159103,-47.2972972972973,4,2,1,55,0,0
160544,-47.2972972972973,4,2,1,20,0,0
160689,-47.2972972972973,4,2,1,55,0,0
161986,-47.2972972972973,4,2,1,20,0,0
162131,-47.2972972972973,4,2,1,55,0,0
162419,-47.2972972972973,4,2,1,20,0,0
162564,-47.2972972972973,4,2,1,55,0,0
162852,-47.2972972972973,4,2,1,20,0,0
162997,-47.2972972972973,4,2,1,55,0,0
163285,-47.2972972972973,4,2,1,20,0,0
163430,-47.2972972972973,4,2,1,55,0,0
163717,-47.2972972972973,4,2,1,20,0,0
163862,-47.2972972972973,4,2,1,55,0,0
169775,-47.2972972972973,4,2,1,20,0,0
169920,-47.2972972972973,4,2,1,55,0,0
171650,-47.2972972972973,4,2,1,20,0,0
171795,-47.2972972972973,4,2,1,55,0,0
172083,-47.2972972972973,4,2,1,20,0,0
172228,-47.2972972972973,4,2,1,55,0,0
172515,-47.2972972972973,4,2,1,20,0,0
172660,-47.2972972972973,4,2,1,55,0,0
172948,-47.2972972972973,4,2,1,20,0,0
173093,-47.2972972972973,4,2,1,55,0,0
173525,-47.2972972972973,4,2,1,20,0,0
173670,-47.2972972972973,4,2,1,55,0,0
173958,-47.2972972972973,4,2,1,20,0,0
174103,-47.2972972972973,4,2,1,55,0,0
174390,-47.2972972972973,4,2,1,20,0,0
174535,-47.2972972972973,4,2,1,55,0,0
174823,-47.2972972972973,4,2,1,20,0,0
174968,-47.2972972972973,4,2,1,55,0,0
175544,-47.2972972972973,4,2,1,40,0,0
194006,-47.2972972972973,4,2,1,50,0,1
212323,-47.2972972972973,4,2,1,50,0,0
212467,-47.2972972972973,4,2,1,70,0,1
217083,-36.8421052631579,4,2,1,70,0,1
221698,-47.2972972972973,4,2,1,70,0,1
226313,-36.8421052631579,4,2,1,70,0,1
228621,-47.2972972972973,4,2,1,70,0,1
230929,-86.6336633663366,4,2,1,70,0,0
240160,-86.6336633663366,4,2,1,20,0,0

[Colours]
Combo1 : 0,64,128
Combo2 : 0,128,192
Combo3 : 0,213,213

[HitObjects]
162,292,160,5,8,3:2:0:0:
380,284,304,1,8,3:2:0:0:
162,292,448,2,0,B|162:361|162:361|161:245|161:245,1,185
379,337,736,6,0,B|382:256|382:256|354:180|354:180|307:114|307:114|264:234|264:234,1,370,2|0,0:0|0:0,0:0:0:0:
370,231,1169,2,0,L|377:323|377:323|419:240|419:240|399:173|399:173|370:61|370:61,2,185
264,205,1602,2,0,L|246:272|246:272|215:383|215:383,1,185
434,51,1890,6,0,B|484:115|484:115|498:195|498:195|499:276|499:276|440:163|440:163,1,370,2|0,0:0|0:0,0:0:0:0:
334,156,2323,1,0,0:0:0:0:
439,161,2467,2,0,L|424:229|424:229|390:340|390:340,1,185
285,245,2756,2,0,L|289:314|289:314|334:207|334:207,1,185
115,44,3044,6,0,B|118:125|118:125|150:199|150:199|167:278|167:278|230:168|230:168,1,370,2|0,0:0|0:0,0:0:0:0:
335,145,3477,2,0,L|377:227|377:227|384:319|384:319|373:250|373:250|335:141|335:141,2,185
229,149,3910,2,0,L|193:208|193:208|180:323|180:323,1,185
399,242,4198,6,0,B|418:321|418:321|443:244|443:244|460:165|460:165|405:50|405:50,1,370,2|0,0:0|0:0,0:0:0:0:
299,348,4631,1,0,0:0:0:0:
81,277,4775,5,8,3:2:0:0:
299,209,4919,1,8,3:2:0:0:
81,277,5063,2,0,B|83:346|83:346|80:230|80:230,1,185
299,209,5352,6,0,B|324:286|324:286|374:350|374:350|389:270|389:270|400:143|400:143,1,370,2|0,0:0|0:0,0:0:0:0:
294,298,5785,2,0,L|284:206|284:206|245:122|245:122|267:56|267:56|294:168|294:168,2,185
399,305,6217,2,0,L|417:372|417:372|448:261|448:261,1,185
228,253,6506,6,0,B|178:317|178:317|185:236|185:236|192:155|192:155|222:31|222:31,1,370,2|0,0:0|0:0,0:0:0:0:
117,357,6938,1,0,0:0:0:0:
223,311,7083,2,0,L|256:372|256:372|272:258|272:258,1,185
377,240,7371,2,0,L|382:309|382:309|426:202|426:202,1,185
205,62,7660,6,0,B|150:122|150:122|134:201|134:201|117:280|117:280|103:154|103:154,1,370,2|0,0:0|0:0,0:0:0:0:
209,180,8092,2,0,L|233:269|233:269|258:358|258:358|220:300|220:300|209:185|209:185,2,185
315,170,8525,2,0,L|302:238|302:238|266:348|266:348,1,185
468,322,8813,6,0,L|445:257|445:257|419:144|419:144,1,185
314,324,9102,1,0,0:0:0:0:
419,364,9246,1,0,0:0:0:0:
201,361,9390,5,8,3:2:0:0:
421,168,9535,1,8,3:2:0:0:
203,247,9679,2,0,B|176:311|176:311|202:198|202:198,1,185
420,129,9967,6,0,L|365:188|365:188|326:259|326:259|290:332|290:332|245:213|245:213,1,370,2|0,0:0|0:0,0:0:0:0:
351,127,10400,2,0,L|352:196|352:196|400:301|400:301,1,185
295,204,10688,2,0,L|262:290|262:290|246:381|246:381|281:321|281:321|295:206|295:206,2,185
75,339,11121,6,0,L|68:258|68:258|82:178|82:178|84:97|84:97|67:223|67:223,1,370,2|0,0:0|0:0,0:0:0:0:
173,163,11554,1,0,0:0:0:0:
278,167,11698,2,0,L|278:236|278:236|327:341|327:341,1,185
222,251,11986,2,0,L|211:319|211:319|173:210|173:210,1,185
393,336,12275,6,0,L|339:276|339:276|313:199|313:199|287:122|287:122|218:15|218:15,1,370,2|0,0:0|0:0,0:0:0:0:
324,274,12708,2,0,L|347:363|347:363|373:274|373:274|363:205|363:205|324:96|324:96,2,185
219,272,13140,2,0,L|237:339|237:339|268:228|268:228,1,185
48,273,13429,6,0,L|63:353|63:353|59:272|59:272|35:195|35:195|40:68|40:68,1,370,2|0,0:0|0:0,0:0:0:0:
145,90,13861,1,0,0:0:0:0:
365,242,14006,5,8,3:2:0:0:
145,49,14151,1,8,3:2:0:0:
363,128,14295,2,0,B|389:192|389:192|364:305|364:305,1,185
146,251,14583,6,0,L|203:308|203:308|227:385|227:385|271:317|271:317|321:200|321:200,1,370,2|0,0:0|0:0,0:0:0:0:
216,176,15015,2,0,L|190:240|190:240|167:353|167:353,1,185
62,104,15304,2,0,L|87:193|87:193|111:282|111:282|75:342|75:342|62:227|62:227,2,185
280,329,15736,6,0,L|298:250|298:250|279:171|279:171|266:91|266:91|288:216|288:216,1,370,2|0,0:0|0:0,0:0:0:0:
182,145,16169,1,0,0:0:0:0:
288,137,16313,2,0,L|296:206|296:206|337:314|337:314,1,185
231,193,16602,2,0,L|203:256|203:256|182:370|182:370,1,185
401,341,16890,6,0,L|424:276|424:276|474:172|474:172,1,185,2|0,0:0|0:0,0:0:0:0:
471,218,17179,2,0,L|436:278|436:278|397:169|397:169,1,185
179,112,17467,5,8,3:2:0:0:
397,223,17611,1,2,3:2:0:0:
309,229,17756,1,2,3:2:0:0:
91,216,17900,1,8,3:2:0:0:
309,300,18044,1,2,3:2:0:0:
221,301,18189,1,2,3:2:0:0:
439,353,18333,1,8,3:2:0:0:
153,192,18765,5,2,3:2:0:0:
265,192,18910,1,2,3:2:0:0:
377,192,19054,1,2,3:2:0:0:
159,328,19198,6,0,L|99:257|99:257|72:169|72:169|118:117|118:117|159:9|159:9,2,185,14|0|0,3:2|3:2|0:0,0:0:0:0:
265,326,19631,1,0,0:0:0:0:
159,328,19775,2,0,L|137:238|137:238|110:149|110:149|138:85|138:85|159:199|159:199,2,185,2|0|0,0:0|0:0|0:0,0:0:0:0:
247,329,20208,1,0,0:0:0:0:
465,318,20352,6,0,L|433:379|433:379|392:271|392:271,1,185,10|0,0:0|0:0,0:0:0:0:
395,195,20640,2,0,L|414:262|414:262|469:364|469:364,1,185,2|0,0:0|0:0,0:0:0:0:
251,219,20929,6,0,L|203:298|203:298|164:382|164:382|205:326|205:326|251:220|251:220,2,185,2|0|0,0:0|0:0|0:0,0:0:0:0:
357,217,21362,1,0,0:0:0:0:
251,219,21506,2,0,L|236:310|236:310|202:224|202:224|214:156|214:156|251:46|251:46,2,185,10|0|0,0:0|0:0|0:0,0:0:0:0:
339,220,21939,1,0,0:0:0:0:
121,348,22083,6,0,L|74:297|74:297|34:189|34:189,1,185,2|0,0:0|0:0,0:0:0:0:
252,273,22371,2,0,L|278:337|278:337|340:239|340:239,1,185,2|0,0:0|0:0,0:0:0:0:
251,193,22660,2,0,L|237:261|237:261|245:376|245:376,1,185,10|0,0:0|0:0,0:0:0:0:
349,95,22948,2,0,L|365:162|365:162|398:273|398:273,1,185,2|0,0:0|0:0,0:0:0:0:
179,34,23236,5,2,3:2:0:0:
399,190,23381,1,2,3:2:0:0:
287,190,23526,1,2,0:0:0:0:
175,190,23670,1,2,0:0:0:0:
393,328,23814,6,0,L|455:259|455:259|480:170|480:170|464:103|464:103|393:12|393:12,2,185,10|0|0,0:0|0:0|0:0,0:0:0:0:
287,326,24247,1,0,0:0:0:0:
393,328,24391,2,0,L|414:238|414:238|442:150|442:150|415:86|415:86|393:199|393:199,2,185,2|0|0,0:0|0:0|0:0,0:0:0:0:
305,329,24824,1,0,0:0:0:0:
65,318,24968,6,0,L|98:379|98:379|138:270|138:270,1,185,10|0,0:0|0:0,0:0:0:0:
135,195,25256,2,0,L|104:257|104:257|61:364|61:364,1,185,2|0,0:0|0:0,0:0:0:0:
279,219,25545,6,0,L|324:300|324:300|366:382|366:382|317:333|317:333|279:224|279:224,2,185,2|0|0,0:0|0:0|0:0,0:0:0:0:
173,217,25978,1,0,0:0:0:0:
279,219,26122,2,0,L|319:302|319:302|328:210|328:210|298:147|298:147|279:33|279:33,2,185,10|0|0,0:0|0:0|0:0,0:0:0:0:
191,220,26555,1,0,0:0:0:0:
409,348,26699,6,0,L|460:301|460:301|496:191|496:191,1,185,2|0,0:0|0:0,0:0:0:0:
278,273,26987,2,0,L|238:330|238:330|190:225|190:225,1,185,2|0,0:0|0:0,0:0:0:0:
296,193,27276,2,0,L|287:262|287:262|302:377|302:377,1,185,10|0,0:0|0:0,0:0:0:0:
198,95,27564,2,0,L|188:164|188:164|149:273|149:273,1,185,2|0,0:0|0:0,0:0:0:0:
351,62,27852,5,2,3:2:0:0:
131,218,27997,1,2,3:2:0:0:
243,218,28140,1,2,0:0:0:0:
355,218,28286,1,2,0:0:0:0:
138,326,28429,6,0,L|100:242|100:242|51:164|51:164|83:103|83:103|138:1|138:1,2,185,10|0|0,0:0|0:0|0:0,0:0:0:0:
244,324,28862,1,0,0:0:0:0:
349,324,29006,2,0,L|367:233|367:233|398:146|398:146|393:77|393:77|349:184|349:184,2,185,2|0|0,0:0|0:0|0:0,0:0:0:0:
261,325,29439,1,0,0:0:0:0:
43,316,29583,6,0,L|62:383|62:383|116:281|116:281,1,185,10|0,0:0|0:0,0:0:0:0:
113,193,29871,2,0,L|74:251|74:251|39:361|39:361,1,185,2|0,0:0|0:0,0:0:0:0:
259,121,30160,6,0,L|310:198|310:198|346:283|346:283|310:342|310:342|259:238|259:238,2,185,2|0|0,0:0|0:0|0:0,0:0:0:0:
153,119,30593,1,0,0:0:0:0:
259,121,30737,2,0,L|271:213|271:213|308:298|308:298|293:366|293:366|259:256|259:256,2,185,10|0|0,0:0|0:0|0:0,0:0:0:0:
171,122,31170,1,0,0:0:0:0:
388,327,31313,6,0,L|420:265|420:265|476:164|476:164,1,185,2|0,0:0|0:0,0:0:0:0:
256,266,31602,2,0,L|235:332|235:332|168:237|168:237,1,185,2|0,0:0|0:0,0:0:0:0:
256,202,31890,2,0,L|255:271|255:271|262:156|262:156,1,185,10|0,0:0|0:0,0:0:0:0:
368,115,32179,2,0,L|331:174|331:174|319:289|319:289,1,185,2|0,0:0|0:0,0:0:0:0:
101,73,32467,5,2,3:2:0:0:
321,229,32612,1,2,3:2:0:0:
209,229,32757,1,2,0:0:0:0:
97,229,32901,1,2,0:0:0:0:
314,337,33044,6,0,L|360:257|360:257|402:174|402:174|369:113|369:113|314:11|314:11,2,185,10|0|0,0:0|0:0|0:0,0:0:0:0:
208,335,33477,1,0,0:0:0:0:
103,335,33621,2,0,L|96:243|96:243|54:160|54:160|86:98|86:98|103:212|103:212,2,185,2|0|0,0:0|0:0|0:0,0:0:0:0:
191,336,34054,1,0,0:0:0:0:
409,311,34198,6,0,L|382:375|382:375|336:269|336:269,1,185,10|0,0:0|0:0,0:0:0:0:
339,188,34486,2,0,L|350:257|350:257|413:354|413:354,1,185,2|0,0:0|0:0,0:0:0:0:
193,128,34775,6,0,L|137:202|137:202|106:289|106:289|127:355|127:355|193:260|193:260,2,185,2|0|0,0:0|0:0|0:0,0:0:0:0:
299,126,35208,1,0,0:0:0:0:
193,128,35352,2,0,L|170:217|170:217|144:306|144:306|146:375|146:375|193:269|193:269,2,185,10|0|0,0:0|0:0|0:0,0:0:0:0:
281,129,35785,1,0,0:0:0:0:
63,326,35929,6,0,L|69:257|69:257|57:142|57:142,1,185,2|0,0:0|0:0,0:0:0:0:
161,233,36217,2,0,L|164:302|164:302|210:196|210:196,1,185,2|0,0:0|0:0,0:0:0:0:
430,144,36506,2,8,L|409:210|409:210|342:305|342:305,1,185,10|8,3:2|3:2,3:2:0:0:
123,144,36794,2,8,L|100:210|100:210|36:306|36:306,1,185,10|8,3:2|3:2,3:2:0:0:
255,330,37083,6,0,B|310:215|310:215|375:106|375:106|383:233|383:233|413:62|413:62,1,555,6|0,0:0|0:0,0:0:0:0:
272,158,37660,2,0,B|224:276|224:276|163:165|163:165|140:40|140:40|114:211|114:211,1,555,2|0,0:0|0:0,0:0:0:0:
254,363,38236,2,0,B|307:267|307:267|349:165|349:165|377:59|377:59|384:169|384:169|379:279|379:279|340:382|340:382|315:275|315:275|252:132|252:132,1,925,2|0,0:0|0:0,0:0:0:0:
146,53,39102,1,2,0:0:0:0:
251,52,39246,1,2,0:0:0:0:
469,346,39390,2,0,B|481:257|481:257|473:168|473:168|460:79|460:79|426:162|426:162|389:244|389:244|375:332|375:332|317:264|317:264|262:193|262:193|235:108|235:108|176:40|176:40|162:129|162:129|131:213|131:213|107:299|107:299|56:373|56:373|53:283|53:283|61:147|61:147,1,1480,2|0,0:0|0:0,0:0:0:0:
281,337,40688,5,2,0:0:0:0:
387,225,40833,1,2,0:0:0:0:
300,84,40977,1,2,0:0:0:0:
82,90,41121,2,2,L|45:149|45:149|33:264|33:264,1,185
253,186,41410,2,2,L|302:235|302:235|340:344|340:344,1,185
122,257,41698,6,0,B|133:337|133:337|141:256|141:256|166:179|166:179|236:73|236:73,1,370,2|0,0:0|0:0,0:0:0:0:
377,356,42131,2,0,B|427:292|427:292|462:219|462:219|493:144|493:144|491:17|491:17,1,370,2|0,0:0|0:0,0:0:0:0:
369,252,42563,2,0,B|328:322|328:322|310:243|310:243|265:176|265:176|255:49|255:49,1,370,2|0,0:0|0:0,0:0:0:0:
361,145,42996,2,0,B|342:224|342:224|345:305|345:305|311:379|311:379|247:269|247:269,1,370,2|0,0:0|0:0,0:0:0:0:
87,35,43429,2,0,B|83:116|83:116|103:194|103:194|136:268|136:268|201:377|201:377,1,370,2|0,0:0|0:0,0:0:0:0:
340,130,43861,2,0,B|367:203|367:203|377:280|377:280|394:356|394:356|391:278|391:278|351:211|351:211|350:133|350:133|315:63|315:63|264:4|264:4|257:82|257:82|191:123|191:123|175:199|175:199|160:276|160:276|137:351|137:351|144:273|144:273|139:195|139:195|190:82|190:82,1,1295,2|2,0:0|0:0,0:0:0:0:
373,338,45304,5,2,0:0:0:0:
479,226,45449,1,2,0:0:0:0:
392,85,45593,1,2,0:0:0:0:
174,91,45736,2,2,L|167:160|167:160|125:268|125:268,1,185
345,200,46025,2,2,L|327:267|327:267|258:359|258:359,1,185
41,240,46313,6,0,B|41:367|41:367|72:244|72:244|101:120|101:120|177:276|177:276,1,555,2|0,0:0|0:0,0:0:0:0:
318,73,46890,2,0,B|319:200|319:200|303:326|303:326|262:206|262:206|182:52|182:52,1,555,2|0,0:0|0:0,0:0:0:0:
41,240,47467,2,0,B|19:365|19:365|57:244|57:244|84:120|84:120|177:266|177:266,1,555,2|0,0:0|0:0,0:0:0:0:
265,63,48044,2,2,L|279:131|279:131|271:246|271:246,1,185
166,164,48333,2,2,L|148:231|148:231|117:342|117:342,1,185
336,336,48621,6,0,B|379:257|379:257|387:168|387:168|390:78|390:78|399:167|399:167|399:257|399:257|349:331|349:331|312:249|312:249|276:167|276:167|251:81|251:81|213:162|213:162|173:242|173:242|131:321|131:321|136:232|136:232|116:145|116:145|133:57|133:57|192:180|192:180,1,1480,2|0,0:0|0:0,0:0:0:0:
297,339,49919,5,2,0:0:0:0:
385,224,50064,1,2,0:0:0:0:
280,83,50208,1,2,0:0:0:0:
62,218,50352,2,2,L|101:276|101:276|150:381|150:381,1,185
368,223,50640,2,2,L|404:282|404:282|416:167|416:167,1,185
196,335,50929,5,2,0:0:0:0:
91,335,51073,2,0,L|90:266|90:266|43:160|43:160,1,185
175,253,51361,2,0,B|196:331|196:331|227:256|227:256|216:176|216:176|168:58|168:58,1,370,2|0,0:0|0:0,0:0:0:0:
62,145,51794,2,0,B|70:226|70:226|99:302|99:302|117:381|117:381|175:268|175:268,1,370,2|0,0:0|0:0,0:0:0:0:
316,44,52227,2,0,B|344:120|344:120|405:173|405:173|417:253|417:253|430:379|430:379,1,370,2|0,0:0|0:0,0:0:0:0:
307,167,52660,2,0,B|288:246|288:246|243:313|243:313|280:385|280:385|314:263|314:263,1,370,2|0,0:0|0:0,0:0:0:0:
402,263,53092,1,2,0:0:0:0:
184,346,53236,6,0,B|129:287|129:287|103:210|103:210|86:131|86:131|70:5|70:5,1,370,2|0,0:0|0:0,0:0:0:0:
211,233,53669,2,0,L|249:304|249:304|276:380|276:380|324:315|324:315|386:204|386:204,1,370,2|0,0:0|0:0,0:0:0:0:
246,178,54102,2,0,B|210:250|210:250|205:331|205:331|198:250|198:250|253:135|253:135,1,370,2|0,0:0|0:0,0:0:0:0:
395,50,54535,2,0,B|400:131|400:131|375:208|375:208|357:287|357:287|281:185|281:185,1,370,2|0,0:0|0:0,0:0:0:0:
142,340,54967,6,0,B|197:216|197:216|259:95|259:95|330:211|330:211|383:336|383:336|420:205|420:205|426:69|426:69|373:194|373:194|281:381|281:381,1,1160,2|0,0:0|0:0,0:0:0:0:
256,192,55833,12,0,63333,0:0:0:0:
351,112,63621,5,8,3:2:0:0:
133,223,63765,1,2,3:2:0:0:
221,229,63910,1,2,3:2:0:0:
439,216,64054,1,8,3:2:0:0:
221,300,64198,1,2,3:2:0:0:
309,301,64343,1,2,3:2:0:0:
91,353,64487,1,8,3:2:0:0:
441,313,64775,6,0,L|411:238|411:238|351:183|351:183|342:103|342:103|266:1|266:1,1,370,6|0,3:2|0:0,0:0:0:0:
46,241,65208,2,0,L|69:319|69:319|135:366|135:366|157:288|157:288|221:178|221:178,1,370,0|0,3:2|0:0,0:0:0:0:
439,218,65640,2,0,L|469:280|469:280|488:166|488:166,1,185,0|0,3:0|0:0,0:0:0:0:
268,60,65929,6,0,L|238:148|238:148|219:238|219:238|252:299|252:299|268:185|268:185,2,185,10|0|0,3:2|0:0|0:0,0:0:0:0:
50,337,66361,2,0,L|102:275|102:275|116:195|116:195|153:123|153:123|225:18|225:18,1,370,2|0,3:2|0:0,0:0:0:0:
445,268,66794,2,0,L|460:336|460:336|494:225|494:225,1,185,2|0,3:2|0:0,0:0:0:0:
274,187,67083,2,0,L|238:259|238:259|179:315|179:315|157:237|157:237|99:124|99:124,1,370,2|0,3:2|0:0,0:0:0:0:
317,116,67515,2,0,L|348:191|348:191|377:267|377:267|427:331|427:331|492:222|492:222,1,370,2|0,3:2|0:0,0:0:0:0:
272,54,67948,2,0,L|248:119|248:119|223:232|223:232,1,185,2|0,3:2|0:0,0:0:0:0:
442,189,68236,6,0,L|467:278|467:278|491:367|491:367|488:298|488:298|442:192|442:192,2,185,10|0|0,3:2|0:0|0:0,0:0:0:0:
222,302,68669,2,0,L|201:380|201:380|126:349|126:349|100:272|100:272|47:156|47:156,1,370,2|0,3:2|0:0,0:0:0:0:
267,214,69102,2,0,L|273:283|273:283|316:176|316:176,1,185,2|0,3:2|0:0,0:0:0:0:
97,62,69390,6,0,L|148:125|148:125|168:204|168:204|225:262|225:262|272:380|272:380,1,370,2|0,3:2|0:0,0:0:0:0:
492,134,69823,2,0,L|454:205|454:205|422:280|422:280|391:355|391:355|317:252|317:252,1,370,2|0,3:2|0:0,0:0:0:0:
99,157,70255,2,0,L|64:217|64:217|50:332|50:332,1,185,2|0,3:2|0:0,0:0:0:0:
270,315,70544,6,0,L|280:223|280:223|319:139|319:139|298:73|298:73|270:185|270:185,2,185,10|0|0,3:2|0:0|0:0,0:0:0:0:
488,38,70977,2,0,L|437:101|437:101|426:181|426:181|382:249|382:249|313:356|313:356,1,370,2|0,3:2|0:0,0:0:0:0:
93,107,71409,2,0,L|59:167|59:167|44:282|44:282,1,185,2|0,3:2|0:0,0:0:0:0:
264,188,71698,2,0,L|287:266|287:266|348:320|348:320|371:242|371:242|439:135|439:135,1,370,2|0,3:2|0:0,0:0:0:0:
221,259,72130,2,0,L|197:336|197:336|146:273|146:273|118:197|118:197|46:92|46:92,1,370,2|0,3:2|0:0,0:0:0:0:
266,321,72563,2,0,L|277:253|277:253|315:144|315:144,1,185,2|0,3:2|0:0,0:0:0:0:
96,186,72851,6,0,L|90:278|90:278|47:360|47:360|82:300|82:300|96:185|96:185,2,185,10|0|0,3:2|0:0|0:0,0:0:0:0:
316,73,73284,2,0,L|352:145|352:145|397:213|397:213|431:287|431:287|491:175|491:175,1,370,2|0,3:2|0:0,0:0:0:0:
271,161,73717,2,0,L|266:230|266:230|222:337|222:337,1,185,2|0,3:2|0:0,0:0:0:0:
442,345,74006,6,0,L|405:273|405:273|373:198|373:198|334:127|334:127|267:19|267:19,1,370,2|0,3:2|0:0,0:0:0:0:
485,281,74438,2,0,L|428:338|428:338|410:259|410:259|373:187|373:187|310:77|310:77,1,370,2|0,3:2|0:0,0:0:0:0:
90,288,74871,2,0,L|86:357|86:357|41:250|41:250,1,185,2|0,3:2|0:0,0:0:0:0:
261,255,75160,6,0,L|298:340|298:340|310:248|310:248|288:182|288:182|261:70|261:70,2,185,10|0|0,3:2|0:0|0:0,0:0:0:0:
43,113,75592,2,0,L|88:180|88:180|121:254|121:254|168:320|168:320|218:203|218:203,1,370,2|0,3:2|0:0,0:0:0:0:
438,126,76025,2,0,L|458:192|458:192|487:304|487:304,1,185,2|0,3:2|0:0,0:0:0:0:
217,112,76313,2,0,L|162:171|162:171|140:249|140:249|117:327|117:327|42:224|42:224,1,370,2|0,3:2|0:0,0:0:0:0:
262,222,76746,2,0,L|205:279|205:279|189:358|189:358|155:284|155:284|87:177|87:177,1,370,2|0,3:2|0:0,0:0:0:0:
307,325,77179,2,0,L|344:384|344:384|355:269|355:269,1,185,2|0,3:2|0:0,0:0:0:0:
137,229,77467,6,0,L|120:320|120:320|88:233|88:233|119:171|119:171|137:57|137:57,2,185,10|0|0,3:2|0:0|0:0,0:0:0:0:
357,159,77900,2,0,L|301:217|301:217|283:296|283:296|231:358|231:358|182:241|182:241,1,370,2|0,3:2|0:0,0:0:0:0:
402,305,78333,2,0,L|423:371|423:371|450:259|450:259,1,185,2|0,3:2|0:0,0:0:0:0:
232,207,78622,6,0,L|267:280|267:280|291:357|291:357|361:316|361:316|407:197|407:197,1,370,2|0,3:2|0:0,0:0:0:0:
189,266,79054,2,0,L|134:325|134:325|107:249|107:249|60:183|60:183|14:64|14:64,1,370,2|0,3:2|0:0,0:0:0:0:
234,162,79486,2,0,L|256:228|256:228|283:340|283:340,1,185,2|0,3:2|0:0,0:0:0:0:
63,277,79775,6,0,L|52:369|52:369|14:285|14:285|35:219|35:219|63:107|63:107,2,185,10|0|0,3:2|0:0|0:0,0:0:0:0:
283,198,80208,2,0,L|303:276|303:276|345:345|345:345|396:282|396:282|458:171|458:171,1,370,2|0,3:2|0:0,0:0:0:0:
240,51,80640,2,0,L|229:119|229:119|191:228|191:228,1,185,2|0,3:2|0:0,0:0:0:0:
411,71,80929,6,0,L|358:132|358:132|341:211|341:211|282:267|282:267|236:386|236:386,1,370,2|0,3:2|0:0,0:0:0:0:
454,135,81361,2,0,L|399:194|399:194|394:275|394:275|327:321|327:321|279:203|279:203,1,370,2|0,3:2|0:0,0:0:0:0:
59,133,81794,2,0,L|60:202|60:202|108:307|108:307,1,185,2|0,3:2|0:0,0:0:0:0:
328,265,82083,6,0,L|370:348|370:348|377:256|377:256|357:190|357:190|328:78|328:78,2,185,10|0|0,3:2|0:0|0:0,0:0:0:0:
110,333,82515,2,0,L|155:266|155:266|197:197|197:197|216:118|216:118|285:11|285:11,1,370,2|0,3:2|0:0,0:0:0:0:
64,250,82948,2,0,L|42:316|42:316|15:203|15:203,1,185,2|0,3:2|0:0,0:0:0:0:
234,118,83236,6,0,L|262:206|262:206|322:277|322:277|274:327|274:327|234:219|234:219,2,185,6|0|0,3:2|0:0|0:0,0:0:0:0:
454,157,83669,2,0,L|435:224|435:224|402:335|402:335,1,185,2|0,3:2|0:0,0:0:0:0:
297,71,83958,1,0,0:0:0:0:
78,359,84102,2,0,L|77:290|77:290|29:185|29:185,1,185,2|0,3:2|0:0,0:0:0:0:
248,249,84390,6,0,L|212:309|212:309|196:195|196:195,1,185,10|0,3:2|0:0,0:0:0:0:
91,163,84679,1,0,0:0:0:0:
309,97,84823,2,0,L|339:185|339:185|396:257|396:257|349:308|349:308|309:200|309:200,2,185,2|0|0,3:2|0:0|0:0,0:0:0:0:
89,47,85256,2,0,L|112:113|112:113|141:225|141:225,1,185,2|0,3:2|0:0,0:0:0:0:
360,229,85544,6,0,L|404:311|404:311|447:229|447:229|428:162|428:162|360:69|360:69,2,185,2|0|0,3:2|0:0|0:0,0:0:0:0:
140,289,85977,2,0,L|171:351|171:351|192:237|192:237,1,185,2|0,3:2|0:0,0:0:0:0:
297,203,86266,1,0,0:0:0:0:
79,221,86410,2,0,L|40:279|40:279|27:164|27:164,1,185,2|0,3:2|0:0,0:0:0:0:
245,343,86698,5,10,3:2:0:0:
350,340,86842,2,0,L|381:278|381:278|402:164|402:164,1,185
182,152,87131,2,0,L|150:239|150:239|94:313|94:313|122:376|122:376|182:277|182:277,2,185,2|0|0,3:2|0:0|0:0,0:0:0:0:
400,54,87563,2,0,L|417:121|417:121|452:231|452:231,1,185,2|0,3:2|0:0,0:0:0:0:
231,227,87852,6,0,L|285:302|285:302|318:216|318:216|288:154|288:154|231:53|231:53,2,185,2|0|0,3:2|0:0|0:0,0:0:0:0:
451,227,88285,2,0,L|423:291|423:291|399:178|399:178,1,185,2|0,3:2|0:0,0:0:0:0:
294,141,88574,1,0,0:0:0:0:
77,205,88717,2,0,L|68:274|68:274|25:381|25:381,1,185,2|0,3:2|0:0,0:0:0:0:
245,314,89006,6,0,L|272:225|272:225|332:155|332:155|305:91|305:91|245:190|245:190,2,185,10|0|0,3:2|0:0|0:0,0:0:0:0:
464,301,89438,2,0,L|426:359|426:359|412:244|412:244,1,185,2|0,3:2|0:0,0:0:0:0:
307,215,89727,1,0,0:0:0:0:
89,93,89871,2,0,L|91:162|91:162|141:266|141:266,1,185,2|0,3:2|0:0,0:0:0:0:
361,117,90160,6,0,L|398:202|398:202|448:279|448:279|406:334|406:334|361:228|361:228,2,185,2|0|0,3:2|0:0|0:0,0:0:0:0:
143,319,90592,2,0,L|113:231|113:231|56:159|56:159|90:99|90:99|143:202|143:202,2,185,2|0|0,3:2|0:0|0:0,0:0:0:0:
363,137,91025,2,0,L|386:203|386:203|415:315|415:315,1,185,2|0,3:2|0:0,0:0:0:0:
198,232,91313,5,10,3:2:0:0:
93,229,91457,2,0,L|84:298|84:298|41:191|41:191,1,185
261,81,91746,2,0,L|200:151|200:151|174:240|174:240|192:307|192:307|261:214|261:214,2,185,2|0|0,3:2|0:0|0:0,0:0:0:0:
481,194,92179,2,0,L|459:260|459:260|429:372|429:372,1,185,2|0,3:2|0:0,0:0:0:0:
210,336,92467,6,0,L|221:267|221:267|262:159|262:159,1,185,2|0,3:2|0:0,0:0:0:0:
367,250,92756,1,0,0:0:0:0:
149,228,92900,2,0,L|187:286|187:286|201:171|201:171,1,185,2|0,3:2|0:0,0:0:0:0:
306,142,93189,1,0,0:0:0:0:
88,134,93333,2,0,L|69:201|69:201|36:312|36:312,1,185,2|0,3:2|0:0,0:0:0:0:
254,75,93621,6,0,L|200:150|200:150|166:236|166:236|193:300|193:300|254:202|254:202,2,185,10|0|0,3:2|0:0|0:0,0:0:0:0:
474,167,94054,2,0,L|446:231|446:231|422:344|422:344,1,185,2|0,3:2|0:0,0:0:0:0:
317,253,94343,1,0,0:0:0:0:
100,266,94486,2,0,L|108:335|108:335|152:228|152:228,1,185,2|0,3:2|0:0,0:0:0:0:
372,334,94775,6,0,L|400:246|400:246|460:175|460:175|422:117|422:117|372:13|372:13,2,185,2|0|0,3:2|0:0|0:0,0:0:0:0:
152,141,95208,2,0,L|99:217|99:217|65:303|65:303|90:368|90:368|152:270|152:270,2,185,2|0|0,3:2|0:0|0:0,0:0:0:0:
371,53,95640,2,0,L|377:122|377:122|423:228|423:228,1,185,2|0,3:2|0:0,0:0:0:0:
203,301,95929,5,10,3:2:0:0:
98,298,96073,2,0,L|60:356|60:356|46:241|46:241,1,185
264,192,96361,2,0,L|238:257|238:257|212:370|212:370,1,185,2|0,3:2|0:0,0:0:0:0:
107,106,96650,1,0,0:0:0:0:
325,51,96794,2,0,L|345:118|345:118|377:229|377:229,1,185,2|0,3:2|0:0,0:0:0:0:
157,237,97083,6,0,L|211:312|211:312|244:226|244:226|195:177|195:177|157:68|157:68,2,185,2|0|0,3:2|0:0|0:0,0:0:0:0:
375,275,97515,2,0,L|425:353|425:353|462:268|462:268|434:205|434:205|375:106|375:106,2,185,2|0|0,3:2|0:0|0:0,0:0:0:0:
155,165,97948,2,0,L|151:234|151:234|103:339|103:339,1,185,2|0,3:2|0:0,0:0:0:0:
321,155,98236,5,10,3:2:0:0:
426,152,98380,2,0,L|440:220|440:220|478:329|478:329,1,185
258,314,98669,2,0,L|261:383|261:383|310:278|310:278,1,185,2|0,3:2|0:0,0:0:0:0:
415,228,98958,1,0,0:0:0:0:
197,239,99102,2,0,L|227:302|227:302|249:189|249:189,1,185,2|0,3:2|0:0,0:0:0:0:
468,83,99390,6,0,L|409:154|409:154|380:242|380:242|416:301|416:301|468:198|468:198,2,185,2|0|0,3:2|0:0|0:0,0:0:0:0:
248,158,99823,2,0,L|196:235|196:235|160:320|160:320|182:386|182:386|248:291|248:291,2,185,2|0|0,3:2|0:0|0:0,0:0:0:0:
28,244,100256,2,0,L|47:311|47:311|80:200|80:200,1,185,2|0,3:2|0:0,0:0:0:0:
299,317,100544,6,0,L|279:384|279:384|247:273|247:273,1,185,10|0,3:2|0:0,0:0:0:0:
142,231,100833,1,0,0:0:0:0:
360,84,100977,2,0,L|335:173|335:173|272:241|272:241|292:307|292:307|360:214|360:214,2,185,2|0|0,3:2|0:0|0:0,0:0:0:0:
140,117,101410,2,0,L|138:186|138:186|88:290|88:290,1,185,2|0,3:2|0:0,0:0:0:0:
306,86,101698,5,0,3:2:0:0:
88,196,101842,1,2,3:2:0:0:
200,196,101987,1,2,3:2:0:0:
312,196,102131,1,2,3:2:0:0:
94,337,102275,6,2,B|54:257|54:257|34:170|34:170|30:80|30:80|13:168|13:168|22:257|22:257|28:346|28:346|32:256|32:256|76:178|76:178|117:98|117:98|127:9|127:9|178:82|178:82|207:167|207:167|253:244|253:244|320:304|320:304|331:215|331:215|394:95|394:95,1,1480,6|2,0:0|0:0,0:0:0:0:
282,36,103573,1,2,0:0:0:0:
171,39,103717,1,2,0:0:0:0:
283,85,103861,1,2,0:0:0:0:
395,32,104006,6,2,B|419:118|419:118|446:203|446:203|432:291|432:291|430:381|430:381|441:292|441:292|416:206|416:206|389:121|389:121|366:34|366:34|348:122|348:122|305:201|305:201|269:283|269:283|225:361|225:361|166:293|166:293|136:209|136:209|98:128|98:128|50:1|50:1,1,1480
162,259,105304,1,2,0:0:0:0:
273,228,105448,2,0,L|308:288|308:288|322:173|322:173,1,185,2|0,0:0|0:0,0:0:0:0:
211,116,105736,2,0,L|186:181|186:181|162:294|162:294,1,185,2|0,0:0|0:0,0:0:0:0:
274,127,106025,2,0,L|246:190|246:190|225:304|225:304,1,185,2|0,0:0|0:0,0:0:0:0:
114,87,106313,5,2,0:0:0:0:
226,177,106458,1,2,0:0:0:0:
337,261,106602,1,2,0:0:0:0:
226,346,106746,1,2,0:0:0:0:
115,357,106890,6,2,B|101:269|101:269|56:191|56:191|40:103|40:103|65:17|65:17|74:106|74:106|63:195|63:195|91:280|91:280|129:361|129:361|158:276|158:276|191:193|191:193|240:118|240:118|275:35|275:35|326:109|326:109|373:185|373:185|390:273|390:273|440:147|440:147,1,1480
328,107,108188,1,2,0:0:0:0:
216,111,108333,1,2,0:0:0:0:
105,127,108477,1,2,0:0:0:0:
216,29,108621,6,2,B|260:107|260:107|300:187|300:187|358:256|358:256|377:344|377:344|427:270|427:270|429:180|429:180|486:111|486:111|463:24|463:24|503:104|503:104|474:189|474:189|451:276|451:276|432:363|432:363|434:273|434:273|392:194|392:194|342:120|342:120|283:242|283:242,1,1480
171,322,109919,1,2,0:0:0:0:
60,301,110063,2,0,L|37:366|37:366|11:253|11:253,1,185,2|0,0:0|0:0,0:0:0:0:
123,200,110352,2,0,L|123:269|123:269|172:374|172:374,1,185,2|0,0:0|0:0,0:0:0:0:
61,125,110640,2,0,L|61:194|61:194|110:299|110:299,1,185,2|0,0:0|0:0,0:0:0:0:
222,43,110929,5,2,0:0:0:0:
117,43,111073,1,2,0:0:0:0:
12,44,111217,1,2,0:0:0:0:
117,43,111361,1,2,0:0:0:0:
221,96,111506,6,2,B|194:181|194:181|126:240|126:240|108:328|108:328|109:238|109:238|82:153|82:153|81:63|81:63|83:153|83:153|95:242|95:242|152:311|152:311|178:225|178:225|217:144|217:144|268:70|268:70|305:152|305:152|328:239|328:239|382:310|382:310|398:175|398:175,1,1480
286,256,112804,1,2,0:0:0:0:
175,242,112948,1,2,0:0:0:0:
286,198,113092,1,2,0:0:0:0:
397,350,113236,6,2,B|364:267|364:267|343:180|343:180|282:114|282:114|233:39|233:39|202:123|202:123|164:204|164:204|124:284|124:284|105:372|105:372|51:300|51:300|44:211|44:211|20:125|20:125|10:36|10:36|24:125|24:125|51:211|51:211|66:299|66:299|106:169|106:169,1,1480
217,62,114535,1,2,0:0:0:0:
328,97,114679,2,0,L|362:157|362:157|377:272|377:272,1,185,2|0,0:0|0:0,0:0:0:0:
266,209,114967,2,0,L|256:278|256:278|217:169|217:169,1,185,2|0,0:0|0:0,0:0:0:0:
329,198,115256,2,0,L|318:266|318:266|280:375|280:375,1,185,2|0,0:0|0:0,0:0:0:0:
169,288,115544,5,2,0:0:0:0:
281,337,115688,1,2,0:0:0:0:
393,265,115833,1,2,0:0:0:0:
282,186,115977,1,2,0:0:0:0:
171,323,116121,6,2,B|152:235|152:235|122:150|122:150|85:69|85:69|88:159|88:159|80:248|80:248|72:337|72:337|110:256|110:256|111:166|111:166|147:84|147:84|213:24|213:24|249:106|249:106|279:191|279:191|313:274|313:274|371:343|371:343|386:255|386:255|431:127|431:127,1,1480
320,96,117419,1,2,0:0:0:0:
209,96,117563,1,2,0:0:0:0:
97,95,117708,1,2,0:0:0:0:
208,25,117852,6,2,B|249:105|249:105|301:178|301:178|322:265|322:265|371:340|371:340|376:251|376:251|406:166|406:166|398:77|398:77|399:167|399:167|386:256|386:256|342:334|342:334|343:244|343:244|280:180|280:180|258:93|258:93|221:11|221:11|148:63|148:63|107:192|107:192,1,1480
63,286,119150,1,0,0:0:0:0:
53,199,119294,1,0,0:0:0:0:
80,117,119438,1,0,0:0:0:0:
138,52,119583,1,0,0:0:0:0:
217,16,119727,1,0,0:0:0:0:
304,16,119871,1,0,0:0:0:0:
383,51,120015,1,0,0:0:0:0:
442,14,120160,6,2,B|447:80|447:80|459:145|459:145|476:209|476:209|493:273|493:273|498:339|498:339|498:273|498:273|482:209|482:209|487:143|487:143|480:77|480:77|467:12|467:12|490:74|490:74|474:138|474:138|472:204|472:204|439:261|439:261|414:322|414:322|416:256|416:256|407:190|407:190|394:125|394:125|351:75|351:75|340:10|340:10|334:76|334:76|301:133|301:133|295:199|295:199|248:246|248:246|252:312|252:312|218:369|218:369|209:303|209:303|180:244|180:244|159:181|159:181|142:117|142:117|104:63|104:63|98:129|98:129|77:190|77:190|81:254|81:254|67:317|67:317|55:380|55:380|56:316|56:316|30:257|30:257|39:194|39:194|29:131|29:131|25:67|25:67|6:6|6:6|20:69|20:69|28:133|28:133|24:197|24:197|33:261|33:261|64:317|64:317|71:220|71:220,1,3180
442,14,124775,6,2,B|410:72|410:72|391:136|391:136|385:202|385:202|369:266|369:266|332:321|332:321|335:255|335:255|294:203|294:203|296:137|296:137|252:88|252:88|241:23|241:23|215:84|215:84|194:147|194:147|170:209|170:209|154:273|154:273|123:332|123:332|124:266|124:266|127:200|127:200|87:147|87:147|90:81|90:81|78:16|78:16|71:82|71:82|50:145|50:145|50:211|50:211|74:273|74:273|69:339|69:339|80:274|80:274|69:209|69:209|87:145|87:145|90:79|90:79|83:13|83:13|95:78|95:78|124:138|124:138|123:202|123:202|146:262|146:262|174:320|174:320|180:384|180:384|215:330|215:330|245:273|245:273|242:209|242:209|264:149|264:149|289:90|289:90|332:43|332:43|340:107|340:107|368:165|368:165|367:229|367:229|387:290|387:290|432:336|432:336|441:239|441:239,1,3180
70,14,129390,6,2,B|85:79|85:79|119:136|119:136|143:198|143:198|140:264|140:264|168:324|168:324|204:380|204:380|195:314|195:314|218:252|218:252|269:210|269:210|275:144|275:144|297:81|297:81|313:17|313:17|337:79|337:79|339:145|339:145|379:198|379:198|388:264|388:264|390:330|390:330|429:384|429:384|420:318|420:318|448:258|448:258|458:192|458:192|439:129|439:129|457:65|457:65|448:131|448:131|454:197|454:197|443:262|443:262|434:328|434:328|424:263|424:263|406:199|406:199|420:134|420:134|392:74|392:74|388:8|388:8|386:72|386:72|345:121|345:121|333:184|333:184|335:248|335:248|299:301|299:301|286:364|286:364|256:307|256:307|257:243|257:243|224:188|224:188|204:127|204:127|190:64|190:64|138:27|138:27|147:91|147:91|129:153|129:153|91:205|91:205|71:300|71:300,1,3180
442,14,134006,6,0,L|471:74|471:74|468:140|468:140|475:189|475:189|442:265|442:265,2,132.5,2|0|0,0:0|0:0|0:0,0:0:0:0:
354,20,134438,1,2,0:0:0:0:
442,58,134583,6,0,L|452:107|452:107|468:188|468:188,1,132.5
359,109,134871,1,2,0:0:0:0:
447,130,135015,6,0,L|447:180|447:180|473:259|473:259,1,132.5
363,172,135304,1,2,0:0:0:0:
451,194,135448,6,0,L|478:236|478:236|477:319|477:319,1,132.5
368,238,135736,1,2,0:0:0:0:
456,259,135880,6,0,L|472:306|472:306|482:224|482:224,1,132.5
373,303,136168,1,2,0:0:0:0:
219,191,136313,5,2,0:0:0:0:
351,145,136458,2,0,L|356:194|356:194|377:274|377:274,1,132.5
245,226,136746,5,2,0:0:0:0:
377,180,136891,2,0,L|401:224|401:224|403:307|403:307,1,132.5
271,261,137179,5,2,0:0:0:0:
403,215,137324,2,0,L|409:264|409:264|429:344|429:344,1,132.5
320,294,137612,5,2,0:0:0:0:
429,250,137757,2,0,L|432:300|432:300|455:379|455:379,1,132.5
368,344,138044,5,2,0:0:0:0:
455,285,138188,2,0,L|457:351|457:351|481:289|481:289|466:241|466:241|455:159|455:159,2,132.5
234,256,138621,6,0,L|206:320|206:320|186:206|186:206,1,185,6|0,3:2|3:2,3:2:0:0:
284,173,138910,1,0,0:0:0:0:
66,127,139054,2,0,L|86:194|86:194|154:288|154:288,1,185,2|0,0:0|0:0,0:0:0:0:
372,58,139342,2,0,L|421:137|421:137|460:221|460:221|441:288|441:288|372:381|372:381,2,185,2|0|0,0:0|0:0|0:0,0:0:0:0:
152,52,139775,6,0,L|187:138|187:138|201:230|201:230|173:294|173:294|152:180|152:180,2,185,2|0|0,0:0|0:0|0:0,0:0:0:0:
372,58,140208,2,0,L|413:141|413:141|460:221|460:221|418:276|418:276|372:382|372:382,2,185,2|0|0,0:0|0:0|0:0,0:0:0:0:
154,325,140640,6,0,L|163:256|163:256|206:149|206:149,1,185,2|0,0:0|0:0,0:0:0:0:
311,239,140929,1,0,0:0:0:0:
93,213,141073,2,0,L|42:290|42:290|6:375|6:375|44:317|44:317|93:212|93:212,2,185,2|0|0,0:0|0:0|0:0,0:0:0:0:
313,272,141506,6,0,L|317:341|317:341|362:234|362:234,1,185,2|0,0:0|0:0,0:0:0:0:
274,339,141794,2,0,L|256:272|256:272|225:161|225:161,1,185,2|0,0:0|0:0,0:0:0:0:
331,159,142083,2,0,L|373:242|373:242|418:323|418:323|370:373|370:373|331:264|331:264,2,185,2|0|0,0:0|0:0|0:0,0:0:0:0:
225,157,142516,1,0,0:0:0:0:
331,159,142660,2,0,L|372:242|372:242|380:334|380:334|373:265|373:265|331:157|331:157,2,185,2|0|0,0:0|0:0|0:0,0:0:0:0:
243,160,143093,1,0,0:0:0:0:
139,160,143236,6,0,L|106:221|106:221|52:323|52:323,1,185,2|0,0:0|0:0,0:0:0:0:
271,289,143525,1,2,0:0:0:0:
53,277,143669,2,0,L|70:344|70:344|102:233|102:233,1,185,2|0,0:0|0:0,0:0:0:0:
322,317,143958,2,0,L|384:386|384:386|410:297|410:297|372:239|372:239|322:135|322:135,2,185,2|0|0,0:0|0:0|0:0,0:0:0:0:
104,119,144390,6,0,L|84:209|84:209|55:297|55:297|82:361|82:361|104:248|104:248,2,185,2|0|0,0:0|0:0|0:0,0:0:0:0:
324,224,144823,2,0,L|355:311|355:311|412:384|412:384|382:322|382:322|324:222|324:222,2,185,2|0|0,0:0|0:0|0:0,0:0:0:0:
104,185,145256,6,0,L|120:253|120:253|156:363|156:363,1,185,2|0,0:0|0:0,0:0:0:0:
261,99,145545,1,0,0:0:0:0:
478,218,145688,2,0,L|417:288|417:288|390:377|390:377|442:331|442:331|478:221|478:221,2,185,2|0|0,0:0|0:0|0:0,0:0:0:0:
258,252,146121,6,0,L|243:320|243:320|209:209|209:209,1,185,2|0,0:0|0:0,0:0:0:0:
297,319,146409,2,0,L|307:250|307:250|346:141|346:141,1,185,2|0,0:0|0:0,0:0:0:0:
240,141,146698,2,0,L|212:229|212:229|152:300|152:300|180:363|180:363|240:264|240:264,2,185,2|0|0,0:0|0:0|0:0,0:0:0:0:
346,139,147131,1,0,0:0:0:0:
240,141,147275,2,0,L|214:230|214:230|191:320|191:320|225:381|225:381|240:266|240:266,2,185,2|0|0,0:0|0:0|0:0,0:0:0:0:
328,142,147708,1,0,0:0:0:0:
223,141,147852,6,0,L|205:208|205:208|136:300|136:300,1,185,2|0,0:0|0:0,0:0:0:0:
354,293,148140,1,2,0:0:0:0:
134,334,148285,2,0,L|89:281|89:281|46:174|46:174,1,185,2|0,0:0|0:0,0:0:0:0:
265,257,148573,2,0,L|271:349|271:349|314:267|314:267|295:200|295:200|265:88|265:88,2,185,2|0|0,0:0|0:0|0:0,0:0:0:0:
485,218,149006,6,0,L|438:298|438:298|398:381|398:381|429:319|429:319|485:218|485:218,2,185,2|0|0,0:0|0:0|0:0,0:0:0:0:
267,344,149438,2,0,L|271:275|271:275|319:170|319:170,1,185,2|0,0:0|0:0,0:0:0:0:
424,258,149727,1,0,0:0:0:0:
206,229,149871,6,0,L|211:298|211:298|258:192|258:192,1,185,2|0,0:0|0:0,0:0:0:0:
363,143,150160,1,0,0:0:0:0:
145,83,150304,2,0,L|109:168|109:168|58:245|58:245|94:304|94:304|145:200|145:200,2,185,2|0|0,0:0|0:0|0:0,0:0:0:0:
363,237,150736,6,0,L|363:306|363:306|412:201|412:201,1,185,2|0,0:0|0:0,0:0:0:0:
324,304,151024,2,0,L|322:373|322:373|275:267|275:267,1,185,2|0,0:0|0:0,0:0:0:0:
381,126,151313,2,0,L|426:207|426:207|468:289|468:289|439:352|439:352|381:252|381:252,2,185,2|0|0,0:0|0:0|0:0,0:0:0:0:
275,124,151746,1,0,0:0:0:0:
381,126,151890,2,0,L|407:215|407:215|430:305|430:305|409:371|409:371|381:259|381:259,2,185,2|0|0,0:0|0:0|0:0,0:0:0:0:
293,127,152323,1,0,0:0:0:0:
188,127,152467,6,0,L|229:183|229:183|276:289|276:289,1,185,2|0,0:0|0:0,0:0:0:0:
495,224,152756,1,2,0:0:0:0:
277,212,152900,2,0,L|277:281|277:281|228:386|228:386,1,185,2|0,0:0|0:0,0:0:0:0:
448,89,153189,2,0,L|404:170|404:170|360:252|360:252|386:316|386:316|448:218|448:218,2,185,2|0|0,0:0|0:0|0:0,0:0:0:0:
230,223,153621,6,0,L|231:292|231:292|282:188|282:188,1,185,2|0,0:0|0:0,0:0:0:0:
387,137,153910,1,0,0:0:0:0:
169,93,154054,2,0,L|111:165|111:165|82:253|82:253|107:318|107:318|169:220|169:220,2,185,2|0|0,0:0|0:0|0:0,0:0:0:0:
387,313,154486,6,0,L|379:382|379:382|335:275|335:275,1,185,2|0,0:0|0:0,0:0:0:0:
230,227,154775,1,0,0:0:0:0:
447,142,154918,2,0,L|402:223|402:223|360:305|360:305|388:368|388:368|447:269|447:269,2,185,2|0|0,0:0|0:0|0:0,0:0:0:0:
226,255,155352,6,0,L|191:315|191:315|177:200|177:200,1,185,2|0,0:0|0:0,0:0:0:0:
265,322,155640,2,0,L|284:255|284:255|314:143|314:143,1,185,2|0,0:0|0:0,0:0:0:0:
208,144,155929,2,0,L|170:228|170:228|121:306|121:306|134:374|134:374|208:285|208:285,2,185,2|0|0,0:0|0:0|0:0,0:0:0:0:
314,142,156362,1,0,0:0:0:0:
208,144,156506,2,0,L|167:227|167:227|159:319|159:319|167:250|167:250|208:142|208:142,2,185,2|0|0,0:0|0:0|0:0,0:0:0:0:
296,145,156938,1,0,0:0:0:0:
76,97,157083,6,0,B|94:223|94:223|96:350|96:350|157:239|157:239|234:84|234:84,1,555,6|0,0:0|0:0,0:0:0:0:
375,266,157660,2,0,B|420:385|420:385|483:274|483:274|506:149|506:149|481:321|481:321,1,555,2|0,0:0|0:0,0:0:0:0:
341,15,158236,2,0,B|296:115|296:115|274:223|274:223|252:331|252:331|243:221|243:221|265:113|265:113|290:6|290:6|322:111|322:111|391:251|391:251,1,925,2|0,0:0|0:0,0:0:0:0:
288,349,159102,1,2,0:0:0:0:
183,351,159246,1,2,0:0:0:0:
392,356,159390,2,0,B|435:277|435:277|458:190|458:190|490:106|490:106|485:17|485:17|503:105|503:105|477:191|477:191|487:280|487:280|472:368|472:368|432:288|432:288|390:209|390:209|364:123|364:123|324:43|324:43|300:129|300:129|236:191|236:191|209:277|209:277|147:156|147:156,1,1480,2|0,0:0|0:0,0:0:0:0:
367,344,160688,5,2,0:0:0:0:
473,232,160833,1,2,0:0:0:0:
386,91,160977,1,2,0:0:0:0:
168,97,161121,2,2,L|131:156|131:156|119:271|119:271,1,185
339,193,161410,2,2,L|365:257|365:257|426:355|426:355,1,185
208,289,161698,6,0,B|161:355|161:355|143:276|143:276|127:197|127:197|93:74|93:74,1,370,2|0,0:0|0:0,0:0:0:0:
235,191,162131,2,0,B|271:264|271:264|325:324|325:324|321:243|321:243|349:119|349:119,1,370,2|0,0:0|0:0,0:0:0:0:
227,85,162563,2,0,B|247:163|247:163|269:241|269:241|280:321|280:321|341:210|341:210,1,370,2|0,0:0|0:0,0:0:0:0:
447,182,162996,2,0,B|433:262|433:262|404:337|404:337|377:261|377:261|333:142|333:142,1,370,2|0,0:0|0:0,0:0:0:0:
173,87,163429,2,0,B|143:162|143:162|100:231|100:231|77:309|77:309|58:183|58:183,1,370,2|0,0:0|0:0,0:0:0:0:
199,26,163861,2,0,B|255:81|255:81|259:159|259:159|316:213|316:213|337:288|337:288|378:354|378:354|371:276|371:276|401:204|401:204|419:128|419:128|398:53|398:53|409:130|409:130|393:206|393:206|355:274|355:274|322:345|322:345|277:281|277:281|261:205|261:205|196:99|196:99,1,1295,2|2,0:0|0:0,0:0:0:0:
13,340,165304,5,2,0:0:0:0:
119,228,165449,1,2,0:0:0:0:
32,87,165593,1,2,0:0:0:0:
249,68,165736,2,2,L|260:136|260:136|298:245|298:245,1,185
78,177,166025,2,2,L|116:235|116:235|166:339|166:339,1,185
384,330,166313,6,0,B|408:205|408:205|356:89|356:89|327:213|327:213|248:367|248:367,1,555,2|0,0:0|0:0,0:0:0:0:
107,165,166890,2,0,B|106:292|106:292|119:165|119:165|167:47|167:47|243:203|243:203,1,555,2|0,0:0|0:0,0:0:0:0:
384,330,167467,2,0,B|397:203|397:203|351:84|351:84|331:210|331:210|248:362|248:362,1,555,2|0,0:0|0:0,0:0:0:0:
160,153,168044,2,2,L|143:220|143:220|154:335|154:335,1,185
259,254,168333,2,2,L|279:320|279:320|308:208|308:208,1,185
89,333,168621,6,0,B|67:246|67:246|52:158|52:158|8:80|8:80|35:166|35:166|41:255|41:255|76:338|76:338|91:250|91:250|137:173|137:173|208:118|208:118|239:34|239:34|264:120|264:120|296:204|296:204|295:294|295:294|291:384|291:384|268:298|268:298|233:167|233:167,1,1480,2|0,0:0|0:0,0:0:0:0:
128,336,169919,5,2,0:0:0:0:
40,221,170064,1,2,0:0:0:0:
145,80,170208,1,2,0:0:0:0:
363,215,170352,2,2,L|335:279|335:279|276:378|276:378,1,185
57,220,170640,2,2,L|39:287|39:287|9:175|9:175,1,185
229,212,170929,5,2,0:0:0:0:
334,212,171073,2,0,L|352:279|352:279|382:167|382:167,1,185
250,130,171361,2,0,B|214:202|214:202|194:280|194:280|197:361|197:361|257:249|257:249,1,370,2|0,0:0|0:0,0:0:0:0:
363,36,171794,2,0,B|409:103|409:103|439:178|439:178|476:250|476:250|476:377|476:377,1,370,2|0,0:0|0:0,0:0:0:0:
335,148,172227,2,0,B|288:214|288:214|264:291|264:291|233:366|233:366|221:239|221:239,1,370,2|0,0:0|0:0,0:0:0:0:
344,249,172660,2,0,B|389:316|389:316|407:237|407:237|373:163|373:163|337:41|337:41,1,370,2|0,0:0|0:0,0:0:0:0:
250,341,173092,1,2,0:0:0:0:
468,208,173236,6,0,B|446:286|446:286|423:364|423:364|411:284|411:284|353:171|353:171,1,370,2|0,0:0|0:0,0:0:0:0:
212,305,173669,2,0,L|187:382|187:382|131:323|131:323|91:253|91:253|37:138|37:138,1,370,2|0,0:0|0:0,0:0:0:0:
179,304,174102,2,0,B|197:383|197:383|219:305|219:305|209:225|209:225|172:103|172:103,1,370,2|0,0:0|0:0,0:0:0:0:
31,193,174535,2,0,B|42:273|42:273|73:348|73:348|93:269|93:269|144:153|144:153,1,370,2|0,0:0|0:0,0:0:0:0:
373,128,174967,5,10,3:2:0:0:
460,127,175111,1,0,3:2:0:0:
385,86,175256,1,0,3:2:0:0:
446,82,175400,1,0,3:2:0:0:
227,296,175544,5,12,3:2:0:0:
445,298,175688,1,8,3:2:0:0:
225,242,175833,2,0,L|199:306|199:306|138:208|138:208,1,185,0|2,0:0|0:0,0:0:0:0:
358,332,176121,6,0,L|372:264|372:264|410:155|410:155,1,185,8|0,0:0|0:0,0:0:0:0:
305,240,176410,2,2,L|285:307|285:307|253:196|253:196,1,185
358,162,176698,2,0,L|366:254|366:254|410:335|410:335|385:270|385:270|358:158|358:158,2,185
253,160,177131,1,2,0:0:0:0:
35,270,177275,6,0,B|1:344|1:344|-28:269|-28:269|-16:189|-16:189|39:74|39:74,1,370,8|2,0:0|0:0,0:0:0:0:
127,146,177708,1,2,0:0:0:0:
232,147,177852,2,0,L|264:234|264:234|284:324|284:324|254:262|254:262|232:149|232:149,2,185,0|0|0,0:0|0:0|0:0,0:0:0:0:
126,110,178285,1,2,0:0:0:0:
344,142,178429,6,0,L|355:211|355:211|396:319|396:319,1,185,8|0,0:0|0:0,0:0:0:0:
291,234,178718,2,2,L|275:302|275:302|239:192|239:192,1,185
344,303,179006,2,0,L|316:215|316:215|292:126|292:126|307:58|307:58|344:168|344:168,2,185
449,305,179438,1,2,0:0:0:0:
229,247,179583,6,0,L|222:316|222:316|177:209|177:209,1,185,8|0,0:0|0:0,0:0:0:0:
282,162,179871,2,2,L|311:225|311:225|334:338|334:338,1,185
118,318,180160,5,8,3:2:0:0:
336,322,180304,1,8,3:2:0:0:
118,255,180448,2,0,L|75:310|75:310|30:203|30:203,1,185,0|2,0:0|0:0,0:0:0:0:
231,150,180736,6,0,L|246:218|246:218|283:327|283:327,1,185,8|0,0:0|0:0,0:0:0:0:
178,204,181025,2,2,L|161:271|161:271|126:381|126:381,1,185
231,87,181313,2,0,L|274:169|274:169|283:261|283:261|259:326|259:326|231:214|231:214,2,185
126,89,181746,1,2,0:0:0:0:
344,70,181890,6,0,L|368:135|368:135|396:247|396:247,1,185,8|0,0:0|0:0,0:0:0:0:
291,156,182179,2,2,L|281:225|281:225|239:333|239:333,1,185
134,133,182467,2,0,L|104:220|104:220|82:310|82:310|119:368|119:368|134:253|134:253,2,185
240,142,182900,1,2,0:0:0:0:
22,346,183044,6,0,L|46:281|46:281|74:169|74:169,1,185,8|0,0:0|0:0,0:0:0:0:
180,269,183333,2,2,L|163:336|163:336|128:226|128:226,1,185
233,191,183621,2,0,L|255:281|255:281|285:368|285:368|276:299|276:299|233:192|233:192,2,185
127,197,184054,1,2,0:0:0:0:
345,291,184198,6,0,L|381:351|381:351|397:237|397:237,1,185,8|0,0:0|0:0,0:0:0:0:
292,205,184486,2,2,L|330:263|330:263|344:378|344:378,1,185
124,71,184775,5,8,3:2:0:0:
342,126,184919,1,8,3:2:0:0:
124,210,185063,2,0,L|82:265|82:265|36:371|36:371,1,185,0|2,0:0|0:0,0:0:0:0:
256,350,185352,6,0,L|270:282|270:282|308:173|308:173,1,185,8|0,0:0|0:0,0:0:0:0:
203,270,185640,2,2,L|186:337|186:337|151:227|151:227,1,185
256,185,185929,2,0,L|263:277|263:277|308:358|308:358|297:290|297:290|256:182|256:182,2,185
151,165,186361,1,2,0:0:0:0:
371,137,186506,6,0,L|347:202|347:202|319:314|319:314,1,185,8|0,0:0|0:0,0:0:0:0:
214,143,186794,2,2,L|175:201|175:201|162:316|162:316,1,185
267,320,187083,2,0,L|281:229|281:229|319:145|319:145|286:84|286:84|267:198|267:198,2,185
162,300,187515,1,2,0:0:0:0:
382,241,187660,6,0,L|405:307|405:307|434:195|434:195,1,185,8|0,0:0|0:0,0:0:0:0:
329,161,187948,2,2,L|304:226|304:226|277:338|277:338,1,185
172,128,188236,2,0,L|184:196|184:196|224:304|224:304,1,185
119,57,188525,2,0,L|67:103|67:103|32:213|32:213,1,185,0|2,0:0|0:0,0:0:0:0:
250,239,188813,6,0,L|275:304|275:304|338:207|338:207,1,185,8|0,0:0|0:0,0:0:0:0:
232,161,189102,2,2,L|221:230|221:230|180:338|180:338,1,185
398,153,189390,5,8,3:2:0:0:
178,307,189535,1,8,3:2:0:0:
396,312,189679,2,0,L|445:361|445:361|484:252|484:252,1,185,0|2,0:0|0:0,0:0:0:0:
265,248,189967,6,0,L|289:313|289:313|317:201|317:201,1,185,8|0,0:0|0:0,0:0:0:0:
423,168,190256,2,2,L|412:237|412:237|371:345|371:345,1,185
266,110,190544,2,0,L|258:202|258:202|214:283|214:283|221:352|221:352|266:246|266:246,2,185
372,107,190977,1,2,0:0:0:0:
154,190,191121,6,0,L|190:249|190:249|207:363|207:363,1,185,8|0,0:0|0:0,0:0:0:0:
312,234,191410,2,2,L|332:301|332:301|364:190|364:190,1,185
146,285,191698,5,2,3:2:0:0:
41,283,191842,2,0,L|52:351|52:351|93:243|93:243,1,185,2|0,3:2|0:0,0:0:0:0:
313,131,192131,5,2,3:2:0:0:
418,129,192275,2,0,L|395:194|395:194|366:306|366:306,1,185,10|0,3:2|0:0,0:0:0:0:
209,126,192563,5,2,3:2:0:0:
122,128,192707,2,0,L|151:191|151:191|174:304|174:304,1,185,2|0,3:2|0:0,0:0:0:0:
279,197,192996,5,2,3:2:0:0:
366,199,193140,2,0,L|364:268|364:268|314:372|314:372,1,185,2|0,3:2|0:0,0:0:0:0:
94,278,193429,5,10,0:0:0:0:
357,139,194006,5,4,3:2:0:0:
139,210,194150,2,2,L|76:278|76:278|52:367|52:367|90:309|90:309|139:204|139:204,2,185
359,309,194583,6,0,L|415:383|415:383|446:296|446:296|415:234|415:234|359:133|359:133,2,185,10|2|0,0:0|0:0|0:0,0:0:0:0:
254,304,195015,2,0,L|232:214|232:214|202:127|202:127|217:59|217:59|254:169|254:169,2,185,2|2|0,0:0|0:0|0:0,0:0:0:0:
474,255,195448,6,0,L|460:323|460:323|422:214|422:214,1,185,2|0,3:2|0:0,0:0:0:0:
317,238,195736,2,0,L|292:327|292:327|265:239|265:239|272:170|272:170|317:64|317:64,2,185,10|0|0,0:0|0:0|0:0,0:0:0:0:
423,235,196169,1,0,0:0:0:0:
205,165,196313,6,0,L|152:241|152:241|118:327|118:327|145:263|145:263|205:164|205:164,2,185,2|0|0,3:2|0:0|0:0,0:0:0:0:
311,163,196746,1,0,0:0:0:0:
93,269,196890,6,0,L|107:337|107:337|145:228|145:228,1,185,10|0,0:0|0:0,0:0:0:0:
251,313,197179,2,0,L|238:381|238:381|199:272|199:272,1,185,0|0,3:2|0:0,0:0:0:0:
418,303,197467,6,0,L|448:366|448:366|506:266|506:266,1,185,2|0,0:0|0:0,0:0:0:0:
286,242,197756,2,0,L|254:304|254:304|198:203|198:203,1,185,2|0,3:2|0:0,0:0:0:0:
417,228,198044,2,0,L|423:297|423:297|423:181|423:181,1,185,10|0,0:0|3:2,0:0:0:0:
318,45,198333,2,0,L|335:112|335:112|367:223|367:223,1,185,2|0,0:0|0:0,0:0:0:0:
148,208,198621,5,2,3:2:0:0:
253,231,198765,1,2,0:0:0:0:
147,261,198910,1,2,0:0:0:0:
42,232,199054,1,2,0:0:0:0:
260,154,199198,6,0,L|295:240|295:240|348:316|348:316|298:364|298:364|260:255|260:255,2,185,10|0|0,0:0|0:0|0:0,0:0:0:0:
154,152,199631,1,0,0:0:0:0:
260,154,199775,2,0,L|275:245|275:245|309:331|309:331|285:266|285:266|260:153|260:153,2,185,2|0|0,0:0|0:0|3:2,0:0:0:0:
172,155,200208,1,0,0:0:0:0:
390,335,200352,6,0,L|425:275|425:275|463:166|463:166,1,185,10|0,0:0|0:0,0:0:0:0:
460,212,200640,2,0,L|442:279|442:279|386:380|386:380,1,185,2|0,0:0|0:0,0:0:0:0:
166,269,200929,6,0,L|122:350|122:350|79:268|79:268|104:203|104:203|166:105|166:105,2,185,2|0|0,3:2|0:0|0:0,0:0:0:0:
272,267,201361,1,0,3:2:0:0:
166,269,201506,2,0,L|152:360|152:360|117:274|117:274|134:207|134:207|166:96|166:96,2,185,10|0|0,0:0|0:0|3:2,0:0:0:0:
254,270,201939,1,0,0:0:0:0:
472,324,202083,6,0,L|431:380|431:380|384:274|384:274,1,185,2|0,0:0|3:2,0:0:0:0:
165,222,202372,2,0,L|122:277|122:277|78:384|78:384,1,185,2|0,3:2|0:0,0:0:0:0:
296,208,202660,2,0,L|299:277|299:277|302:161|302:161,1,185,10|0,0:0|3:2,0:0:0:0:
197,25,202949,2,0,L|229:86|229:86|246:200|246:200,1,185,2|0,0:0|0:0,0:0:0:0:
462,128,203236,5,2,3:2:0:0:
356,143,203381,1,2,0:0:0:0:
251,152,203525,1,2,0:0:0:0:
356,197,203669,1,2,0:0:0:0:
138,330,203813,6,0,L|105:243|105:243|51:168|51:168|96:115|96:115|138:7|138:7,2,185,10|0|0,0:0|0:0|0:0,0:0:0:0:
244,328,204246,1,0,0:0:0:0:
349,328,204390,2,0,L|390:245|390:245|398:153|398:153|368:90|368:90|349:204|349:204,2,185,2|0|0,0:0|0:0|3:2,0:0:0:0:
261,329,204823,1,0,0:0:0:0:
43,293,204967,6,0,L|59:360|59:360|116:259|116:259,1,185,10|0,0:0|0:0,0:0:0:0:
113,170,205255,2,0,L|69:224|69:224|39:336|39:336,1,185,2|0,0:0|0:0,0:0:0:0:
259,130,205544,6,0,L|294:216|294:216|346:292|346:292|302:345|302:345|259:238|259:238,2,185,2|0|0,3:2|0:0|0:0,0:0:0:0:
153,128,205977,1,0,0:0:0:0:
259,130,206121,2,0,L|277:221|277:221|308:308|308:308|282:373|282:373|259:260|259:260,2,185,10|0|0,0:0|0:0|3:2,0:0:0:0:
171,131,206554,1,0,0:0:0:0:
389,323,206698,6,0,L|440:370|440:370|476:260|476:260,1,185,2|0,0:0|0:0,0:0:0:0:
257,241,206987,2,0,L|238:308|238:308|170:215|170:215,1,185,2|0,3:2|0:0,0:0:0:0:
388,227,207275,2,0,L|395:296|395:296|394:180|394:180,1,185,10|0,0:0|3:2,0:0:0:0:
289,112,207564,2,0,L|265:177|265:177|240:290|240:290,1,185,2|0,0:0|0:0,0:0:0:0:
22,149,207852,5,2,3:2:0:0:
128,164,207997,1,2,0:0:0:0:
233,173,208141,1,2,0:0:0:0:
128,218,208285,1,2,0:0:0:0:
346,341,208429,6,0,L|391:260|391:260|434:178|434:178|386:128|386:128|346:20|346:20,2,185,10|0|0,0:0|0:0|0:0,0:0:0:0:
240,339,208862,1,0,0:0:0:0:
135,339,209006,2,0,L|126:247|126:247|86:163|86:163|105:96|105:96|135:208|135:208,2,185,2|0|0,0:0|0:0|3:2,0:0:0:0:
223,340,209439,1,0,0:0:0:0:
441,304,209583,6,0,L|429:372|429:372|368:274|368:274,1,185,10|0,0:0|0:0,0:0:0:0:
371,181,209871,2,0,L|414:236|414:236|445:347|445:347,1,185,2|0,0:0|0:0,0:0:0:0:
225,141,210160,6,0,L|172:217|172:217|138:303|138:303|176:361|176:361|225:256|225:256,2,185,2|0|0,3:2|0:0|0:0,0:0:0:0:
331,139,210593,1,0,3:2:0:0:
225,141,210737,2,0,L|217:233|217:233|176:316|176:316|203:380|203:380|225:267|225:267,2,185,10|0|0,0:0|0:0|3:2,0:0:0:0:
313,142,211170,1,0,0:0:0:0:
96,158,211313,5,2,0:0:0:0:
94,244,211457,1,2,3:2:0:0:
137,319,211601,1,2,3:2:0:0:
211,363,211745,1,2,0:0:0:0:
360,362,211889,1,10,0:0:0:0:
435,319,212034,1,2,3:2:0:0:
478,244,212178,1,2,0:0:0:0:
416,159,212322,1,2,0:0:0:0:
196,240,212467,6,0,L|171:305|171:305|147:192|147:192,1,185,6|0,3:2|0:0,0:0:0:0:
367,82,212756,2,0,L|411:136|411:136|454:243|454:243,1,185,2|0,0:0|0:0,0:0:0:0:
236,315,213044,2,2,L|188:365|188:365|148:256|148:256,1,185,10|2,0:0|0:0,0:0:0:0:
254,258,213333,2,2,L|256:327|256:327|303:221|303:221,1,185
198,175,213621,1,0,0:0:0:0:
416,142,213765,6,0,L|417:211|417:211|465:316|465:316,1,185,2|0,0:0|3:2,0:0:0:0:
245,52,214054,2,0,L|200:105|200:105|158:212|158:212,1,185,2|8,0:0|0:0,0:0:0:0:
376,251,214342,2,2,L|327:330|327:330|288:246|288:246|324:187|324:187|376:84|376:84,2,185
156,272,214775,6,0,L|121:332|121:332|107:217|107:217,1,185,0|2,3:2|0:0,0:0:0:0:
326,337,215063,2,0,L|361:277|361:277|414:174|414:174,1,185,2|0,0:0|0:0,0:0:0:0:
194,196,215352,2,2,L|240:248|240:248|282:356|282:356,1,185,10|2,0:0|0:0,0:0:0:0:
176,139,215641,2,2,L|167:208|167:208|127:317|127:317,1,185,2|2,3:2|0:0,0:0:0:0:
232,65,215929,1,0,0:0:0:0:
14,191,216073,6,0,L|16:260|16:260|63:366|63:366,1,185,2|0,0:0|3:2,0:0:0:0:
281,313,216361,1,2,0:0:0:0:
61,123,216506,2,0,L|42:190|42:190|12:302|12:302,1,185,10|0,0:0|3:2,0:0:0:0:
231,103,216794,2,2,L|265:163|265:163|280:278|280:278,1,185
60,350,217083,6,0,B|58:187|58:187|105:31|105:31|174:179|174:179|271:379|271:379,1,712.500027179719,2|2,3:2|0:0,0:0:0:0:
337,84,217587,1,2,0:0:0:0:
404,125,217660,2,0,B|455:280|455:280|456:117|456:117|398:270|398:270|287:77|287:77,1,712.500027179719,10|2,0:0|0:0,0:0:0:0:
156,341,218236,2,0,B|64:206|64:206|34:46|34:46|87:200|87:200|178:-3|178:-3,1,712.500027179719,2|2,0:0|0:0,0:0:0:0:
310,84,218813,2,2,B|327:246|327:246|282:89|282:89|188:222|188:222|193:-1|193:-1,1,712.500027179719,10|2,0:0|0:0,0:0:0:0:
412,335,219390,6,2,B|480:187|480:187|463:25|463:25|405:178|405:178|283:364|283:364,1,712.500027179719,2|2,3:2|3:2,0:0:0:0:
216,214,219895,1,2,0:0:0:0:
150,257,219967,2,2,B|75:112|75:112|99:274|99:274|166:125|166:125|266:324|266:324,1,712.500027179719,10|2,0:0|0:0,0:0:0:0:
399,190,220544,2,2,B|331:339|331:339|264:190|264:190|194:42|194:42|268:252|268:252,1,712.500027179719
400,342,221121,1,10,0:0:0:0:
335,198,221265,1,2,3:2:0:0:
236,130,221410,1,2,0:0:0:0:
105,72,221554,1,2,0:0:0:0:
363,237,221698,6,0,L|369:306|369:306|412:199|412:199,1,185,2|0,3:2|0:0,0:0:0:0:
192,91,221987,2,0,L|173:158|173:158|104:251|104:251,1,185,2|0,0:0|0:0,0:0:0:0:
323,324,222275,2,2,L|350:260|350:260|410:162|410:162,1,185,10|2,0:0|0:0,0:0:0:0:
191,290,222564,2,2,L|161:352|161:352|142:238|142:238,1,185
247,207,222852,1,0,0:0:0:0:
29,63,222996,6,0,L|46:130|46:130|78:241|78:241,1,185,2|0,0:0|3:2,0:0:0:0:
298,59,223285,2,2,L|336:117|336:117|386:221|386:221,1,185,2|10,0:0|0:0,0:0:0:0:
167,258,223573,2,0,L|214:338|214:338|254:255|254:255|208:203|208:203|167:95|167:95,2,185,2|2|2,0:0|0:0|0:0,0:0:0:0:
387,279,224006,6,0,L|395:348|395:348|436:240|436:240,1,185,0|2,3:2|0:0,0:0:0:0:
217,344,224294,2,0,L|202:276|202:276|130:186|130:186,1,185,2|0,0:0|0:0,0:0:0:0:
349,203,224583,2,2,L|303:255|303:255|262:363|262:363,1,185,10|2,0:0|0:0,0:0:0:0:
367,146,224872,2,2,L|370:215|370:215|416:321|416:321,1,185,2|2,3:2|0:0,0:0:0:0:
311,72,225160,1,0,0:0:0:0:
93,207,225304,6,0,L|107:275|107:275|142:385|142:385,1,185,2|0,0:0|3:2,0:0:0:0:
360,329,225592,1,2,0:0:0:0:
140,139,225737,2,0,L|111:202|111:202|91:316|91:316,1,185,10|0,0:0|3:2,0:0:0:0:
310,119,226025,2,2,L|309:188|309:188|359:292|359:292,1,185
141,349,226313,6,2,B|101:191|101:191|119:29|119:29|192:175|192:175|292:374|292:374,1,712.500027179719,2|2,3:2|0:0,0:0:0:0:
359,128,226818,1,2,0:0:0:0:
425,170,226890,2,2,B|468:328|468:328|419:172|419:172|354:22|354:22|239:212|239:212,1,712.500027179719,10|2,0:0|0:0,0:0:0:0:
106,273,227467,2,2,B|158:118|158:118|214:272|214:272|273:120|273:120|410:295|410:295,1,712.500027179719
279,286,228044,2,2,B|195:146|195:146|182:309|182:309|219:150|219:150|347:332|347:332,1,712.500027179719,10|2,0:0|0:0,0:0:0:0:
127,342,228621,6,0,L|100:254|100:254|78:164|78:164|98:74|98:74|127:162|127:162|124:231|124:231|78:337|78:337,3,185,2|0|0|0,3:2|0:0|0:0|0:0,0:0:0:0:
184,180,229198,2,0,L|187:249|187:249|233:355|233:355,1,185,2|0,0:0|0:0,0:0:0:0:
338,252,229486,2,0,L|306:313|306:313|289:199|289:199,1,185,2|0,0:0|0:0,0:0:0:0:
395,166,229775,6,2,L|429:226|429:226|443:341|443:341,1,185
339,100,230063,2,2,L|317:166|317:166|290:278|290:278,1,185
70,67,230352,2,2,L|51:134|51:134|21:246|21:246,1,185,2|2,3:2|3:2,3:2:0:0:
109,196,230640,2,2,L|144:256|144:256|196:359|196:359,1,185,2|2,3:2|3:2,3:2:0:0:
416,0,230929,6,0,B|428:49|428:49|413:97|413:97|423:146|423:146|427:196|427:196|444:244|444:244|460:292|460:292|453:342|453:342|467:293|467:293|446:247|446:247|458:198|458:198|469:149|469:149|477:99|477:99|478:49|478:49|483:99|483:99|495:148|495:148|484:197|484:197|469:245|469:245|472:295|472:295|479:345|479:345|474:295|474:295|489:247|489:247|481:197|481:197|487:147|487:147|488:97|488:97|499:48|499:48|477:2|477:2|483:52|483:52|466:100|466:100|478:149|478:149|487:199|487:199|463:243|463:243|473:293|473:293|488:341|488:341|484:291|484:291|466:244|466:244|451:196|451:196|449:146|449:146|459:96|459:96|433:53|433:53|431:3|431:3|439:53|439:53|414:97|414:97|420:147|420:147|406:196|406:196|426:242|426:242|397:283|397:283|395:333|395:333|386:383|386:383|361:339|361:339|389:297|389:297|374:249|374:249|367:199|367:199|334:161|334:161|353:114|353:114|325:72|325:72|316:22|316:22|315:72|315:72|308:122|308:122|311:172|311:172|299:221|299:221|264:258|264:258|283:305|283:305|249:342|249:342|254:292|254:292|258:242|258:242|254:192|254:192|245:142|245:142|209:106|209:106|205:56|205:56|183:11|183:11|175:61|175:61|196:107|196:107|161:143|161:143|157:193|157:193|145:242|145:242|166:288|166:288|148:335|148:335|137:384|137:384|136:334|136:334|122:285|122:285|112:235|112:235|108:185|108:185|118:135|118:135|88:94|88:94|107:47|107:47|100:97|100:97|93:147|93:147|54:180|54:180|48:230|48:230|43:280|43:280|72:321|72:321|63:371|63:371|57:321|57:321|44:272|44:272|49:222|49:222|37:173|37:173|38:123|38:123|44:73|44:73|26:26|26:26|38:75|38:75|23:123|23:123|11:172|11:172|21:222|21:222|16:272|16:272|7:322|7:322|19:371|19:371|10:321|10:321|23:272|23:272|9:224|9:224|20:175|20:175|10:126|10:126|26:78|26:78|31:29|31:29|45:76|45:76|24:120|24:120|41:166|41:166|58:212|58:212|50:260|50:260|38:307|38:307|51:354|51:354|58:306|58:306|71:259|71:259|52:214|52:214|88:181|88:181|69:136|69:136|81:89|81:89|83:40|83:40|95:113|95:113,1,6464,6|0,0:0|0:0,0:0:0:0:
256,192,240448,12,0,263525,0:0:0:0:
