osu file format v14

[General]
AudioFilename: audio.mp3
AudioLeadIn: 0
PreviewTime: 90162
Countdown: 0
SampleSet: Soft
StackLeniency: 0.5
Mode: 0
LetterboxInBreaks: 0
WidescreenStoryboard: 1

[Editor]
Bookmarks: 16625,31394,46172,60932,75701,90470,105239,120008,134778,149547,163393,182778,197547,212316,227085,241855,260510,276999,296199
DistanceSpacing: 3.6
BeatDivisor: 4
GridSize: 8
TimelineZoom: 1.8

[Metadata]
Title:Unravelling
TitleUnicode:Unravelling
Artist:Aethoro & Moon Jelly
ArtistUnicode:Aethoro & Moon Jelly
Creator:Arushii09
Version:Journey
Source:
Tags:artcore ambient orchestral piano folk english vocal iredi
BeatmapID:3779139
BeatmapSetID:1839999

[Difficulty]
HPDrainRate:6
CircleSize:4.2
OverallDifficulty:9
ApproachRate:9.5
SliderMultiplier:1.95
SliderTickRate:1

[Events]
//Background and Video events
0,0,"Elaina.jpg",0,0
//Break Periods
//Storyboard Layer 0 (Background)
//Storyboard Layer 1 (Fail)
//Storyboard Layer 2 (Pass)
//Storyboard Layer 3 (Foreground)
//Storyboard Layer 4 (Overlay)
//Storyboard Sound Samples

[TimingPoints]
1241,307.692307692308,3,2,2,35,1,0
1856,307.692307692308,3,2,2,35,1,0
1856,-200,3,2,2,35,0,0
9240,-133.333333333333,3,2,2,35,0,0
16009,-100,3,2,2,40,0,0
16625,-100,3,2,2,45,0,0
46172,307.692307692308,3,2,2,35,1,0
46172,-400,3,2,2,35,0,0
47325,-400,3,2,2,5,0,0
47402,-400,3,2,2,35,0,0
47941,-400,3,2,2,5,0,0
48018,-400,3,2,2,35,0,0
48633,-400,3,2,2,35,0,0
49248,-400,3,2,2,35,0,0
49479,-400,3,2,2,5,0,0
49556,-400,3,2,2,35,0,0
49787,-400,3,2,2,5,0,0
49864,-400,3,2,2,35,0,0
50402,-400,3,2,2,5,0,0
50479,-400,3,2,2,35,0,0
51018,-400,3,2,2,5,0,0
51095,-400,3,2,2,35,0,0
51633,-400,3,2,2,5,0,0
51710,-400,3,2,2,35,0,0
52248,-400,3,2,2,5,0,0
52325,-400,3,2,2,35,0,0
52864,-400,3,2,2,5,0,0
52941,-400,3,2,2,35,0,0
53172,-400,3,2,2,5,0,0
53248,-400,3,2,2,35,0,0
53479,-400,3,2,2,5,0,0
53556,-400,3,2,2,35,0,0
54095,-400,3,2,2,5,0,0
54172,-400,3,2,2,35,0,0
54710,-400,3,2,2,5,0,0
54787,-400,3,2,2,35,0,0
55325,-400,3,2,2,5,0,0
55402,-400,3,2,2,35,0,0
55941,-400,3,2,2,5,0,0
56018,-400,3,2,2,35,0,0
56556,-400,3,2,2,5,0,0
56633,-400,3,2,2,35,0,0
56864,-400,3,2,2,5,0,0
56941,-400,3,2,2,35,0,0
57172,-400,3,2,2,5,0,0
57248,-400,3,2,2,35,0,0
57787,-400,3,2,2,5,0,0
57864,-400,3,2,2,35,0,0
58402,-400,3,2,2,5,0,0
58479,-400,3,2,2,35,0,0
59018,-400,3,2,2,5,0,0
59070,307.692307692308,3,2,2,35,1,0
59070,-400,3,2,2,35,0,0
60932,307.692307692308,3,2,2,50,1,0
60932,-100,3,2,2,50,0,0
75701,-80,3,2,1,55,0,0
90470,-66.6666666666667,3,2,3,65,0,1
90778,-66.6666666666667,3,2,1,65,0,1
134778,-133.333333333333,3,2,2,40,0,0
167188,-400,3,2,21,20,0,0
168008,-200,3,2,2,40,0,0
171624,-200,3,2,2,5,0,0
171701,-200,3,2,2,40,0,0
174470,-113.185185396558,3,2,2,40,0,0
175316,-113.185185396558,3,2,2,5,0,0
175393,-200,3,2,2,40,0,0
179008,-200,3,2,2,5,0,0
179085,-200,3,2,2,40,0,0
182778,-200,3,2,2,35,0,0
190085,-200,3,2,2,5,0,0
190162,-200,3,2,2,35,0,0
194701,-200,3,2,2,5,0,0
194778,-200,3,2,2,35,0,0
196547,-200,3,2,2,5,0,0
196624,-200,3,2,2,35,0,0
196855,-200,3,2,2,5,0,0
196932,-200,3,2,2,35,0,0
197547,-133.333333333333,3,2,2,40,0,0
211085,-100,3,2,2,45,0,0
211316,-100,3,2,2,5,0,0
211393,-100,3,2,2,45,0,0
211624,-100,3,2,2,5,0,0
211701,-80,3,2,2,50,0,0
212316,-66.6666666666667,3,2,3,70,0,1
212624,-66.6666666666667,3,2,4,70,0,1
241855,-200,3,2,2,35,0,0
243624,-200,3,2,2,5,0,0
243701,-200,3,2,2,35,0,0
244547,-200,3,2,2,5,0,0
244624,-200,3,2,2,35,0,0
245470,-200,3,2,2,5,0,0
245547,-200,3,2,2,35,0,0
246701,-200,3,2,2,5,0,0
246778,-200,3,2,2,35,0,0
247008,-200,3,2,2,5,0,0
247085,-200,3,2,2,35,0,0
247316,-200,3,2,2,5,0,0
247393,-200,3,2,2,35,0,0
248547,-200,3,2,2,5,0,0
248624,-200,3,2,2,35,0,0
249162,-200,3,2,2,5,0,0
249239,-202,3,2,2,35,0,0
250393,-200,3,2,2,5,0,0
250483,320.855614973262,3,2,2,35,1,0
250483,-200,3,2,2,35,0,0
250724,-200,3,2,2,5,0,0
250804,-200,3,2,2,35,0,0
251045,-200,3,2,2,5,0,0
251125,348.837209302326,3,2,2,35,1,0
251127,521.739130434783,3,2,2,35,1,0
251127,-133.333333333333,3,2,2,35,0,0
251518,-133.333333333333,3,2,2,5,0,0
251648,-133.333333333333,3,2,2,35,0,0
252040,-133.333333333333,3,2,2,5,0,0
252171,370.370370370371,3,2,2,35,1,0
252171,-200,3,2,2,35,0,0
252541,-200,3,2,2,5,0,0
252700,370.370370370371,3,2,2,5,1,0
252700,-200,3,2,2,35,0,0
253070,-200,3,2,2,5,0,0
253282,714.285714285714,3,2,2,35,1,0
253282,-200,3,2,2,35,0,0
255246,-200,3,2,2,5,0,0
255423,759.493670886076,3,2,2,35,1,0
255423,-192.307692307692,3,2,2,35,0,0
260510,359.281437125748,3,2,2,40,1,0
260510,-133.333333333333,3,2,2,40,0,0
261228,342.857142857143,3,2,2,40,1,0
261570,342.857142857143,3,2,2,40,1,0
261570,-133.333333333333,3,2,2,40,0,0
292084,402.68456375839,3,2,2,40,1,0
292486,338.983050847457,3,2,2,40,1,0
292486,-142.857142857143,3,2,2,40,0,0
292838,410.958904109589,3,2,2,35,1,0
293248,454.545454545454,3,2,2,35,1,0
293702,416.666666666667,3,2,2,35,1,0
296199,342.857142857143,3,2,2,30,1,0
296199,-217.094116007618,3,2,2,30,0,0
303741,-217.094116007618,3,2,2,5,0,0

[Colours]
Combo1 : 164,100,240
Combo2 : 230,110,150
Combo3 : 240,150,255
Combo4 : 100,200,200
Combo5 : 130,120,255

[HitObjects]
41,354,1242,5,0,2:2:0:0:
114,328,1395,1,0,2:2:0:0:
182,261,1549,1,0,2:2:0:0:
109,235,1702,1,0,2:2:0:0:
268,266,1856,6,0,P|293:256|314:252,1,48.75,2|0,2:2|2:2,2:2:0:0:
406,147,2163,2,0,P|409:173|416:193,1,48.75,0|0,2:2|2:2,2:2:0:0:
467,253,2471,1,0,2:2:0:0:
463,262,2625,1,0,2:2:0:0:
311,174,2779,6,0,P|281:165|253:165,1,48.75,2|0,2:2|2:2,2:2:0:0:
460,270,3086,2,0,P|489:262|518:261,1,48.75,0|0,2:2|2:2,2:2:0:0:
389,341,3394,1,0,2:2:0:0:
380,337,3548,1,0,2:2:0:0:
314,183,3702,6,0,P|303:154|297:121,1,48.75,2|0,2:2|2:2,2:2:0:0:
253,315,4009,2,0,P|276:309|299:300,1,48.75,0|0,2:2|2:2,2:2:0:0:
380,337,4317,1,0,2:2:0:0:
389,341,4471,1,0,2:2:0:0:
196,239,4625,6,0,P|191:262|185:287,1,48.75,2|0,2:2|2:2,2:2:0:0:
95,174,4932,2,0,P|72:182|48:188,1,48.75,0|0,2:2|2:2,2:2:0:0:
148,84,5240,1,0,2:2:0:0:
155,78,5394,1,0,2:2:0:0:
42,5,5548,6,0,P|34:30|39:54,1,48.75,2|0,2:2|2:2,2:2:0:0:
231,104,5856,2,0,P|239:78|234:54,1,48.75,0|0,2:2|2:2,2:2:0:0:
168,162,6163,1,0,2:2:0:0:
175,168,6317,1,0,2:2:0:0:
317,215,6471,6,0,P|344:204|374:197,1,48.75,2|0,2:2|2:2,2:2:0:0:
209,299,6779,2,0,P|182:288|152:281,1,48.75,0|0,2:2|2:2,2:2:0:0:
284,377,7086,1,0,2:2:0:0:
278,384,7240,1,0,2:2:0:0:
410,314,7394,6,0,P|416:287|406:259,1,48.75,2|0,2:2|2:2,2:2:0:0:
359,81,7702,2,0,P|353:107|363:135,1,48.75,0|0,2:2|2:2,2:2:0:0:
439,192,8009,1,0,2:2:0:0:
446,198,8163,1,0,2:2:0:0:
248,210,8317,6,0,P|220:212|192:216,1,48.75,2|0,2:2|2:2,2:2:0:0:
101,346,8625,2,0,P|85:322|67:300,1,48.75,0|0,2:2|2:2,2:2:0:0:
1,234,8932,1,0,2:2:0:0:
4,225,9086,1,0,2:2:0:0:
165,139,9240,5,2,2:2:0:0:
104,189,9394,1,0,2:2:0:0:
110,196,9548,1,2,2:2:0:0:
61,63,9702,2,0,P|127:32|200:90,1,146.250005578995,2|0,2:2|2:2,2:2:0:0:
310,159,10163,2,0,P|337:135|374:122,1,73.1250027894975,2|0,2:2|2:2,2:2:0:0:
421,65,10471,1,2,2:2:0:0:
512,196,10625,1,2,2:2:0:0:
404,269,10779,2,0,P|397:233|403:195,1,73.1250027894975,0|0,2:2|2:2,2:2:0:0:
512,64,11086,5,2,2:2:0:0:
460,5,11240,1,0,2:2:0:0:
450,0,11394,1,2,2:2:0:0:
512,184,11548,2,0,P|434:168|357:162,1,146.250005578995,2|0,2:2|2:2,2:2:0:0:
164,210,12009,2,0,P|198:224|226:248,1,73.1250027894975,2|0,2:2|2:2,2:2:0:0:
243,321,12317,1,2,2:2:0:0:
300,147,12471,1,2,2:2:0:0:
204,86,12625,2,0,P|211:132|227:164,1,73.1250027894975,0|0,2:2|2:2,2:2:0:0:
152,296,12932,5,2,2:2:0:0:
76,265,13086,1,0,2:2:0:0:
75,254,13240,1,2,2:2:0:0:
184,373,13394,2,0,P|248:347|238:261,1,146.250005578995,2|0,2:2|2:2,2:2:0:0:
48,333,13856,2,0,P|70:370|120:379,1,73.1250027894975,2|0,2:2|2:2,2:2:0:0:
150,304,14163,1,2,2:2:0:0:
291,368,14317,1,2,2:2:0:0:
385,249,14471,2,0,P|349:272|340:315,1,73.1250027894975,0|0,2:2|2:2,2:2:0:0:
239,152,14779,5,2,2:2:0:0:
317,191,14932,1,0,2:2:0:0:
322,181,15086,1,2,2:2:0:0:
489,164,15240,2,0,P|476:238|471:320,1,146.250005578995,2|0,2:2|2:2,2:2:0:0:
445,88,15702,6,0,P|411:91|389:125,1,73.1250027894975,2|0,2:2|2:2,2:2:0:0:
322,181,16009,2,0,P|354:37|499:21,1,292.5,2|2,2:2|2:2,2:2:0:0:
493,168,16548,1,2,2:2:0:0:
493,168,16625,6,0,P|444:82|384:152,1,195,2|0,2:2|2:2,2:2:0:0:
432,219,17086,1,2,2:2:0:0:
367,375,17240,2,0,P|329:325|346:277,1,97.5,2|0,2:2|2:2,2:2:0:0:
510,347,17471,1,0,2:2:0:0:
510,347,17548,2,0,B|445:366|420:323|426:317|405:281|333:295,1,195,2|0,2:2|2:2,2:2:0:0:
144,221,18009,1,2,2:2:0:0:
167,137,18163,2,0,P|216:151|234:211,1,97.5,2|0,2:2|2:2,2:2:0:0:
197,329,18394,1,0,2:2:0:0:
197,329,18471,2,0,P|181:227|163:111,1,195,2|0,2:2|2:2,2:2:0:0:
0,77,18932,5,2,2:2:0:0:
146,0,19086,2,0,P|193:8|213:68,1,97.5,2|0,2:2|2:2,2:2:0:0:
94,97,19317,1,0,2:2:0:0:
94,97,19394,2,0,P|77:51|119:4,1,97.5,2|0,2:2|2:2,2:2:0:0:
314,169,19702,2,0,P|267:149|222:136,1,97.5,2|0,2:2|2:2,2:2:0:0:
140,260,20009,2,0,P|89:266|43:277,1,97.5,2|0,2:2|2:2,2:2:0:0:
8,360,20240,1,0,2:2:0:0:
8,360,20317,2,0,B|-31:252|90:290|32:136,1,195,2|0,2:2|2:2,2:2:0:0:
63,92,20779,1,2,2:2:0:0:
190,204,20932,5,0,2:2:0:0:
160,327,21086,1,2,2:2:0:0:
277,373,21240,2,0,P|330:355|382:348,1,97.5,2|0,2:2|2:2,2:2:0:0:
512,232,21548,2,0,P|465:218|417:209,1,97.5,2|0,2:2|2:2,2:2:0:0:
264,77,21856,2,0,P|268:124|300:159,1,97.5,2|0,2:2|2:2,2:2:0:0:
342,239,22086,1,0,2:2:0:0:
342,239,22163,2,0,B|331:216|316:118|430:183|413:77|399:53,1,195,2|0,2:2|2:2,2:2:0:0:
188,0,22625,1,2,2:2:0:0:
156,123,22779,1,0,2:2:0:0:
40,172,22932,5,2,2:2:0:0:
6,296,23086,2,0,P|69:314|129:339,1,97.5,2|0,2:2|2:2,2:2:0:0:
302,370,23394,2,0,P|285:320|233:301,1,97.5,2|0,2:2|2:2,2:2:0:0:
417,237,23702,2,0,P|480:221|545:212,1,97.5,2|0,2:2|2:2,2:2:0:0:
434,326,23932,1,0,2:2:0:0:
434,326,24009,2,0,P|379:317|353:267,1,97.5,2|0,2:2|2:2,2:2:0:0:
244,134,24317,1,0,2:2:0:0:
303,21,24471,1,2,2:2:0:0:
162,122,24625,5,0,2:2:0:0:
196,252,24779,1,2,2:2:0:0:
196,252,24856,1,0,2:2:0:0:
196,252,24932,2,0,P|100:212|-9:191,1,195,2|0,2:2|2:2,2:2:0:0:
149,53,25394,1,2,2:2:0:0:
35,11,25548,2,0,P|67:61|83:109,1,97.5,2|0,2:2|2:2,2:2:0:0:
14,198,25779,1,0,2:2:0:0:
14,198,25856,2,0,P|76:128|216:112,1,195,2|0,2:2|2:2,2:2:0:0:
283,211,26317,1,2,2:2:0:0:
388,43,26471,6,0,P|381:98|376:156,1,97.5,2|0,2:2|2:2,2:2:0:0:
158,182,26779,2,0,P|172:228|249:234,1,97.5,2|0,2:2|2:2,2:2:0:0:
284,76,27086,2,0,P|232:86|183:106,1,97.5,2|0,2:2|2:2,2:2:0:0:
5,81,27394,2,0,P|7:21|39:-1,1,97.5,2|0,2:2|2:2,2:2:0:0:
132,0,27625,1,0,2:2:0:0:
132,0,27702,2,0,P|112:112|110:213,1,195,2|0,2:2|2:2,2:2:0:0:
8,294,28163,1,2,2:2:0:0:
119,361,28317,1,0,2:2:0:0:
0,378,28471,2,0,P|28:366|71:355,1,48.75,2|0,2:2|2:2,2:2:0:0:
151,284,28625,6,0,P|208:292|272:311,1,97.5,2|0,2:2|2:2,2:2:0:0:
386,193,28932,2,0,P|420:238|452:297,1,97.5,2|0,2:2|2:2,2:2:0:0:
267,176,29240,2,0,P|265:117|313:89,1,97.5,2|0,2:2|2:2,2:2:0:0:
414,83,29471,1,0,2:2:0:0:
414,83,29548,2,0,P|363:114|315:86,1,97.5,2|0,2:2|2:2,2:2:0:0:
171,0,29856,2,0,P|179:53|185:110,1,97.5,2|0,2:2|2:2,2:2:0:0:
20,165,30163,2,0,P|69:184|122:207,1,97.5,2|0,2:2|2:2,2:2:0:0:
74,78,30394,1,0,2:2:0:0:
74,78,30471,2,0,P|28:93|14:142,1,97.5,2|0,2:2|2:2,2:2:0:0:
227,183,30779,2,0,P|211:240|202:301,1,97.5,2|0,2:2|2:2,2:2:0:0:
26,368,31086,2,0,P|58:307|126:316,1,146.25,2|0,2:2|2:2,2:2:0:0:
261,365,31394,6,0,P|203:279|134:333,1,195,2|0,2:2|2:2,2:2:0:0:
227,183,31855,1,0,2:2:0:0:
137,126,32009,2,0,P|191:117|244:104,1,97.5,2|0,2:2|2:2,2:2:0:0:
329,182,32240,1,0,2:2:0:0:
329,182,32317,2,0,B|287:128|317:89|325:92|350:59|310:-1,1,195,2|0,2:2|2:2,2:2:0:0:
227,183,32778,1,2,2:2:0:0:
333,293,32932,2,0,P|384:255|426:250,1,97.5,2|0,2:2|2:2,2:2:0:0:
505,191,33163,1,0,2:2:0:0:
505,191,33240,2,0,P|469:110|377:141,1,195,2|0,2:2|2:2,2:2:0:0:
333,305,33701,5,2,2:2:0:0:
187,243,33855,2,0,P|231:226|279:268,1,97.5,2|0,2:2|2:2,2:2:0:0:
207,341,34086,1,0,2:2:0:0:
207,341,34163,2,0,P|170:310|182:248,1,97.5,2|0,2:2|2:2,2:2:0:0:
288,149,34471,2,0,P|281:208|284:260,1,97.5,2|0,2:2|2:2,2:2:0:0:
59,171,34779,2,0,P|109:159|138:110,1,97.5,2|0,2:2|2:2,2:2:0:0:
61,36,35009,1,0,2:2:0:0:
61,36,35086,2,0,B|164:86|139:-39|286:35,1,195,2|0,2:2|2:2,2:2:0:0:
337,136,35548,1,2,2:2:0:0:
469,90,35701,5,0,2:2:0:0:
448,216,35856,2,0,P|458:255|489:277,1,48.75,2|0,2:2|2:2,2:2:0:0:
329,139,36009,2,0,P|274:130|217:158,1,97.5,2|0,2:2|2:2,2:2:0:0:
63,243,36317,2,0,P|118:252|175:224,1,97.5,2|0,2:2|2:2,2:2:0:0:
150,114,36625,2,0,P|153:164|161:210,1,97.5,2|0,2:2|2:2,2:2:0:0:
245,316,36855,1,0,2:2:0:0:
245,316,36932,2,0,B|243:290|207:198|140:311|102:211|102:183,1,195,2|0,2:2|2:2,2:2:0:0:
150,114,37394,1,0,2:2:0:0:
54,84,37548,2,0,P|83:38|149:42,1,97.5,2|0,2:2|2:2,2:2:0:0:
250,86,37779,1,0,2:2:0:0:
250,86,37856,2,0,P|204:57|212:-8,1,97.5,2|0,2:2|2:2,2:2:0:0:
339,0,38163,2,0,P|354:28|334:1,1,97.5,0|0,2:2|2:2,2:2:0:0:
512,102,38471,6,0,P|464:110|416:123,1,97.5,2|0,2:2|2:2,2:2:0:0:
449,250,38701,1,0,2:2:0:0:
449,250,38779,2,0,P|343:183|240:192,1,195,2|0,2:2|2:2,2:2:0:0:
146,245,39240,1,2,2:2:0:0:
290,85,39394,2,0,P|278:132|275:180,1,97.5,2|0,2:2|2:2,2:2:0:0:
447,261,39625,1,0,2:2:0:0:
447,261,39702,2,0,P|341:194|238:203,1,195,2|0,2:2|2:2,2:2:0:0:
144,257,40163,1,2,2:2:0:0:
288,97,40317,2,0,P|276:144|273:192,1,97.5,2|0,2:2|2:2,2:2:0:0:
445,273,40548,1,0,2:2:0:0:
445,273,40626,2,0,P|319:267|234:327,1,195,2|0,2:2|2:2,2:2:0:0:
139,276,41086,1,2,2:2:0:0:
121,129,41240,6,0,P|176:138|203:182,1,97.5,2|0,2:2|2:2,2:2:0:0:
389,335,41548,2,0,B|275:293|316:417|200:380,1,195,2|0,2:2|2:2,2:2:0:0:
35,250,42009,1,2,2:2:0:0:
86,184,42163,2,0,P|119:217|114:264,1,97.5,2|0,2:2|2:2,2:2:0:0:
116,381,42394,1,0,2:2:0:0:
116,381,42471,2,0,P|103:286|69:172,1,195,2|0,2:2|2:2,2:2:0:0:
198,227,42932,1,2,2:2:0:0:
297,89,43086,2,0,P|289:144|285:210,1,97.5,2|0,2:2|2:2,2:2:0:0:
200,233,43317,1,0,2:2:0:0:
200,233,43394,2,0,P|211:141|221:12,1,195,2|0,2:2|2:2,2:2:0:0:
2,90,43856,5,2,2:2:0:0:
71,187,44009,2,0,P|133:196|176:215,1,97.5,2|0,2:2|2:2,2:2:0:0:
390,66,44317,2,0,P|298:98|301:211,1,195,2|0,2:2|2:2,2:2:0:0:
382,296,44779,1,2,2:2:0:0:
195,338,44932,2,0,P|218:302|293:313,1,97.5,2|0,2:2|2:2,2:2:0:0:
463,384,45240,2,0,P|469:282|478:181,1,195,2|0,2:2|2:2,2:2:0:0:
390,66,45702,1,0,2:2:0:0:
285,185,45856,1,2,2:2:0:0:
207,79,46009,1,2,2:2:0:0:
53,17,46172,6,0,P|61:41|65:72,1,48.75,2|0,2:2|2:2,2:2:0:0:
0,135,46787,6,0,P|41:170|61:202,1,85.3125,2|0,2:2|2:2,2:2:0:0:
193,204,47402,2,0,P|152:239|132:271,1,85.3125,2|0,2:2|2:2,2:2:0:0:
125,153,48018,5,2,2:2:0:0:
125,153,48094,2,0,P|136:116|138:90,1,60.9375,2|2,2:2|2:2,2:2:0:0:
205,58,48633,2,0,P|233:69|242:85,1,48.75,2|2,2:2|2:2,2:2:0:0:
296,186,49248,6,0,P|309:169|327:160,1,36.5625,2|0,2:2|2:2,2:2:0:0:
333,170,49556,2,0,P|321:183|305:193,1,36.5625,2|0,2:2|2:2,2:2:0:0:
351,18,49864,6,0,P|322:58|327:99,1,85.3125,2|0,2:2|2:2,2:2:0:0:
409,163,50479,2,0,P|408:204|382:237,1,85.3125,2|0,2:2|2:2,2:2:0:0:
460,290,51095,2,0,P|418:289|385:263,1,85.3125,2|0,2:2|2:2,2:2:0:0:
298,191,51710,5,2,2:2:0:0:
298,191,51787,2,0,P|255:174|220:182,1,73.125,2|0,2:2|2:2,2:2:0:0:
180,310,52325,2,0,P|195:277|246:255,1,85.3125,2|0,2:2|2:2,2:2:0:0:
329,338,52941,6,0,P|330:320|320:304,1,36.5625,2|0,2:2|2:2,2:2:0:0:
302,305,53248,2,0,P|301:323|311:339,1,36.5625,2|0,2:2|2:2,2:2:0:0:
179,310,53556,6,0,P|137:320|113:354,1,85.3125,2|0,2:2|2:2,2:2:0:0:
190,317,54172,2,0,P|201:276|183:238,1,85.3125,2|0,2:2|2:2,2:2:0:0:
87,189,54787,2,0,P|117:219|158:223,1,85.3125,2|0,2:2|2:2,2:2:0:0:
198,125,55402,5,2,2:2:0:0:
198,125,55479,2,0,P|232:110|272:117,1,73.125,2|0,2:2|2:2,2:2:0:0:
330,201,56018,2,0,P|300:179|286:124,1,85.3125,2|0,2:2|2:2,2:2:0:0:
395,53,56633,6,0,P|375:41|356:38,1,36.5625,2|0,2:2|2:2,2:2:0:0:
356,48,56941,2,0,P|372:58|389:62,1,36.5625,2|0,2:2|2:2,2:2:0:0:
512,127,57248,6,0,P|468:123|429:150,1,85.3125,2|0,2:2|2:2,2:2:0:0:
391,220,57864,2,0,P|355:241|314:236,1,85.3125,2|0,2:2|2:2,2:2:0:0:
281,147,58479,2,0,P|302:183|292:234,1,85.3125,2|0,2:2|2:2,2:2:0:0:
231,265,59070,6,2,P|229:261|225:258,2,9.75,2|2|2,2:2|2:2|2:2,2:2:0:0:
256,192,60070,12,0,60762,2:2:0:0:
0,265,60932,6,0,P|97:233|205:215,1,195,2|0,2:2|2:2,2:2:0:0:
256,84,61393,1,2,2:2:0:0:
407,141,61547,1,2,2:2:0:0:
332,237,61701,1,0,2:2:0:0:
393,46,61855,2,0,B|364:151|478:113|438:247,1,195,2|0,2:2|2:2,2:2:0:0:
489,357,62316,1,2,2:2:0:0:
337,257,62470,2,0,P|286:262|233:276,1,97.5,2|0,2:2|2:2,2:2:0:0:
130,123,62778,6,0,P|201:89|244:205,1,195,2|0,2:2|2:2,2:2:0:0:
396,47,63239,1,2,2:2:0:0:
348,190,63393,1,2,2:2:0:0:
301,16,63547,1,0,2:2:0:0:
510,144,63701,2,0,P|398:105|304:92,1,195,2|0,2:2|2:2,2:2:0:0:
186,185,64162,1,2,2:2:0:0:
31,31,64316,2,0,P|81:46|91:111,1,97.5,2|0,2:2|2:2,2:2:0:0:
0,270,64624,6,0,P|58:194|195:172,1,195,2|0,2:2|2:2,2:2:0:0:
294,222,65085,1,2,2:2:0:0:
310,93,65239,1,2,2:2:0:0:
202,239,65393,1,0,2:2:0:0:
306,302,65547,2,0,P|360:286|400:278,1,97.5,2|0,2:2|2:2,2:2:0:0:
170,359,65855,2,0,P|115:374|75:382,1,97.5,2|0,2:2|2:2,2:2:0:0:
202,239,66162,1,2,2:2:0:0:
256,384,66316,1,2,2:2:0:0:
373,215,66470,6,0,P|445:211|502:312,1,195,2|0,2:2|2:2,2:2:0:0:
335,364,66932,1,2,2:2:0:0:
363,210,67085,1,2,2:2:0:0:
178,132,67239,1,0,2:2:0:0:
284,54,67393,2,2,P|319:104|302:158,1,97.5,2|2,2:2|2:2,2:2:0:0:
239,198,67624,1,2,2:2:0:0:
239,198,67701,2,0,P|238:245|269:281,1,97.5,2|0,2:2|2:2,2:2:0:0:
368,217,68008,1,2,2:2:0:0:
215,104,68162,1,2,2:2:0:0:
377,221,68316,6,0,P|378:129|310:164,1,195,2|0,2:2|2:2,2:2:0:0:
269,281,68778,1,2,2:2:0:0:
406,344,68932,1,2,2:2:0:0:
312,155,69085,1,0,2:2:0:0:
160,320,69239,2,0,P|175:222|204:112,1,195,2|0,2:2|2:2,2:2:0:0:
280,39,69701,1,2,2:2:0:0:
73,3,69855,2,0,P|123:23|132:84,1,97.5,2|0,2:2|2:2,2:2:0:0:
0,167,70162,6,0,B|115:141|57:260|194:228,1,195,2|0,2:2|2:2,2:2:0:0:
192,110,70624,1,2,2:2:0:0:
0,167,70778,1,2,2:2:0:0:
111,304,70932,1,0,2:2:0:0:
62,88,71085,2,0,P|122:30|254:54,1,195,2|0,2:2|2:2,2:2:0:0:
336,169,71547,1,2,2:2:0:0:
438,54,71701,2,0,P|423:114|414:177,1,97.5,2|0,2:2|2:2,2:2:0:0:
507,324,72008,6,0,P|456:296|318:262,1,195,2|0,2:2|2:2,2:2:0:0:
170,194,72470,1,2,2:2:0:0:
98,354,72624,1,2,2:2:0:0:
4,229,72778,1,0,2:2:0:0:
106,358,72932,2,0,L|128:129,1,195,2|0,2:2|2:2,2:2:0:0:
230,22,73393,1,2,2:2:0:0:
130,77,73547,2,0,P|178:93|202:142,1,97.5,2|0,2:2|2:2,2:2:0:0:
421,0,73855,6,0,P|393:89|382:206,1,195,2|0,2:2|2:2,2:2:0:0:
457,330,74316,1,2,2:2:0:0:
304,245,74470,1,2,2:2:0:0:
496,157,74624,1,0,2:2:0:0:
307,66,74778,2,0,P|295:123|298:184,1,97.5,2|2,2:2|2:2,2:2:0:0:
353,316,75008,1,2,2:2:0:0:
335,324,75085,2,0,P|285:300|217:286,1,97.5,2|0,2:2|2:2,2:2:0:0:
10,225,75393,2,0,P|60:222|79:296,1,97.5,2|0,2:2|2:2,2:2:0:0:
35,345,75701,6,0,P|138:265|266:211,1,243.75,8|0,2:2|2:2,2:2:0:0:
344,320,76162,1,8,2:2:0:0:
383,149,76316,1,0,2:2:0:0:
249,297,76470,1,0,2:2:0:0:
388,140,76624,2,8,P|376:269|370:392,1,243.75,8|8,2:2|2:2,2:2:0:0:
298,238,77085,1,0,2:2:0:0:
446,318,77239,1,8,2:2:0:0:
255,384,77393,1,8,2:2:0:0:
457,320,77547,6,0,P|428:214|293:251,1,243.75,10|0,2:2|2:2,2:2:0:0:
370,383,78008,1,8,2:2:0:0:
140,331,78162,2,0,P|229:325|296:387,1,182.8125,0|0,2:2|2:2,2:2:0:0:
125,329,78470,2,0,P|122:273|197:241,1,121.875,10|0,2:2|2:2,2:2:0:0:
322,274,78778,1,8,2:2:0:0:
200,147,78932,1,0,2:2:0:0:
301,34,79085,2,0,P|290:103|287:171,1,121.875,8|0,2:2|2:2,2:2:0:0:
326,279,79316,5,0,2:2:0:0:
326,279,79393,2,0,B|323:260|284:197|223:224|225:238|157:263|117:193|120:169,1,243.75,10|0,2:2|2:2,2:2:0:0:
170,35,79855,1,8,2:2:0:0:
0,116,80008,1,0,2:2:0:0:
49,233,80162,1,0,2:2:0:0:
0,384,80316,2,0,P|120:295|231:324,1,243.75,10|8,2:2|2:2,2:2:0:0:
363,336,80778,1,0,2:2:0:0:
425,203,80932,1,8,2:2:0:0:
278,81,81085,1,8,2:2:0:0:
162,199,81239,6,0,P|267:172|288:279,1,243.75,10|0,2:2|2:2,2:2:0:0:
357,139,81701,1,8,2:2:0:0:
152,85,81855,1,0,2:2:0:0:
226,237,82008,1,0,2:2:0:0:
304,21,82162,2,0,P|260:67|285:130,1,121.875,10|0,2:2|2:2,2:2:0:0:
395,71,82470,1,8,2:2:0:0:
217,48,82624,1,0,2:2:0:0:
415,191,82778,2,0,P|410:132|390:48,1,121.875,0|0,2:2|2:2,2:2:0:0:
466,0,83008,5,0,2:2:0:0:
466,0,83085,2,0,P|486:129|514:246,1,243.75,10|0,2:2|2:2,2:2:0:0:
316,184,83547,1,8,2:2:0:0:
484,345,83701,1,0,2:2:0:0:
313,384,83855,1,0,2:2:0:0:
418,207,84008,2,8,B|270:154|340:310|171:251,1,243.75,8|8,2:2|2:2,2:2:0:0:
78,128,84470,1,0,2:2:0:0:
264,4,84624,1,8,2:2:0:0:
220,169,84778,1,0,2:2:0:0:
33,240,84932,6,0,P|146:234|186:341,1,243.75,8|0,2:2|2:2,2:2:0:0:
81,124,85393,2,0,P|20:125|9:199,1,121.875,8|0,2:2|2:2,2:2:0:0:
100,296,85701,1,0,2:2:0:0:
303,167,85855,2,0,P|286:230|275:315,1,121.875,10|0,2:2|2:2,2:2:0:0:
153,150,86162,1,10,2:2:0:0:
196,346,86316,1,0,2:2:0:0:
160,146,86470,2,0,P|183:93|263:88,1,121.875,10|0,2:2|2:2,2:2:0:0:
21,28,86778,6,0,B|134:-33|126:141|271:65,1,243.75,10|0,2:2|2:2,2:2:0:0:
419,0,87239,1,8,2:2:0:0:
300,147,87393,1,2,2:2:0:0:
468,195,87547,1,0,2:2:0:0:
322,16,87701,2,0,P|335:91|351:158,1,121.875,10|0,2:2|2:2,2:2:0:0:
419,310,88008,1,10,2:2:0:0:
476,123,88162,1,0,2:2:0:0:
233,247,88316,2,0,P|311:258|361:286,1,121.875,10|0,2:2|2:2,2:2:0:0:
100,142,88624,5,10,2:2:0:0:
154,309,88778,1,0,2:2:0:0:
271,178,88932,1,8,2:2:0:0:
11,272,89085,5,8,2:2:0:0:
297,333,89239,1,0,2:2:0:0:
207,55,89393,1,8,2:2:0:0:
207,55,89470,1,8,2:2:0:0:
207,55,89547,1,8,2:2:0:0:
207,55,90470,6,0,B|225:-21|116:-35|93:40|121:128|220:147,1,292.50001115799,14|0,2:2|2:2,2:2:0:0:
356,92,90932,1,8,2:2:0:0:
330,309,91085,2,0,P|320:239|291:160,1,146.250005578995,2|0,2:2|2:2,2:2:0:0:
287,19,91316,1,0,2:2:0:0:
287,19,91393,2,0,P|356:5|372:91,1,146.250005578995,10|0,2:2|2:2,2:2:0:0:
512,153,91701,2,0,P|443:139|427:225,1,146.250005578995,8|0,2:2|2:2,2:2:0:0:
512,278,92008,1,10,2:2:0:0:
325,357,92162,1,8,2:2:0:0:
498,371,92316,6,0,P|446:245|308:279,1,292.50001115799,10|0,2:2|2:2,2:2:0:0:
159,365,92778,1,8,2:2:0:0:
20,186,92932,2,0,P|93:170|122:260,1,146.250005578995,2|0,2:2|2:2,2:2:0:0:
80,285,93162,1,0,2:2:0:0:
66,281,93239,1,10,2:2:0:0:
203,127,93393,1,0,2:2:0:0:
349,158,93547,2,0,P|328:231|319:328,1,146.250005578995,8|0,2:2|2:2,2:2:0:0:
378,384,93855,1,10,2:2:0:0:
220,267,94008,1,8,2:2:0:0:
0,232,94162,6,0,P|150:187|286:131,1,292.50001115799,10|0,2:2|2:2,2:2:0:0:
477,240,94624,1,8,2:2:0:0:
361,124,94778,1,0,2:2:0:0:
488,0,94932,1,0,2:2:0:0:
488,0,95008,1,0,2:2:0:0:
488,0,95085,2,0,P|511:54|436:109,1,146.250005578995,8|0,2:2|2:2,2:2:0:0:
284,19,95393,1,8,2:2:0:0:
330,209,95547,1,0,2:2:0:0:
209,106,95701,1,8,2:2:0:0:
33,63,95855,1,8,2:2:0:0:
27,216,96008,6,0,B|-25:173|26:87|135:112|142:279|63:326,1,292.50001115799,8|0,2:2|2:2,2:2:0:0:
196,384,96470,1,8,2:2:0:0:
0,289,96624,1,0,2:2:0:0:
208,188,96778,1,0,2:2:0:0:
208,188,96855,1,0,2:2:0:0:
208,188,96932,1,8,2:2:0:0:
119,22,97085,1,0,2:2:0:0:
333,117,97239,2,0,P|303:192|230:193,1,146.250005578995,8|0,2:2|2:2,2:2:0:0:
273,11,97547,1,10,2:2:0:0:
433,63,97701,1,8,2:2:0:0:
512,230,97855,6,0,B|414:187|368:248|386:258|339:319|242:282,1,292.50001115799,10|0,2:2|2:2,2:2:0:0:
408,137,98316,1,8,2:2:0:0:
188,88,98470,2,0,P|240:138|205:244,1,146.250005578995,2|0,2:2|2:2,2:2:0:0:
117,279,98701,1,0,2:2:0:0:
117,279,98778,2,0,P|147:243|266:209,1,146.250005578995,10|0,2:2|2:2,2:2:0:0:
434,47,99085,2,0,P|403:82|284:116,1,146.250005578995,8|0,2:2|2:2,2:2:0:0:
151,41,99393,1,10,2:2:0:0:
12,126,99547,1,8,2:2:0:0:
116,286,99701,6,0,P|258:315|402:392,1,292.50001115799,10|0,2:2|2:2,2:2:0:0:
244,201,100162,1,8,2:2:0:0:
437,153,100316,2,0,P|361:157|358:239,1,146.250005578995,2|0,2:2|2:2,2:2:0:0:
393,293,100547,1,0,2:2:0:0:
379,286,100624,1,10,2:2:0:0:
238,205,100778,1,0,2:2:0:0:
116,286,100932,2,0,P|191:316|249:366,1,146.250005578995,8|0,2:2|2:2,2:2:0:0:
345,215,101239,1,10,2:2:0:0:
244,68,101393,1,8,2:2:0:0:
441,161,101547,6,0,B|420:137|276:98|342:269|199:232|173:207,1,292.50001115799,10|0,2:2|2:2,2:2:0:0:
379,286,102008,1,8,2:2:0:0:
263,119,102162,2,0,P|195:133|172:212,1,146.250005578995,0|0,2:2|2:2,2:2:0:0:
48,292,102393,1,0,2:2:0:0:
48,292,102470,2,0,P|71:227|27:156,1,146.250005578995,10|0,2:2|2:2,2:2:0:0:
0,0,102778,2,0,P|44:52|127:49,1,146.250005578995,8|0,2:2|2:2,2:2:0:0:
308,15,103085,1,8,2:2:0:0:
246,208,103239,1,8,2:2:0:0:
311,23,103393,6,0,P|471:39|481:181,1,292.50001115799,10|0,2:2|2:2,2:2:0:0:
444,302,103855,1,8,2:2:0:0:
242,211,104008,2,0,P|313:229|388:278,1,146.250005578995,2|0,2:2|2:2,2:2:0:0:
444,302,104239,1,0,2:2:0:0:
456,312,104316,1,10,2:2:0:0:
507,147,104470,1,0,2:2:0:0:
342,196,104624,1,8,2:2:0:0:
395,364,104778,1,0,2:2:0:0:
212,323,104932,1,8,2:2:0:0:
91,173,105085,1,8,2:2:0:0:
255,70,105239,6,0,B|273:112|256:271|130:132|111:286|143:334,1,292.50001115799,14|0,2:2|2:2,2:2:0:0:
278,178,105701,1,8,2:2:0:0:
50,75,105855,2,0,P|125:64|193:35,1,146.250005578995,2|0,2:2|2:2,2:2:0:0:
352,0,106162,1,10,2:2:0:0:
424,196,106316,1,0,2:2:0:0:
358,5,106470,2,0,P|440:12|456:96,1,146.250005578995,8|0,2:2|2:2,2:2:0:0:
276,185,106778,1,10,2:2:0:0:
399,233,106932,1,8,2:2:0:0:
505,384,107085,6,0,P|375:342|195:324,1,292.50001115799,10|0,2:2|2:2,2:2:0:0:
327,174,107547,1,8,2:2:0:0:
472,294,107701,2,0,P|398:272|328:258,1,146.250005578995,2|0,2:2|2:2,2:2:0:0:
250,253,107932,1,0,2:2:0:0:
252,238,108008,1,10,2:2:0:0:
346,97,108162,1,0,2:2:0:0:
180,0,108316,1,8,2:2:0:0:
317,180,108470,1,0,2:2:0:0:
365,0,108624,1,10,2:2:0:0:
194,164,108778,1,8,2:2:0:0:
0,147,108932,6,0,B|156:92|108:268|287:199,1,292.50001115799,10|0,2:2|2:2,2:2:0:0:
293,27,109393,1,8,2:2:0:0:
501,146,109547,2,0,P|431:146|405:60,1,146.250005578995,0|0,2:2|2:2,2:2:0:0:
440,19,109778,1,0,2:2:0:0:
426,16,109855,1,8,2:2:0:0:
281,131,110008,1,0,2:2:0:0:
402,322,110162,1,8,2:2:0:0:
189,162,110316,1,0,2:2:0:0:
434,250,110470,1,8,2:2:0:0:
219,380,110624,1,8,2:2:0:0:
374,82,110778,6,0,P|351:218|334:376,1,292.50001115799,10|0,2:2|2:2,2:2:0:0:
497,215,111239,1,8,2:2:0:0:
234,111,111393,2,0,P|256:181|265:255,1,146.250005578995,0|0,2:2|2:2,2:2:0:0:
185,350,111624,1,0,2:2:0:0:
185,350,111701,2,0,P|132:288|72:265,1,146.250005578995,8|0,2:2|2:2,2:2:0:0:
335,367,112008,2,0,P|416:373|475:347,1,146.250005578995,8|0,2:2|2:2,2:2:0:0:
321,157,112316,1,10,2:2:0:0:
471,331,112470,1,8,2:2:0:0:
512,130,112624,6,0,B|493:112|316:76|416:255|241:212|224:163,1,292.50001115799,10|0,2:2|2:2,2:2:0:0:
147,83,113085,1,8,2:2:0:0:
211,298,113239,2,0,P|170:230|74:229,1,146.250005578995,2|0,2:2|2:2,2:2:0:0:
0,140,113547,1,10,2:2:0:0:
119,14,113701,1,0,2:2:0:0:
289,45,113855,2,0,P|260:125|247:217,1,146.250005578995,8|0,2:2|2:2,2:2:0:0:
462,104,114162,1,10,2:2:0:0:
333,221,114316,1,8,2:2:0:0:
441,368,114470,6,0,P|340:260|192:326,1,292.50001115799,10|0,2:2|2:2,2:2:0:0:
0,224,114932,1,8,2:2:0:0:
90,384,115085,2,0,P|137:335|121:263,1,146.250005578995,2|0,2:2|2:2,2:2:0:0:
0,233,115316,1,0,2:2:0:0:
0,233,115393,2,0,P|49:280|121:264,1,146.250005578995,10|0,2:2|2:2,2:2:0:0:
143,83,115701,1,8,2:2:0:0:
262,192,115855,1,0,2:2:0:0:
13,150,116008,1,10,2:2:0:0:
288,95,116162,1,8,2:2:0:0:
59,2,116316,6,0,P|145:39|162:238,1,292.50001115799,10|0,2:2|2:2,2:2:0:0:
15,145,116778,1,8,2:2:0:0:
263,274,116932,2,0,P|329:231|397:202,1,146.250005578995,0|0,2:2|2:2,2:2:0:0:
162,311,117239,2,0,P|50:351|82:236,1,292.50001115799,8|8,2:2|2:2,2:2:0:0:
273,384,117701,1,0,2:2:0:0:
357,261,117855,1,10,2:2:0:0:
501,218,118008,1,10,2:2:0:0:
297,89,118162,6,0,B|263:40|329:-34|416:29|409:142|317:196,1,292.50001115799,10|0,2:2|2:2,2:2:0:0:
437,350,118624,1,8,2:2:0:0:
268,233,118778,1,0,2:2:0:0:
96,302,118932,1,0,2:2:0:0:
32,94,119085,2,0,P|93:80|149:148,1,146.250005578995,10|0,2:2|2:2,2:2:0:0:
347,252,119393,2,0,P|285:265|229:197,1,146.250005578995,8|0,2:2|2:2,2:2:0:0:
438,0,119701,2,0,P|406:97|417:231,1,219.375008368492,10|0,2:2|2:2,2:2:0:0:
492,314,120008,6,0,P|364:224|198:218,1,292.50001115799,14|0,2:2|2:2,2:2:0:0:
103,325,120470,1,8,2:2:0:0:
8,176,120624,2,0,P|87:156|178:123,1,146.250005578995,2|0,2:2|2:2,2:2:0:0:
289,0,120855,1,0,2:2:0:0:
289,0,120932,2,0,P|224:1|212:91,1,146.250005578995,10|0,2:2|2:2,2:2:0:0:
292,283,121239,1,8,2:2:0:0:
143,192,121393,1,0,2:2:0:0:
336,69,121547,1,10,2:2:0:0:
384,195,121701,1,8,2:2:0:0:
84,0,121855,6,0,P|113:147|129:312,1,292.50001115799,10|0,2:2|2:2,2:2:0:0:
253,151,122316,1,8,2:2:0:0:
387,356,122470,2,0,P|329:288|246:313,1,146.250005578995,2|0,2:2|2:2,2:2:0:0:
88,367,122701,1,0,2:2:0:0:
88,367,122778,2,0,P|175:350|195:266,1,146.250005578995,10|0,2:2|2:2,2:2:0:0:
413,141,123085,2,0,P|325:157|305:241,1,146.250005578995,10|0,2:2|2:2,2:2:0:0:
32,267,123393,2,0,P|118:243|194:230,1,146.250005578995,10|0,2:2|2:2,2:2:0:0:
484,366,123701,6,0,P|460:237|340:286,1,292.50001115799,10|0,2:2|2:2,2:2:0:0:
512,155,124162,1,8,2:2:0:0:
375,0,124316,2,0,P|403:90|416:178,1,146.250005578995,0|0,2:2|2:2,2:2:0:0:
308,384,124624,1,10,2:2:0:0:
252,282,124778,1,0,2:2:0:0:
155,198,124932,1,10,2:2:0:0:
0,153,125085,1,0,2:2:0:0:
215,59,125239,1,10,2:2:0:0:
4,160,125393,1,8,2:2:0:0:
218,69,125547,6,0,B|179:209|378:142|335:303,1,292.50001115799,10|0,2:2|2:2,2:2:0:0:
217,370,126008,1,8,2:2:0:0:
455,219,126162,2,0,P|418:282|409:355,1,146.250005578995,2|0,2:2|2:2,2:2:0:0:
194,276,126393,1,0,2:2:0:0:
194,276,126470,2,0,P|285:281|349:310,1,146.250005578995,10|0,2:2|2:2,2:2:0:0:
496,104,126778,1,10,2:2:0:0:
375,213,126932,1,0,2:2:0:0:
255,26,127085,2,0,P|276:107|284:194,1,146.250005578995,10|0,2:2|2:2,2:2:0:0:
8,379,127393,6,0,B|31:390|126:362|118:308|105:305|96:236|200:205|228:223,1,292.50001115799,10|0,2:2|2:2,2:2:0:0:
316,384,127855,1,8,2:2:0:0:
485,243,128008,2,0,P|450:181|364:186,1,146.250005578995,0|0,2:2|2:2,2:2:0:0:
243,296,128316,1,10,2:2:0:0:
393,358,128470,1,0,2:2:0:0:
315,216,128624,1,8,2:2:0:0:
120,96,128778,1,0,2:2:0:0:
315,118,128932,1,10,2:2:0:0:
134,187,129085,1,8,2:2:0:0:
0,0,129239,6,0,P|32:138|51:299,1,292.50001115799,10|0,2:2|2:2,2:2:0:0:
252,172,129701,1,8,2:2:0:0:
390,353,129855,2,0,P|338:312|246:292,1,146.250005578995,2|0,2:2|2:2,2:2:0:0:
419,55,130162,2,2,P|395:127|375:224,1,146.250005578995,10|0,2:2|2:2,2:2:0:0:
178,384,130470,2,0,P|166:310|141:240,1,146.250005578995,10|0,2:2|2:2,2:2:0:0:
356,280,130778,1,10,2:2:0:0:
244,98,130932,1,8,2:2:0:0:
444,140,131085,6,0,B|457:123|482:119|482:119|473:34|356:-25|274:32,1,292.50001115799,10|0,2:2|2:2,2:2:0:0:
240,248,131547,1,8,2:2:0:0:
109,26,131701,2,0,P|139:96|161:184,1,146.250005578995,0|0,2:2|2:2,2:2:0:0:
442,352,132008,2,0,P|391:280|308:288,1,146.250005578995,10|0,2:2|2:2,2:2:0:0:
111,373,132316,1,10,2:2:0:0:
244,242,132470,1,0,2:2:0:0:
16,146,132624,2,0,P|81:181|104:280,1,146.250005578995,10|0,2:2|2:2,2:2:0:0:
366,125,132932,6,0,P|286:116|253:182,1,146.250005578995,10|0,2:2|2:2,2:2:0:0:
330,384,133239,1,2,2:2:0:0:
177,242,133393,1,8,2:2:0:0:
0,218,133547,2,0,P|30:148|110:139,1,146.250005578995,2|0,2:2|2:2,2:2:0:0:
423,365,133855,6,0,P|353:338|349:248,1,146.250005578995,10|0,2:2|2:2,2:2:0:0:
492,20,134162,2,0,P|503:94|427:142,1,146.250005578995,10|0,2:2|2:2,2:2:0:0:
193,54,134470,2,0,P|92:51|38:167,1,219.375008368492,10|0,2:2|2:2,2:2:0:0:
97,192,134778,6,0,P|117:265|117:337,1,146.250005578995,2|0,2:2|2:2,2:2:0:0:
126,344,135393,1,2,2:2:0:0:
217,249,135547,1,2,2:2:0:0:
305,318,135701,2,0,P|284:362|242:375,1,73.1250027894975,2|0,2:2|2:2,2:2:0:0:
298,215,136008,2,0,P|343:197|382:217,1,73.1250027894975,2|0,2:2|2:2,2:2:0:0:
403,265,136239,1,2,2:2:0:0:
405,273,136316,1,2,2:2:0:0:
471,235,136470,1,2,2:2:0:0:
415,384,136624,6,0,P|459:376|498:374,1,73.1250027894975,2|0,2:2|2:2,2:2:0:0:
304,321,136932,2,0,P|260:313|221:311,1,73.1250027894975,2|0,2:2|2:2,2:2:0:0:
160,219,137239,1,2,2:2:0:0:
206,143,137393,1,2,2:2:0:0:
314,105,137547,2,0,P|306:148|302:187,1,73.1250027894975,2|0,2:2|2:2,2:2:0:0:
377,224,137855,1,2,2:2:0:0:
301,312,138008,2,0,P|353:263|434:258,1,146.250005578995,2|0,2:2|2:2,2:2:0:0:
479,376,138470,6,0,P|469:339|493:300,1,73.1250027894975,2|0,2:2|2:2,2:2:0:0:
512,155,138778,2,0,P|484:182|439:180,1,73.1250027894975,2|0,2:2|2:2,2:2:0:0:
387,114,139085,1,2,2:2:0:0:
418,12,139239,1,2,2:2:0:0:
302,0,139393,2,0,P|304:45|340:76,1,73.1250027894975,2|0,2:2|2:2,2:2:0:0:
493,68,139701,2,0,P|453:47|408:62,1,73.1250027894975,2|0,2:2|2:2,2:2:0:0:
387,114,139932,1,2,2:2:0:0:
389,121,140008,1,2,2:2:0:0:
320,65,140162,1,2,2:2:0:0:
226,16,140316,6,0,P|221:55|219:94,1,73.1250027894975,2|0,2:2|2:2,2:2:0:0:
104,182,140624,2,0,P|140:166|183:153,1,73.1250027894975,2|0,2:2|2:2,2:2:0:0:
292,256,140931,1,2,2:2:0:0:
203,227,141085,1,2,2:2:0:0:
138,321,141239,2,0,P|100:309|64:307,1,73.1250027894975,2|0,2:2|2:2,2:2:0:0:
5,251,141547,1,2,2:2:0:0:
104,182,141700,2,2,P|24:185|7:258,1,146.250005578995,2|2,2:2|2:2,2:2:0:0:
97,366,142162,6,0,P|88:323|50:303,1,73.1250027894975,2|0,2:2|2:2,2:2:0:0:
206,384,142470,2,0,P|247:373|283:368,1,73.1250027894975,2|0,2:2|2:2,2:2:0:0:
313,297,142777,1,2,2:2:0:0:
416,247,142932,1,2,2:2:0:0:
452,349,143085,2,0,P|407:347|376:311,1,73.1250027894975,2|0,2:2|2:2,2:2:0:0:
261,201,143393,2,0,P|306:203|337:239,1,73.1250027894975,2|0,2:2|2:2,2:2:0:0:
313,297,143624,1,2,2:2:0:0:
317,303,143700,1,2,2:2:0:0:
277,368,143854,1,2,2:2:0:0:
173,231,144008,6,0,P|167:270|157:302,1,73.1250027894975,2|0,2:2|2:2,2:2:0:0:
284,373,144316,2,0,P|275:336|270:301,1,73.1250027894975,2|0,2:2|2:2,2:2:0:0:
261,201,144623,1,2,2:2:0:0:
157,151,144777,1,2,2:2:0:0:
250,60,144932,2,0,P|233:102|229:144,1,73.1250027894975,2|0,2:2|2:2,2:2:0:0:
173,231,145239,1,2,2:2:0:0:
55,77,145392,2,0,P|78:153|152:149,1,146.250005578995,2|0,2:2|2:2,2:2:0:0:
323,49,145855,6,0,P|283:53|234:65,1,73.1250027894975,2|0,2:2|2:2,2:2:0:0:
423,139,146162,2,0,P|462:143|512:155,1,73.1250027894975,2|0,2:2|2:2,2:2:0:0:
315,176,146470,1,2,2:2:0:0:
431,60,146624,1,2,2:2:0:0:
431,60,146701,1,2,2:2:0:0:
431,60,146778,2,0,P|430:103|418:148,1,73.1250027894975,2|0,2:2|2:2,2:2:0:0:
389,251,147085,1,2,2:2:0:0:
247,86,147239,2,0,P|251:157|320:173,1,146.250005578995,2|0,2:2|2:2,2:2:0:0:
232,0,147701,6,0,P|194:3|171:27,1,73.1250027894975,2|0,2:2|2:2,2:2:0:0:
330,77,148008,2,0,P|344:43|335:11,1,73.1250027894975,2|0,2:2|2:2,2:2:0:0:
247,86,148316,1,2,2:2:0:0:
164,31,148470,1,2,2:2:0:0:
98,131,148624,2,0,P|135:115|173:104,1,73.1250027894975,2|0,2:2|2:2,2:2:0:0:
260,246,148932,5,2,2:2:0:0:
192,179,149085,1,2,2:2:0:0:
112,227,149239,1,2,2:2:0:0:
10,125,149393,1,2,2:2:0:0:
0,230,149547,6,0,P|35:218|54:180,1,73.1250027894975,2|0,2:2|2:2,2:2:0:0:
0,23,149855,2,0,P|-7:59|16:94,1,73.1250027894975,2|0,2:2|2:2,2:2:0:0:
95,125,150162,1,2,2:2:0:0:
170,38,150316,1,2,2:2:0:0:
301,129,150470,1,2,2:2:0:0:
212,166,150624,1,0,2:2:0:0:
248,50,150778,1,2,2:2:0:0:
303,137,150932,1,2,2:2:0:0:
244,42,151085,2,0,P|201:31|163:55,1,73.1250027894975,0|0,2:2|2:2,2:2:0:0:
309,220,151393,6,0,P|352:206|367:174,1,73.1250027894975,2|0,2:2|2:2,2:2:0:0:
169,56,151701,2,0,P|158:100|179:129,1,73.1250027894975,2|0,2:2|2:2,2:2:0:0:
232,173,152008,1,2,2:2:0:0:
322,83,152162,1,2,2:2:0:0:
430,113,152316,1,2,2:2:0:0:
465,183,152470,1,0,2:2:0:0:
364,245,152624,1,2,2:2:0:0:
388,320,152778,1,2,2:2:0:0:
491,299,152932,1,2,2:2:0:0:
462,381,153085,1,2,2:2:0:0:
364,245,153239,6,0,P|380:283|357:323,1,73.1250027894975,2|0,2:2|2:2,2:2:0:0:
221,347,153547,2,0,P|246:313|291:312,1,73.1250027894975,2|0,2:2|2:2,2:2:0:0:
325,380,153855,1,2,2:2:0:0:
364,245,154008,1,0,2:2:0:0:
291,160,154162,2,0,P|267:198|280:243,1,73.1250027894975,2|0,2:2|2:2,2:2:0:0:
436,106,154470,2,0,P|400:111|341:129,1,73.1250027894975,2|0,2:2|2:2,2:2:0:0:
295,74,154701,1,2,2:2:0:0:
287,78,154778,1,2,2:2:0:0:
216,178,154932,1,2,2:2:0:0:
96,91,155085,6,0,P|133:89|163:135,1,73.1250027894975,2|0,2:2|2:2,2:2:0:0:
103,222,155393,1,2,2:2:0:0:
194,257,155547,2,0,P|270:236|343:223,1,146.250005578995,2|0,2:2|2:2,2:2:0:0:
472,178,156008,2,0,P|435:184|416:224,1,73.1250027894975,2|0,2:2|2:2,2:2:0:0:
500,315,156316,2,0,P|475:286|432:289,1,73.1250027894975,2|0,2:2|2:2,2:2:0:0:
403,365,156547,1,2,2:2:0:0:
403,365,156624,2,0,P|366:354|327:345,1,73.1250027894975,2|0,2:2|2:2,2:2:0:0:
194,257,156932,6,0,P|217:288|210:334,1,73.1250027894975,2|0,2:2|2:2,2:2:0:0:
85,348,157239,2,0,P|70:310|89:269,1,73.1250027894975,2|0,2:2|2:2,2:2:0:0:
166,384,157547,1,2,2:2:0:0:
269,282,157701,1,2,2:2:0:0:
332,346,157855,1,2,2:2:0:0:
273,290,158008,1,0,2:2:0:0:
406,223,158162,1,2,2:2:0:0:
500,315,158316,2,0,P|504:231|511:163,1,146.250005578995,2|2,2:2|2:2,2:2:0:0:
335,135,158778,6,0,P|322:175|335:207,1,73.1250027894975,2|0,2:2|2:2,2:2:0:0:
500,315,159085,2,0,P|471:283|437:279,1,73.1250027894975,2|0,2:2|2:2,2:2:0:0:
378,372,159393,1,2,2:2:0:0:
275,281,159547,1,2,2:2:0:0:
210,345,159701,1,2,2:2:0:0:
128,320,159855,1,0,2:2:0:0:
215,335,160008,1,2,2:2:0:0:
176,219,160162,1,2,2:2:0:0:
95,156,160316,2,0,P|75:207|119:259,1,109.687504184246,2|0,2:2|2:2,2:2:0:0:
114,248,160624,5,2,2:2:0:0:
184,213,160778,1,2,2:2:0:0:
261,231,160932,1,2,2:2:0:0:
209,331,161085,1,2,2:2:0:0:
290,367,161239,1,2,2:2:0:0:
350,303,161393,1,0,2:2:0:0:
315,170,161547,5,2,2:2:0:0:
184,213,161701,1,2,2:2:0:0:
261,231,161855,1,2,2:2:0:0:
233,120,162008,1,2,2:2:0:0:
289,69,162162,1,2,2:2:0:0:
361,106,162316,1,0,2:2:0:0:
356,231,162470,5,2,2:2:0:0:
312,165,162624,1,0,2:2:0:0:
233,120,162778,1,2,2:2:0:0:
152,142,162932,1,2,2:2:0:0:
267,226,163085,1,2,2:2:0:0:
357,112,163239,1,2,2:2:0:0:
505,61,163393,6,0,P|502:77|501:93,2,24.3750009298325,2|2|2,2:2|2:2|2:2,2:2:0:0:
505,61,167188,6,0,B|506:50|506:50|497:49|497:49|496:60|496:60|504:61,1,32.5,0|0,2:2|2:2,2:2:0:0:
25,349,168008,5,10,2:2:0:0:
55,240,168316,2,0,B|75:194|75:194|66:248,1,97.5,2|0,2:2|2:2,2:2:0:0:
254,384,168932,5,10,2:2:0:0:
225,262,169240,2,0,B|204:216|204:216|213:270,1,97.5,2|0,2:2|2:2,2:2:0:0:
362,360,169855,5,10,2:2:0:0:
392,253,170162,1,2,2:2:0:0:
362,360,170470,6,0,L|353:318,3,24.375,2|2|2|2,2:2|2:2|2:2|2:2,2:2:0:0:
325,217,170778,5,10,2:2:0:0:
298,106,171085,2,0,P|376:94|398:175,1,170.625,2|0,2:2|2:2,2:2:0:0:
228,143,171701,5,10,2:2:0:0:
280,330,172008,1,2,2:2:0:0:
391,383,172316,2,0,L|415:379,3,24.375,2|2|2|2,2:2|2:2|2:2|2:2,2:2:0:0:
324,216,172624,5,10,2:2:0:0:
136,167,172931,1,2,2:2:0:0:
34,237,173239,1,2,2:2:0:0:
280,330,173547,5,10,2:2:0:0:
416,191,173855,1,2,2:2:0:0:
367,75,174162,5,10,2:2:0:0:
409,193,174316,1,2,2:2:0:0:
273,326,174470,2,0,B|272:327|270:328|270:328|270:331|270:331|267:329|267:329|266:330|265:331|265:331|263:328|263:328|263:332|263:332|262:332|261:332|261:332|261:335|261:335|258:333|258:333|257:334|257:334|257:334|254:331|254:331|254:334|254:334|253:334|252:335|252:335|250:338|250:338|249:335|249:335|248:335|247:335|247:335|244:333|244:333|244:337|244:337|243:337|242:337|242:337|240:339|240:339|239:336|239:336|238:336|237:337|237:337|234:334|234:334|234:337|234:337|233:337|232:337|232:337|230:341|230:341|229:338|229:338|228:337|227:337|227:337|225:334|225:334|224:337|224:337|223:338|222:337|222:337|220:340|220:340|219:337|219:337|217:336|216:336|216:336|215:334|215:334|213:336|213:336|212:336|211:336|211:336|210:338|210:338|208:336|208:336|207:336|206:335|206:335|206:332|206:332|204:334|204:334|203:334|202:333|202:333|199:337|199:337|199:333|199:333|198:333|197:332|197:332|196:329|196:329|195:331|195:331|194:332|192:331|192:331|190:333|190:333|189:330|189:330|188:329|187:329|187:329|188:325|188:325|185:328|185:328|184:327|183:327|183:327|180:328|180:328|181:325|181:325|179:324|178:325|178:325|179:320|179:320|176:323|176:323|175:322|175:321|175:321|171:324|171:324|172:319|172:319|171:319|171:319|171:316|171:316|168:317|168:317|167:316|166:316|166:316|163:318|163:318|164:314|164:314|163:313|163:313|163:310|163:310|160:311|160:311|159:310|159:309|159:309|155:311|155:311|157:307|157:307|156:307|155:307|155:307|156:302|156:302|152:304|152:304|151:303|151:303|148:305|148:305|149:300|149:300|148:301|148:300|148:300|148:297|148:297|145:298|145:298|144:297|143:296|143:296|140:298|140:298|141:295|141:295|140:294|140:294|140:290|140:290|138:292|138:292|136:291|135:290|135:290|132:292|132:292|133:289|133:289|132:288|132:288|131:285|131:285|129:286|129:286|127:285|127:285|125:287|125:287|124:284|124:284|123:283|123:283|123:279|123:279|120:281|120:281|119:280|119:280|116:282|116:282|115:279|115:279|114:279|113:278|113:278|113:275|113:275|111:277|111:277|110:277|109:277|109:277|106:279|106:279|106:275|106:275|105:275|104:275|104:275|103:272|103:272|102:274|102:274|101:274|100:274|100:274|97:276|97:276|97:273|97:273|95:273|94:273|94:273|94:270|94:270|91:272|91:272|90:272|89:271|89:271|88:275|88:275|86:272|86:272|85:271|85:271|84:268|84:268|82:271|82:271|80:271|80:271|78:274|78:274|77:271|77:271|75:270|75:270|74:268|74:268|72:271|72:271|71:271|70:271|70:271|68:273|68:273|67:271|67:271|66:271|65:271|65:271|62:268|62:268|62:271|62:271|61:271|60:272|60:272|58:275|58:275|57:272|57:272|56:272|55:272|55:272|53:270|53:270|52:273|52:273|51:273|50:273|50:273|50:277|50:277|47:274|47:274|46:274|45:275|45:275|43:272|43:272|42:275|42:275|41:276|40:276|40:276|40:279|40:279|37:277|37:277|37:278|36:278|36:278|33:275|33:275|33:279|33:279|32:280|31:280|31:280|31:284|31:284|28:282|28:282|27:282,1,473.781085502649,10|0,2:2|2:2,2:2:0:0:
79,345,175393,5,10,2:2:0:0:
101,245,175701,2,0,B|118:198|118:198|112:252,1,97.5,2|0,2:2|2:2,2:2:0:0:
278,323,176162,6,0,B|287:312|287:312|271:319,1,24.375,2|2,2:2|2:2,2:2:0:0:
235,381,176316,6,0,P|226:372|206:366,3,24.375,10|2|2|2,0:0|0:0|0:0|0:0,0:0:0:0:
209,288,176624,2,0,B|189:242|189:242|198:296,1,97.5,2|0,2:2|2:2,2:2:0:0:
432,384,177239,5,10,2:2:0:0:
466,271,177547,1,2,2:2:0:0:
432,384,177855,6,0,L|423:342,3,24.375,2|2|2|2,2:2|2:2|2:2|2:2,2:2:0:0:
399,229,178162,2,0,P|363:215|354:172,1,73.125,10|0,2:2|0:0,0:0:0:0:
383,113,178470,2,0,P|300:126|273:200,1,170.625,2|0,2:2|2:2,2:2:0:0:
239,352,179085,5,10,2:2:0:0:
83,232,179393,1,2,2:2:0:0:
100,108,179701,2,0,L|133:96,3,24.375,2|2|2|2,2:2|2:2|2:2|2:2,2:2:0:0:
296,9,180008,5,10,2:2:0:0:
270,204,180316,1,2,2:2:0:0:
154,251,180624,1,2,2:2:0:0:
222,93,180932,5,10,2:2:0:0:
403,18,181240,1,2,2:2:0:0:
502,94,181548,5,10,2:2:0:0:
402,25,181701,1,2,2:2:0:0:
223,100,181855,2,0,B|195:194|338:155|291:282,1,195,10|0,2:2|2:2,2:2:0:0:
499,376,182778,6,0,P|466:337|415:333,1,97.5,2|0,2:2|2:2,2:2:0:0:
300,378,183393,1,2,2:2:0:0:
97,256,183701,2,0,P|130:295|181:299,1,97.5,2|0,2:2|2:2,2:2:0:0:
296,254,184316,1,2,2:2:0:0:
168,98,184624,2,0,P|142:142|156:191,2,97.5,2|0|2,2:2|2:2|2:2,2:2:0:0:
348,109,185547,2,0,P|296:108|261:145,2,97.5,2|0|2,2:2|2:2|2:2,2:2:0:0:
493,15,186470,6,0,L|486:125,1,97.5,2|0,2:2|2:2,2:2:0:0:
428,196,187085,1,2,2:2:0:0:
512,330,187393,2,0,P|459:303|412:300,1,97.5,2|0,2:2|2:2,2:2:0:0:
334,361,188008,1,2,2:2:0:0:
222,249,188316,2,0,P|249:207|307:210,2,97.5,2|0|2,2:2|2:2|2:2,2:2:0:0:
188,382,189239,2,0,P|145:353|94:345,1,97.5,2|0,2:2|2:2,2:2:0:0:
10,271,189701,1,2,2:2:0:0:
116,192,189855,2,0,P|97:229|105:259,1,73.125,2|0,2:2|2:2,2:2:0:0:
122,280,190162,6,0,P|136:234|109:186,1,97.5,2|0,2:2|2:2,2:2:0:0:
29,138,190778,1,2,2:2:0:0:
208,49,191085,6,0,P|222:95|195:143,1,97.5,2|0,2:2|2:2,2:2:0:0:
115,191,191701,1,2,2:2:0:0:
290,124,192008,2,0,P|348:108|407:108,2,97.5,2|0|2,2:2|2:2|2:2,2:2:0:0:
233,228,192778,1,2,2:2:0:0:
233,228,192855,1,2,2:2:0:0:
233,228,192932,2,0,P|257:245|270:270,1,48.75,2|0,2:2|2:2,2:2:0:0:
184,380,193239,1,2,2:2:0:0:
111,338,193393,2,0,P|147:300|205:303,1,97.5,2|0,2:2|2:2,2:2:0:0:
380,374,193855,6,0,P|427:368|458:332,1,97.5,2|0,2:2|2:2,2:2:0:0:
463,242,194316,1,2,2:2:0:0:
384,215,194470,2,0,P|377:256|410:294,1,73.125,2|0,2:2|2:2,2:2:0:0:
299,311,194778,2,0,P|248:302|198:296,1,97.5,2|0,2:2|2:2,2:2:0:0:
0,249,195239,5,2,2:2:0:0:
91,215,195393,1,2,2:2:0:0:
164,279,195547,1,2,2:2:0:0:
111,384,195701,2,0,P|156:362|212:349,1,97.5,2|0,2:2|2:2,2:2:0:0:
308,164,196316,2,0,P|293:200|249:212,1,73.125,2|0,2:2|2:2,2:2:0:0:
255,204,196624,2,0,P|293:198|326:231,1,73.125,2|0,2:2|2:2,2:2:0:0:
461,239,196932,5,2,2:2:0:0:
512,157,197085,1,2,2:2:0:0:
455,78,197239,1,2,2:2:0:0:
363,111,197393,1,2,2:2:0:0:
271,44,197547,6,0,B|182:21|213:100|115:75,1,146.250005578995,2|0,2:2|2:2,2:2:0:0:
45,23,198008,1,2,2:2:0:0:
109,195,198162,2,0,P|153:191|177:161,1,73.1250027894975,2|0,2:2|2:2,2:2:0:0:
286,236,198470,2,0,P|218:167|97:210,1,219.375008368492,2|0,2:2|2:2,2:2:0:0:
131,315,199085,2,0,P|143:276|187:257,1,73.1250027894975,2|0,2:2|2:2,2:2:0:0:
270,381,199393,6,0,L|287:223,1,146.250005578995,2|0,2:2|2:2,2:2:0:0:
301,92,199855,1,2,2:2:0:0:
425,203,200008,2,0,P|392:176|349:171,1,73.1250027894975,2|0,2:2|2:2,2:2:0:0:
270,381,200316,2,0,P|286:276|394:281,1,219.375008368492,2|0,2:2|2:2,2:2:0:0:
506,384,200932,2,0,P|477:374|457:334,1,73.1250027894975,2|0,2:2|2:2,2:2:0:0:
507,195,201239,6,0,P|434:186|352:167,1,146.250005578995,2|0,2:2|2:2,2:2:0:0:
460,91,201701,1,2,2:2:0:0:
363,2,201855,2,0,P|337:31|344:68,1,73.1250027894975,0|0,2:2|2:2,2:2:0:0:
456,254,202162,2,0,P|431:189|360:170,1,146.250005578995,2|0,2:2|2:2,2:2:0:0:
254,239,202624,1,2,2:2:0:0:
140,143,202778,2,0,P|155:185|161:226,1,73.1250027894975,2|0,2:2|2:2,2:2:0:0:
34,361,203085,6,0,P|63:295|140:294,1,146.250005578995,2|0,2:2|2:2,2:2:0:0:
228,377,203547,1,2,2:2:0:0:
254,239,203701,2,2,P|221:270|231:318,1,73.1250027894975,0|0,2:2|2:2,2:2:0:0:
408,384,204008,2,0,P|357:328|272:346,1,146.250005578995,2|0,2:2|2:2,2:2:0:0:
377,246,204470,1,2,2:2:0:0:
495,282,204624,2,0,P|483:318|481:356,1,73.1250027894975,2|0,2:2|2:2,2:2:0:0:
461,176,204932,6,0,B|376:153|404:232|310:208,1,146.250005578995,2|0,2:2|2:2,2:2:0:0:
387,80,205393,1,2,2:2:0:0:
461,176,205547,2,0,P|482:136|471:103,1,73.1250027894975,0|0,2:2|2:2,2:2:0:0:
337,13,205855,2,0,P|356:85|368:160,1,146.250005578995,2|0,2:2|2:2,2:2:0:0:
271,223,206316,1,2,2:2:0:0:
334,345,206470,2,0,P|313:312|253:310,1,73.1250027894975,2|0,2:2|2:2,2:2:0:0:
181,311,206701,5,0,2:2:0:0:
181,311,206778,2,0,P|201:248|289:228,1,146.250005578995,2|0,2:2|2:2,2:2:0:0:
331,350,207239,1,2,2:2:0:0:
416,249,207393,2,0,P|406:292|402:335,1,73.1250027894975,0|0,2:2|2:2,2:2:0:0:
256,381,207701,2,0,P|189:351|108:345,1,146.250005578995,2|0,2:2|2:2,2:2:0:0:
20,271,208162,1,2,2:2:0:0:
135,186,208316,2,0,P|100:207|91:252,1,73.1250027894975,2|0,2:2|2:2,2:2:0:0:
221,305,208624,6,0,P|224:232|236:152,1,146.250005578995,2|0,2:2|2:2,2:2:0:0:
259,43,209085,1,2,2:2:0:0:
110,70,209239,2,0,P|140:100|180:104,1,73.1250027894975,0|0,2:2|2:2,2:2:0:0:
371,202,209547,2,0,P|315:171|227:160,1,146.250005578995,2|0,2:2|2:2,2:2:0:0:
177,25,210008,1,2,2:2:0:0:
323,0,210162,2,0,P|322:36|344:68,1,73.1250027894975,2|0,2:2|2:2,2:2:0:0:
490,148,210470,6,0,P|435:203|366:200,1,146.250005578995,2|0,2:2|2:2,2:2:0:0:
234,159,210932,1,2,2:2:0:0:
351,311,211085,2,0,B|257:300|305:378|207:366,1,146.250005578995,2|0,2:2|2:2,2:2:0:0:
30,269,211393,6,0,P|69:325|153:299,1,146.25,10|0,2:2|2:2,2:2:0:0:
0,384,211701,6,0,P|170:285|425:209,1,426.5625,0|0,2:2|2:2,2:2:0:0:
355,65,212316,6,0,P|474:15|498:139,1,292.50001115799,12|2,2:2|2:2,2:2:0:0:
370,301,212778,1,10,2:2:0:0:
411,146,212932,1,2,2:2:0:0:
254,0,213085,1,2,2:2:0:0:
484,216,213239,1,10,2:2:0:0:
244,102,213393,1,2,2:2:0:0:
497,139,213547,1,10,2:2:0:0:
348,61,213701,1,2,2:2:0:0:
300,287,213855,1,10,2:2:0:0:
464,208,214008,1,10,2:2:0:0:
512,19,214162,6,0,P|489:160|475:311,1,292.50001115799,8|2,2:2|2:2,2:2:0:0:
365,341,214624,1,10,2:2:0:0:
294,208,214778,1,2,2:2:0:0:
107,117,214932,1,2,2:2:0:0:
353,19,215085,1,10,2:2:0:0:
248,138,215239,1,2,2:2:0:0:
166,0,215393,1,10,2:2:0:0:
374,219,215547,1,2,2:2:0:0:
169,160,215701,1,10,2:2:0:0:
393,100,215855,1,10,2:2:0:0:
274,365,216008,6,0,B|258:285|157:241|91:284|91:284|124:308|125:348,1,292.50001115799,8|2,2:2|2:2,2:2:0:0:
298,195,216470,1,10,2:2:0:0:
357,32,216624,1,2,2:2:0:0:
159,0,216778,1,2,2:2:0:0:
394,175,216932,2,0,P|451:124|518:89,1,146.250005578995,10|0,2:2|2:2,2:2:0:0:
260,0,217239,1,10,2:2:0:0:
210,210,217393,1,2,2:2:0:0:
210,210,217470,1,2,2:2:0:0:
210,210,217547,1,10,2:2:0:0:
284,379,217701,1,10,2:2:0:0:
489,167,217855,6,0,P|419:176|383:254,1,146.250005578995,10|0,2:2|2:2,2:2:0:0:
503,384,218162,1,2,2:2:0:0:
266,258,218316,2,0,B|266:287|358:414|411:233|495:352|506:393,1,292.50001115799,10|2,2:2|2:2,2:2:0:0:
489,167,218701,1,0,2:2:0:0:
489,167,218778,2,8,P|424:215|434:293,1,146.250005578995,10|0,2:2|2:2,2:2:0:0:
281,173,219085,1,10,2:2:0:0:
365,368,219239,1,2,2:2:0:0:
266,258,219393,1,10,2:2:0:0:
101,294,219547,1,10,2:2:0:0:
96,62,219701,6,0,P|215:47|274:197,1,292.50001115799,8|2,2:2|2:2,2:2:0:0:
235,373,220162,1,10,2:2:0:0:
101,294,220316,1,2,2:2:0:0:
29,109,220470,1,2,2:2:0:0:
266,4,220624,2,2,P|198:24|172:119,1,146.250005578995,10|0,2:2|2:2,2:2:0:0:
391,187,220932,1,10,2:2:0:0:
233,384,221085,1,10,2:2:0:0:
362,289,221239,1,0,2:2:0:0:
199,175,221393,1,10,2:2:0:0:
405,0,221547,6,0,P|380:133|360:305,1,292.50001115799,10|0,2:2|2:2,2:2:0:0:
512,174,222008,1,10,2:2:0:0:
444,313,222162,1,2,2:2:0:0:
261,249,222316,1,2,2:2:0:0:
176,105,222470,2,0,P|244:93|289:147,1,146.250005578995,10|0,2:2|2:2,2:2:0:0:
200,351,222778,1,10,2:2:0:0:
288,166,222932,1,2,2:2:0:0:
185,20,223085,1,10,2:2:0:0:
58,6,223239,1,8,2:2:0:0:
0,173,223393,6,0,P|135:112|285:83,1,292.50001115799,10|0,2:2|2:2,2:2:0:0:
496,208,223855,1,10,2:2:0:0:
394,39,224008,2,0,P|355:103|377:181,1,146.250005578995,0|2,2:2|2:2,2:2:0:0:
479,384,224316,1,10,2:2:0:0:
337,242,224470,1,0,2:2:0:0:
185,209,224624,1,10,2:2:0:0:
374,325,224778,1,10,2:2:0:0:
444,96,224932,1,0,2:2:0:0:
268,220,225085,1,10,2:2:0:0:
126,56,225239,6,0,B|102:-5|171:-41|234:-7|242:99|124:146,1,292.50001115799,10|0,2:2|2:2,2:2:0:0:
16,384,225701,2,0,P|134:323|316:302,1,292.50001115799,10|0,2:2|2:2,2:2:0:0:
363,342,226085,1,0,2:2:0:0:
363,342,226162,1,10,2:2:0:0:
203,261,226316,1,0,2:2:0:0:
452,206,226470,1,10,2:2:0:0:
476,380,226624,1,0,2:2:0:0:
277,200,226778,1,10,2:2:0:0:
425,84,226932,1,0,2:2:0:0:
389,384,227085,6,0,P|366:234|321:92,1,292.50001115799,14|2,2:2|2:2,2:2:0:0:
448,213,227547,1,8,2:2:0:0:
274,194,227701,1,0,2:2:0:0:
175,384,227855,1,2,2:2:0:0:
442,210,228008,1,10,2:2:0:0:
222,290,228162,1,0,2:2:0:0:
441,217,228316,1,10,2:2:0:0:
199,146,228470,1,0,2:2:0:0:
278,382,228624,1,8,2:2:0:0:
322,89,228778,1,8,2:2:0:0:
148,294,228932,6,0,P|226:272|297:259,1,146.250005578995,10|0,2:2|2:2,2:2:0:0:
476,355,229239,1,2,2:2:0:0:
373,141,229393,2,0,P|450:134|475:205,1,146.250005578995,10|0,2:2|2:2,2:2:0:0:
388,368,229701,1,2,2:2:0:0:
268,180,229855,1,10,2:2:0:0:
117,123,230008,1,0,2:2:0:0:
306,253,230162,1,8,2:2:0:0:
472,62,230316,1,0,2:2:0:0:
390,287,230470,1,8,2:2:0:0:
351,45,230624,1,8,2:2:0:0:
512,312,230778,6,0,P|458:198|297:200,1,292.50001115799,10|0,2:2|2:2,2:2:0:0:
469,51,231239,1,10,2:2:0:0:
204,3,231393,2,0,P|230:80|247:164,1,146.250005578995,2|0,2:2|2:2,2:2:0:0:
365,384,231701,2,0,P|356:306|284:267,1,146.250005578995,10|0,2:2|2:2,2:2:0:0:
58,195,232008,1,10,2:2:0:0:
221,370,232162,1,2,2:2:0:0:
221,370,232239,1,2,2:2:0:0:
221,370,232316,1,10,2:2:0:0:
341,203,232470,1,8,2:2:0:0:
512,384,232624,6,0,P|384:348|191:318,1,292.50001115799,10|0,2:2|2:2,2:2:0:0:
10,122,233085,2,0,B|116:158|147:84|129:79|156:-1|298:41,1,292.50001115799,10|0,2:2|2:2,2:2:0:0:
348,12,233470,1,0,2:2:0:0:
348,12,233547,1,10,2:2:0:0:
292,170,233701,1,0,2:2:0:0:
504,288,233855,1,10,2:2:0:0:
395,160,234009,1,0,2:2:0:0:
217,372,234162,1,10,2:2:0:0:
389,307,234316,1,0,2:2:0:0:
199,74,234470,6,0,B|179:102|187:186|259:218|259:199|327:232|332:311|293:347,1,292.50001115799,10|0,2:2|2:2,2:2:0:0:
127,178,234932,1,10,2:2:0:0:
0,327,235085,2,0,P|74:342|161:382,1,146.250005578995,0|0,2:2|2:2,2:2:0:0:
380,184,235393,2,0,P|353:250|276:259,1,146.250005578995,10|0,2:2|2:2,2:2:0:0:
146,101,235701,1,8,2:2:0:0:
171,236,235855,1,2,2:2:0:0:
331,305,236008,1,8,2:2:0:0:
512,195,236162,1,8,2:2:0:0:
261,379,236316,6,0,P|337:341|416:318,1,146.250005578995,10|0,2:2|2:2,2:2:0:0:
455,116,236623,1,2,2:2:0:0:
212,44,236778,2,0,P|328:7|354:148,1,292.50001115799,10|0,2:2|2:2,2:2:0:0:
211,240,237239,1,10,2:2:0:0:
292,81,237392,1,0,2:2:0:0:
93,25,237546,1,8,2:2:0:0:
114,209,237700,1,2,2:2:0:0:
253,384,237854,1,8,2:2:0:0:
111,218,238008,1,8,2:2:0:0:
329,275,238162,6,0,B|151:224|233:384|45:329,1,292.50001115799,10|0,2:2|2:2,2:2:0:0:
233,171,238624,1,10,2:2:0:0:
36,44,238778,2,0,P|35:117|8:205,1,146.250005578995,0|0,2:2|2:2,2:2:0:0:
165,108,239008,1,0,2:2:0:0:
165,108,239085,2,0,P|231:86|318:117,1,146.250005578995,10|0,2:2|2:2,2:2:0:0:
478,310,239393,1,8,2:2:0:0:
297,225,239547,1,2,2:2:0:0:
247,384,239701,1,8,2:2:0:0:
387,349,239855,1,8,2:2:0:0:
505,190,240008,6,0,P|501:110|443:68,1,146.250005578995,10|0,2:2|2:2,2:2:0:0:
373,270,240316,1,2,2:2:0:0:
139,203,240470,2,0,P|212:231|431:350,1,292.50001115799,10|0,2:2|2:2,2:2:0:0:
382,160,240855,1,0,2:2:0:0:
382,160,240932,2,0,P|315:171|282:238,1,146.250005578995,10|0,2:2|2:2,2:2:0:0:
490,384,241239,2,0,P|513:320|471:258,1,146.250005578995,10|0,2:2|2:2,2:2:0:0:
128,361,241547,2,0,P|211:332|289:294,1,146.250005578995,10|0,2:2|2:2,2:2:0:0:
382,160,241855,6,0,B|399:90|511:113|519:210|432:317|265:293|216:163|329:6|481:62,1,560.625,6|0,2:2|2:2,2:2:0:0:
480,69,243701,2,0,B|458:94|280:97|414:4|254:7|229:40,1,268.125,2|0,2:2|2:2,2:2:0:0:
227,48,244624,2,0,P|104:9|61:134,1,268.125,2|0,2:2|2:2,2:2:0:0:
0,158,245547,2,0,B|233:175|233:175|323:184|264:247|350:258,1,365.625,2|0,2:2|2:2,2:2:0:0:
339,248,246778,6,0,P|293:246|264:273,1,73.125,2|0,2:2|2:2,2:2:0:0:
196,282,247085,2,0,P|242:284|271:257,1,73.125,2|0,2:2|2:2,2:2:0:0:
311,383,247393,2,0,B|239:316|266:145|362:121|362:121|376:152|411:165,1,365.625,2|0,2:2|2:2,2:2:0:0:
512,250,248624,2,0,P|467:177|375:191,1,170.625,2|0,2:2|2:2,2:2:0:0:
314,91,249239,6,0,B|282:20|389:-34|461:80|391:192|307:210|233:176,1,362.00495049505,2|0,2:2|2:2,2:2:0:0:
146,83,250483,2,0,P|172:110|174:153,1,73.125,2|0,2:2|2:2,2:2:0:0:
96,195,250804,2,0,P|123:169|166:167,1,73.125,2|0,2:2|2:2,2:2:0:0:
217,269,251127,6,0,P|174:230|185:165,1,109.687504184246,2|0,2:2|2:2,2:2:0:0:
223,289,251648,2,0,P|184:332|119:321,1,109.687504184246,2|0,2:2|2:2,2:2:0:0:
286,229,252171,2,0,P|342:241|369:291,1,97.5,2|0,2:2|2:2,2:2:0:0:
221,379,252700,2,0,P|207:328|233:277,1,97.5,2|0,2:2|2:2,2:2:0:0:
37,276,253282,6,0,B|55:258|180:228|126:394|269:353|288:324,1,268.125,2|0,2:2|2:2,2:2:0:0:
358,367,255423,6,0,P|334:243|420:314,1,304.199998143311,2|2,2:2|2:2,2:2:0:0:
333,243,260510,6,0,P|295:218|245:228,1,73.1250027894975,2|0,2:2|2:2,2:2:0:0:
166,321,260869,2,0,P|191:283|181:240,1,73.1250027894975,2|0,2:2|2:2,2:2:0:0:
133,193,261228,1,2,2:2:0:0:
239,97,261399,1,2,2:2:0:0:
114,2,261570,6,0,P|115:55|149:83,1,73.1250027894975,2|0,2:2|2:2,2:2:0:0:
303,120,261912,2,0,P|256:94|215:109,1,73.1250027894975,2|0,2:2|2:2,2:2:0:0:
177,149,262170,1,2,2:2:0:0:
183,156,262255,1,2,2:2:0:0:
234,18,262427,1,2,2:2:0:0:
373,140,262598,6,0,P|326:125|277:116,1,73.1250027894975,2|0,2:2|2:2,2:2:0:0:
362,20,262941,2,0,P|409:5|458:-4,1,73.1250027894975,2|0,2:2|2:2,2:2:0:0:
500,83,263284,1,2,2:2:0:0:
467,170,263455,1,2,2:2:0:0:
336,212,263627,2,0,P|317:260|326:300,1,73.1250027894975,2|0,2:2|2:2,2:2:0:0:
426,384,263970,1,2,2:2:0:0:
260,363,264141,2,0,P|308:382|348:373,1,73.1250027894975,2|0,2:2|2:2,2:2:0:0:
412,278,264484,1,2,2:2:0:0:
259,171,264655,6,0,P|255:209|247:250,1,73.1250027894975,2|0,2:2|2:2,2:2:0:0:
412,278,264998,2,0,P|375:247|330:240,1,73.1250027894975,2|0,2:2|2:2,2:2:0:0:
287,316,265341,1,2,2:2:0:0:
180,212,265512,1,2,2:2:0:0:
70,190,265684,2,0,P|44:226|46:267,1,73.1250027894975,2|0,2:2|2:2,2:2:0:0:
144,380,266027,2,0,P|170:344|168:303,1,73.1250027894975,2|0,2:2|2:2,2:2:0:0:
125,257,266284,1,2,2:2:0:0:
120,265,266370,1,2,2:2:0:0:
248,243,266541,1,2,2:2:0:0:
346,325,266712,6,0,P|386:314|428:308,1,73.1250027894975,2|0,2:2|2:2,2:2:0:0:
334,182,267055,2,0,P|294:171|252:165,1,73.1250027894975,2|0,2:2|2:2,2:2:0:0:
140,185,267398,1,2,2:2:0:0:
184,54,267570,1,2,2:2:0:0:
332,24,267741,2,0,P|315:67|283:83,1,73.1250027894975,2|0,2:2|2:2,2:2:0:0:
184,44,268084,1,2,2:2:0:0:
262,166,268255,2,0,P|219:149|203:117,1,73.1250027894975,2|0,2:2|2:2,2:2:0:0:
338,105,268598,1,2,2:2:0:0:
422,183,268770,6,0,P|413:229|407:284,1,73.1250027894975,2|0,2:2|2:2,2:2:0:0:
512,372,269112,2,0,P|475:341|438:334,1,73.1250027894975,2|0,2:2|2:2,2:2:0:0:
363,384,269455,1,2,2:2:0:0:
251,285,269627,1,2,2:2:0:0:
140,363,269798,2,0,P|175:372|209:384,1,73.1250027894975,2|0,2:2|2:2,2:2:0:0:
233,210,270141,2,0,P|188:219|167:255,1,73.1250027894975,2|0,2:2|2:2,2:2:0:0:
118,291,270398,1,2,2:2:0:0:
108,288,270484,1,2,2:2:0:0:
0,223,270655,1,2,2:2:0:0:
75,115,270827,6,0,P|120:119|167:131,1,73.1250027894975,2|0,2:2|2:2,2:2:0:0:
274,64,271170,2,0,P|254:104|241:151,1,73.1250027894975,2|0,2:2|2:2,2:2:0:0:
306,218,271512,1,2,2:2:0:0:
436,167,271684,1,2,2:2:0:0:
461,319,271855,2,0,P|422:306|403:258,1,73.1250027894975,2|0,2:2|2:2,2:2:0:0:
442,176,272198,1,2,2:2:0:0:
312,220,272370,2,0,P|314:178|355:148,1,73.1250027894975,2|0,2:2|2:2,2:2:0:0:
405,277,272713,1,2,2:2:0:0:
512,208,272884,5,2,2:2:0:0:
442,176,273055,1,2,2:2:0:0:
508,89,273227,1,2,2:2:0:0:
412,23,273398,1,2,2:2:0:0:
299,57,273570,1,2,2:2:0:0:
222,179,273741,1,0,2:2:0:0:
84,115,273912,5,2,2:2:0:0:
188,21,274084,1,2,2:2:0:0:
299,57,274255,1,2,2:2:0:0:
272,182,274427,1,2,2:2:0:0:
336,254,274598,1,2,2:2:0:0:
291,325,274770,1,0,2:2:0:0:
221,253,274941,5,2,2:2:0:0:
272,182,275112,1,2,2:2:0:0:
378,152,275284,1,2,2:2:0:0:
498,214,275455,1,2,2:2:0:0:
424,348,275627,1,2,2:2:0:0:
291,325,275798,1,0,2:2:0:0:
198,192,275970,5,2,2:2:0:0:
54,216,276141,1,2,2:2:0:0:
181,266,276312,1,2,2:2:0:0:
272,182,276484,1,2,2:2:0:0:
228,85,276655,1,2,2:2:0:0:
135,121,276827,1,0,2:2:0:0:
234,90,276998,5,2,2:2:0:0:
339,141,277170,1,0,2:2:0:0:
448,97,277341,1,2,2:2:0:0:
512,0,277512,1,2,2:2:0:0:
444,104,277684,2,0,P|433:149|430:191,1,73.1250027894975,2|0,2:2|2:2,2:2:0:0:
512,343,278027,6,0,P|472:305|436:300,1,73.1250027894975,2|0,2:2|2:2,2:2:0:0:
347,376,278370,1,2,2:2:0:0:
242,324,278541,1,2,2:2:0:0:
214,210,278712,1,2,2:2:0:0:
100,239,278884,1,0,2:2:0:0:
48,375,279055,6,0,P|82:347|86:297,1,73.1250027894975,2|0,2:2|2:2,2:2:0:0:
32,187,279398,1,2,2:2:0:0:
97,90,279570,1,2,2:2:0:0:
211,114,279741,1,2,2:2:0:0:
277,19,279912,1,0,2:2:0:0:
413,69,280084,6,0,P|406:117|404:159,1,73.1250027894975,2|0,2:2|2:2,2:2:0:0:
508,286,280427,1,2,2:2:0:0:
404,233,280598,1,2,2:2:0:0:
291,264,280770,1,2,2:2:0:0:
247,372,280941,1,0,2:2:0:0:
101,383,281112,6,0,P|89:344|112:295,1,73.1250027894975,2|0,2:2|2:2,2:2:0:0:
197,225,281455,1,2,2:2:0:0:
118,138,281627,1,2,2:2:0:0:
198,53,281798,1,2,2:2:0:0:
305,101,281970,1,0,2:2:0:0:
434,20,282141,6,0,P|421:65|416:101,1,73.1250027894975,2|0,2:2|2:2,2:2:0:0:
512,257,282484,1,2,2:2:0:0:
399,226,282655,1,2,2:2:0:0:
317,309,282827,1,2,2:2:0:0:
204,278,282998,1,0,2:2:0:0:
278,165,283170,6,0,P|318:193|311:245,1,73.1250027894975,2|0,2:2|2:2,2:2:0:0:
222,378,283512,1,2,2:2:0:0:
317,309,283684,1,2,2:2:0:0:
432,332,283855,1,2,2:2:0:0:
317,320,284027,1,0,2:2:0:0:
172,209,284198,6,0,P|152:253|164:302,1,73.1250027894975,2|0,2:2|2:2,2:2:0:0:
278,165,284541,1,2,2:2:0:0:
193,85,284712,1,2,2:2:0:0:
89,140,284884,1,2,2:2:0:0:
123,28,285055,1,0,2:2:0:0:
280,92,285227,6,0,P|322:83|343:47,1,73.1250027894975,2|0,2:2|2:2,2:2:0:0:
191,0,285570,1,2,2:2:0:0:
76,20,285741,1,2,2:2:0:0:
18,122,285912,1,2,2:2:0:0:
72,227,286084,1,0,2:2:0:0:
10,354,286255,6,0,P|43:323|86:325,1,73.1250027894975,2|0,2:2|2:2,2:2:0:0:
221,384,286598,1,2,2:2:0:0:
310,307,286770,1,2,2:2:0:0:
259,201,286941,1,2,2:2:0:0:
302,312,287112,1,0,2:2:0:0:
446,377,287284,6,0,P|481:351|510:337,1,73.1250027894975,2|0,2:2|2:2,2:2:0:0:
354,245,287627,1,2,2:2:0:0:
417,147,287798,1,2,2:2:0:0:
350,50,287970,1,2,2:2:0:0:
236,24,288141,1,0,2:2:0:0:
96,132,288312,6,0,P|137:120|176:137,1,73.1250027894975,2|0,2:2|2:2,2:2:0:0:
261,275,288655,1,2,2:2:0:0:
153,228,288827,1,2,2:2:0:0:
268,204,288998,1,2,2:2:0:0:
190,294,289170,1,0,2:2:0:0:
322,384,289341,6,0,P|367:372|415:367,1,73.1250027894975,2|0,2:2|2:2,2:2:0:0:
512,265,289684,1,2,2:2:0:0:
427,184,289855,1,2,2:2:0:0:
314,219,290027,1,2,2:2:0:0:
270,328,290198,1,0,2:2:0:0:
424,192,290370,6,0,P|422:152|427:114,1,73.1250027894975,2|0,2:2|2:2,2:2:0:0:
250,53,290712,1,2,2:2:0:0:
362,20,290884,1,2,2:2:0:0:
295,116,291055,1,2,2:2:0:0:
179,139,291227,1,0,2:2:0:0:
5,54,291398,6,0,P|48:62|70:112,1,73.1250027894975,2|0,2:2|2:2,2:2:0:0:
0,270,291741,1,2,2:2:0:0:
96,218,291912,1,2,2:2:0:0:
204,250,292085,1,2,2:2:0:0:
315,376,292285,1,0,2:2:0:0:
434,324,292486,6,0,P|437:285|448:245,1,68.2499979171753,2|0,2:2|2:2,2:2:0:0:
463,100,292838,5,2,2:2:0:0:
407,182,293043,5,2,2:2:0:0:
307,225,293248,5,2,2:2:0:0:
178,175,293475,5,2,2:2:0:0:
117,23,293702,5,2,2:2:0:0:
201,218,296199,6,0,B|181:234|131:260|65:212|37:148|63:103|63:103|74:123|93:133|93:133|112:125|135:134|144:149|144:149|164:168|187:167|206:151|206:151|207:152|207:152|179:126|165:82|192:21|236:-7|283:2|283:2|267:15|265:35|265:35|278:48|277:74|265:87|265:87|253:112|261:133|282:148|282:148|282:148|282:148|298:115|336:86|403:92|450:124|454:170|454:170|433:161|412:166|412:166|403:184|378:190|362:181|362:181|334:180|317:193|309:217|309:217|310:217|310:217|346:222|386:248|399:316|383:370|339:387|339:387|344:365|332:345|332:345|313:344|300:321|303:303|303:303|296:276|277:263|253:264|253:264|253:265|253:265|259:302|246:347|187:380|131:383|101:348|101:348|123:343|138:328|138:328|136:307|150:287|169:285|169:285|191:271|198:249|203:221,1,1976.10146184223,0|0,2:2|2:2,2:2:0:0:
