osu file format v14

[General]
AudioFilename: audio.mp3
AudioLeadIn: 0
PreviewTime: 90162
Countdown: 0
SampleSet: Soft
StackLeniency: 0.7
Mode: 0
LetterboxInBreaks: 0
WidescreenStoryboard: 1

[Editor]
Bookmarks: 16625,31394,46172,60932,75701,90470,105239,120008,134778,149547,163393,182778,197547,212316,227085,241855,260510,276999,296199
DistanceSpacing: 3.6
BeatDivisor: 4
GridSize: 8
TimelineZoom: 1.8

[Metadata]
Title:Unravelling
TitleUnicode:Unravelling
Artist:Aethoro & Moon Jelly
ArtistUnicode:Aethoro & Moon Jelly
Creator:Arushii09
Version:Collab Insane
Source:
Tags:artcore ambient orchestral piano folk english vocal iredi
BeatmapID:3921162
BeatmapSetID:1839999

[Difficulty]
HPDrainRate:5
CircleSize:4
OverallDifficulty:8
ApproachRate:9
SliderMultiplier:1.7
SliderTickRate:1

[Events]
//Background and Video events
0,0,"Elaina reading book without hands.jpg",0,0
//Break Periods
2,134978,137408
//Storyboard Layer 0 (Background)
//Storyboard Layer 1 (Fail)
//Storyboard Layer 2 (Pass)
//Storyboard Layer 3 (Foreground)
//Storyboard Layer 4 (Overlay)
//Storyboard Sound Samples

[TimingPoints]
1241,307.692307692308,3,2,2,35,1,0
1241,-166.666666666667,3,2,2,35,0,0
1856,307.692307692308,3,2,2,35,1,0
1856,-166.666666666667,3,2,2,35,0,0
9240,-133.333333333333,3,2,2,35,0,0
16009,-100,3,2,2,40,0,0
16625,-111.111111111111,3,2,2,45,0,0
46172,307.692307692308,3,2,2,35,1,0
46172,-400,3,2,2,45,0,0
59070,307.692307692308,3,2,2,35,1,0
60932,307.692307692308,3,2,2,50,1,0
60932,-100,3,2,2,50,0,0
75701,-90.9090909090909,3,2,1,55,0,0
90470,-76.9230769230769,3,2,3,65,0,1
90778,-76.9230769230769,3,2,1,65,0,1
134778,-133.333333333333,3,2,2,40,0,0
138393,-133.333333333333,3,2,2,5,0,0
138470,-200,3,2,2,40,0,0
140778,-153.846153846154,3,2,2,40,0,0
142162,-200,3,2,2,40,0,0
144470,-153.846153846154,3,2,2,40,0,0
145855,-200,3,2,2,40,0,0
148624,-153.846153846154,3,2,2,40,0,0
149547,-133.333333333333,3,2,2,40,0,0
167188,-400,3,2,21,20,0,0
168008,-200,3,2,2,40,0,0
171624,-200,3,2,2,5,0,0
171701,-200,3,2,2,40,0,0
174470,-200,3,2,2,40,0,0
175316,-200,3,2,2,5,0,0
175393,-200,3,2,2,40,0,0
179008,-200,3,2,2,5,0,0
179085,-200,3,2,2,40,0,0
182778,-333.333333333333,3,2,2,35,0,0
197547,-166.666666666667,3,2,2,40,0,0
211393,-1000,3,2,2,40,0,0
212316,-76.9230769230769,3,2,3,70,0,1
212624,-76.9230769230769,3,2,4,70,0,1
241855,-250,3,2,2,35,0,0
243624,-250,3,2,2,5,0,0
243701,-250,3,2,2,35,0,0
244547,-250,3,2,2,5,0,0
244624,-250,3,2,2,35,0,0
245470,-250,3,2,2,5,0,0
245547,-250,3,2,2,35,0,0
246701,-250,3,2,2,5,0,0
246778,-250,3,2,2,35,0,0
247008,-250,3,2,2,5,0,0
247085,-250,3,2,2,35,0,0
247316,-250,3,2,2,5,0,0
247393,-250,3,2,2,35,0,0
248547,-250,3,2,2,5,0,0
248624,-250,3,2,2,35,0,0
249162,-250,3,2,2,5,0,0
249239,-252,3,2,2,35,0,0
250393,-250,3,2,2,5,0,0
250483,320.855614973262,3,2,2,35,1,0
250483,-250,3,2,2,35,0,0
250724,-250,3,2,2,5,0,0
250804,-250,3,2,2,35,0,0
251045,-250,3,2,2,5,0,0
251125,348.837209302326,3,2,2,35,1,0
251127,521.739130434783,3,2,2,35,1,0
251127,-133.333333333333,3,2,2,35,0,0
251518,-133.333333333333,3,2,2,5,0,0
251648,-100,3,2,2,35,0,0
252040,-100,3,2,2,5,0,0
252171,370.370370370371,3,2,2,35,1,0
252171,-105.263157894737,3,2,2,35,0,0
252541,-105.263157894737,3,2,2,5,0,0
252700,370.370370370371,3,2,2,5,1,0
252700,-83.3333333333333,3,2,2,35,0,0
253070,-83.3333333333333,3,2,2,5,0,0
253282,714.285714285714,3,2,2,35,1,0
255423,759.493670886076,3,2,2,35,1,0
260510,359.281437125748,3,2,2,40,1,0
260510,-133.333333333333,3,2,2,40,0,0
261228,342.857142857143,3,2,2,40,1,0
261570,342.857142857143,3,2,2,40,1,0
261570,-133.333333333333,3,2,2,40,0,0
292084,402.68456375839,3,2,2,40,1,0
292486,338.983050847457,3,2,2,40,1,0
292486,-142.857142857143,3,2,2,40,0,0
292838,410.958904109589,3,2,2,35,1,0
292838,-133.333333333333,3,2,2,35,0,0
293248,454.545454545454,3,2,2,35,1,0
293248,-133.333333333333,3,2,2,35,0,0
293702,416.666666666667,3,2,2,35,1,0
296199,342.857142857143,3,2,2,30,1,0
296199,-200,3,2,2,30,0,0
303741,-200,3,2,2,5,0,0

[Colours]
Combo1 : 164,100,240
Combo2 : 230,110,150
Combo3 : 240,150,255
Combo4 : 100,200,200
Combo5 : 130,120,255

[HitObjects]
125,382,1241,6,0,P|124:358|112:324,1,50.9999984436036,0|0,2:2|2:2,2:2:0:0:
0,273,1548,2,0,P|21:284|53:290,1,50.9999984436036,0|0,2:2|2:2,2:2:0:0:
212,237,1856,6,0,P|204:281|200:344,1,101.999996887207,2|0,2:2|2:2,2:2:0:0:
319,230,2317,1,0,2:2:0:0:
405,315,2471,2,0,P|376:304|342:298,1,50.9999984436036,0|0,2:2|2:2,2:2:0:0:
243,166,2779,6,0,P|289:156|343:140,1,101.999996887207,2|0,2:2|2:2,2:2:0:0:
383,10,3240,1,0,2:2:0:0:
289,0,3394,2,0,P|289:27|302:51,1,50.9999984436036,0|0,2:2|2:2,2:2:0:0:
381,102,3702,6,0,P|372:158|372:218,1,101.999996887207,2|0,2:2|2:2,2:2:0:0:
239,116,4163,1,0,2:2:0:0:
208,233,4317,2,0,P|180:229|159:210,1,50.9999984436036,0|0,2:2|2:2,2:2:0:0:
29,173,4625,6,0,P|78:156|141:141,1,101.999996887207,2|0,2:2|2:2,2:2:0:0:
195,29,5086,1,0,2:2:0:0:
72,51,5240,2,0,P|102:52|121:62,1,50.9999984436036,0|0,2:2|2:2,2:2:0:0:
247,119,5548,6,0,P|219:171|226:232,1,101.999996887207,2|0,2:2|2:2,2:2:0:0:
295,334,6009,1,0,2:2:0:0:
173,312,6163,2,0,P|194:299|219:298,1,50.9999984436036,0|0,2:2|2:2,2:2:0:0:
372,384,6471,6,0,P|378:328|387:277,1,101.999996887207,2|0,2:2|2:2,2:2:0:0:
319,173,6932,1,0,2:2:0:0:
379,110,7086,2,0,P|403:137|406:161,1,50.9999984436036,0|0,2:2|2:2,2:2:0:0:
234,219,7394,6,0,P|188:207|132:197,1,101.999996887207,2|0,2:2|2:2,2:2:0:0:
98,69,7856,1,0,2:2:0:0:
205,74,8009,2,0,P|189:101|185:137,1,50.9999984436036,0|0,2:2|2:2,2:2:0:0:
315,30,8317,6,0,P|368:27|399:75,1,101.999996887207,2|0,2:2|2:2,2:2:0:0:
369,196,8779,1,0,2:2:0:0:
277,120,8932,2,0,P|308:115|327:110,1,50.9999984436036,0|0,2:2|2:2,2:2:0:0:
485,183,9240,6,0,P|468:160|426:151,1,63.7500024318696,2|0,2:2|2:2,2:2:0:0:
316,258,9548,1,2,2:2:0:0:
416,377,9702,2,0,L|427:249,1,127.500004863739,2|0,2:2|2:2,2:2:0:0:
256,305,10163,2,0,P|287:309|317:319,1,63.7500024318696,2|0,2:2|2:2,2:2:0:0:
365,200,10471,1,2,2:2:0:0:
213,160,10625,2,0,P|225:188|231:219,1,63.7500024318696,2|0,2:2|2:2,2:2:0:0:
355,205,10933,1,0,2:2:0:0:
176,280,11086,6,0,P|147:265|104:254,1,63.7500024318696,2|0,2:2|2:2,2:2:0:0:
193,153,11394,1,2,2:2:0:0:
52,62,11548,2,0,P|49:122|102:149,1,127.500004863739,2|0,2:2|2:2,2:2:0:0:
242,23,12009,2,0,P|236:56|234:91,1,63.7500024318696,2|0,2:2|2:2,2:2:0:0:
346,189,12317,1,2,2:2:0:0:
286,304,12471,1,2,2:2:0:0:
212,261,12625,1,0,2:2:0:0:
269,209,12779,1,0,2:2:0:0:
392,287,12932,6,0,P|427:267|462:258,1,63.7500024318696,2|0,2:2|2:2,2:2:0:0:
381,130,13240,1,2,2:2:0:0:
269,209,13394,2,0,P|216:169|155:148,1,127.500004863739,2|0,2:2|2:2,2:2:0:0:
53,12,13856,2,0,P|64:52|65:93,1,63.7500024318696,2|0,2:2|2:2,2:2:0:0:
191,6,14163,1,2,2:2:0:0:
149,163,14317,2,0,P|138:203|137:244,1,63.7500024318696,2|0,2:2|2:2,2:2:0:0:
40,161,14624,1,0,2:2:0:0:
201,92,14779,6,0,P|235:116|246:141,1,63.7500024318696,2|0,2:2|2:2,2:2:0:0:
140,234,15086,1,2,2:2:0:0:
288,276,15240,2,0,B|354:251|345:317|423:286,1,127.500004863739,2|0,2:2|2:2,2:2:0:0:
230,377,15702,2,0,P|224:340|214:297,1,63.7500024318696,2|0,2:2|2:2,2:2:0:0:
346,373,16009,1,2,2:2:0:0:
445,195,16163,2,0,P|432:284|427:397,1,170,2|2,2:2|2:2,2:2:0:0:
353,384,16548,1,2,2:2:0:0:
353,384,16625,6,0,P|333:340|352:291,1,76.4999976654053,2|0,2:2|2:2,2:2:0:0:
223,209,16932,1,0,2:2:0:0:
306,230,17086,1,2,2:2:0:0:
343,135,17240,2,0,P|377:129|416:115,1,76.4999976654053,2|0,2:2|2:2,2:2:0:0:
212,0,17548,6,0,P|251:29|265:108,1,114.749996498108,2|0,2:2|2:2,2:2:0:0:
252,125,17856,1,0,2:2:0:0:
289,210,18009,1,2,2:2:0:0:
173,159,18163,2,0,P|137:171|99:178,1,76.4999976654053,2|0,2:2|2:2,2:2:0:0:
56,37,18471,6,0,P|49:74|36:110,2,76.4999976654053,2|0|0,2:2|2:2|2:2,2:2:0:0:
144,3,18932,1,2,2:2:0:0:
221,68,19086,2,0,P|256:55|294:48,1,76.4999976654053,2|0,2:2|2:2,2:2:0:0:
434,11,19394,6,0,P|398:41|370:92,1,76.4999976654053,2|0,2:2|2:2,2:2:0:0:
284,140,19702,2,0,P|291:186|322:235,1,76.4999976654053,2|0,2:2|2:2,2:2:0:0:
320,334,20009,2,0,P|363:350|422:348,1,76.4999976654053,2|0,2:2|2:2,2:2:0:0:
503,198,20317,6,0,B|480:221|440:218|452:207|415:206|386:236,1,114.749996498108,2|0,2:2|2:2,2:2:0:0:
381,269,20625,1,0,2:2:0:0:
261,235,20779,1,2,2:2:0:0:
296,154,20932,1,0,2:2:0:0:
384,142,21086,1,2,2:2:0:0:
462,9,21240,6,0,P|441:46|444:83,1,76.4999976654053,2|0,2:2|2:2,2:2:0:0:
435,193,21548,2,0,P|413:156|379:139,1,76.4999976654053,2|0,2:2|2:2,2:2:0:0:
289,78,21856,2,0,P|331:77|362:56,1,76.4999976654053,2|0,2:2|2:2,2:2:0:0:
178,0,22163,6,0,P|199:36|199:114,1,114.749996498108,2|0,2:2|2:2,2:2:0:0:
215,150,22471,2,0,P|172:150|141:171,1,76.4999976654053,0|2,2:2|2:2,2:2:0:0:
62,151,22779,1,0,2:2:0:0:
62,151,22932,1,2,2:2:0:0:
66,311,23086,6,0,P|72:273|85:237,1,76.4999976654053,2|0,2:2|2:2,2:2:0:0:
231,318,23394,2,0,P|195:305|158:299,1,76.4999976654053,2|0,2:2|2:2,2:2:0:0:
304,380,23702,2,0,P|317:344|324:307,1,76.4999976654053,2|0,2:2|2:2,2:2:0:0:
218,175,24009,6,0,P|249:202|261:246,2,76.4999976654053,2|0|0,2:2|2:2|2:2,2:2:0:0:
135,209,24471,1,2,2:2:0:0:
35,155,24625,2,0,P|28:117|15:81,1,76.4999976654053,0|2,2:2|2:2,2:2:0:0:
121,8,24932,6,0,P|154:49|230:50,1,114.749996498108,2|0,2:2|2:2,2:2:0:0:
236,93,25240,1,0,2:2:0:0:
298,26,25394,1,2,2:2:0:0:
382,113,25548,2,0,P|418:100|455:93,1,76.4999976654053,2|0,2:2|2:2,2:2:0:0:
302,164,25856,6,0,P|343:197|344:273,1,114.749996498108,2|0,2:2|2:2,2:2:0:0:
313,281,26163,1,0,2:2:0:0:
377,346,26317,1,2,2:2:0:0:
512,301,26471,2,0,P|475:288|438:281,1,76.4999976654053,2|0,2:2|2:2,2:2:0:0:
262,358,26779,6,0,P|224:364|191:383,1,76.4999976654053,2|0,2:2|2:2,2:2:0:0:
133,245,27086,2,0,P|133:283|120:318,1,76.4999976654053,2|0,2:2|2:2,2:2:0:0:
282,263,27394,2,0,P|249:244|225:215,1,76.4999976654053,2|0,2:2|2:2,2:2:0:0:
65,119,27702,6,0,P|112:113|154:171,1,114.749996498108,2|0,2:2|2:2,2:2:0:0:
136,199,28009,1,0,2:2:0:0:
5,227,28163,1,2,2:2:0:0:
35,305,28317,1,0,2:2:0:0:
120,318,28471,1,2,2:2:0:0:
237,259,28625,6,0,P|249:295|256:332,1,76.4999976654053,2|0,2:2|2:2,2:2:0:0:
386,218,28932,2,0,P|360:246|332:271,1,76.4999976654053,2|0,2:2|2:2,2:2:0:0:
496,326,29240,2,0,P|458:318|422:306,1,76.4999976654053,2|0,2:2|2:2,2:2:0:0:
302,149,29548,6,0,P|339:141|375:129,1,76.4999976654053,2|0,2:2|2:2,2:2:0:0:
512,221,29856,2,0,P|486:192|458:167,1,76.4999976654053,2|0,2:2|2:2,2:2:0:0:
469,3,30163,2,0,P|456:39|449:76,1,76.4999976654053,2|0,2:2|2:2,2:2:0:0:
188,34,30471,6,0,P|213:62|241:87,1,76.4999976654053,2|0,2:2|2:2,2:2:0:0:
66,205,30779,2,0,P|103:197|139:185,1,76.4999976654053,2|0,2:2|2:2,2:2:0:0:
124,363,31086,2,0,P|136:326|143:289,1,76.4999976654053,2|0,2:2|2:2,2:2:0:0:
302,149,31394,6,0,P|361:170|373:257,1,152.999995330811,2|0,2:2|2:2,2:2:0:0:
260,349,31856,1,0,2:2:0:0:
370,384,32009,2,0,P|417:364|449:355,1,76.4999976654053,2|0,2:2|2:2,2:2:0:0:
269,270,32317,6,0,P|250:211|213:143,1,114.749996498108,2|0,2:2|2:2,2:2:0:0:
207,155,32625,1,0,2:2:0:0:
257,54,32778,1,2,2:2:0:0:
142,4,32932,2,0,P|151:55|192:74,1,76.4999976654053,2|0,2:2|2:2,2:2:0:0:
341,131,33240,6,0,P|363:100|398:86,2,76.4999976654053,2|0|0,2:2|2:2|2:2,2:2:0:0:
395,240,33701,1,2,2:2:0:0:
328,318,33855,2,0,P|286:297|249:289,1,76.4999976654053,2|0,2:2|2:2,2:2:0:0:
68,337,34163,6,0,P|68:299|94:268,1,76.4999976654053,2|0,2:2|2:2,2:2:0:0:
9,175,34471,2,0,P|41:156|81:163,1,76.4999976654053,2|0,2:2|2:2,2:2:0:0:
223,80,34778,2,0,P|212:119|205:172,1,76.4999976654053,2|0,2:2|2:2,2:2:0:0:
38,7,35086,6,0,B|69:15|86:51|71:46|88:79|129:89,1,114.749996498108,2|0,2:2|2:2,2:2:0:0:
138,73,35394,1,0,2:2:0:0:
277,16,35548,1,2,2:2:0:0:
341,90,35701,1,0,2:2:0:0:
294,168,35855,1,2,2:2:0:0:
408,207,36009,6,0,P|432:249|420:297,1,76.4999976654053,2|0,2:2|2:2,2:2:0:0:
268,359,36317,2,0,P|310:335|358:347,1,76.4999976654053,2|0,2:2|2:2,2:2:0:0:
459,384,36625,2,0,P|503:359|500:318,1,76.4999976654053,2|0,2:2|2:2,2:2:0:0:
329,252,36932,6,0,B|299:239|263:257|278:262|244:277|206:260,1,114.749996498108,2|0,2:2|2:2,2:2:0:0:
174,293,37240,2,0,P|188:247|175:205,1,76.4999976654053,0|0,2:2|2:2,2:2:0:0:
13,194,37548,2,0,P|57:180|72:114,1,114.749996498108,2|0,2:2|2:2,2:2:0:0:
95,84,37855,2,0,P|138:91|169:138,1,76.4999976654053,2|0,2:2|2:2,2:2:0:0:
20,36,38163,2,0,P|20:2|29:34,1,76.4999976654053,0|0,2:2|2:2,2:2:0:0:
99,210,38471,6,0,P|141:199|200:192,1,76.4999976654053,2|0,2:2|2:2,2:2:0:0:
324,259,38779,2,0,P|264:207|277:136,1,152.999995330811,2|0,2:2|2:2,2:2:0:0:
400,168,39240,1,2,2:2:0:0:
454,66,39394,2,0,P|409:58|367:47,1,76.4999976654053,2|0,2:2|2:2,2:2:0:0:
176,0,39702,6,0,P|219:50|313:29,1,152.999995330811,2|0,2:2|2:2,2:2:0:0:
419,7,40163,1,2,2:2:0:0:
512,115,40317,2,0,P|487:148|443:149,1,76.4999976654053,2|0,2:2|2:2,2:2:0:0:
416,275,40625,6,0,P|367:225|305:219,1,114.749996498108,2|0,2:2|2:2,2:2:0:0:
308,229,40932,1,0,2:2:0:0:
241,145,41086,1,2,2:2:0:0:
131,171,41240,2,0,P|148:209|159:254,1,76.4999976654053,2|0,2:2|2:2,2:2:0:0:
58,380,41548,2,0,P|81:348|118:343,1,76.4999976654053,2|0,2:2|2:2,2:2:0:0:
274,295,41856,2,0,P|250:326|213:331,1,76.4999976654053,0|2,2:2|2:2,2:2:0:0:
43,223,42163,2,0,P|101:230|165:244,1,114.749996498108,2|0,2:2|2:2,2:2:0:0:
199,244,42471,6,0,P|213:184|182:140,1,114.749996498108,2|0,2:2|2:2,2:2:0:0:
162,134,42778,1,0,2:2:0:0:
234,66,42932,1,2,2:2:0:0:
116,17,43086,2,0,P|156:11|197:-4,1,76.4999976654053,2|0,2:2|2:2,2:2:0:0:
312,127,43394,6,0,P|324:90|364:16,1,114.749996498108,2|0,2:2|2:2,2:2:0:0:
370,13,43701,2,0,P|411:20|431:58,1,76.4999976654053,0|2,2:2|2:2,2:2:0:0:
271,129,44009,2,0,P|228:111|164:100,1,76.4999976654053,2|0,2:2|2:2,2:2:0:0:
75,0,44317,6,0,P|18:29|22:116,1,152.999995330811,2|0,2:2|2:2,2:2:0:0:
99,204,44779,1,2,2:2:0:0:
193,101,44932,2,0,P|228:85|269:72,1,76.4999976654053,2|0,2:2|2:2,2:2:0:0:
393,201,45240,6,0,P|369:151|315:151,1,114.749996498108,2|0,2:2|2:2,2:2:0:0:
298,171,45548,2,0,P|313:218|320:258,1,76.4999976654053,0|0,2:2|2:2,2:2:0:0:
242,304,45856,1,2,2:2:0:0:
169,199,46009,1,2,2:2:0:0:
59,226,46172,6,0,P|80:230|100:237,2,42.5,2|0|2,2:2|2:2|2:2,2:2:0:0:
13,103,47402,1,2,2:2:0:0:
119,54,48018,6,0,P|97:94|106:51,1,127.5,2|2,2:2|2:2,2:2:0:0:
201,14,49248,2,0,P|221:20|241:24,1,42.5,2|2,2:2|2:2,2:2:0:0:
338,0,49864,6,0,P|323:41|315:84,3,85,2|2|2|2,2:2|2:2|2:2|2:2,2:2:0:0:
206,138,52325,5,2,2:2:0:0:
206,138,52941,2,0,P|212:158|216:178,1,42.5,2|2,2:2|2:2,2:2:0:0:
197,271,53556,6,0,P|238:256|281:248,3,85,2|2|2|2,2:2|2:2|2:2|2:2,2:2:0:0:
328,356,56018,6,0,P|332:335|338:315,1,42.5,2|0,2:2|2:2,2:2:0:0:
418,297,56633,2,0,P|411:276|407:256,1,42.5,2|2,2:2|2:2,2:2:0:0:
429,166,57248,6,0,P|387:180|344:188,2,85,2|2|2,2:2|2:2|2:2,2:2:0:0:
280,132,59070,5,2,2:2:0:0:
280,132,60932,6,0,B|186:107|222:210|105:175,1,170,2|0,2:2|2:2,2:2:0:0:
22,256,61393,1,2,2:2:0:0:
0,120,61547,2,0,P|39:148|51:202,1,85,2|0,2:2|2:2,2:2:0:0:
0,346,61855,2,0,P|71:286|160:275,1,170,2|0,2:2|2:2,2:2:0:0:
254,344,62316,1,2,2:2:0:0:
344,222,62470,2,0,P|328:273|326:325,1,85,2|0,2:2|2:2,2:2:0:0:
461,384,62778,6,0,P|427:313|440:214,1,170,2|0,2:2|2:2,2:2:0:0:
382,126,63239,1,2,2:2:0:0:
492,71,63393,2,0,P|508:117|478:163,1,85,2|0,2:2|2:2,2:2:0:0:
345,47,63701,2,0,B|282:33|287:95|216:76,1,127.5,2|0,2:2|2:2,2:2:0:0:
203,67,64008,1,0,2:2:0:0:
232,182,64162,1,2,2:2:0:0:
125,157,64316,2,0,P|120:212|149:258,1,85,2|0,2:2|2:2,2:2:0:0:
243,361,64624,6,0,P|247:279|329:243,1,170,2|0,2:2|2:2,2:2:0:0:
420,339,65085,1,2,2:2:0:0:
512,234,65239,2,0,P|503:284|498:328,1,85,2|0,2:2|2:2,2:2:0:0:
393,209,65547,2,0,B|409:138|472:196|491:108,1,127.5,2|0,2:2|2:2,2:2:0:0:
482,115,65855,1,2,2:2:0:0:
354,47,66008,1,0,2:2:0:0:
455,0,66162,2,0,P|427:45|385:55,1,85,2|2,2:2|2:2,2:2:0:0:
291,158,66470,6,0,P|244:93|141:83,1,170,2|0,2:2|2:2,2:2:0:0:
30,122,66932,1,2,2:2:0:0:
115,14,67085,2,0,P|155:46|154:96,1,85,2|0,2:2|2:2,2:2:0:0:
76,212,67393,2,0,P|100:166|166:163,1,85,2|2,2:2|2:2,2:2:0:0:
204,216,67624,1,2,2:2:0:0:
204,216,67701,2,0,P|194:259|189:299,1,85,2|0,2:2|2:2,2:2:0:0:
291,158,68008,2,0,L|436:133,1,127.5,2|0,2:2|2:2,2:2:0:0:
434,138,68316,2,0,P|433:93|395:62,1,85,2|0,2:2|2:2,2:2:0:0:
358,221,68624,1,0,2:2:0:0:
441,298,68778,2,0,P|377:258|273:244,1,170,2|0,2:2|2:2,2:2:0:0:
325,76,69239,6,0,P|285:140|271:244,1,170,2|0,2:2|2:2,2:2:0:0:
337,361,69700,1,2,2:2:0:0:
226,306,69854,2,0,P|186:294|141:293,1,85,2|0,2:2|2:2,2:2:0:0:
0,138,70162,2,0,P|78:149|89:227,1,170,2|0,2:2|2:2,2:2:0:0:
5,298,70623,1,2,2:2:0:0:
152,377,70777,2,0,P|122:342|135:293,1,85,2|0,2:2|2:2,2:2:0:0:
194,192,71085,2,0,P|192:121|133:81,1,127.5,2|0,2:2|2:2,2:2:0:0:
138,91,71392,1,0,2:2:0:0:
238,122,71546,1,2,2:2:0:0:
306,52,71700,2,0,P|353:62|409:63,1,85,2|0,2:2|2:2,2:2:0:0:
512,154,72008,6,0,B|538:64|447:89|473:-5,1,170,2|0,2:2|2:2,2:2:0:0:
405,104,72469,1,2,2:2:0:0:
453,215,72623,2,0,P|418:193|365:181,1,85,2|0,2:2|2:2,2:2:0:0:
236,315,72932,2,0,P|286:285|295:218,1,127.5,2|0,2:2|2:2,2:2:0:0:
285,207,73239,1,0,2:2:0:0:
380,267,73392,1,2,2:2:0:0:
361,362,73546,2,0,P|320:349|265:346,1,85,2|0,2:2|2:2,2:2:0:0:
173,225,73854,6,0,P|86:231|14:283,1,170,2|0,2:2|2:2,2:2:0:0:
96,137,74316,1,2,2:2:0:0:
28,79,74469,2,0,P|7:119|15:175,1,85,2|0,2:2|2:2,2:2:0:0:
176,216,74778,2,0,P|221:193|268:182,1,85,2|2,2:2|2:2,2:2:0:0:
289,106,75008,1,2,2:2:0:0:
289,106,75085,2,0,P|336:121|377:146,1,85,2|0,2:2|2:2,2:2:0:0:
481,11,75392,2,0,P|418:7|403:83,1,127.5,2|0,2:2|2:2,2:2:0:0:
433,90,75701,6,0,B|476:118|476:118|450:189|504:270,1,187.000005706787,8|0,2:2|2:2,2:2:0:0:
422,337,76162,2,0,P|467:346|512:362,2,93.5000028533936,8|0|0,2:2|2:2|2:2,2:2:0:0:
372,224,76624,6,0,P|346:279|286:305,1,93.5000028533936,8|0,2:2|2:2,2:2:0:0:
147,289,76932,2,0,P|162:333|171:379,1,93.5000028533936,8|0,2:2|2:2,2:2:0:0:
258,163,77239,2,0,P|242:208|233:254,1,93.5000028533936,8|8,2:2|2:2,2:2:0:0:
0,237,77547,6,0,B|61:253|104:203|70:204|127:163|174:172,1,187.000005706787,10|0,2:2|2:2,2:2:0:0:
235,255,78008,2,0,P|243:209|259:164,1,93.5000028533936,8|0,2:2|2:2,2:2:0:0:
203,89,78315,1,0,2:2:0:0:
335,122,78470,6,0,P|319:77|310:31,1,93.5000028533936,10|0,2:2|2:2,2:2:0:0:
492,35,78778,2,0,P|446:43|401:59,1,93.5000028533936,8|0,2:2|2:2,2:2:0:0:
356,152,79085,1,8,2:2:0:0:
356,152,79239,1,0,2:2:0:0:
419,280,79393,6,0,P|433:190|512:147,1,187.000005706787,10|0,2:2|2:2,2:2:0:0:
332,62,79855,2,0,P|340:107|356:152,1,93.5000028533936,8|0,2:2|2:2,2:2:0:0:
327,249,80162,1,0,2:2:0:0:
494,348,80316,6,0,P|448:356|403:372,1,93.5000028533936,10|0,2:2|2:2,2:2:0:0:
238,356,80624,2,0,P|283:347|328:331,1,93.5000028533936,8|0,2:2|2:2,2:2:0:0:
327,249,80931,1,8,2:2:0:0:
327,249,81085,1,8,2:2:0:0:
152,327,81239,6,0,P|177:267|86:174,1,187.000005706787,10|0,2:2|2:2,2:2:0:0:
21,145,81701,1,8,2:2:0:0:
21,145,81855,1,0,2:2:0:0:
2,56,82008,1,0,2:2:0:0:
184,111,82162,6,0,P|228:95|274:86,1,93.5000028533936,10|0,2:2|2:2,2:2:0:0:
86,87,82470,2,0,P|101:131|110:177,1,93.5000028533936,8|0,2:2|2:2,2:2:0:0:
205,209,82777,1,0,2:2:0:0:
205,209,82931,1,0,2:2:0:0:
67,318,83085,6,0,P|43:232|96:181,1,140.25000428009,10|0,2:2|2:2,2:2:0:0:
110,177,83393,1,0,2:2:0:0:
163,291,83547,2,0,P|208:299|253:315,1,93.5000028533936,8|0,2:2|2:2,2:2:0:0:
325,252,83854,1,0,2:2:0:0:
428,384,84008,6,0,P|412:339|403:293,1,93.5000028533936,8|0,2:2|2:2,2:2:0:0:
396,205,84316,1,8,2:2:0:0:
476,150,84470,1,0,2:2:0:0:
476,150,84624,1,8,2:2:0:0:
418,40,84777,1,0,2:2:0:0:
317,156,84932,6,0,B|255:172|212:122|246:123|189:82|142:91,1,187.000005706787,8|0,2:2|2:2,2:2:0:0:
131,273,85393,2,0,P|146:228|155:182,1,93.5000028533936,8|0,2:2|2:2,2:2:0:0:
74,138,85701,1,0,2:2:0:0:
25,0,85855,6,0,P|21:59|-9:96,1,93.5000028533936,10|0,2:2|2:2,2:2:0:0:
160,114,86162,2,0,P|106:140|59:132,1,93.5000028533936,10|0,2:2|2:2,2:2:0:0:
128,287,86470,2,0,P|78:254|61:209,1,93.5000028533936,10|0,2:2|2:2,2:2:0:0:
187,35,86778,6,0,B|244:62|296:20|261:15|325:-15|369:1,1,187.000005706787,10|0,2:2|2:2,2:2:0:0:
400,151,87239,1,8,2:2:0:0:
505,19,87393,2,0,P|489:63|480:109,1,93.5000028533936,2|0,2:2|2:2,2:2:0:0:
313,128,87701,6,0,P|353:151|400:151,1,93.5000028533936,10|0,2:2|2:2,2:2:0:0:
346,302,88008,2,0,P|395:269|412:224,1,93.5000028533936,10|0,2:2|2:2,2:2:0:0:
511,361,88316,2,0,P|512:314|489:274,1,93.5000028533936,10|0,2:2|2:2,2:2:0:0:
291,225,88624,6,0,P|224:245|155:261,1,140.25000428009,10|0,2:2|2:2,2:2:0:0:
122,297,88932,1,8,2:2:0:0:
23,216,89085,5,8,2:2:0:0:
2,357,89239,1,0,2:2:0:0:
104,192,89393,2,0,L|91:146,1,46.7500014266968,8|8,2:2|2:2,2:2:0:0:
3,59,89547,1,8,2:2:0:0:
119,10,90470,6,0,B|95:81|140:124|153:99|188:158|176:214,1,220.999989883423,14|0,2:2|2:2,2:2:0:0:
24,273,90932,2,0,P|39:219|105:187,1,110.499994941712,8|2,2:2|2:2,2:2:0:0:
181,308,91239,1,0,2:2:0:0:
237,94,91393,6,0,P|289:112|343:122,1,110.499994941712,10|0,2:2|2:2,2:2:0:0:
389,239,91701,2,0,P|336:220|282:210,1,110.499994941712,8|0,2:2|2:2,2:2:0:0:
498,109,92008,1,10,2:2:0:0:
429,159,92162,1,8,2:2:0:0:
260,0,92316,6,0,P|182:13|187:167,1,220.999989883423,10|0,2:2|2:2,2:2:0:0:
6,159,92778,2,0,P|50:200|117:200,1,110.499994941712,8|2,2:2|2:2,2:2:0:0:
227,194,93085,1,0,2:2:0:0:
199,380,93239,6,0,P|188:325|170:273,1,110.499994941712,10|0,2:2|2:2,2:2:0:0:
0,372,93547,2,0,P|52:353|106:343,1,110.499994941712,8|0,2:2|2:2,2:2:0:0:
258,242,93854,1,10,2:2:0:0:
317,313,94008,1,8,2:2:0:0:
501,341,94162,6,0,P|464:247|347:231,1,220.999989883423,10|0,2:2|2:2,2:2:0:0:
231,329,94624,2,0,P|178:310|124:300,1,110.499994941712,8|0,2:2|2:2,2:2:0:0:
54,363,94932,1,0,2:2:0:0:
25,216,95085,5,8,2:2:0:0:
53,237,95239,1,0,2:2:0:0:
148,160,95393,5,8,2:2:0:0:
143,188,95547,1,0,2:2:0:0:
221,235,95701,5,8,2:2:0:0:
58,131,95855,1,8,2:2:0:0:
182,0,96008,6,0,P|287:35|395:57,1,220.999989883423,8|0,2:2|2:2,2:2:0:0:
512,28,96470,2,0,P|494:80|483:134,1,110.499994941712,8|0,2:2|2:2,2:2:0:0:
379,168,96778,1,0,2:2:0:0:
379,168,96855,1,0,2:2:0:0:
379,168,96932,5,8,2:2:0:0:
433,240,97085,1,0,2:2:0:0:
406,370,97239,2,0,P|359:333|362:270,1,110.499994941712,8|0,2:2|2:2,2:2:0:0:
196,296,97547,1,10,2:2:0:0:
272,254,97701,1,8,2:2:0:0:
161,113,97855,6,0,B|185:184|140:227|127:202|92:261|104:317,1,220.999989883423,10|0,2:2|2:2,2:2:0:0:
191,355,98317,1,8,2:2:0:0:
22,238,98470,2,0,P|43:187|81:147,1,110.499994941712,2|0,2:2|2:2,2:2:0:0:
0,12,98778,6,0,P|50:30|106:40,1,110.499994941712,10|0,2:2|2:2,2:2:0:0:
277,8,99085,2,0,P|258:58|248:114,1,110.499994941712,8|0,2:2|2:2,2:2:0:0:
201,261,99393,1,10,2:2:0:0:
168,174,99547,1,8,2:2:0:0:
353,88,99701,6,0,P|423:121|525:35,1,220.999989883423,10|0,2:2|2:2,2:2:0:0:
439,0,100163,1,8,2:2:0:0:
512,140,100316,1,2,2:2:0:0:
512,140,100470,1,0,2:2:0:0:
477,317,100624,6,0,P|468:262|451:210,1,110.499994941712,10|0,2:2|2:2,2:2:0:0:
347,384,100932,2,0,P|364:332|373:276,1,110.499994941712,8|0,2:2|2:2,2:2:0:0:
271,127,101239,1,10,2:2:0:0:
357,176,101393,1,8,2:2:0:0:
271,328,101547,6,0,P|162:350|58:384,1,220.999989883423,10|0,2:2|2:2,2:2:0:0:
27,199,102008,2,0,P|18:253|0:305,1,110.499994941712,8|0,2:2|2:2,2:2:0:0:
58,384,102317,1,0,2:2:0:0:
131,228,102470,6,0,P|112:175|104:121,1,110.499994941712,10|0,2:2|2:2,2:2:0:0:
9,63,102778,5,8,2:2:0:0:
37,77,102932,1,0,2:2:0:0:
133,29,103086,5,8,2:2:0:0:
31,184,103240,1,8,2:2:0:0:
176,309,103393,6,0,B|223:261|223:261|322:295|396:207,1,220.999989883423,10|0,2:2|2:2,2:2:0:0:
429,71,103855,2,0,P|372:112|360:172,1,110.499994941712,8|2,2:2|2:2,2:2:0:0:
456,225,104163,1,0,2:2:0:0:
456,225,104240,1,0,2:2:0:0:
456,225,104317,5,10,2:2:0:0:
411,331,104470,1,0,2:2:0:0:
245,162,104624,5,8,2:2:0:0:
359,148,104777,1,0,2:2:0:0:
296,377,104932,5,8,2:2:0:0:
226,285,105085,1,8,2:2:0:0:
61,170,105239,6,0,P|39:281|9:385,1,220.999989883423,14|0,2:2|2:2,2:2:0:0:
146,297,105701,1,8,2:2:0:0:
47,160,105855,2,0,P|78:118|161:127,1,110.499994941712,2|0,2:2|2:2,2:2:0:0:
397,71,106162,6,0,P|342:60|290:42,1,110.499994941712,10|0,2:2|2:2,2:2:0:0:
74,8,106470,2,0,P|133:42|140:101,1,110.499994941712,8|0,2:2|2:2,2:2:0:0:
217,164,106777,1,10,2:2:0:0:
127,229,106931,1,8,2:2:0:0:
207,370,107085,6,0,P|309:330|419:316,1,220.999989883423,10|0,2:2|2:2,2:2:0:0:
376,166,107547,2,0,P|419:209|483:218,1,110.499994941712,8|2,2:2|2:2,2:2:0:0:
501,114,107854,1,0,2:2:0:0:
324,241,108008,6,0,P|272:224|193:213,1,110.499994941712,10|0,2:2|2:2,2:2:0:0:
101,45,108316,2,0,P|120:95|132:151,1,110.499994941712,8|0,2:2|2:2,2:2:0:0:
266,136,108623,1,10,2:2:0:0:
340,63,108777,1,8,2:2:0:0:
483,42,108931,6,0,P|464:169|463:291,1,220.999989883423,10|0,2:2|2:2,2:2:0:0:
287,363,109393,2,0,P|276:307|330:264,1,110.499994941712,8|0,2:2|2:2,2:2:0:0:
470,380,109701,1,0,2:2:0:0:
364,335,109854,5,8,2:2:0:0:
397,343,110008,1,0,2:2:0:0:
494,253,110162,5,8,2:2:0:0:
461,261,110316,1,0,2:2:0:0:
419,179,110470,5,8,2:2:0:0:
470,380,110624,1,8,2:2:0:0:
328,214,110777,6,0,B|182:180|254:313|92:277,1,220.999989883423,8|0,2:2|2:2,2:2:0:0:
208,109,111239,2,0,P|185:59|136:35,1,110.499994941712,8|0,2:2|2:2,2:2:0:0:
67,199,111547,1,0,2:2:0:0:
67,199,111624,1,0,2:2:0:0:
67,199,111701,5,8,2:2:0:0:
217,123,111854,1,0,2:2:0:0:
59,66,112008,2,0,P|68:125|73:197,1,110.499994941712,8|0,2:2|2:2,2:2:0:0:
0,313,112316,1,10,2:2:0:0:
76,384,112470,1,8,2:2:0:0:
186,327,112624,2,0,P|314:348|426:379,1,220.999989883423,10|0,2:2|2:2,2:2:0:0:
505,285,113086,1,8,2:2:0:0:
439,178,113239,2,0,P|390:208|395:285,1,110.499994941712,2|0,2:2|2:2,2:2:0:0:
244,191,113547,6,0,P|229:134|261:91,1,110.499994941712,10|0,2:2|2:2,2:2:0:0:
418,1,113854,2,0,P|376:44|337:102,1,110.499994941712,8|0,2:2|2:2,2:2:0:0:
195,35,114162,1,10,2:2:0:0:
130,112,114316,1,8,2:2:0:0:
0,0,114470,6,0,P|68:62|98:212,1,220.999989883423,10|0,2:2|2:2,2:2:0:0:
38,290,114932,1,8,2:2:0:0:
98,384,115085,1,2,2:2:0:0:
98,384,115239,1,0,2:2:0:0:
249,325,115393,6,0,P|192:307|126:295,1,110.499994941712,10|0,2:2|2:2,2:2:0:0:
313,231,115701,2,0,P|370:213|436:201,1,110.499994941712,8|0,2:2|2:2,2:2:0:0:
457,68,116008,1,10,2:2:0:0:
378,122,116162,1,8,2:2:0:0:
275,32,116316,6,0,P|159:52|164:163,1,220.999989883423,10|0,2:2|2:2,2:2:0:0:
208,268,116778,1,8,2:2:0:0:
52,275,116932,2,0,P|94:227|149:224,1,110.499994941712,0|0,2:2|2:2,2:2:0:0:
272,327,117239,6,0,P|330:309|399:303,1,110.499994941712,8|0,2:2|2:2,2:2:0:0:
504,325,117547,5,8,2:2:0:0:
508,293,117701,1,0,2:2:0:0:
351,213,117855,5,10,2:2:0:0:
421,384,118009,1,10,2:2:0:0:
456,190,118162,6,0,B|474:209|498:209|498:209|501:275|429:316|380:305,1,220.999989883423,10|0,2:2|2:2,2:2:0:0:
234,200,118624,1,8,2:2:0:0:
144,254,118778,1,0,2:2:0:0:
177,377,118932,1,0,2:2:0:0:
177,377,119009,1,0,2:2:0:0:
177,377,119085,6,0,P|224:322|210:251,1,110.499994941712,10|0,2:2|2:2,2:2:0:0:
89,167,119393,2,0,P|112:234|181:258,1,110.499994941712,8|0,2:2|2:2,2:2:0:0:
294,154,119701,2,0,P|375:139|454:114,1,165.749992412568,10|0,2:2|2:2,2:2:0:0:
493,145,120008,6,0,B|490:218|432:237|432:237|400:306|446:363,1,220.999989883423,14|0,2:2|2:2,2:2:0:0:
507,384,120470,1,8,2:2:0:0:
337,264,120624,2,0,P|281:284|230:292,1,110.499994941712,2|0,2:2|2:2,2:2:0:0:
120,384,120932,6,0,P|128:276|44:244,1,165.749992412568,10|0,2:2|2:2,2:2:0:0:
46,252,121239,1,8,2:2:0:0:
21,341,121393,1,0,2:2:0:0:
164,191,121547,1,10,2:2:0:0:
190,218,121701,1,8,2:2:0:0:
0,140,121855,6,0,P|108:117|213:82,1,220.999989883423,10|0,2:2|2:2,2:2:0:0:
317,10,122316,1,8,2:2:0:0:
438,145,122470,2,0,P|447:90|465:38,1,110.499994941712,2|0,2:2|2:2,2:2:0:0:
255,164,122778,6,0,P|309:173|361:191,1,110.499994941712,10|0,2:2|2:2,2:2:0:0:
511,247,123085,2,0,P|456:256|404:274,1,110.499994941712,10|0,2:2|2:2,2:2:0:0:
270,376,123393,1,10,2:2:0:0:
300,277,123547,1,0,2:2:0:0:
83,384,123701,6,0,B|106:313|62:270|48:295|14:236|26:179,1,220.999989883423,10|0,2:2|2:2,2:2:0:0:
189,130,124162,2,0,P|155:191|106:207,1,110.499994941712,8|0,2:2|2:2,2:2:0:0:
25,182,124470,1,0,2:2:0:0:
0,29,124624,6,0,P|54:19|106:1,1,110.499994941712,10|0,2:2|2:2,2:2:0:0:
264,83,124932,1,10,2:2:0:0:
182,42,125086,1,0,2:2:0:0:
57,189,125239,5,10,2:2:0:0:
72,99,125393,1,8,2:2:0:0:
168,283,125547,6,0,P|276:305|381:340,1,220.999989883423,10|0,2:2|2:2,2:2:0:0:
509,286,126008,1,8,2:2:0:0:
358,146,126162,2,0,P|310:172|288:221,1,110.499994941712,2|0,2:2|2:2,2:2:0:0:
486,205,126470,6,0,P|431:214|379:232,1,110.499994941712,10|0,2:2|2:2,2:2:0:0:
222,150,126777,1,10,2:2:0:0:
288,221,126931,1,0,2:2:0:0:
438,119,127085,2,0,P|420:67|411:12,1,110.499994941712,10|0,2:2|2:2,2:2:0:0:
222,150,127393,6,0,B|147:154|117:100|144:94|96:45|39:42,1,220.999989883423,10|0,2:2|2:2,2:2:0:0:
1,204,127854,1,8,2:2:0:0:
55,136,128008,1,0,2:2:0:0:
140,148,128162,1,0,2:2:0:0:
156,290,128316,6,0,P|98:254|93:190,1,110.499994941712,10|0,2:2|2:2,2:2:0:0:
0,384,128623,1,8,2:2:0:0:
74,350,128777,1,0,2:2:0:0:
223,384,128932,2,0,P|232:329|250:277,1,110.499994941712,10|8,2:2|2:2,2:2:0:0:
209,82,129239,6,0,P|255:173|393:190,1,220.999989883423,10|0,2:2|2:2,2:2:0:0:
417,73,129700,1,8,2:2:0:0:
474,265,129855,2,0,P|455:213|446:158,1,110.499994941712,2|0,2:2|2:2,2:2:0:0:
512,29,130162,5,10,2:2:0:0:
502,58,130316,1,0,2:2:0:0:
338,0,130470,2,0,P|356:51|365:106,1,110.499994941712,10|0,2:2|2:2,2:2:0:0:
238,215,130778,5,10,2:2:0:0:
278,139,130932,1,8,2:2:0:0:
107,11,131085,6,0,P|26:37|13:170,1,220.999989883423,10|0,2:2|2:2,2:2:0:0:
163,198,131546,1,8,2:2:0:0:
80,219,131700,1,0,2:2:0:0:
58,303,131854,1,0,2:2:0:0:
217,352,132008,6,0,P|181:294|117:289,1,110.499994941712,10|0,2:2|2:2,2:2:0:0:
24,383,132316,1,10,2:2:0:0:
58,303,132470,1,0,2:2:0:0:
0,146,132624,5,10,2:2:0:0:
54,214,132778,1,0,2:2:0:0:
163,355,132932,6,0,P|157:285|195:248,1,110.499994941712,10|0,2:2|2:2,2:2:0:0:
371,384,133239,2,0,P|307:353|294:303,1,110.499994941712,2|8,2:2|2:2,2:2:0:0:
500,218,133547,2,0,P|441:257|391:244,1,110.499994941712,2|0,2:2|2:2,2:2:0:0:
200,106,133855,5,10,2:2:0:0:
324,236,134008,1,0,2:2:0:0:
300,34,134162,5,10,2:2:0:0:
216,192,134316,1,0,2:2:0:0:
474,134,134470,5,10,2:2:0:0:
392,110,134624,1,0,2:2:0:0:
300,34,134778,5,2,2:2:0:0:
49,241,138008,5,2,2:2:0:0:
49,241,138085,2,0,P|114:237|148:169,1,127.500004863739,0|0,2:2|2:2,2:2:0:0:
112,112,138470,6,0,B|238:56|316:150|267:174|359:267|485:203|485:203|437:204|398:170,1,510,2|2,2:2|2:2,2:2:0:0:
433,31,140778,5,0,2:2:0:0:
433,31,140855,2,0,P|383:52|357:100,1,110.499994941712,0|0,2:2|2:2,2:2:0:0:
449,169,141239,2,0,B|457:148|442:116|442:116|478:148|473:189,1,138.12499367714,2|0,2:2|2:2,2:2:0:0:
410,249,141701,2,0,P|371:249|325:338,1,138.12499367714,2|0,2:2|2:2,2:2:0:0:
256,383,142162,5,2,2:2:0:0:
256,383,142239,2,0,B|163:301|51:349|51:349|104:304|84:213|84:213|141:249|156:321,1,488.75,0|2,2:2|2:2,2:2:0:0:
278,178,144470,5,0,2:2:0:0:
278,178,144547,2,0,P|259:239|217:268,1,110.499994941712,0|0,2:2|2:2,2:2:0:0:
157,318,144932,2,0,P|122:261|39:253,1,138.12499367714,2|0,2:2|2:2,2:2:0:0:
3,310,145393,2,0,P|22:245|0:181,1,138.12499367714,2|0,2:2|2:2,2:2:0:0:
12,190,145855,5,2,2:2:0:0:
61,125,146008,2,0,P|144:98|235:78,1,170,0|2,2:2|2:2,2:2:0:0:
294,28,146701,1,2,2:2:0:0:
294,28,146778,6,0,P|315:81|369:101,1,106.25,2|0,2:2|2:2,2:2:0:0:
440,138,147239,2,0,P|404:182|414:239,1,106.25,2|0,2:2|2:2,2:2:0:0:
470,289,147701,6,0,P|363:251|236:222,1,233.75,2|0,2:2|2:2,2:2:0:0:
175,197,148624,2,0,B|124:257|180:368|266:375|266:375|259:337|276:314,1,303.874986089707,2|0,2:2|2:2,2:2:0:0:
291,303,149547,6,0,P|227:289|137:277,1,127.500004863739,2|2,2:2|2:2,2:2:0:0:
34,225,150008,1,0,2:2:0:0:
66,358,150162,2,0,P|84:324|77:288,1,63.7500024318696,2|2,2:2|2:2,2:2:0:0:
0,143,150470,2,0,P|7:173|13:204,1,63.7500024318696,2|0,2:2|2:2,2:2:0:0:
114,224,150778,1,2,2:2:0:0:
198,129,150932,2,0,P|264:125|296:181,1,127.500004863739,2|0,2:2|2:2,2:2:0:0:
438,293,151393,6,0,P|379:306|357:240,1,127.500004863739,2|2,2:2|2:2,2:2:0:0:
398,181,151855,1,0,2:2:0:0:
346,71,152008,2,0,P|315:51|265:50,1,63.7500024318696,2|2,2:2|2:2,2:2:0:0:
506,59,152316,2,0,P|498:91|493:127,1,63.7500024318696,2|0,2:2|2:2,2:2:0:0:
389,0,152624,1,2,2:2:0:0:
278,53,152777,1,2,2:2:0:0:
180,20,152932,2,0,P|189:57|198:109,1,63.7500024318696,2|2,2:2|2:2,2:2:0:0:
78,200,153239,6,0,P|135:180|218:166,1,127.500004863739,2|2,2:2|2:2,2:2:0:0:
306,206,153701,1,0,2:2:0:0:
229,299,153855,2,0,P|195:268|193:234,1,63.7500024318696,2|0,2:2|2:2,2:2:0:0:
384,301,154162,2,0,P|369:340|360:385,1,63.7500024318696,2|0,2:2|2:2,2:2:0:0:
484,219,154470,2,0,P|469:180|460:135,1,63.7500024318696,2|0,2:2|2:2,2:2:0:0:
406,105,154701,1,2,2:2:0:0:
396,98,154778,2,0,P|366:121|371:170,1,63.7500024318696,2|2,2:2|2:2,2:2:0:0:
210,170,155085,6,0,P|178:162|127:154,1,63.7500024318696,2|0,2:2|2:2,2:2:0:0:
38,124,155393,1,2,2:2:0:0:
179,64,155547,2,0,P|241:55|307:38,1,127.500004863739,2|0,2:2|2:2,2:2:0:0:
441,0,156008,2,0,P|413:21|405:73,1,63.7500024318696,2|0,2:2|2:2,2:2:0:0:
512,119,156316,1,2,2:2:0:0:
484,219,156470,1,0,2:2:0:0:
383,188,156624,2,0,P|393:222|399:265,1,63.7500024318696,2|0,2:2|2:2,2:2:0:0:
378,353,156932,6,0,P|338:315|248:295,1,127.500004863739,2|2,2:2|2:2,2:2:0:0:
197,337,157393,1,0,2:2:0:0:
144,229,157547,1,2,2:2:0:0:
200,164,157701,1,2,2:2:0:0:
129,87,157855,2,0,P|125:125|113:163,1,63.7500024318696,2|0,2:2|2:2,2:2:0:0:
246,100,158162,1,2,2:2:0:0:
125,6,158316,2,0,P|60:41|54:109,1,127.500004863739,2|2,2:2|2:2,2:2:0:0:
0,227,158778,6,0,B|79:206|44:285|127:266,1,127.500004863739,2|2,2:2|2:2,2:2:0:0:
235,229,159239,1,0,2:2:0:0:
310,300,159393,2,0,P|303:344|300:379,1,63.7500024318696,2|2,2:2|2:2,2:2:0:0:
437,268,159701,2,0,P|430:224|427:189,1,63.7500024318696,2|0,2:2|2:2,2:2:0:0:
505,143,160008,1,2,2:2:0:0:
419,69,160162,1,2,2:2:0:0:
324,109,160316,2,0,P|273:95|222:89,1,95.6250036478044,2|0,2:2|2:2,2:2:0:0:
192,118,160624,6,0,P|203:154|207:184,1,63.7500024318696,2|2,2:2|2:2,2:2:0:0:
323,248,160932,2,0,P|297:275|273:293,1,63.7500024318696,2|2,2:2|2:2,2:2:0:0:
324,109,161239,2,0,P|360:117|388:129,1,63.7500024318696,2|0,2:2|2:2,2:2:0:0:
182,25,161547,6,0,P|145:33|117:45,1,63.7500024318696,2|2,2:2|2:2,2:2:0:0:
18,10,161855,1,2,2:2:0:0:
92,123,162008,1,2,2:2:0:0:
32,193,162162,2,0,P|44:233|51:270,1,63.7500024318696,2|0,2:2|2:2,2:2:0:0:
129,368,162470,6,0,P|162:345|202:333,1,63.7500024318696,2|0,2:2|2:2,2:2:0:0:
330,254,162778,2,0,P|297:231|257:219,1,63.7500024318696,2|2,2:2|2:2,2:2:0:0:
230,137,163085,1,2,2:2:0:0:
297,68,163239,1,2,2:2:0:0:
208,9,163393,2,0,L|173:16,2,21.2500008106232,2|2|2,2:2|2:2|2:2,2:2:0:0:
187,13,167188,6,0,L|182:51,1,28.3333333333333,0|0,2:2|2:2,2:2:0:0:
0,262,168008,5,10,2:2:0:0:
77,179,168316,2,0,L|170:165,1,85,2|0,2:2|2:2,2:2:0:0:
83,289,168932,5,10,2:2:0:0:
160,372,169240,2,0,L|253:386,1,85,2|0,2:2|2:2,2:2:0:0:
198,247,169855,5,10,2:2:0:0:
263,163,170162,1,2,2:2:0:0:
380,150,170470,2,0,L|379:178,3,21.25,2|2|2|2,2:2|2:2|2:2|2:2,2:2:0:0:
383,189,170778,5,10,2:2:0:0:
468,383,171085,2,0,P|405:331|331:317,1,148.75,2|0,2:2|2:2,2:2:0:0:
320,325,171701,5,10,2:2:0:0:
265,173,172008,1,2,2:2:0:0:
268,166,172316,2,0,L|274:136,3,21.25,2|2|2|2,2:2|2:2|2:2|2:2,2:2:0:0:
157,181,172624,5,10,2:2:0:0:
247,63,172931,1,2,2:2:0:0:
244,56,173239,1,2,2:2:0:0:
157,181,173547,5,10,2:2:0:0:
20,123,173854,1,2,2:2:0:0:
155,192,174162,5,10,2:2:0:0:
18,134,174316,1,2,2:2:0:0:
108,120,174470,2,0,B|161:208|-18:231|43:322,1,233.75,10|0,2:2|2:2,2:2:0:0:
134,290,175393,5,10,2:2:0:0:
211,371,175701,2,0,L|304:385,1,85,2|0,2:2|2:2,2:2:0:0:
220,229,176162,6,0,L|226:256,1,21.25,2|2,2:2|2:2,2:2:0:0:
230,264,176316,6,0,P|248:268|263:274,3,21.25,10|2|2|2,2:2|0:0|0:0|0:0,0:0:0:0:
296,198,176624,2,0,L|389:184,1,85,2|0,2:2|2:2,2:2:0:0:
378,305,177239,5,10,2:2:0:0:
296,198,177546,1,2,2:2:0:0:
333,101,177854,2,0,L|359:109,3,21.25,2|2|2|2,2:2|2:2|2:2|2:2,2:2:0:0:
423,59,178162,5,10,2:2:0:0:
245,129,178469,2,0,P|169:114|118:66,1,148.75,2|0,2:2|2:2,2:2:0:0:
104,55,179085,5,10,2:2:0:0:
144,196,179392,1,2,2:2:0:0:
145,205,179701,2,0,L|175:221,3,21.25,2|2|2|2,2:2|2:2|2:2|2:2,2:2:0:0:
237,179,180008,5,10,2:2:0:0:
197,320,180315,1,2,2:2:0:0:
195,329,180624,1,2,2:2:0:0:
152,212,180931,5,10,2:2:0:0:
288,259,181238,1,0,2:2:0:0:
149,220,181547,5,10,2:2:0:0:
287,269,181701,1,2,2:2:0:0:
195,337,181855,2,0,P|275:298|372:286,1,170,10|0,2:2|2:2,2:2:0:0:
467,118,182778,6,0,P|457:139|454:167,1,50.9999984436036,2|0,2:2|2:2,2:2:0:0:
374,198,183393,1,2,2:2:0:0:
374,198,183701,6,0,P|360:178|337:162,1,50.9999984436036,2|0,2:2|2:2,2:2:0:0:
351,77,184316,1,2,2:2:0:0:
351,77,184624,6,0,P|374:74|400:62,1,50.9999984436036,2|0,2:2|2:2,2:2:0:0:
467,117,185239,1,2,2:2:0:0:
275,35,185547,6,0,L|225:49,1,50.9999984436036,2|0,2:2|2:2,2:2:0:0:
196,92,186008,1,0,2:2:0:0:
196,92,186162,1,2,2:2:0:0:
106,46,186470,6,0,P|96:23|99:-2,2,50.9999984436036,2|0|2,2:2|2:2|2:2,2:2:0:0:
111,146,187393,2,0,P|96:165|72:175,2,50.9999984436036,2|0|2,2:2|2:2|2:2,2:2:0:0:
196,92,188316,2,0,P|220:94|241:110,2,50.9999984436036,2|0|2,2:2|2:2|2:2,2:2:0:0:
106,46,189239,2,0,P|96:23|99:-2,1,50.9999984436036,2|0,2:2|2:2,2:2:0:0:
188,7,189855,1,2,2:2:0:0:
294,40,190162,6,0,P|315:30|343:27,1,50.9999984436036,2|0,2:2|2:2,2:2:0:0:
415,88,190777,1,2,2:2:0:0:
415,88,191085,6,0,P|412:111|400:137,1,50.9999984436036,2|0,2:2|2:2,2:2:0:0:
312,168,191700,1,2,2:2:0:0:
312,168,192008,6,0,P|292:154|276:131,1,50.9999984436036,2|0,2:2|2:2,2:2:0:0:
294,38,192623,1,2,2:2:0:0:
202,169,192932,6,0,P|180:159|152:156,1,50.9999984436036,2|2,2:2|2:2,2:2:0:0:
119,116,193392,1,2,2:2:0:0:
119,116,193546,1,0,2:2:0:0:
47,201,193855,6,0,P|37:178|40:152,2,50.9999984436036,2|0|2,2:2|2:2|2:2,2:2:0:0:
132,242,194778,2,0,P|117:261|93:271,2,50.9999984436036,2|0|2,2:2|2:2|2:2,2:2:0:0:
126,148,195701,2,0,P|150:150|171:166,1,50.9999984436036,2|0,2:2|2:2,2:2:0:0:
132,242,196316,1,2,2:2:0:0:
194,306,196624,6,0,P|215:296|241:294,1,25.4999992218018,2|0,2:2|2:2,2:2:0:0:
271,310,196932,1,2,2:2:0:0:
290,333,197085,1,2,2:2:0:0:
330,350,197239,1,2,2:2:0:0:
382,334,197393,1,2,2:2:0:0:
474,359,197547,6,0,P|451:310|447:260,1,101.999996887207,2|0,2:2|2:2,2:2:0:0:
489,184,198162,1,2,2:2:0:0:
308,239,198470,6,0,P|340:195|382:168,1,101.999996887207,2|0,2:2|2:2,2:2:0:0:
489,184,199085,1,2,2:2:0:0:
328,35,199393,6,0,P|381:43|425:67,1,101.999996887207,2|0,2:2|2:2,2:2:0:0:
489,184,200008,1,2,2:2:0:0:
308,239,200316,2,0,B|259:235|234:192|256:195|232:152|171:153,1,152.999995330811,2|0,2:2|2:2,2:2:0:0:
138,171,200932,1,2,2:2:0:0:
8,52,201239,6,0,P|12:143|45:164,1,101.999996887207,2|0,2:2|2:2,2:2:0:0:
4,232,201701,6,0,P|91:256|121:231,1,101.999996887207,2|0,2:2|2:2,2:2:0:0:
173,291,202162,6,0,P|223:215|208:178,1,101.999996887207,2|0,2:2|2:2,2:2:0:0:
282,147,202624,6,0,P|225:75|186:78,1,101.999996887207,2|0,2:2|2:2,2:2:0:0:
179,0,203085,6,0,P|93:31|83:69,1,101.999996887207,2|0,2:2|2:2,2:2:0:0:
13,69,203547,6,0,P|87:123|124:113,1,101.999996887207,2|0,2:2|2:2,2:2:0:0:
141,195,204008,6,0,P|226:226|236:264,1,101.999996887207,2|0,2:2|2:2,2:2:0:0:
307,264,204470,6,0,P|232:318|195:308,1,101.999996887207,2|0,2:2|2:2,2:2:0:0:
164,373,204932,6,0,P|153:281|181:253,1,101.999996887207,2|0,2:2|2:2,2:2:0:0:
192,247,205393,1,2,2:2:0:0:
192,247,205547,1,0,2:2:0:0:
9,243,205855,6,0,P|93:204|128:222,1,101.999996887207,2|0,2:2|2:2,2:2:0:0:
137,230,206316,1,2,2:2:0:0:
137,230,206470,1,2,2:2:0:0:
84,55,206778,6,0,P|146:122|140:162,1,101.999996887207,2|0,2:2|2:2,2:2:0:0:
136,173,207239,1,2,2:2:0:0:
136,173,207393,1,0,2:2:0:0:
285,69,207701,6,0,P|239:149|200:156,1,101.999996887207,2|0,2:2|2:2,2:2:0:0:
189,154,208162,1,2,2:2:0:0:
189,154,208316,1,2,2:2:0:0:
335,265,208624,6,0,P|244:246|227:211,1,101.999996887207,2|0,2:2|2:2,2:2:0:0:
169,189,209085,6,0,P|99:250|102:289,1,101.999996887207,2|0,2:2|2:2,2:2:0:0:
68,334,209547,6,0,P|158:315|175:280,1,101.999996887207,2|0,2:2|2:2,2:2:0:0:
234,258,210008,6,0,P|303:319|300:358,1,101.999996887207,2|0,2:2|2:2,2:2:0:0:
389,371,210470,6,0,P|407:280|442:263,1,101.999996887207,2|0,2:2|2:2,2:2:0:0:
409,180,210932,6,0,P|321:209|288:187,1,101.999996887207,2|0,2:2|2:2,2:2:0:0:
260,143,211393,6,0,P|244:159|235:176,1,42.5,10|0,2:2|2:2,2:2:0:0:
236,195,212316,6,0,P|120:139|-6:157,1,220.999989883423,12|2,2:2|2:2,2:2:0:0:
138,37,212778,1,10,2:2:0:0:
243,86,212932,1,2,2:2:0:0:
358,16,213085,1,2,2:2:0:0:
147,31,213239,5,10,2:2:0:0:
168,110,213393,1,2,2:2:0:0:
338,141,213547,5,10,2:2:0:0:
319,220,213701,1,2,2:2:0:0:
453,193,213855,5,10,2:2:0:0:
453,193,214008,1,10,2:2:0:0:
512,297,214162,6,0,P|418:266|297:247,1,220.999989883423,8|2,2:2|2:2,2:2:0:0:
124,278,214624,1,10,2:2:0:0:
195,339,214778,1,2,2:2:0:0:
169,181,214932,1,2,2:2:0:0:
60,321,215085,5,10,2:2:0:0:
46,242,215239,1,2,2:2:0:0:
211,259,215393,5,10,2:2:0:0:
195,339,215547,1,2,2:2:0:0:
121,368,215701,5,10,2:2:0:0:
94,184,215855,1,10,2:2:0:0:
258,155,216008,6,0,P|244:271|253:378,1,220.999989883423,8|2,2:2|2:2,2:2:0:0:
370,327,216470,1,10,2:2:0:0:
444,362,216624,1,2,2:2:0:0:
479,222,216778,1,2,2:2:0:0:
342,114,216932,2,0,P|358:170|409:184,1,110.499994941712,10|0,2:2|2:2,2:2:0:0:
205,10,217239,6,0,P|148:-4|110:33,1,110.499994941712,10|2,2:2|2:2,2:2:0:0:
116,43,217470,1,2,2:2:0:0:
116,43,217547,1,10,2:2:0:0:
197,154,217701,1,10,2:2:0:0:
30,230,217855,6,0,B|136:190|108:335|246:283,1,220.999989883423,10|2,2:2|2:2,2:2:0:0:
442,362,218316,2,0,P|427:265|332:291,1,220.999989883423,10|2,2:2|2:2,2:2:0:0:
251,384,218701,1,0,2:2:0:0:
251,384,218778,2,0,P|258:335|221:284,1,110.499994941712,10|0,2:2|2:2,2:2:0:0:
99,190,219085,5,10,2:2:0:0:
30,230,219239,1,2,2:2:0:0:
57,328,219393,1,10,2:2:0:0:
57,328,219547,1,10,2:2:0:0:
194,165,219701,6,0,P|175:273|163:383,1,220.999989883423,8|2,2:2|2:2,2:2:0:0:
271,250,220162,1,10,2:2:0:0:
196,154,220316,1,2,2:2:0:0:
54,114,220470,1,2,2:2:0:0:
190,0,220624,6,0,P|257:15|268:110,1,165.749992412568,10|0,2:2|2:2,2:2:0:0:
260,107,220932,1,10,2:2:0:0:
280,252,221085,2,0,P|365:248|351:159,1,165.749992412568,10|0,2:2|2:2,2:2:0:0:
358,170,221393,1,10,2:2:0:0:
512,72,221547,6,0,P|495:189|484:313,1,220.999989883423,10|0,2:2|2:2,2:2:0:0:
280,252,222008,2,2,P|338:276|355:335,1,110.499994941712,10|2,2:2|2:2,2:2:0:0:
260,384,222316,1,2,2:2:0:0:
110,340,222470,2,0,P|55:348|-4:365,1,110.499994941712,10|0,2:2|2:2,2:2:0:0:
30,210,222778,5,10,2:2:0:0:
142,266,222932,1,2,2:2:0:0:
263,228,223085,1,10,2:2:0:0:
263,228,223239,1,8,2:2:0:0:
254,381,223393,6,2,B|276:249|349:342|373:208,1,220.999989883423,10|0,2:2|2:2,2:2:0:0:
489,68,223855,2,0,P|436:57|377:38,1,110.499994941712,10|0,2:2|2:2,2:2:0:0:
206,8,224162,1,2,2:2:0:0:
331,118,224316,5,10,2:2:0:0:
292,0,224470,1,0,2:2:0:0:
161,79,224624,1,10,2:2:0:0:
219,184,224778,2,0,P|156:117|71:105,1,165.749992412568,10|0,2:2|2:2,2:2:0:0:
74,117,225085,1,10,2:2:0:0:
96,283,225239,6,0,B|131:302|225:282|135:208|243:183|284:207,1,220.999989883423,10|0,2:2|2:2,2:2:0:0:
206,8,225701,2,0,P|174:70|203:120,1,110.499994941712,10|0,2:2|2:2,2:2:0:0:
389,183,226008,1,0,2:2:0:0:
389,183,226085,1,0,2:2:0:0:
389,183,226162,1,10,2:2:0:0:
342,309,226316,1,0,2:2:0:0:
278,200,226470,2,0,P|224:214|170:226,1,110.499994941712,10|0,2:2|2:2,2:2:0:0:
405,102,226778,2,0,P|458:116|512:128,1,110.499994941712,10|0,2:2|2:2,2:2:0:0:
294,373,227085,6,0,P|184:319|44:312,1,220.999989883423,14|2,2:2|2:2,2:2:0:0:
0,186,227547,2,0,P|55:174|106:119,1,110.499994941712,8|0,2:2|2:2,2:2:0:0:
181,8,227855,1,2,2:2:0:0:
334,39,228008,5,10,2:2:0:0:
301,117,228162,1,0,2:2:0:0:
190,166,228316,5,10,2:2:0:0:
224,242,228470,1,0,2:2:0:0:
233,82,228624,5,8,2:2:0:0:
215,246,228778,1,8,2:2:0:0:
313,332,228932,6,0,P|367:308|378:252,1,110.499994941712,10|0,2:2|2:2,2:2:0:0:
325,191,229239,1,2,2:2:0:0:
471,212,229393,2,0,P|477:153|434:115,1,110.499994941712,10|0,2:2|2:2,2:2:0:0:
325,181,229701,1,2,2:2:0:0:
376,0,229855,6,0,P|430:10|485:15,1,110.499994941712,10|0,2:2|2:2,2:2:0:0:
238,75,230162,2,0,P|184:85|129:90,1,110.499994941712,8|0,2:2|2:2,2:2:0:0:
95,180,230470,1,8,2:2:0:0:
0,129,230624,1,8,2:2:0:0:
86,281,230778,6,0,P|195:238|325:202,1,220.999989883423,10|0,2:2|2:2,2:2:0:0:
439,129,231239,1,10,2:2:0:0:
512,282,231393,2,0,P|459:264|432:210,1,110.499994941712,2|0,2:2|2:2,2:2:0:0:
281,0,231701,2,0,P|291:63|293:132,1,110.499994941712,10|0,2:2|2:2,2:2:0:0:
86,281,232008,2,0,P|135:240|194:204,1,110.499994941712,10|2,2:2|2:2,2:2:0:0:
194,225,232239,1,2,2:2:0:0:
194,225,232316,1,10,2:2:0:0:
214,114,232470,1,8,2:2:0:0:
89,52,232624,6,0,P|181:72|300:4,1,220.999989883423,10|0,2:2|2:2,2:2:0:0:
447,116,233085,2,0,P|459:27|364:61,1,220.999989883423,10|0,2:2|2:2,2:2:0:0:
369,68,233470,1,0,2:2:0:0:
369,68,233547,5,10,2:2:0:0:
376,149,233701,1,0,2:2:0:0:
255,307,233855,5,10,2:2:0:0:
262,214,234008,1,0,2:2:0:0:
167,242,234162,5,10,2:2:0:0:
353,269,234316,1,0,2:2:0:0:
139,381,234470,6,0,B|113:355|128:249|222:309|235:212|212:183,1,220.999989883423,10|0,2:2|2:2,2:2:0:0:
0,34,234932,2,0,P|114:22|140:128,1,220.999989883423,10|0,2:2|2:2,2:2:0:0:
62,287,235393,2,0,P|37:243|57:184,1,110.499994941712,10|0,2:2|2:2,2:2:0:0:
292,176,235701,2,0,P|225:191|187:204,1,110.499994941712,8|2,2:2|2:2,2:2:0:0:
254,73,236008,1,8,2:2:0:0:
378,122,236162,1,8,2:2:0:0:
454,40,236316,6,0,P|505:76|502:149,1,110.499994941712,10|0,2:2|2:2,2:2:0:0:
420,223,236624,1,2,2:2:0:0:
512,384,236778,2,0,P|431:310|306:301,1,220.999989883423,10|0,2:2|2:2,2:2:0:0:
178,360,237239,1,10,2:2:0:0:
245,236,237393,1,0,2:2:0:0:
147,166,237547,2,0,P|85:184|16:198,1,110.499994941712,8|2,2:2|2:2,2:2:0:0:
76,68,237855,1,8,2:2:0:0:
175,0,238008,1,8,2:2:0:0:
307,49,238162,6,0,P|281:163|273:316,1,220.999989883423,10|0,2:2|2:2,2:2:0:0:
86,305,238624,2,0,P|202:318|296:421,1,220.999989883423,10|0,2:2|2:2,2:2:0:0:
380,384,239008,1,0,2:2:0:0:
380,384,239085,2,0,P|414:337|368:275,1,110.499994941712,10|0,2:2|2:2,2:2:0:0:
272,266,239393,1,8,2:2:0:0:
345,209,239547,1,2,2:2:0:0:
176,158,239701,1,8,2:2:0:0:
193,269,239855,1,8,2:2:0:0:
75,315,240008,6,0,P|129:333|173:383,1,110.499994941712,10|0,2:2|2:2,2:2:0:0:
282,264,240316,1,2,2:2:0:0:
184,157,240470,2,0,P|296:116|352:214,1,220.999989883423,10|0,2:2|2:2,2:2:0:0:
386,303,240855,1,0,2:2:0:0:
386,303,240932,2,0,P|319:316|250:336,1,110.499994941712,10|0,2:2|2:2,2:2:0:0:
81,223,241239,2,0,P|148:236|217:256,1,110.499994941712,10|0,2:2|2:2,2:2:0:0:
335,94,241547,2,0,P|309:43|251:44,1,110.499994941712,10|0,2:2|2:2,2:2:0:0:
194,154,241855,6,0,B|126:168|34:94|64:-4|64:-4|75:93|166:102,1,391,6|0,2:2|2:2,2:2:0:0:
218,54,243701,6,0,B|280:48|311:98|286:103|326:144|368:147,1,187,2|0,2:2|2:2,2:2:0:0:
376,139,244624,2,0,B|333:135|293:95|318:90|287:39|225:45,1,187,2|0,2:2|2:2,2:2:0:0:
152,99,245547,6,0,B|86:89|43:35|43:35|66:99|35:160,1,255,2|0,2:2|2:2,2:2:0:0:
8,167,246778,6,0,P|16:191|21:216,1,51,2|0,2:2|2:2,2:2:0:0:
63,228,247085,2,0,P|55:252|50:277,1,51,2|0,2:2|2:2,2:2:0:0:
0,343,247393,6,0,B|99:300|155:382|155:382|131:341|146:300,1,255,2|0,2:2|2:2,2:2:0:0:
152,288,248624,2,0,P|197:261|251:294,1,119,2|0,2:2|2:2,2:2:0:0:
314,343,249239,6,0,P|310:249|389:323,1,252.97619047619,2|0,2:2|2:2,2:2:0:0:
414,357,250483,6,0,P|438:349|463:344,1,51,2|0,2:2|2:2,2:2:0:0:
487,320,250804,2,0,P|493:295|501:270,1,51,2|0,2:2|2:2,2:2:0:0:
454,192,251127,6,0,P|411:174|401:115,1,95.6250036478044,2|0,2:2|2:2,2:2:0:0:
355,96,251648,6,0,P|320:136|252:126,1,127.5,2|0,2:2|2:2,2:2:0:0:
198,127,252171,6,0,P|232:183|190:266,1,161.499995687485,2|0,2:2|2:2,2:2:0:0:
196,317,252700,6,0,P|285:301|348:385,1,203.999993774414,2|0,2:2|2:2,2:2:0:0:
401,384,253282,5,2,2:2:0:0:
256,192,253459,12,2,255424,2:2:0:0:
256,192,255612,12,2,257701,2:2:0:0:
11,373,260510,6,0,P|41:362|72:356,1,63.7500024318696,2|0,2:2|2:2,2:2:0:0:
127,287,260869,2,0,P|157:297|188:303,2,63.7500024318696,2|0|2,2:2|2:2|2:2,2:2:0:0:
64,222,261399,1,2,2:2:0:0:
150,200,261570,6,0,P|139:169|133:138,1,63.7500024318696,2|0,2:2|2:2,2:2:0:0:
121,46,261912,2,0,P|152:51|182:62,1,63.7500024318696,2|0,2:2|2:2,2:2:0:0:
219,105,262170,1,2,2:2:0:0:
219,105,262255,2,0,P|249:94|280:88,1,63.7500024318696,2|2,2:2|2:2,2:2:0:0:
381,46,262598,6,0,P|370:76|364:107,1,63.7500024318696,2|0,2:2|2:2,2:2:0:0:
305,171,262941,2,0,P|315:201|321:232,1,63.7500024318696,2|0,2:2|2:2,2:2:0:0:
384,295,263284,1,2,2:2:0:0:
339,373,263455,1,2,2:2:0:0:
238,304,263627,6,0,P|207:314|176:320,2,63.7500024318696,2|0|2,2:2|2:2|2:2,2:2:0:0:
288,232,264141,2,0,P|293:200|304:170,1,63.7500024318696,2|0,2:2|2:2,2:2:0:0:
274,91,264484,1,2,2:2:0:0:
359,101,264655,6,0,P|389:90|420:84,1,63.7500024318696,2|0,2:2|2:2,2:2:0:0:
512,96,264998,2,0,P|501:65|495:34,2,63.7500024318696,2|0|2,2:2|2:2|2:2,2:2:0:0:
461,167,265512,1,2,2:2:0:0:
512,244,265684,6,0,P|501:274|495:305,1,63.7500024318696,2|0,2:2|2:2,2:2:0:0:
421,360,266027,2,0,P|390:349|359:343,1,63.7500024318696,2|0,2:2|2:2,2:2:0:0:
331,299,266284,1,2,2:2:0:0:
331,299,266370,2,0,P|300:309|269:315,1,63.7500024318696,2|2,2:2|2:2,2:2:0:0:
196,367,266712,6,0,P|190:335|179:305,1,63.7500024318696,2|0,2:2|2:2,2:2:0:0:
196,215,267055,2,0,P|165:225|134:231,1,63.7500024318696,2|0,2:2|2:2,2:2:0:0:
93,310,267398,1,2,2:2:0:0:
10,276,267569,1,2,2:2:0:0:
60,184,267741,6,0,P|48:154|42:122,2,63.7500024318696,2|0|2,2:2|2:2|2:2,2:2:0:0:
134,231,268255,2,0,P|165:225|196:215,1,63.7500024318696,2|0,2:2|2:2,2:2:0:0:
270,261,268598,1,2,2:2:0:0:
275,176,268770,6,0,P|280:144|291:114,1,63.7500024318696,2|0,2:2|2:2,2:2:0:0:
225,51,269112,2,0,P|195:62|163:68,2,63.7500024318696,2|0|2,2:2|2:2|2:2,2:2:0:0:
309,32,269627,1,2,2:2:0:0:
374,87,269798,6,0,P|403:75|435:69,1,63.7500024318696,2|0,2:2|2:2,2:2:0:0:
505,129,270141,2,0,P|499:160|489:190,1,63.7500024318696,2|0,2:2|2:2,2:2:0:0:
447,223,270399,1,2,2:2:0:0:
447,223,270484,2,0,P|417:211|385:205,1,63.7500024318696,2|2,2:2|2:2,2:2:0:0:
314,153,270827,6,0,P|284:164|252:170,1,63.7500024318696,2|0,2:2|2:2,2:2:0:0:
194,234,271170,2,0,P|164:222|132:216,1,63.7500024318696,2|0,2:2|2:2,2:2:0:0:
56,178,271513,1,2,2:2:0:0:
0,241,271684,1,2,2:2:0:0:
57,342,271855,6,0,P|68:312|74:280,1,63.7500024318696,2|0,2:2|2:2,2:2:0:0:
132,216,272198,1,2,2:2:0:0:
55,177,272370,2,0,P|31:156|11:132,2,63.7500024318696,2|0|2,2:2|2:2|2:2,2:2:0:0:
154,212,272884,6,0,P|184:202|216:197,2,63.7500024318696,2|2|2,2:2|2:2|2:2,2:2:0:0:
114,292,273398,1,2,2:2:0:0:
185,347,273570,2,0,P|216:341|246:331,1,63.7500024318696,2|0,2:2|2:2,2:2:0:0:
299,230,273912,1,2,2:2:0:0:
395,264,274084,5,2,2:2:0:0:
375,356,274255,1,2,2:2:0:0:
459,384,274427,1,2,2:2:0:0:
512,358,274598,2,0,P|501:327|496:296,1,63.7500024318696,2|0,2:2|2:2,2:2:0:0:
439,237,274941,5,2,2:2:0:0:
474,195,275112,1,2,2:2:0:0:
424,133,275284,1,2,2:2:0:0:
488,78,275455,1,2,2:2:0:0:
420,2,275627,1,2,2:2:0:0:
337,56,275798,1,0,2:2:0:0:
216,0,275970,1,2,2:2:0:0:
155,89,276141,5,2,2:2:0:0:
58,46,276313,1,2,2:2:0:0:
0,123,276484,1,2,2:2:0:0:
38,194,276656,1,2,2:2:0:0:
97,184,276827,1,0,2:2:0:0:
117,278,276998,6,0,P|149:295|176:315,1,63.7500024318696,2|0,2:2|2:2,2:2:0:0:
251,384,277341,2,0,L|269:301,1,63.7500024318696,2|2,2:2|2:2,2:2:0:0:
341,217,277684,2,0,P|314:233|282:234,1,63.7500024318696,2|0,2:2|2:2,2:2:0:0:
212,143,278027,2,0,P|151:124|88:112,1,127.500004863739,2|2,2:2|2:2,2:2:0:0:
157,6,278541,1,2,2:2:0:0:
225,45,278712,1,2,2:2:0:0:
217,60,278884,1,0,2:2:0:0:
291,118,279055,6,0,P|321:106|359:103,1,63.7500024318696,2|0,2:2|2:2,2:2:0:0:
458,164,279398,2,0,P|473:138|472:101,1,63.7500024318696,2|2,2:2|2:2,2:2:0:0:
367,189,279741,2,0,L|379:254,1,63.7500024318696,2|0,2:2|2:2,2:2:0:0:
458,354,280084,2,0,P|422:338|373:333,1,63.7500024318696,2|0,2:2|2:2,2:2:0:0:
300,373,280427,1,2,2:2:0:0:
251,303,280598,1,2,2:2:0:0:
176,333,280769,1,2,2:2:0:0:
182,349,280941,1,0,2:2:0:0:
62,364,281112,6,0,P|66:333|90:313,1,63.7500024318696,2|0,2:2|2:2,2:2:0:0:
192,243,281455,2,0,P|157:238|122:227,1,63.7500024318696,2|2,2:2|2:2,2:2:0:0:
64,157,281798,2,0,P|44:181|47:212,1,63.7500024318696,2|0,2:2|2:2,2:2:0:0:
155,154,282141,2,0,P|187:101|248:94,1,127.500004863739,2|2,2:2|2:2,2:2:0:0:
313,177,282655,1,2,2:2:0:0:
386,141,282826,1,2,2:2:0:0:
401,149,282998,1,0,2:2:0:0:
398,54,283170,6,0,P|363:61|334:90,1,63.7500024318696,2|0,2:2|2:2,2:2:0:0:
313,177,283513,2,0,P|284:145|254:148,1,63.7500024318696,2|2,2:2|2:2,2:2:0:0:
175,160,283856,2,0,P|189:189|192:221,1,63.7500024318696,2|0,2:2|2:2,2:2:0:0:
99,289,284199,2,0,P|161:300|198:355,1,127.500004863739,2|2,2:2|2:2,2:2:0:0:
310,384,284712,1,2,2:2:0:0:
371,322,284884,1,2,2:2:0:0:
355,315,285055,1,0,2:2:0:0:
328,229,285227,6,0,P|335:195|339:162,1,63.7500024318696,2|0,2:2|2:2,2:2:0:0:
468,141,285570,2,0,P|445:167|413:179,1,63.7500024318696,2|2,2:2|2:2,2:2:0:0:
317,86,285913,2,0,P|281:100|263:130,1,63.7500024318696,2|0,2:2|2:2,2:2:0:0:
254,221,286256,2,0,P|195:196|115:195,1,127.500004863739,2|2,2:2|2:2,2:2:0:0:
70,122,286769,1,2,2:2:0:0:
128,63,286941,1,2,2:2:0:0:
144,56,287112,1,0,2:2:0:0:
68,0,287284,6,0,P|38:16|23:48,1,63.7500024318696,2|0,2:2|2:2,2:2:0:0:
0,141,287627,2,0,P|34:126|66:121,1,63.7500024318696,2|2,2:2|2:2,2:2:0:0:
132,193,287970,2,0,P|117:227|112:259,1,63.7500024318696,2|0,2:2|2:2,2:2:0:0:
36,319,288312,2,0,P|73:329|96:360,1,63.7500024318696,2|0,2:2|2:2,2:2:0:0:
179,364,288655,1,2,2:2:0:0:
215,283,288827,1,2,2:2:0:0:
300,245,288998,1,2,2:2:0:0:
311,258,289170,1,0,2:2:0:0:
383,317,289341,6,0,P|416:303|451:293,1,63.7500024318696,2|0,2:2|2:2,2:2:0:0:
499,198,289684,2,0,P|469:168|431:170,1,63.7500024318696,2|2,2:2|2:2,2:2:0:0:
351,90,290027,2,0,P|361:122|371:174,1,63.7500024318696,2|0,2:2|2:2,2:2:0:0:
399,19,290370,2,0,P|455:9|503:61,1,127.500004863739,2|2,2:2|2:2,2:2:0:0:
447,172,290884,1,2,2:2:0:0:
362,155,291055,1,2,2:2:0:0:
358,172,291227,1,0,2:2:0:0:
311,258,291398,6,0,P|284:243|240:239,1,63.7500024318696,2|0,2:2|2:2,2:2:0:0:
151,208,291741,2,0,P|177:192|202:156,1,63.7500024318696,2|2,2:2|2:2,2:2:0:0:
251,23,292085,2,0,P|258:67|271:121,1,85,2|0,2:2|2:2,2:2:0:0:
124,86,292486,2,0,P|87:93|58:122,1,59.4999981842042,2|0,2:2|2:2,2:2:0:0:
0,212,292838,6,0,P|30:219|86:244,1,63.7500024318696,2|2,2:2|2:2,2:2:0:0:
162,354,293248,6,0,P|183:331|224:302,1,63.7500024318696,2|2,2:2|2:2,2:2:0:0:
301,216,293702,5,2,2:2:0:0:
256,192,296199,12,0,303741,2:2:0:0:
