osu file format v14

[General]
AudioFilename: audio.mp3
AudioLeadIn: 0
PreviewTime: 917075
Countdown: 1
SampleSet: Normal
StackLeniency: 0.5
Mode: 0
LetterboxInBreaks: 0
WidescreenStoryboard: 1

[Editor]
Bookmarks: 139864,793922
DistanceSpacing: 1
BeatDivisor: 4
GridSize: 8
TimelineZoom: 2.500001

[Metadata]
Title:The Sun, The Moon, The Star
TitleUnicode:The Sun, The Moon, The Star
Artist:Aether Realm
ArtistUnicode:Æther Realm
Creator:hohol454
Version:Following my Heart
Source:
Tags:Æther Realm Tarot melodic folk death metal deathstream marathon
BeatmapID:1599882
BeatmapSetID:649668

[Difficulty]
HPDrainRate:5
CircleSize:4
OverallDifficulty:9.3
ApproachRate:9.8
SliderMultiplier:1.8
SliderTickRate:1

[Events]
//Background and Video events
0,0,"andrew-bosley-valarlamp-01small-ab.jpg",0,0
//Break Periods
2,104921,108407
2,115206,118693
2,122921,125264
2,129778,131264
2,135778,139264
2,652918,661830
2,1059827,1062455
//Storyboard Layer 0 (Background)
//Storyboard Layer 1 (Fail)
//Storyboard Layer 2 (Pass)
//Storyboard Layer 3 (Foreground)
//Storyboard Sound Samples

[TimingPoints]
582,437.956204379562,4,2,0,30,1,0
582,-100,4,2,0,30,0,0
14596,-62.5,4,1,9,60,0,0
26713,-62.5,4,1,5,60,0,0
28611,-62.5,4,1,9,60,0,0
68903,-100,4,1,5,60,0,0
69341,-100,4,1,9,60,0,0
71092,-76.9230769230769,4,1,5,60,0,0
84669,-76.9230769230769,4,1,9,60,0,0
86421,-76.9230769230769,4,1,9,60,0,0
86932,-100,4,1,9,60,0,0
98684,-62.5,4,1,9,60,0,0
100436,285.714285714286,6,1,9,30,1,0
100578,-303.030303030303,4,2,2,30,0,0
112150,-303.030303030303,4,2,2,10,0,0
112436,-303.030303030303,4,2,2,30,0,0
139864,-100,4,1,5,60,0,0
141578,-100,4,1,9,60,0,0
143293,-100,4,1,5,60,0,0
145007,-100,4,1,9,60,0,0
167007,-200,4,1,9,50,0,0
181007,-133.333333333333,4,1,9,50,0,0
181864,-100,4,1,9,50,0,0
182436,-133.333333333333,4,1,9,50,0,0
185293,-100,4,1,9,50,0,0
185864,-133.333333333333,4,1,9,50,0,0
186436,-100,4,1,9,50,0,0
186721,-133.333333333333,4,1,9,50,0,0
187007,-100,4,1,9,50,0,0
187293,-133.333333333333,4,1,9,50,0,0
192864,-133.333333333333,4,1,5,50,0,0
194721,-100,4,1,5,75,0,1
208436,-100,4,1,9,60,0,0
216150,-100,4,1,9,60,0,0
222150,-142.857142857143,4,1,9,60,0,1
235864,-142.857142857143,4,1,9,60,0,0
238293,-142.857142857143,4,1,5,60,0,0
239578,-142.857142857143,4,1,9,60,0,0
246150,-142.857142857143,4,1,5,60,0,0
248721,-100,4,1,9,75,0,0
249578,-100,4,1,9,75,0,1
257293,-166.666666666667,4,1,9,60,0,0
261578,-100,4,1,5,65,0,0
263293,-100,4,1,9,70,0,1
277007,-100,4,1,9,65,0,0
283007,-90.9090909090909,4,1,5,65,0,0
283864,-83.3333333333333,4,1,9,65,0,0
290721,-200,4,1,9,60,0,0
292293,-125,4,1,5,60,0,0
294150,-166.666666666667,4,1,9,40,0,0
294436,-166.666666666667,4,2,0,40,0,0
318150,-166.666666666667,4,1,5,55,0,0
321578,-166.666666666667,4,1,9,55,0,0
326721,-166.666666666667,4,1,5,55,0,0
328436,-142.857142857143,4,1,9,55,0,0
335293,-100,4,1,9,60,0,0
335578,-142.857142857143,4,1,9,60,0,0
342150,-100,4,1,9,60,0,0
342436,-142.857142857143,4,1,9,60,0,0
349007,-90.9090909090909,4,1,9,60,0,0
349293,-142.857142857143,4,1,9,60,0,0
352436,-90.9090909090909,4,1,9,60,0,0
352721,-142.857142857143,4,1,9,60,0,0
362721,-200,4,1,9,55,0,0
375007,-200,4,1,5,55,0,0
376436,-142.857142857143,4,1,9,60,0,0
382436,-125,4,1,5,60,0,0
383007,-142.857142857143,4,1,9,60,0,0
400721,-166.666666666667,4,1,5,60,0,0
401293,-142.857142857143,4,1,9,60,0,0
402436,-166.666666666667,4,1,5,60,0,0
403007,-166.666666666667,4,1,9,60,0,0
403293,-166.666666666667,4,1,5,60,0,0
403864,-100,4,1,9,65,0,0
404150,-125,4,1,9,65,0,0
410721,-100,4,1,9,65,0,0
411293,-125,4,1,9,65,0,0
414436,-117.647058823529,4,1,5,65,0,0
415007,-125,4,1,9,65,0,0
415293,-111.111111111111,4,1,5,65,0,0
415864,-105.263157894737,4,1,5,65,0,0
416721,-125,4,1,9,65,0,0
417578,-90.9090909090909,4,1,9,65,0,0
417864,-125,4,1,9,65,0,0
421007,-100,4,1,9,65,0,0
421293,-125,4,1,9,65,0,0
429293,-76.9230769230769,4,1,9,20,0,1
429578,-76.9230769230769,4,1,9,75,0,1
430114,-125,4,1,5,20,0,1
431007,-166.666666666667,4,1,5,20,0,1
431293,-100,4,1,9,70,0,1
458721,-142.857142857143,4,1,9,60,0,0
469007,-142.857142857143,4,1,9,60,0,0
476221,-142.857142857143,4,1,5,20,0,0
476292,-142.857142857143,4,1,5,60,0,0
476649,-142.857142857143,4,1,5,20,0,0
476721,-142.857142857143,4,1,5,60,0,0
477078,-142.857142857143,4,1,5,20,0,0
477149,-142.857142857143,4,1,5,60,0,0
477507,-142.857142857143,4,1,5,20,0,0
477577,-142.857142857143,4,1,9,60,0,0
477935,-142.857142857143,4,1,5,20,0,0
478007,-142.857142857143,4,1,5,60,0,0
478364,-142.857142857143,4,1,5,20,0,0
478434,-142.857142857143,4,1,9,60,0,0
482149,-142.857142857143,4,1,9,60,0,0
486150,-142.857142857143,4,1,9,50,0,0
493006,-111.111111111111,4,1,9,50,0,0
499863,-142.857142857143,4,1,9,50,0,0
506720,-111.111111111111,4,1,9,50,0,0
513578,-166.666666666667,4,1,9,55,0,0
541863,-500.000000000003,4,1,9,55,0,0
559006,-142.857142857143,4,1,9,55,0,0
566720,-100,4,1,5,50,0,0
568434,-142.857142857143,4,1,9,50,0,0
595864,-142.857142857143,4,1,5,50,0,0
606149,-100,4,1,9,70,0,1
619863,-90.9090909090909,4,1,9,75,0,1
633292,-200,4,1,5,75,0,1
633577,285.714285714286,7,1,5,50,1,0
633577,-142.857142857143,7,1,5,50,0,0
635577,285.714285714286,5,1,5,50,1,0
637005,285.714285714286,7,1,5,50,1,0
639005,285.714285714286,5,1,5,50,1,0
640433,285.714285714286,7,1,5,50,1,0
642433,285.714285714286,4,1,5,50,1,0
643290,-142.857142857143,7,1,5,50,0,0
644718,-142.857142857143,7,1,9,50,0,0
652575,-142.857142857143,4,1,5,5,0,0
653290,312.5,6,2,0,45,1,0
662430,312.5,4,2,0,40,1,0
664930,-100,4,2,0,45,0,0
667430,-100,4,2,0,50,0,0
669930,-100,4,2,0,55,0,0
671180,-100,4,1,9,60,0,0
672430,-100,4,1,9,65,0,0
680242,-166.666666666667,4,1,9,65,0,0
681492,-166.666666666667,4,1,5,65,0,0
681805,-100,4,1,5,65,0,0
682430,-100,4,1,9,50,0,0
691805,-100,4,1,9,60,0,0
692430,-100,4,1,9,60,0,1
701492,-166.666666666667,4,1,5,60,0,1
702430,-125,4,1,9,50,0,0
729930,-100,4,1,9,50,0,0
732430,-125,4,1,9,50,0,0
734930,-100,4,1,9,50,0,0
742430,-83.3333333333333,4,1,9,70,0,1
752430,-76.9230769230769,4,1,9,75,0,1
761180,312.5,6,1,9,75,1,1
761180,-76.9230769230769,6,1,9,60,0,1
762117,-100,6,1,5,60,0,0
763055,285.714285714286,6,1,9,40,1,0
763055,-142.857142857143,6,1,9,40,0,0
776769,-90.9090909090909,4,1,9,75,0,1
789626,-90.9090909090909,4,1,5,75,0,1
790483,571.428571428571,3,1,5,50,1,0
790483,-200,4,1,5,50,0,0
791923,571.428571428571,3,2,2,20,1,0
791923,-200,4,2,2,20,0,0
792208,571.428571428571,3,2,2,20,1,0
792208,-200,4,2,2,20,0,0
826485,285.714285714286,3,1,5,60,1,0
834199,-200,3,1,5,60,0,0
836770,-100,3,1,5,60,0,0
841056,-200,3,1,5,60,0,0
846199,-100,3,1,5,60,0,0
847913,-200,3,1,5,60,0,0
850485,-100,3,1,5,60,0,0
853913,-100,3,1,9,65,0,1
860770,-100,3,1,9,60,0,0
867627,-100,3,1,9,65,0,1
872770,-100,3,1,9,60,0,0
875913,-100,3,1,5,55,0,0
876485,-100,3,1,9,55,0,0
877913,-200,3,1,9,50,0,0
878770,-181.818181818182,3,1,9,50,0,0
879627,-166.666666666667,3,1,9,50,0,0
880485,-153.846153846154,3,1,9,50,0,0
881342,-181.818181818182,3,1,9,50,0,0
882199,-166.666666666667,3,1,9,50,0,0
883056,-153.846153846154,3,1,9,50,0,0
883913,-142.857142857143,3,1,9,50,0,0
884770,-166.666666666667,3,1,9,50,0,0
885627,-153.846153846154,3,1,9,50,0,0
886485,-142.857142857143,3,1,9,50,0,0
887342,-133.333333333333,3,1,9,50,0,0
888199,-125,3,1,9,50,0,0
889913,-125,3,1,5,50,0,0
891342,-113.636363636364,3,2,0,20,0,0
892199,-181.818181818182,3,2,0,20,0,0
893056,-270.27027027027,3,2,0,20,0,0
894199,-142.857142857143,3,2,0,30,0,0
917342,-142.857142857143,3,1,5,55,0,0
919056,-83.3333333333333,3,1,9,80,0,1
952770,-83.3333333333333,3,1,5,80,0,1
953342,-83.3333333333333,3,1,9,80,0,1
973056,-166.666666666667,3,1,5,50,0,0
973913,-166.666666666667,3,1,9,50,0,0
975056,-111.111111111111,3,1,5,50,0,0
975627,-166.666666666667,3,1,9,50,0,0
979056,-111.111111111111,3,1,9,50,0,0
980770,-166.666666666667,3,1,9,50,0,0
982485,-166.666666666667,3,1,9,50,0,0
988770,-111.111111111111,3,1,9,50,0,0
989342,-166.666666666667,3,1,9,50,0,0
992770,-111.111111111111,3,1,9,50,0,0
994485,-166.666666666667,3,1,9,50,0,0
999913,-166.666666666667,3,1,5,50,0,0
1000485,-166.666666666667,3,1,9,50,0,0
1000770,-166.666666666667,3,1,5,50,0,0
1001342,-100,3,1,5,75,0,1
1028770,571.428571428571,6,1,9,50,1,0
1028770,-100,4,1,9,50,0,0
1041627,-100,4,1,5,50,0,0
1042484,-100,4,1,9,50,0,0
1047627,-100,4,1,5,50,0,0
1052770,-100,4,1,9,50,0,0
1063055,-125,4,2,0,30,0,0
1124770,-125,4,2,0,23,0,0
1128198,-125,4,2,0,15,0,0
1131627,-125,4,2,0,10,0,0
1138484,-125,4,2,0,5,0,0

[Colours]
Combo1 : 168,164,2
Combo2 : 70,0,70
Combo3 : 68,14,180
Combo4 : 170,26,80

[HitObjects]
320,297,582,6,0,B|399:292|399:292|442:256,1,120,2|0,0:0|0:0,0:0:0:0:
431,266,946,1,0,0:0:0:0:
431,266,1019,1,0,0:0:0:0:
467,170,1165,1,0,0:0:0:0:
365,160,1311,1,0,0:0:0:0:
424,77,1457,2,0,P|341:60|267:136,1,180
139,205,2187,1,0,0:0:0:0:
139,205,2260,1,0,0:0:0:0:
139,205,2333,6,0,P|160:233|204:247,2,60
230,139,2698,1,0,0:0:0:0:
230,139,2771,2,0,P|268:144|304:126,2,60
180,42,3209,2,0,P|152:23|106:21,2,60
230,139,3647,1,0,0:0:0:0:
136,193,3793,1,0,0:0:0:0:
52,124,3939,1,0,0:0:0:0:
52,124,4012,1,0,0:0:0:0:
52,124,4085,6,0,P|14:101|-29:96,2,60,2|0|0,0:0|0:0|0:0,0:0:0:0:
136,193,4523,1,0,0:0:0:0:
227,148,4669,1,0,0:0:0:0:
319,191,4815,1,0,0:0:0:0:
415,157,4961,2,0,P|454:165|492:194,2,60
369,274,5399,2,0,P|335:286|289:282,1,60
217,234,5691,6,0,L|184:217,2,30,0|0|2,0:0|0:0|0:0,0:0:0:0:
217,234,5910,1,0,0:0:0:0:
217,234,5983,1,0,0:0:0:0:
265,145,6129,2,0,L|298:128,2,30
182,83,6421,1,0,0:0:0:0:
90,128,6567,1,0,0:0:0:0:
173,224,6713,5,2,0:0:0:0:
227,316,6859,1,0,0:0:0:0:
120,317,7005,1,0,0:0:0:0:
260,233,7151,5,0,0:0:0:0:
354,182,7297,1,0,0:0:0:0:
350,287,7443,1,0,0:0:0:0:
264,133,7589,6,0,P|251:99|249:72,2,60,2|0|0,0:0|0:0|0:0,0:0:0:0:
387,191,8027,2,0,P|400:157|402:130,2,60,2|0|0,0:0|0:0|0:0,0:0:0:0:
284,262,8465,2,0,P|267:236|259:208,2,60,2|0|0,0:0|0:0|0:0,0:0:0:0:
372,344,8903,2,0,P|392:321|405:295,2,60,2|0|0,0:0|0:0|0:0,0:0:0:0:
220,320,9341,5,10,0:0:0:0:
135,235,9487,1,8,0:0:0:0:
135,118,9633,1,8,0:0:0:0:
270,192,9779,5,10,0:0:0:0:
383,177,9925,1,8,0:0:0:0:
456,89,10071,1,8,0:0:0:0:
340,42,10217,6,0,P|311:50|286:68,2,60
383,177,10654,2,8,P|402:222|397:245,1,60,10|8,0:0|0:0,0:0:0:0:
317,294,10946,1,8,0:0:0:0:
224,258,11092,5,2,0:0:0:0:
224,258,11165,1,0,0:0:0:0:
224,258,11238,1,0,0:0:0:0:
243,157,11384,1,0,0:0:0:0:
243,157,11457,1,0,0:0:0:0:
243,157,11530,1,0,0:0:0:0:
169,86,11676,1,0,0:0:0:0:
93,154,11822,1,0,0:0:0:0:
218,245,11968,5,10,0:0:0:0:
335,221,12114,1,8,0:0:0:0:
401,120,12260,1,8,0:0:0:0:
262,127,12406,5,10,0:0:0:0:
335,221,12552,1,8,0:0:0:0:
440,278,12698,1,8,0:0:0:0:
469,147,12844,6,0,P|468:101|448:21,1,120,2|0,0:0|0:0,0:0:0:0:
333,58,13282,2,0,P|279:74|194:69,1,120,2|0,0:0|0:0,0:0:0:0:
95,79,13720,2,0,P|96:125|116:205,1,120,2|0,0:0|0:0,0:0:0:0:
233,193,14158,2,0,P|287:177|372:182,1,120,2|0,0:0|0:0,0:0:0:0:
336,323,14596,6,8,P|372:355|467:359,1,96,12|8,0:0|0:0,0:0:0:0:
422,261,14888,1,10,0:0:0:0:
243,261,15034,2,8,P|226:305|231:353,1,96
336,323,15326,1,10,0:0:0:0:
410,145,15472,2,8,P|403:96|370:51,1,96
304,134,15764,1,10,0:0:0:0:
190,211,15910,2,8,P|101:242|10:214,1,192
0,24,16348,6,8,L|105:48,1,96
178,109,16640,1,10,0:0:0:0:
10,214,16786,2,8,L|30:321,1,96,8|8,0:0|0:0,0:0:0:0:
109,367,17078,1,10,0:0:0:0:
187,210,17224,2,8,L|203:115,1,96
267,30,17516,1,10,0:0:0:0:
392,152,17662,2,8,B|436:210|436:210|452:351,1,192
272,384,18100,6,8,P|209:355|185:294,2,96,12|8|10,0:0|0:0|0:0,0:0:0:0:
298,212,18538,2,8,P|267:150|205:127,2,96,8|8|10,0:0|0:0|0:0,0:0:0:0:
139,264,18976,2,8,P|70:270|19:229,2,96,8|8|10,0:0|0:0|0:0,0:0:0:0:
109,95,19414,2,8,P|51:56|-12:68,2,96,8|8|10,0:0|0:0|0:0,0:0:0:0:
139,264,19852,5,8,0:0:0:0:
268,261,19998,1,8,0:0:0:0:
204,149,20144,1,10,0:0:0:0:
354,289,20290,5,8,0:0:0:0:
418,177,20436,1,8,0:0:0:0:
290,173,20581,1,10,0:0:0:0:
489,109,20727,5,8,0:0:0:0:
423,0,20873,1,8,0:0:0:0:
356,107,21019,2,0,L|354:169,1,48,2|0,0:0|0:0,0:0:0:0:
354,248,21165,5,4,0:3:0:0:
363,279,21238,1,4,0:3:0:0:
382,308,21311,1,4,0:3:0:0:
404,334,21384,1,4,0:3:0:0:
432,355,21457,1,4,0:3:0:0:
465,366,21530,1,4,0:3:0:0:
498,371,21603,5,6,0:0:0:0:
484,179,21749,1,6,0:0:0:0:
292,192,21895,1,6,0:0:0:0:
306,384,22041,1,6,0:0:0:0:
133,333,22479,6,8,P|127:279|81:225,1,96
25,318,22771,1,10,0:0:0:0:
203,202,22917,2,8,P|176:162|133:140,1,96
105,244,23209,1,10,0:0:0:0:
265,290,23355,2,8,P|297:254|309:208,1,96
203,202,23647,1,10,0:0:0:0:
406,167,23793,2,8,P|375:126|331:105,1,96
309,208,24085,1,10,0:0:0:0:
236,343,24231,5,8,0:0:0:0:
160,243,24377,1,8,0:0:0:0:
173,119,24523,1,10,0:0:0:0:
279,206,24669,5,8,0:0:0:0:
160,243,24815,1,8,0:0:0:0:
44,195,24961,1,10,0:0:0:0:
111,60,25107,6,8,P|158:34|237:50,1,96,10|8,0:0|0:0,0:0:0:0:
187,229,25399,1,8,0:0:0:0:
173,119,25545,1,8,0:0:0:0:
294,248,25691,1,8,0:0:0:0:
294,57,25837,1,8,0:0:0:0:
361,305,25983,6,8,P|295:336|241:321,1,96,10|8,0:0|0:0,0:0:0:0:
339,151,26275,1,0,0:0:0:0:
294,248,26421,1,0,0:0:0:0:
226,121,26567,1,0,0:0:0:0:
160,291,26713,1,0,0:0:0:0:
107,43,26859,5,6,0:0:0:0:
186,186,27005,1,0,0:0:0:0:
227,50,27151,1,0,0:0:0:0:
259,317,27297,5,6,0:0:0:0:
329,177,27443,1,0,0:0:0:0:
371,299,27589,1,0,0:0:0:0:
435,166,27735,5,4,0:3:0:0:
403,138,27808,1,4,0:3:0:0:
364,121,27881,1,4,0:3:0:0:
321,121,27954,1,4,0:3:0:0:
283,141,28027,1,4,0:3:0:0:
269,182,28100,1,4,0:3:0:0:
291,218,28173,1,4,0:3:0:0:
332,228,28246,1,4,0:3:0:0:
370,209,28319,1,4,0:3:0:0:
382,167,28392,1,4,0:3:0:0:
374,124,28465,1,4,0:3:0:0:
353,86,28538,1,4,0:3:0:0:
321,56,28611,6,0,L|278:25,5,48,6|0|0|0|0|0,0:0|0:0|0:0|0:0|0:0|0:0,0:0:0:0:
211,98,29049,2,0,L|147:78,5,48,2|0|0|0|0|0,0:0|0:0|0:0|0:0|0:0|0:0,0:0:0:0:
125,166,29487,5,10,0:0:0:0:
129,191,29560,1,0,0:0:0:0:
143,215,29633,1,0,0:0:0:0:
162,234,29706,1,0,0:0:0:0:
185,248,29779,1,0,0:0:0:0:
210,256,29852,1,0,0:0:0:0:
237,256,29925,1,2,0:0:0:0:
262,250,29998,1,0,0:0:0:0:
288,249,30071,1,0,0:0:0:0:
314,255,30144,1,0,0:0:0:0:
338,267,30217,1,0,0:0:0:0:
359,285,30290,1,0,0:0:0:0:
373,308,30363,6,0,L|394:352,5,48,6|0|0|0|0|0,0:0|0:0|0:0|0:0|0:0|0:0,0:0:0:0:
282,337,30800,2,0,L|276:388,5,48,2|0|0|0|0|0,0:0|0:0|0:0|0:0|0:0|0:0,0:0:0:0:
176,332,31238,1,10,0:0:0:0:
167,295,31310,1,0,0:0:0:0:
167,258,31383,1,0,0:0:0:0:
176,222,31456,1,0,0:0:0:0:
194,189,31529,1,0,0:0:0:0:
220,161,31602,1,0,0:0:0:0:
251,141,31676,1,2,0:0:0:0:
278,139,31749,1,0,0:0:0:0:
306,137,31822,1,0,0:0:0:0:
334,129,31895,1,0,0:0:0:0:
361,118,31968,1,0,0:0:0:0:
387,105,32041,1,0,0:0:0:0:
409,88,32115,6,0,L|449:49,5,48,6|0|0|0|0|0,0:0|0:0|0:0|0:0|0:0|0:0,0:0:0:0:
468,157,32552,2,0,L|519:179,5,48,2|0|0|0|0|0,0:0|0:0|0:0|0:0|0:0|0:0,0:0:0:0:
428,235,32990,5,10,0:0:0:0:
411,255,33063,1,0,0:0:0:0:
389,272,33136,1,0,0:0:0:0:
365,283,33209,1,0,0:0:0:0:
338,286,33282,1,0,0:0:0:0:
311,284,33355,1,0,0:0:0:0:
286,274,33428,1,2,0:0:0:0:
261,265,33501,1,0,0:0:0:0:
234,260,33574,1,0,0:0:0:0:
208,262,33647,1,0,0:0:0:0:
181,271,33720,1,0,0:0:0:0:
159,285,33793,1,0,0:0:0:0:
141,304,33866,6,0,P|97:337|0:257,1,192,6|0,0:0|0:0,0:0:0:0:
115,185,34304,5,2,0:0:0:0:
183,80,34450,1,2,0:0:0:0:
58,74,34596,1,2,0:0:0:0:
226,150,34742,5,10,0:0:0:0:
271,1,34888,1,2,0:0:0:0:
121,34,35034,1,2,0:0:0:0:
269,228,35180,5,2,0:0:0:0:
368,84,35326,1,2,0:0:0:0:
197,67,35472,1,2,0:0:0:0:
405,300,35618,5,4,0:0:0:0:
153,180,35764,1,4,0:0:0:0:
405,300,35910,1,4,0:0:0:0:
153,180,36056,1,4,0:0:0:0:
211,19,36494,5,10,0:0:0:0:
223,50,36567,1,0,0:0:0:0:
244,77,36640,1,8,0:0:0:0:
270,100,36713,1,0,0:0:0:0:
303,115,36786,1,8,0:0:0:0:
338,122,36859,1,0,0:0:0:0:
373,121,36932,5,10,0:0:0:0:
406,129,37005,1,0,0:0:0:0:
438,145,37078,1,8,0:0:0:0:
466,165,37151,1,0,0:0:0:0:
488,193,37224,1,8,0:0:0:0:
504,224,37297,1,0,0:0:0:0:
512,258,37370,5,10,0:0:0:0:
479,247,37443,1,0,0:0:0:0:
444,241,37516,1,8,0:0:0:0:
408,241,37589,1,0,0:0:0:0:
374,246,37662,1,8,0:0:0:0:
341,256,37735,1,0,0:0:0:0:
308,270,37808,5,10,0:0:0:0:
287,241,37881,1,0,0:0:0:0:
260,219,37954,1,8,0:0:0:0:
228,205,38027,1,0,0:0:0:0:
193,200,38100,1,8,0:0:0:0:
158,205,38173,1,0,0:0:0:0:
126,218,38246,5,10,0:0:0:0:
99,196,38319,1,0,0:0:0:0:
82,165,38392,1,8,0:0:0:0:
80,130,38465,1,0,0:0:0:0:
91,98,38538,1,8,0:0:0:0:
115,72,38611,1,0,0:0:0:0:
153,59,38684,5,10,0:0:0:0:
167,90,38757,1,0,0:0:0:0:
182,123,38830,1,8,0:0:0:0:
196,154,38903,1,0,0:0:0:0:
212,186,38976,1,0,0:0:0:0:
227,219,39049,1,0,0:0:0:0:
240,250,39122,5,2,0:0:0:0:
302,151,39268,1,0,0:0:0:0:
367,277,39414,1,0,0:0:0:0:
418,111,39560,2,0,B|439:62|439:62|469:19,2,96,8|0|0,0:0|0:0|0:0,0:0:0:0:
302,151,39998,5,2,0:0:0:0:
240,250,40144,1,0,0:0:0:0:
175,124,40290,1,0,0:0:0:0:
124,290,40436,2,0,B|103:339|103:339|73:382,2,96,8|0|0,0:0|0:0|0:0,0:0:0:0:
175,124,40873,6,0,P|173:77|147:24,1,96,2|0,0:0|0:0,0:0:0:0:
153,33,41092,1,0,0:0:0:0:
153,33,41165,1,0,0:0:0:0:
153,33,41238,1,0,0:0:0:0:
153,33,41311,1,0,0:0:0:0:
78,109,41457,1,0,0:0:0:0:
52,218,41603,1,0,0:0:0:0:
100,312,41749,5,2,0:0:0:0:
116,302,41822,1,0,0:0:0:0:
132,292,41895,1,0,0:0:0:0:
149,283,41968,1,0,0:0:0:0:
166,274,42041,1,0,0:0:0:0:
183,265,42114,1,0,0:0:0:0:
200,257,42187,5,0,0:0:0:0:
202,275,42260,1,0,0:0:0:0:
209,292,42333,1,0,0:0:0:0:
220,307,42406,1,0,0:0:0:0:
235,318,42479,1,0,0:0:0:0:
253,323,42552,1,0,0:0:0:0:
272,322,42625,6,0,P|332:308|401:192,1,192,6|0,0:0|0:0,0:0:0:0:
266,184,43063,2,0,P|231:103|264:-1,1,192,10|0,0:0|0:0,0:0:0:0:
384,91,43501,2,0,L|466:276,1,192,2|0,0:0|0:0,0:0:0:0:
380,376,43939,1,8,0:0:0:0:
306,313,44085,1,0,0:0:0:0:
277,221,44231,1,0,0:0:0:0:
238,132,44377,6,0,P|164:71|76:34,1,192,2|0,0:0|0:0,0:0:0:0:
32,174,44815,1,8,0:0:0:0:
106,233,44961,1,0,0:0:0:0:
47,307,45107,1,0,0:0:0:0:
180,287,45253,1,0,0:0:0:0:
233,220,45399,1,0,0:0:0:0:
299,273,45545,1,0,0:0:0:0:
302,144,45691,1,8,0:0:0:0:
223,81,45837,1,0,0:0:0:0:
286,4,45983,1,0,0:0:0:0:
365,67,46129,6,0,B|405:107|405:107|402:188,1,96,6|0,0:0|0:0,0:0:0:0:
405,195,46348,1,0,0:0:0:0:
436,231,46421,1,0,0:0:0:0:
364,310,46567,2,0,B|297:236|297:236|302:121,1,192,10|0,0:0|0:0,0:0:0:0:
262,44,47005,2,0,B|201:89|201:89|194:243,1,192,2|0,0:0|0:0,0:0:0:0:
190,326,47443,1,8,0:0:0:0:
113,384,47589,1,0,0:0:0:0:
15,344,47735,1,0,0:0:0:0:
97,289,47881,6,0,L|246:162,1,192,2|0,0:0|0:0,0:0:0:0:
318,58,48319,1,8,0:0:0:0:
403,118,48465,1,0,0:0:0:0:
489,177,48611,1,0,0:0:0:0:
475,268,48757,1,0,0:0:0:0:
397,214,48903,1,0,0:0:0:0:
319,159,49049,1,0,0:0:0:0:
310,255,49195,1,8,0:0:0:0:
380,303,49341,1,0,0:0:0:0:
450,352,49487,1,0,0:0:0:0:
461,254,49633,6,0,B|474:113,1,96,6|0,0:0|0:0,0:0:0:0:
475,110,49852,1,0,0:0:0:0:
437,140,49925,1,0,0:0:0:0:
339,228,50071,2,0,B|301:256|301:256|313:112,1,192,10|0,0:0|0:0,0:0:0:0:
411,23,50509,2,0,B|449:-5|449:-5|437:139,1,192,2|0,0:0|0:0,0:0:0:0:
339,228,50946,1,8,0:0:0:0:
241,228,51092,1,0,0:0:0:0:
166,167,51238,1,0,0:0:0:0:
143,74,51384,6,0,P|115:36|0:107,1,192,2|0,0:0|0:0,0:0:0:0:
33,213,51822,1,8,0:0:0:0:
104,276,51968,1,0,0:0:0:0:
197,298,52114,1,0,0:0:0:0:
170,215,52260,1,0,0:0:0:0:
250,186,52406,1,0,0:0:0:0:
334,198,52552,1,0,0:0:0:0:
297,297,52698,1,8,0:0:0:0:
387,349,52844,1,0,0:0:0:0:
491,352,52990,1,0,0:0:0:0:
462,218,53136,6,0,P|469:165|456:110,2,96,6|0|0,0:0|0:0|0:0,0:0:0:0:
290,99,53574,2,0,P|271:50|232:9,2,96,10|0|0,0:0|0:0|0:0,0:0:0:0:
222,285,54012,2,0,P|241:334|280:375,2,96,2|0|0,0:0|0:0|0:0,0:0:0:0:
50,166,54450,2,0,P|42:218|55:273,2,96,10|0|0,0:0|0:0|0:0,0:0:0:0:
207,186,54888,5,2,0:0:0:0:
316,126,55034,1,0,0:0:0:0:
376,17,55180,1,0,0:0:0:0:
227,40,55326,5,10,0:0:0:0:
316,126,55472,1,0,0:0:0:0:
437,155,55618,1,0,0:0:0:0:
497,27,55764,5,6,0:0:0:0:
497,27,55910,1,8,0:0:0:0:
487,48,55983,1,8,0:0:0:0:
477,69,56056,1,8,0:0:0:0:
467,90,56129,1,8,0:0:0:0:
457,112,56202,1,10,0:0:0:0:
349,218,56348,1,10,0:0:0:0:
348,51,56494,1,6,0:3:0:0:
468,250,56640,6,0,P|430:311|382:335,1,96,6|8,0:0|0:0,0:0:0:0:
411,323,56932,1,0,0:0:0:0:
333,199,57078,2,0,P|269:166|215:170,1,96,10|0,0:0|0:0,0:0:0:0:
246,165,57370,1,8,0:0:0:0:
78,205,57516,2,0,P|117:265|165:288,1,96,2|8,0:0|0:0,0:0:0:0:
266,302,57808,1,0,0:0:0:0:
225,154,57954,1,8,0:0:0:0:
369,190,58100,1,0,0:0:0:0:
214,239,58246,1,8,0:0:0:0:
381,286,58392,6,0,P|427:295|469:318,1,96,2|8,0:0|0:0,0:0:0:0:
469,318,58684,1,0,0:0:0:0:
235,344,58830,2,0,P|189:335|147:312,1,96,10|0,0:0|0:0,0:0:0:0:
146,311,59122,1,8,0:0:0:0:
217,156,59268,2,0,P|216:109|200:63,1,96,2|8,0:0|0:0,0:0:0:0:
200,62,59560,1,0,0:0:0:0:
85,133,59706,1,10,0:0:0:0:
196,243,59852,1,2,0:0:0:0:
111,37,59998,1,10,0:0:0:0:
116,285,60144,6,0,P|90:331|43:355,1,96,2|8,0:0|0:0,0:0:0:0:
53,352,60436,1,0,0:0:0:0:
36,153,60581,2,0,P|62:107|110:84,1,96,10|0,0:0|0:0,0:0:0:0:
99,86,60873,1,8,0:0:0:0:
192,242,61019,2,0,P|244:248|291:224,1,96,2|8,0:0|0:0,0:0:0:0:
363,136,61311,1,0,0:0:0:0:
227,150,61457,1,8,0:0:0:0:
302,34,61603,1,0,0:0:0:0:
304,216,61759,1,8,0:0:0:0:
433,53,61895,6,0,P|471:17|512:7,1,96,2|4,0:0|0:3,0:0:0:0:
512,6,62114,1,4,0:3:0:0:
512,6,62187,1,4,0:3:0:0:
487,203,62333,2,0,P|477:252|428:300,1,96,2|4,0:0|0:0,0:0:0:0:
229,349,62625,1,2,0:0:0:0:
318,173,62771,2,0,P|318:115|292:73,1,96,6|0,0:0|0:0,0:0:0:0:
141,79,63063,5,8,0:0:0:0:
121,111,63136,1,8,0:0:0:0:
101,144,63209,1,2,0:0:0:0:
103,156,63282,1,0,0:0:0:0:
105,169,63355,1,0,0:0:0:0:
109,183,63428,1,0,0:0:0:0:
111,196,63501,1,2,0:0:0:0:
114,209,63574,1,0,0:0:0:0:
117,223,63647,6,0,L|144:329,1,96,6|0,0:0|0:0,0:0:0:0:
140,316,63939,1,0,0:0:0:0:
296,224,64085,2,0,L|324:115,1,96,10|0,0:0|0:0,0:0:0:0:
319,131,64377,1,8,0:0:0:0:
442,10,64523,2,0,L|467:108,1,96,2|8,0:0|0:0,0:0:0:0:
429,240,64815,1,0,0:0:0:0:
329,110,64961,1,8,0:0:0:0:
330,292,65107,1,0,0:0:0:0:
407,157,65253,1,8,0:0:0:0:
236,236,65399,6,0,L|122:263,1,96,2|8,0:0|0:0,0:0:0:0:
142,258,65691,1,0,0:0:0:0:
17,173,65837,2,0,L|131:146,1,96,10|0,0:0|0:0,0:0:0:0:
110,150,66129,1,8,0:0:0:0:
240,33,66275,2,0,L|224:132,1,96,2|8,0:0|0:0,0:0:0:0:
225,128,66567,1,0,0:0:0:0:
366,102,66713,1,10,0:0:0:0:
253,248,66859,1,2,0:0:0:0:
450,198,67005,1,10,0:0:0:0:
225,128,67151,6,0,P|178:149|132:207,1,96,2|0,0:0|0:0,0:0:0:0:
158,354,67443,1,0,0:0:0:0:
287,246,67589,1,8,0:0:0:0:
131,198,67735,1,0,0:0:0:0:
274,349,67881,1,0,0:0:0:0:
339,135,68027,5,2,0:0:0:0:
337,96,68100,1,0,0:0:0:0:
314,64,68173,1,0,0:0:0:0:
208,147,68319,1,0,0:0:0:0:
435,225,68465,1,10,0:0:0:0:
259,270,68611,1,0,0:0:0:0:
285,45,68757,1,2,0:0:0:0:
144,252,68903,6,0,P|147:338|222:383,1,180,2|0,0:0|0:0,0:0:0:0:
251,383,69413,1,0,0:0:0:0:
279,375,69486,1,0,0:0:0:0:
305,359,69559,1,0,0:0:0:0:
324,336,69632,1,0,0:0:0:0:
336,309,69705,1,0,0:0:0:0:
339,279,69779,5,0,0:0:0:0:
312,265,69851,1,0,0:0:0:0:
289,245,69924,1,0,0:0:0:0:
273,220,69997,1,0,0:0:0:0:
264,192,70070,1,0,0:0:0:0:
262,162,70143,1,0,0:0:0:0:
268,133,70216,5,4,0:3:0:0:
239,125,70289,1,4,0:3:0:0:
209,122,70362,1,4,0:3:0:0:
179,122,70435,1,4,0:3:0:0:
150,127,70508,1,4,0:3:0:0:
121,136,70581,1,4,0:3:0:0:
94,148,70654,1,6,0:0:0:0:
86,377,71092,5,8,0:0:0:0:
65,339,71165,1,8,0:0:0:0:
53,297,71238,1,8,0:0:0:0:
50,254,71311,1,8,0:0:0:0:
58,212,71384,1,8,0:0:0:0:
77,173,71457,1,8,0:0:0:0:
101,137,71530,5,0,0:0:0:0:
137,147,71603,1,0,0:0:0:0:
175,137,71676,1,0,0:0:0:0:
201,109,71749,1,0,0:0:0:0:
208,71,71822,1,0,0:0:0:0:
194,35,71895,1,0,0:0:0:0:
164,12,71968,5,0,0:0:0:0:
344,118,72114,1,0,0:0:0:0:
139,77,72260,1,0,0:0:0:0:
381,304,72406,1,4,0:0:0:0:
129,262,72844,5,2,0:0:0:0:
114,226,72917,1,0,0:0:0:0:
122,188,72990,1,0,0:0:0:0:
150,161,73063,1,0,0:0:0:0:
187,153,73136,1,0,0:0:0:0:
223,167,73209,1,0,0:0:0:0:
245,199,73282,5,2,0:0:0:0:
210,216,73355,1,0,0:0:0:0:
171,218,73428,1,0,0:0:0:0:
135,204,73501,1,0,0:0:0:0:
108,177,73574,1,0,0:0:0:0:
95,140,73647,1,0,0:0:0:0:
98,102,73720,5,4,0:0:0:0:
305,318,73866,1,4,0:0:0:0:
181,32,74012,1,4,0:0:0:0:
320,82,74158,5,2,0:0:0:0:
354,100,74231,1,0,0:0:0:0:
381,128,74304,1,0,0:0:0:0:
397,163,74377,1,0,0:0:0:0:
402,201,74450,1,0,0:0:0:0:
394,239,74523,1,0,0:0:0:0:
375,273,74596,5,2,0:0:0:0:
352,241,74669,1,0,0:0:0:0:
320,220,74742,1,0,0:0:0:0:
282,212,74815,1,0,0:0:0:0:
244,220,74888,1,0,0:0:0:0:
211,241,74961,1,0,0:0:0:0:
189,273,75034,5,2,0:0:0:0:
209,305,75107,1,0,0:0:0:0:
246,312,75180,1,0,0:0:0:0:
278,291,75253,1,0,0:0:0:0:
284,254,75326,1,0,0:0:0:0:
260,223,75399,2,0,B|223:200|223:200|185:193,2,77.9999964294435
395,61,75910,5,4,0:0:0:0:
174,296,76056,1,4,0:0:0:0:
488,250,76202,1,4,0:0:0:0:
330,136,76348,5,2,0:0:0:0:
299,111,76421,1,0,0:0:0:0:
266,91,76494,1,0,0:0:0:0:
230,75,76567,1,0,0:0:0:0:
193,64,76640,1,0,0:0:0:0:
154,58,76713,1,0,0:0:0:0:
115,58,76786,5,2,0:0:0:0:
103,95,76859,1,0,0:0:0:0:
103,133,76932,1,0,0:0:0:0:
114,171,77005,1,0,0:0:0:0:
136,203,77078,1,0,0:0:0:0:
165,228,77151,1,0,0:0:0:0:
200,244,77224,5,4,0:0:0:0:
325,46,77662,6,0,L|360:105,1,38.9999982147218,2|8,0:0|0:0,0:0:0:0:
393,193,77808,1,8,0:0:0:0:
382,226,77881,1,8,0:0:0:0:
358,252,77954,1,8,0:0:0:0:
328,270,78027,1,8,0:0:0:0:
293,273,78100,2,0,L|243:258,1,38.9999982147218,2|8,0:0|0:0,0:0:0:0:
233,135,78246,1,8,0:0:0:0:
204,114,78319,1,8,0:0:0:0:
169,107,78392,2,8,L|106:123,1,38.9999982147218,10|8,0:0|0:0,0:0:0:0:
68,242,78538,6,0,L|96:284,1,38.9999982147218,2|4,0:0|0:3,0:0:0:0:
178,341,78684,1,4,0:3:0:0:
212,335,78757,1,4,0:3:0:0:
243,320,78830,1,4,0:3:0:0:
266,293,78903,1,4,0:3:0:0:
280,260,78976,2,4,L|299:203,1,38.9999982147218,6|4,0:3|0:3,0:3:0:0:
357,91,79122,1,4,0:3:0:0:
391,96,79195,1,4,0:3:0:0:
404,128,79268,2,4,L|385:180,1,38.9999982147218,6|4,0:3|0:3,0:3:0:0:
94,274,79414,5,6,0:0:0:0:
190,70,79852,5,2,0:0:0:0:
204,106,79925,1,0,0:0:0:0:
229,135,79998,1,0,0:0:0:0:
263,154,80071,1,0,0:0:0:0:
301,162,80144,1,0,0:0:0:0:
339,156,80217,1,0,0:0:0:0:
374,138,80290,5,2,0:0:0:0:
403,164,80363,1,0,0:0:0:0:
424,197,80436,1,0,0:0:0:0:
438,233,80509,1,0,0:0:0:0:
444,271,80581,5,4,0:0:0:0:
114,172,80727,1,4,0:0:0:0:
99,164,81019,1,4,0:0:0:0:
57,299,81165,5,2,0:0:0:0:
94,307,81238,1,0,0:0:0:0:
133,306,81311,1,0,0:0:0:0:
171,295,81384,1,0,0:0:0:0:
204,275,81457,1,0,0:0:0:0:
231,247,81530,1,0,0:0:0:0:
256,212,81603,5,2,0:0:0:0:
230,182,81676,1,0,0:0:0:0:
218,146,81749,1,0,0:0:0:0:
220,107,81822,1,0,0:0:0:0:
236,72,81895,1,0,0:0:0:0:
265,46,81968,1,0,0:0:0:0:
301,32,82041,5,2,0:0:0:0:
314,68,82114,1,0,0:0:0:0:
328,105,82187,1,0,0:0:0:0:
342,141,82260,1,0,0:0:0:0:
356,178,82333,1,0,0:0:0:0:
369,214,82406,2,0,L|398:288,2,77.9999964294435
148,245,82917,5,4,0:0:0:0:
470,136,83355,5,2,0:0:0:0:
434,119,83428,1,0,0:0:0:0:
396,111,83501,1,0,0:0:0:0:
357,113,83574,1,0,0:0:0:0:
320,124,83647,1,0,0:0:0:0:
287,143,83720,1,0,0:0:0:0:
259,171,83793,5,2,0:0:0:0:
272,208,83866,1,0,0:0:0:0:
274,247,83939,1,0,0:0:0:0:
263,284,84012,1,0,0:0:0:0:
241,316,84085,1,0,0:0:0:0:
210,340,84158,1,0,0:0:0:0:
174,353,84231,5,4,0:0:0:0:
79,122,84669,6,0,P|121:81|204:46,1,116.999994644165,4|8,0:0|0:0,0:0:0:0:
184,51,84943,1,8,0:0:0:0:
195,51,84998,1,8,0:0:0:0:
206,54,85052,1,8,0:0:0:0:
215,61,85107,1,4,0:0:0:0:
307,135,85326,6,8,L|312:172,4,29.2499986610413,8|8|8|8|4,0:0|0:0|0:0|0:0|0:0,0:0:0:0:
290,227,85654,6,0,L|263:265,5,29.2499986610413
248,260,85983,2,0,L|215:280,7,29.2499986610413,0|0|0|0|0|0|0|0,0:0|0:0|0:0|0:0|0:0|0:0|0:0|0:0,0:0:0:0:
199,271,86421,6,0,P|141:240|148:82,1,233.999989288331,6|14,0:0|0:0,0:0:0:0:
162,67,86932,1,0,0:0:0:0:
186,50,87005,1,8,0:0:0:0:
214,38,87078,1,0,0:0:0:0:
243,31,87151,1,8,0:0:0:0:
273,30,87224,1,0,0:0:0:0:
302,33,87297,5,10,0:0:0:0:
309,61,87370,1,0,0:0:0:0:
319,90,87443,1,8,0:0:0:0:
329,117,87516,1,0,0:0:0:0:
341,145,87589,1,8,0:0:0:0:
356,171,87662,1,0,0:0:0:0:
370,197,87735,6,0,L|400:230,5,30,10|0|8|0|8|0,0:0|0:0|0:0|0:0|0:0|0:0,0:0:0:0:
291,239,88173,5,10,0:0:0:0:
281,210,88246,1,0,0:0:0:0:
281,180,88319,1,8,0:0:0:0:
292,153,88392,1,0,0:0:0:0:
311,130,88465,1,8,0:0:0:0:
337,116,88538,1,0,0:0:0:0:
367,111,88611,5,10,0:0:0:0:
358,139,88684,1,0,0:0:0:0:
361,169,88757,1,8,0:0:0:0:
376,195,88830,1,0,0:0:0:0:
399,214,88903,1,8,0:0:0:0:
428,221,88976,1,0,0:0:0:0:
457,217,89049,6,0,L|494:204,5,30,10|0|8|0|8|0,0:0|0:0|0:0|0:0|0:0|0:0,0:0:0:0:
476,128,89487,6,0,L|452:88,1,30,10|0,0:0|0:0,0:0:0:0:
395,56,89633,2,0,L|351:48,1,30,10|0,0:0|0:0,0:0:0:0:
286,50,89779,2,0,L|257:58,1,30,10|0,0:0|0:0,0:0:0:0:
188,91,89925,5,14,0:0:0:0:
164,109,89998,1,0,0:0:0:0:
144,132,90071,1,8,0:0:0:0:
127,156,90144,1,0,0:0:0:0:
114,183,90217,1,8,0:0:0:0:
105,212,90290,1,0,0:0:0:0:
101,242,90363,5,10,0:0:0:0:
72,250,90436,1,0,0:0:0:0:
44,242,90509,1,8,0:0:0:0:
24,220,90581,1,0,0:0:0:0:
19,191,90654,1,8,0:0:0:0:
30,163,90727,1,0,0:0:0:0:
53,146,90800,5,10,0:0:0:0:
81,157,90873,1,0,0:0:0:0:
110,165,90946,1,8,0:0:0:0:
140,169,91019,1,0,0:0:0:0:
170,168,91092,1,8,0:0:0:0:
199,163,91165,1,0,0:0:0:0:
228,153,91238,6,0,L|278:129,5,30,10|0|8|0|8|0,0:0|0:0|0:0|0:0|0:0|0:0,0:0:0:0:
275,226,91676,5,10,0:0:0:0:
253,246,91749,1,0,0:0:0:0:
225,256,91822,1,8,0:0:0:0:
195,256,91895,1,0,0:0:0:0:
168,244,91968,1,8,0:0:0:0:
147,222,92041,1,0,0:0:0:0:
136,195,92114,5,10,0:0:0:0:
102,188,92187,1,0,0:0:0:0:
74,197,92260,1,8,0:0:0:0:
51,216,92333,1,0,0:0:0:0:
35,241,92406,2,0,L|33:283,1,30,10|0,0:0|0:0,0:0:0:0:
106,330,92552,5,10,0:0:0:0:
135,336,92625,1,0,0:0:0:0:
164,340,92698,1,8,0:0:0:0:
194,339,92771,1,0,0:0:0:0:
224,335,92844,1,8,0:0:0:0:
253,327,92917,1,0,0:0:0:0:
281,317,92990,6,0,L|316:288,5,30,14|0|8|0|8|0,0:0|0:0|0:0|0:0|0:0|0:0,0:0:0:0:
282,201,93428,5,14,0:0:0:0:
308,186,93501,1,0,0:0:0:0:
337,178,93574,1,8,0:0:0:0:
367,177,93647,1,0,0:0:0:0:
396,183,93720,1,8,0:0:0:0:
423,195,93793,1,0,0:0:0:0:
447,213,93866,5,10,0:0:0:0:
429,236,93939,1,0,0:0:0:0:
419,265,94012,1,8,0:0:0:0:
420,294,94085,1,0,0:0:0:0:
432,322,94158,1,8,0:0:0:0:
452,344,94231,1,0,0:0:0:0:
478,358,94304,5,10,0:0:0:0:
474,328,94377,1,0,0:0:0:0:
469,299,94450,1,8,0:0:0:0:
464,269,94523,1,0,0:0:0:0:
459,239,94596,1,8,0:0:0:0:
455,210,94669,1,0,0:0:0:0:
450,180,94742,6,0,L|445:140,5,30,10|0|8|0|8|0,0:0|0:0|0:0|0:0|0:0|0:0,0:0:0:0:
345,165,95180,5,10,0:0:0:0:
327,140,95253,1,0,0:0:0:0:
306,118,95326,1,8,0:0:0:0:
283,100,95399,1,0,0:0:0:0:
257,84,95472,1,8,0:0:0:0:
230,72,95545,1,0,0:0:0:0:
201,64,95618,5,10,0:0:0:0:
191,92,95691,1,0,0:0:0:0:
178,119,95764,1,8,0:0:0:0:
161,144,95837,1,0,0:0:0:0:
141,166,95910,1,8,0:0:0:0:
117,185,95983,1,0,0:0:0:0:
92,200,96056,5,10,0:0:0:0:
118,215,96129,1,0,0:0:0:0:
145,227,96202,1,8,0:0:0:0:
174,236,96275,1,0,0:0:0:0:
203,243,96348,1,8,0:0:0:0:
233,246,96421,1,0,0:0:0:0:
263,247,96494,6,0,L|310:245,1,30,10|0,0:0|0:0,0:0:0:0:
387,194,96640,2,0,L|351:199,1,30,10|0,0:0|0:0,0:0:0:0:
271,139,96786,2,0,L|304:140,1,30,10|0,0:0|0:0,0:0:0:0:
392,81,96932,6,0,L|354:87,5,30,14|0|8|0|8|0,0:0|0:0|0:0|0:0|0:0|0:0,0:0:0:0:
290,53,97370,5,10,0:0:0:0:
261,44,97443,1,0,0:0:0:0:
231,38,97516,1,8,0:0:0:0:
201,36,97589,1,0,0:0:0:0:
171,38,97662,1,8,0:0:0:0:
142,42,97735,1,0,0:0:0:0:
113,50,97808,5,10,0:0:0:0:
138,63,97881,1,0,0:0:0:0:
162,81,97954,1,8,0:0:0:0:
183,103,98027,1,0,0:0:0:0:
202,126,98100,1,8,0:0:0:0:
216,153,98173,1,0,0:0:0:0:
228,180,98246,5,10,0:0:0:0:
198,174,98319,1,0,0:0:0:0:
167,174,98392,1,8,0:0:0:0:
139,181,98465,1,0,0:0:0:0:
114,198,98538,1,8,0:0:0:0:
94,221,98611,1,0,0:0:0:0:
81,248,98684,6,0,L|74:318,1,48,6|0,0:0|0:0,0:0:0:0:
153,372,98830,1,4,0:3:0:0:
200,370,98902,1,4,0:3:0:0:
246,357,98975,1,4,0:3:0:0:
287,332,99048,1,4,0:3:0:0:
319,296,99122,5,6,0:3:0:0:
298,254,99194,1,4,0:3:0:0:
289,207,99267,1,4,0:3:0:0:
295,159,99340,1,4,0:3:0:0:
314,116,99413,1,4,0:3:0:0:
345,79,99486,1,4,0:3:0:0:
386,54,99559,5,6,0:3:0:0:
423,83,99632,1,4,0:3:0:0:
436,128,99705,1,4,0:3:0:0:
418,172,99778,1,4,0:3:0:0:
378,196,99851,1,4,0:3:0:0:
331,191,99924,1,4,0:3:0:0:
296,159,99998,5,6,0:3:0:0:
280,170,100071,1,4,0:3:0:0:
264,181,100144,1,4,0:3:0:0:
248,192,100217,1,4,0:3:0:0:
232,203,100290,1,4,0:3:0:0:
216,214,100363,1,4,0:3:0:0:
201,224,100436,1,6,0:0:0:0:
256,192,100578,12,0,104721,0:0:0:0:
256,192,109007,12,0,112150,0:0:0:0:
379,230,112436,6,0,P|379:188|373:165,2,59.3999998187256,8|0|0,0:0|0:0|0:0,0:0:0:0:
297,316,113293,2,0,P|226:340|178:329,1,118.799999637451,8|0,0:0|0:0,0:0:0:0:
184,331,114150,1,8,0:0:0:0:
196,93,114721,2,8,L|211:158,1,59.3999998187256
50,238,119293,6,0,L|35:296,2,59.3999998187256,8|0|0,0:0|0:0|0:0,0:0:0:0:
105,133,120150,2,0,P|152:83|203:69,1,118.799999637451,8|0,0:0|0:0,0:0:0:0:
213,187,121007,2,0,B|264:174|306:210,1,89.0999997280884,8|0,0:0|0:0,0:0:0:0:
297,203,121507,1,0,0:0:0:0:
297,203,121578,1,0,0:0:0:0:
309,321,121864,2,0,P|384:289|413:197,1,178.199999456177,8|0,0:0|0:0,0:0:0:0:
96,73,125864,5,0,0:0:0:0:
96,73,126150,2,0,P|60:52|32:49,2,59.3999998187256,8|0|0,0:0|0:0|0:0,0:0:0:0:
139,183,127007,2,0,P|183:223|253:225,1,118.799999637451,8|0,0:0|0:0,0:0:0:0:
346,175,127864,2,0,P|403:184|450:230,1,118.799999637451,8|0,0:0|0:0,0:0:0:0:
347,289,128721,2,0,P|303:329|184:320,1,178.199999456177,8|0,0:0|0:0,0:0:0:0:
342,85,131864,5,0,0:0:0:0:
342,85,132150,2,0,P|299:68|277:69,2,59.3999998187256,8|0|0,0:0|0:0|0:0,0:0:0:0:
426,168,133007,2,0,P|463:242|456:286,1,118.799999637451,8|0,0:0|0:0,0:0:0:0:
342,252,133864,2,0,P|260:246|216:257,1,118.799999637451,8|0,0:0|0:0,0:0:0:0:
169,359,134721,2,0,P|120:309|123:201,1,178.199999456177,8|0,0:0|0:0,0:0:0:0:
263,43,139864,6,0,L|451:76,1,180,6|2,0:0|0:0,0:0:0:0:
506,140,140245,1,2,0:0:0:0:
447,153,140340,1,2,0:0:0:0:
389,166,140436,2,0,L|211:197,2,180,2|2|0,0:0|0:0|0:0,0:0:0:0:
129,81,141293,5,2,0:0:0:0:
94,211,141436,1,2,0:0:0:0:
159,329,141578,2,0,P|202:366|337:352,1,180,6|8,0:0|0:0,0:0:0:0:
350,344,141936,1,8,0:0:0:0:
376,320,142007,1,8,0:0:0:0:
398,291,142078,1,8,0:0:0:0:
415,259,142150,1,10,0:0:0:0:
425,224,142221,1,8,0:0:0:0:
431,189,142293,1,8,0:0:0:0:
433,152,142364,1,8,0:0:0:0:
432,116,142436,1,14,0:0:0:0:
261,32,142721,5,0,0:0:0:0:
270,66,142793,1,0,0:0:0:0:
273,102,142864,1,0,0:0:0:0:
270,138,142936,1,0,0:0:0:0:
260,172,143007,1,0,0:0:0:0:
243,204,143078,1,0,0:0:0:0:
221,232,143150,1,0,0:0:0:0:
193,256,143221,1,0,0:0:0:0:
162,274,143293,6,0,P|73:294|-10:255,1,180,6|2,0:0|0:0,0:0:0:0:
35,176,143674,1,2,0:0:0:0:
86,144,143769,1,2,0:0:0:0:
143,124,143864,2,0,P|231:108|320:115,1,180,2|2,0:0|0:0,0:0:0:0:
236,303,144436,1,0,0:0:0:0:
428,176,144721,6,0,P|446:116|435:67,1,90,2|0,0:0|0:0,0:0:0:0:
432,54,144936,1,0,0:0:0:0:
411,24,145007,1,14,0:0:0:0:
232,78,145150,1,0,0:0:0:0:
338,110,145436,5,2,0:0:0:0:
301,300,145721,5,0,0:0:0:0:
335,312,145793,1,0,0:0:0:0:
371,312,145864,2,0,P|419:291|451:230,1,90,14|0,0:0|0:0,0:0:0:0:
199,361,146293,5,2,0:0:0:0:
98,195,146578,5,0,0:0:0:0:
183,74,146721,2,0,P|239:47|308:46,1,90,6|0,0:0|0:0,0:0:0:0:
360,105,147007,2,0,L|332:202,1,90
438,193,147293,2,0,L|466:290,1,90
389,23,147578,1,14,0:0:0:0:
366,274,147864,5,2,0:0:0:0:
324,317,147959,1,2,0:0:0:0:
274,350,148055,1,2,0:0:0:0:
216,367,148150,2,0,P|127:364|51:314,1,180,2|6,0:0|0:0,0:0:0:0:
0,172,148578,1,0,0:0:0:0:
44,26,148721,2,0,L|121:71,1,90
184,169,149007,2,0,L|270:119,1,90,2|0,0:0|0:0,0:0:0:0:
293,106,149221,1,0,0:0:0:0:
324,88,149293,5,10,0:0:0:0:
400,205,149436,1,0,0:0:0:0:
430,109,149578,1,0,0:0:0:0:
303,183,149721,1,0,0:0:0:0:
313,283,149864,1,2,0:0:0:0:
206,186,150007,1,0,0:0:0:0:
304,74,150150,6,0,P|371:69|472:149,2,180,6|0|2,0:0|0:0|0:0,0:0:0:0:
355,180,150864,1,0,0:0:0:0:
355,180,150936,1,0,0:0:0:0:
355,180,151007,1,14,0:0:0:0:
113,265,151293,5,0,0:0:0:0:
235,66,151578,5,2,0:0:0:0:
280,202,151721,1,0,0:0:0:0:
139,168,151864,1,6,0:0:0:0:
94,166,151936,1,0,0:0:0:0:
53,185,152007,1,0,0:0:0:0:
25,219,152078,1,0,0:0:0:0:
16,263,152150,1,0,0:0:0:0:
27,306,152221,1,0,0:0:0:0:
56,340,152293,1,0,0:0:0:0:
98,357,152364,1,0,0:0:0:0:
142,353,152436,1,0,0:0:0:0:
186,344,152507,1,0,0:0:0:0:
231,344,152578,1,0,0:0:0:0:
275,351,152650,1,0,0:0:0:0:
318,363,152721,5,10,0:0:0:0:
276,22,153578,6,0,P|265:103|280:145,1,90,2|0,0:0|0:0,0:0:0:0:
512,136,153864,2,0,P|474:111|431:100,1,90,2|0,0:0|0:0,0:0:0:0:
260,261,154150,2,0,P|216:250|179:225,1,90,2|0,0:0|0:0,0:0:0:0:
35,91,154436,2,0,P|3:151|35:293,1,180,2|0,0:0|0:0,0:0:0:0:
81,354,154864,1,8,0:0:0:0:
158,201,155007,1,2,0:0:0:0:
232,358,155150,1,10,0:0:0:0:
282,78,155293,6,0,P|335:115|371:237,1,180,2|0,0:0|0:0,0:0:0:0:
211,351,155721,1,10,0:0:0:0:
442,360,155864,2,0,P|491:337|524:276,1,90,2|8,0:0|0:0,0:0:0:0:
455,183,156150,1,2,0:0:0:0:
428,207,156221,1,0,0:0:0:0:
397,225,156293,1,8,0:0:0:0:
363,238,156364,1,0,0:0:0:0:
328,244,156436,1,0,0:0:0:0:
292,243,156507,1,0,0:0:0:0:
257,236,156578,1,8,0:0:0:0:
224,222,156650,1,0,0:0:0:0:
194,202,156721,2,0,L|156:170,3,45,0|0|8|0,0:0|0:0|0:0|0:0,0:0:0:0:
26,233,157007,6,0,P|15:167|35:112,1,90,6|8,0:0|0:0,0:0:0:0:
288,106,157293,2,0,P|314:69|327:27,1,90,2|8,0:0|0:0,0:0:0:0:
160,174,157578,2,0,P|192:226|244:245,1,90,2|8,0:0|0:0,0:0:0:0:
450,341,157864,2,0,P|371:376|249:348,1,180,2|0,0:0|0:0,0:0:0:0:
353,272,158293,1,8,0:0:0:0:
215,264,158436,1,2,0:0:0:0:
336,148,158578,1,8,0:0:0:0:
137,159,158721,5,2,0:0:0:0:
102,166,158793,1,0,0:0:0:0:
71,185,158864,1,8,0:0:0:0:
48,212,158936,1,0,0:0:0:0:
34,246,159007,1,0,0:0:0:0:
32,281,159078,1,0,0:0:0:0:
42,316,159150,1,8,0:0:0:0:
62,346,159221,1,0,0:0:0:0:
90,368,159293,1,0,0:0:0:0:
120,376,159364,1,0,0:0:0:0:
156,380,159436,1,8,0:0:0:0:
192,375,159507,1,0,0:0:0:0:
225,362,159578,5,2,0:0:0:0:
232,330,159650,1,0,0:0:0:0:
236,294,159721,1,8,0:0:0:0:
243,259,159793,1,0,0:0:0:0:
252,224,159864,1,0,0:0:0:0:
261,188,159936,1,0,0:0:0:0:
275,155,160007,1,8,0:0:0:0:
291,122,160078,1,0,0:0:0:0:
309,91,160150,2,0,P|348:49|407:35,1,90,2|8,0:0|0:0,0:0:0:0:
401,143,160436,6,0,L|436:236,1,90,2|0,0:0|0:0,0:0:0:0:
326,217,160721,2,0,L|291:310,1,90
386,299,161007,2,0,L|421:392,1,90
322,116,161293,1,14,0:0:0:0:
208,328,161578,5,2,0:0:0:0:
149,320,161674,1,2,0:0:0:0:
96,294,161769,1,2,0:0:0:0:
57,248,161864,2,0,P|27:164|42:71,1,180,2|2,0:0|0:0,0:0:0:0:
202,154,162293,1,0,0:0:0:0:
363,106,162436,2,0,P|391:162|386:231,1,90,0|0,0:0|0:0,0:0:0:0:
277,356,162721,2,0,P|249:298|253:232,1,90,2|0,0:0|0:0,0:0:0:0:
231,50,163007,2,0,P|143:18|35:42,1,180,14|0,0:0|0:0,0:0:0:0:
221,244,163578,5,2,0:0:0:0:
291,365,163721,1,0,0:0:0:0:
317,112,163864,2,0,B|399:127|432:177|432:177|506:217,1,180,2|2,0:0|0:0,0:0:0:0:
470,198,164293,1,0,0:0:0:0:
356,358,164436,5,2,0:0:0:0:
500,329,164578,1,0,0:0:0:0:
258,245,164721,2,0,B|214:216|214:216|225:140|187:89,1,180,14|2,0:0|0:0,0:0:0:0:
151,48,165102,1,2,0:0:0:0:
97,22,165197,1,2,0:0:0:0:
36,18,165293,5,2,0:0:0:0:
50,182,165436,1,2,0:0:0:0:
304,163,165578,5,6,0:0:0:0:
162,334,165864,5,0,0:0:0:0:
210,198,166150,5,2,0:0:0:0:
258,285,166436,5,10,0:0:0:0:
368,271,167007,5,0,0:0:0:0:
368,271,167293,2,0,P|387:216|383:166,2,90,6|0|0,0:0|0:0|0:0,0:0:0:0:
236,349,168150,2,0,P|147:336|78:276,1,180,10|0,0:0|0:0,0:0:0:0:
50,128,169007,1,2,0:0:0:0:
201,42,169436,6,0,P|226:95|239:142,1,90,0|0,0:0|0:0,0:0:0:0:
235,125,169793,1,0,0:0:0:0:
235,125,169864,1,14,0:0:0:0:
338,256,170150,1,2,0:0:0:0:
377,218,170245,1,2,0:0:0:0:
402,170,170340,1,2,0:0:0:0:
419,119,170436,2,0,L|422:74,1,45,2|0,0:0|0:0,0:0:0:0:
472,12,170721,6,0,P|497:56|491:111,2,90,6|0|0,0:0|0:0|0:0,0:0:0:0:
472,12,171436,1,0,0:0:0:0:
422,74,171578,2,0,P|374:96|239:120,1,180,10|0,0:0|0:0,0:0:0:0:
109,182,172436,6,0,P|76:244|131:338,1,180,2|0,0:0|0:0,0:0:0:0:
172,261,173150,1,0,0:0:0:0:
172,261,173221,1,0,0:0:0:0:
172,261,173293,2,0,L|275:227,1,90,12|0,0:0|0:0,0:0:0:0:
331,208,173721,1,0,0:0:0:0:
305,140,173864,1,2,0:0:0:0:
234,164,174007,1,0,0:0:0:0:
257,232,174150,6,0,P|270:270|387:344,1,180,6|0,0:0|0:0,0:0:0:0:
435,287,174864,1,0,0:0:0:0:
399,219,175007,2,0,B|379:163|420:108|378:43,1,180,8|0,0:0|0:0,0:0:0:0:
257,69,175864,6,0,L|208:27,2,45,2|0|0,0:0|0:0|0:0,0:0:0:0:
260,174,176293,2,0,L|309:216,2,45,2|0|0,0:0|0:0|0:0,0:0:0:0:
260,174,176650,1,0,0:0:0:0:
260,174,176721,1,14,0:0:0:0:
176,208,176864,1,0,0:0:0:0:
100,158,177007,1,4,0:0:0:0:
45,297,177150,5,2,0:0:0:0:
185,295,177293,1,6,0:0:0:0:
29,212,177436,1,2,0:0:0:0:
181,120,177578,6,0,P|229:105|358:118,1,180,6|0,0:0|0:0,0:0:0:0:
225,195,178436,2,0,P|186:139|186:21,1,180,10|0,0:0|0:0,0:0:0:0:
393,80,179293,6,0,L|419:33,2,45,2|0|0,0:0|0:0|0:0,0:0:0:0:
364,165,179721,1,2,0:0:0:0:
396,249,179864,1,0,0:0:0:0:
354,328,180007,1,0,0:0:0:0:
354,328,180078,1,0,0:0:0:0:
354,328,180150,2,0,P|295:329|263:316,1,90,10|0,0:0|0:0,0:0:0:0:
199,161,180578,1,0,0:0:0:0:
311,238,180721,1,2,0:0:0:0:
171,258,180864,1,0,0:0:0:0:
121,89,181007,6,0,L|74:12,1,67.5000025749208,6|0,0:0|0:0,0:0:0:0:
28,241,181293,2,0,L|63:183,1,67.5000025749208,0|0,0:0|0:0,0:0:0:0:
185,186,181578,2,0,L|220:243,1,67.5000025749208,0|0,0:0|0:0,0:0:0:0:
246,70,181864,2,0,P|199:47|161:50,1,90,8|0,0:0|0:0,0:0:0:0:
397,29,182150,2,0,P|436:8|480:9,1,90,8|0,0:0|0:0,0:0:0:0:
464,126,182436,2,0,L|499:183,1,67.5000025749208
467,294,182721,5,0,0:0:0:0:
376,364,182864,1,0,0:0:0:0:
270,318,183007,1,0,0:0:0:0:
262,203,183150,1,0,0:0:0:0:
192,111,183293,5,0,0:0:0:0:
167,100,183364,1,0,0:0:0:0:
140,93,183436,1,0,0:0:0:0:
112,95,183507,1,0,0:0:0:0:
89,100,183578,2,0,P|42:134|49:326,1,270.000010299683,14|0,0:0|0:0,0:0:0:0:
288,300,184436,6,0,B|383:305|383:305|425:315,2,135.000005149842,6|4|4,0:0|0:0|0:0,0:0:0:0:
259,92,185293,6,0,P|220:88|180:53,1,90,10|0,0:0|0:0,0:0:0:0:
418,77,185578,2,0,P|443:49|497:38,1,90,8|0,0:0|0:0,0:0:0:0:
412,239,185864,1,2,0:0:0:0:
310,186,186007,1,0,0:0:0:0:
195,184,186150,2,0,L|111:219,1,67.5000025749208,2|0,0:0|0:0,0:0:0:0:
266,61,186436,2,0,P|232:44|180:47,1,90,8|0,0:0|0:0,0:0:0:0:
210,281,186721,2,0,L|272:255,1,67.5000025749208,0|0,0:0|0:0,0:0:0:0:
266,61,187007,2,0,P|306:42|350:47,1,90,10|0,0:0|0:0,0:0:0:0:
417,141,187293,5,0,0:0:0:0:
432,241,187436,1,0,0:0:0:0:
317,248,187578,1,2,0:0:0:0:
510,176,187721,1,2,0:0:0:0:
378,372,187864,2,0,P|279:377|184:238,1,270.000010299683,6|0,0:0|0:0,0:0:0:0:
226,55,188721,1,8,0:0:0:0:
256,192,188793,12,0,190293,0:0:0:0:
381,119,190436,5,8,0:0:0:0:
184,68,190721,1,4,0:0:0:0:
171,257,191007,1,0,0:0:0:0:
368,308,191293,1,6,0:0:0:0:
110,93,192864,5,0,0:0:0:0:
120,135,192936,1,0,0:0:0:0:
130,177,193007,1,4,0:0:0:0:
355,346,193864,5,10,0:0:0:0:
362,327,193936,1,8,0:0:0:0:
370,308,194007,1,8,0:0:0:0:
378,289,194078,1,8,0:0:0:0:
396,285,194150,5,2,0:0:0:0:
390,258,194221,1,0,0:0:0:0:
384,231,194293,1,0,0:0:0:0:
378,204,194364,1,0,0:0:0:0:
347,196,194436,5,6,0:3:0:0:
333,165,194507,1,4,0:3:0:0:
319,134,194578,1,4,0:3:0:0:
304,103,194650,1,4,0:3:0:0:
289,72,194721,6,0,L|264:21,3,45,10|0|0|0,0:0|0:0|0:0|0:0,0:0:0:0:
170,93,195007,2,0,L|145:144,3,45,8|0|0|0,0:0|0:0|0:0|0:0,0:0:0:0:
245,162,195293,2,0,L|270:213,3,45,10|0|0|0,0:0|0:0|0:0|0:0,0:0:0:0:
178,215,195578,5,10,0:0:0:0:
148,248,195650,1,0,0:0:0:0:
132,290,195721,1,0,0:0:0:0:
134,335,195793,1,0,0:0:0:0:
152,376,195864,5,10,0:0:0:0:
170,335,195936,1,0,0:0:0:0:
202,303,196007,1,0,0:0:0:0:
242,284,196078,1,0,0:0:0:0:
287,279,196150,5,10,0:0:0:0:
317,312,196221,1,0,0:0:0:0:
360,319,196293,1,0,0:0:0:0:
399,298,196364,1,0,0:0:0:0:
417,258,196436,5,10,0:0:0:0:
375,241,196507,1,0,0:0:0:0:
337,218,196578,1,0,0:0:0:0:
303,188,196650,1,0,0:0:0:0:
275,153,196721,1,8,0:0:0:0:
254,114,196793,1,0,0:0:0:0:
239,71,196864,5,2,0:0:0:0:
231,115,196936,1,0,0:0:0:0:
228,160,197007,1,8,0:0:0:0:
230,205,197078,1,0,0:0:0:0:
236,250,197150,1,0,0:0:0:0:
247,293,197221,1,0,0:0:0:0:
263,335,197293,6,0,L|298:385,3,45,8|0|0|0,0:0|0:0|0:0|0:0,0:0:0:0:
152,339,197578,2,0,L|146:399,3,45,8|0|0|0,0:0|0:0|0:0|0:0,0:0:0:0:
48,321,197864,2,0,B|26:340|26:340|4:364,3,45,10|0|0|0,0:0|0:0|0:0|0:0,0:0:0:0:
17,229,198150,5,10,0:0:0:0:
25,185,198221,1,0,0:0:0:0:
60,158,198293,1,0,0:0:0:0:
103,162,198364,1,0,0:0:0:0:
134,193,198436,5,10,0:0:0:0:
120,235,198507,1,0,0:0:0:0:
132,277,198578,1,0,0:0:0:0:
165,306,198650,1,0,0:0:0:0:
209,312,198721,1,8,0:0:0:0:
252,304,198793,1,0,0:0:0:0:
284,273,198864,1,0,0:0:0:0:
293,230,198936,1,0,0:0:0:0:
276,189,199007,5,10,0:0:0:0:
264,232,199078,1,0,0:0:0:0:
269,276,199150,1,0,0:0:0:0:
290,315,199221,1,0,0:0:0:0:
325,344,199293,5,10,0:0:0:0:
345,304,199364,1,0,0:0:0:0:
376,271,199436,1,0,0:0:0:0:
414,247,199507,1,0,0:0:0:0:
456,233,199578,5,10,0:0:0:0:
415,215,199650,1,0,0:0:0:0:
381,186,199721,1,0,0:0:0:0:
358,148,199793,1,0,0:0:0:0:
346,104,199864,6,0,L|341:38,3,45,10|0|0|0,0:0|0:0|0:0|0:0,0:0:0:0:
235,106,200150,2,0,L|186:132,3,45,8|0|0|0,0:0|0:0|0:0|0:0,0:0:0:0:
301,198,200436,2,0,L|338:239,3,45,8|0|0|0,0:0|0:0|0:0|0:0,0:0:0:0:
200,238,200721,2,0,L|155:228,3,45,8|0|0|0,0:0|0:0|0:0|0:0,0:0:0:0:
192,340,201007,2,0,L|193:384,3,45,8|0|0|0,0:0|0:0|0:0|0:0,0:0:0:0:
111,317,201293,5,10,0:0:0:0:
86,279,201364,1,0,0:0:0:0:
69,237,201436,1,0,0:0:0:0:
62,193,201507,1,0,0:0:0:0:
64,148,201578,5,10,0:0:0:0:
109,151,201650,1,0,0:0:0:0:
154,148,201721,1,0,0:0:0:0:
198,139,201793,1,0,0:0:0:0:
241,125,201864,1,8,0:0:0:0:
282,107,201936,1,0,0:0:0:0:
320,83,202007,1,0,0:0:0:0:
355,55,202078,1,0,0:0:0:0:
386,22,202150,5,10,0:0:0:0:
385,66,202221,1,0,0:0:0:0:
395,110,202292,1,0,0:0:0:0:
416,150,202364,1,0,0:0:0:0:
447,182,202436,5,10,0:0:0:0:
403,192,202507,1,0,0:0:0:0:
358,193,202578,1,0,0:0:0:0:
314,184,202650,1,0,0:0:0:0:
273,165,202721,5,6,0:3:0:0:
297,209,202793,1,4,0:3:0:0:
321,252,202864,1,4,0:3:0:0:
345,295,202936,1,4,0:3:0:0:
369,338,203007,5,6,0:3:0:0:
323,317,203078,1,4,0:3:0:0:
278,297,203150,1,4,0:3:0:0:
233,277,203221,1,4,0:3:0:0:
188,257,203293,6,0,L|121:222,5,45,2|0|0|0|8|0,0:0|0:0|0:0|0:0|0:0|0:0,0:0:0:0:
269,184,203721,2,0,L|336:148,5,45,2|0|8|0|0|0,0:0|0:0|0:0|0:0|0:0|0:0,0:0:0:0:
178,121,204150,5,8,0:0:0:0:
196,80,204221,1,0,0:0:0:0:
231,52,204293,1,0,0:0:0:0:
275,45,204364,1,0,0:0:0:0:
317,58,204436,6,0,L|392:98,1,45,4|4,0:3|0:3,0:3:0:0:
471,155,204578,2,4,L|431:175,1,45,4|4,0:3|0:3,0:3:0:0:
317,251,204721,2,0,L|356:271,3,45,2|0|0|0,0:0|0:0|0:0|0:0,0:0:0:0:
306,339,205007,5,2,0:0:0:0:
261,339,205078,1,0,0:0:0:0:
216,332,205150,1,0,0:0:0:0:
174,317,205221,1,0,0:0:0:0:
135,295,205293,1,8,0:0:0:0:
101,266,205364,1,0,0:0:0:0:
72,231,205436,1,0,0:0:0:0:
50,192,205507,1,0,0:0:0:0:
36,149,205578,5,10,0:0:0:0:
80,143,205650,1,0,0:0:0:0:
121,161,205721,1,0,0:0:0:0:
148,196,205793,1,0,0:0:0:0:
154,240,205864,5,10,0:0:0:0:
110,250,205936,1,0,0:0:0:0:
71,272,206007,1,0,0:0:0:0:
40,305,206078,1,0,0:0:0:0:
20,345,206150,5,10,0:0:0:0:
61,328,206221,1,0,0:0:0:0:
106,323,206292,1,0,0:0:0:0:
150,333,206364,1,0,0:0:0:0:
191,356,206436,5,10,0:0:0:0:
193,312,206507,1,0,0:0:0:0:
205,268,206578,1,0,0:0:0:0:
226,228,206650,1,0,0:0:0:0:
255,194,206721,6,0,L|297:146,3,45,6|0|0|0,0:3|0:0|0:0|0:0,0:0:0:0:
364,219,207007,2,0,L|429:235,3,45,8|0|0|0,0:0|0:0|0:0|0:0,0:0:0:0:
429,125,207293,2,0,L|483:85,3,45,8|0|0|0,0:0|0:0|0:0|0:0,0:0:0:0:
353,44,207578,2,0,L|357:-22,3,45,8|0|0|0,0:0|0:0|0:0|0:0,0:0:0:0:
233,42,207864,5,8,0:0:0:0:
203,84,207936,1,8,0:0:0:0:
176,127,208007,1,8,0:0:0:0:
146,171,208078,1,8,0:0:0:0:
119,215,208150,5,0,0:0:0:0:
129,229,208221,1,4,0:3:0:0:
138,243,208293,1,4,0:3:0:0:
148,258,208364,1,4,0:3:0:0:
157,272,208436,6,0,P|203:316|323:338,1,180,6|0,0:0|0:0,0:0:0:0:
310,108,208864,2,0,P|278:55|142:-3,1,180,10|8,0:0|0:0,0:0:0:0:
36,112,209293,2,0,P|9:166|16:223,1,90,2|8,0:0|0:0,0:0:0:0:
134,384,209578,2,0,P|149:330|134:271,1,90,0|8,0:0|0:0,0:0:0:0:
232,153,209864,2,0,P|273:97|319:86,1,90,2|8,0:0|0:0,0:0:0:0:
475,243,210150,6,0,P|387:226|315:174,1,180,6|0,0:0|0:0,0:0:0:0:
266,0,210578,1,10,0:0:0:0:
408,74,210721,2,0,P|448:127|456:179,1,90,2|8,0:0|0:0,0:0:0:0:
265,263,211007,2,0,P|204:238|175:202,1,90,6|8,0:0|0:0,0:0:0:0:
231,4,211293,2,0,P|292:29|321:65,1,90,0|8,0:0|0:0,0:0:0:0:
85,152,211578,2,0,P|37:106|22:62,1,90,2|8,0:0|0:0,0:0:0:0:
308,45,211864,6,0,P|369:96|413:198,1,180,6|2,0:0|0:0,0:0:0:0:
355,269,212245,1,2,0:0:0:0:
297,284,212340,1,2,0:0:0:0:
236,280,212436,2,0,P|189:269|153:247,1,90,2|8,0:0|0:0,0:0:0:0:
83,56,212721,2,0,P|38:67|-1:87,1,90,2|8,0:0|0:0,0:0:0:0:
223,85,213007,2,0,P|239:43|271:4,1,90,0|8,0:0|0:0,0:0:0:0:
330,93,213293,1,2,0:0:0:0:
339,113,213364,1,0,0:0:0:0:
348,133,213436,1,8,0:0:0:0:
357,153,213507,1,0,0:0:0:0:
367,174,213578,5,6,0:0:0:0:
353,205,213650,1,0,0:0:0:0:
335,233,213721,1,8,0:0:0:0:
313,260,213793,1,0,0:0:0:0:
287,282,213864,1,0,0:0:0:0:
257,299,213936,1,0,0:0:0:0:
226,311,214007,1,8,0:0:0:0:
193,319,214078,1,0,0:0:0:0:
159,321,214150,1,0,0:0:0:0:
125,317,214221,1,0,0:0:0:0:
91,307,214293,1,8,0:0:0:0:
61,293,214364,1,0,0:0:0:0:
32,273,214436,5,2,0:0:0:0:
54,248,214507,1,0,0:0:0:0:
77,222,214578,1,8,0:0:0:0:
102,198,214650,1,0,0:0:0:0:
127,176,214721,1,0,0:0:0:0:
155,155,214793,1,0,0:0:0:0:
182,136,214864,1,8,0:0:0:0:
212,118,214936,1,0,0:0:0:0:
242,102,215007,2,0,L|301:64,3,45,2|0|8|0,0:0|0:0|0:0|0:0,0:0:0:0:
369,72,215293,5,6,0:0:0:0:
381,248,215436,1,0,0:0:0:0:
467,116,215578,1,2,0:0:0:0:
316,164,215721,1,0,0:0:0:0:
477,220,215864,1,2,0:0:0:0:
450,21,216007,1,0,0:0:0:0:
452,314,216150,1,14,0:0:0:0:
296,384,216436,5,2,0:0:0:0:
238,369,216531,1,2,0:0:0:0:
196,325,216626,1,2,0:0:0:0:
178,267,216721,2,0,P|171:222|180:178,1,90,2|0,0:0|0:0,0:0:0:0:
337,236,217007,2,0,L|357:144,1,90,6|0,0:0|0:0,0:0:0:0:
429,213,217293,2,0,L|480:133,1,90
414,4,217578,1,2,0:0:0:0:
200,34,217721,5,0,0:0:0:0:
200,34,217793,1,0,0:0:0:0:
200,34,217864,2,0,L|180:126,1,90,10|0,0:0|0:0,0:0:0:0:
136,220,218150,2,0,L|85:140,1,90
259,236,218436,1,2,0:0:0:0:
98,341,218578,1,0,0:0:0:0:
308,350,218721,2,0,P|366:303|372:191,2,180,6|0|2,0:0|0:0|0:0,0:0:0:0:
171,250,219436,1,0,0:0:0:0:
196,100,219578,6,0,P|254:46|369:20,1,180,10|2,0:0|0:0,0:0:0:0:
409,24,219959,1,2,0:0:0:0:
464,49,220055,1,2,0:0:0:0:
501,95,220150,2,0,P|510:145|501:209,1,90,2|0,0:0|0:0,0:0:0:0:
323,295,220436,5,6,0:0:0:0:
281,277,220507,1,0,0:0:0:0:
253,243,220578,1,0,0:0:0:0:
245,199,220650,1,0,0:0:0:0:
258,157,220721,1,0,0:0:0:0:
272,113,220793,1,0,0:0:0:0:
264,69,220864,1,0,0:0:0:0:
236,35,220936,1,0,0:0:0:0:
195,18,221007,1,0,0:0:0:0:
151,23,221078,1,0,0:0:0:0:
117,53,221150,1,0,0:0:0:0:
107,96,221221,1,0,0:0:0:0:
122,138,221293,1,14,0:0:0:0:
388,52,221578,5,8,0:0:0:0:
396,72,221650,1,8,0:0:0:0:
404,92,221721,1,8,0:0:0:0:
412,112,221793,1,8,0:0:0:0:
389,120,221864,5,4,0:3:0:0:
382,141,221936,1,4,0:3:0:0:
375,162,222007,1,4,0:3:0:0:
368,183,222078,1,4,0:3:0:0:
361,204,222150,5,6,0:0:0:0:
343,174,222221,1,0,0:0:0:0:
321,148,222293,1,8,0:0:0:0:
296,125,222364,1,0,0:0:0:0:
268,107,222436,1,8,0:0:0:0:
237,92,222507,1,0,0:0:0:0:
205,82,222578,1,8,0:0:0:0:
172,76,222650,1,0,0:0:0:0:
139,74,222721,1,8,0:0:0:0:
106,78,222793,1,0,0:0:0:0:
73,86,222864,1,8,0:0:0:0:
41,99,222936,1,0,0:0:0:0:
12,116,223007,5,10,0:0:0:0:
16,149,223078,1,0,0:0:0:0:
28,182,223150,1,8,0:0:0:0:
47,209,223221,1,0,0:0:0:0:
72,231,223293,1,8,0:0:0:0:
102,246,223364,1,0,0:0:0:0:
135,254,223436,1,8,0:0:0:0:
167,261,223507,1,0,0:0:0:0:
199,271,223578,1,10,0:0:0:0:
230,286,223650,1,0,0:0:0:0:
258,303,223721,1,8,0:0:0:0:
285,324,223793,1,0,0:0:0:0:
309,348,223864,6,0,L|350:386,7,31.4999990386963,10|0|8|0|8|0|8|0,0:0|0:0|0:0|0:0|0:0|0:0|0:0|0:0,0:0:0:0:
402,288,224436,2,0,L|441:287,3,31.4999990386963,10|0|8|0,0:0|0:0|0:0|0:0,0:0:0:0:
449,197,224721,6,0,L|485:177,11,31.4999990386963,10|0|8|0|8|0|8|0|12|0|8|0,0:0|0:0|0:0|0:0|0:0|0:0|0:0|0:0|0:0|0:0|0:0|0:0,0:0:0:0:
374,152,225578,5,14,0:0:0:0:
354,127,225650,1,0,0:0:0:0:
332,104,225721,1,8,0:0:0:0:
308,84,225793,1,0,0:0:0:0:
282,66,225864,1,8,0:0:0:0:
254,51,225936,1,0,0:0:0:0:
226,38,226007,1,8,0:0:0:0:
196,27,226078,1,0,0:0:0:0:
165,20,226150,1,8,0:0:0:0:
134,16,226221,1,0,0:0:0:0:
103,14,226293,1,8,0:0:0:0:
71,15,226364,1,0,0:0:0:0:
40,20,226436,5,10,0:0:0:0:
30,50,226507,1,0,0:0:0:0:
24,81,226578,1,8,0:0:0:0:
22,112,226650,1,0,0:0:0:0:
22,144,226721,1,8,0:0:0:0:
26,175,226793,1,0,0:0:0:0:
34,206,226864,1,8,0:0:0:0:
45,235,226936,1,0,0:0:0:0:
59,263,227007,1,10,0:0:0:0:
77,289,227078,1,0,0:0:0:0:
97,314,227150,1,8,0:0:0:0:
119,336,227221,1,0,0:0:0:0:
144,355,227293,6,0,L|178:381,11,31.4999990386963,10|0|8|0|8|0|8|0|8|0|8|0,0:0|0:0|0:0|0:0|0:0|0:0|0:0|0:0|0:0|0:0|0:0|0:0,0:0:0:0:
251,312,228150,6,0,L|262:346,7,31.4999990386963,10|0|8|0|8|0|8|0,0:0|0:0|0:0|0:0|0:0|0:0|0:0|0:0,0:0:0:0:
344,248,228721,2,0,L|345:290,3,31.4999990386963,10|0|8|0,0:0|0:0|0:0|0:0,0:0:0:0:
403,159,229007,5,14,0:0:0:0:
388,131,229078,1,0,0:0:0:0:
370,105,229150,1,8,0:0:0:0:
348,82,229221,1,0,0:0:0:0:
323,63,229293,1,10,0:0:0:0:
296,47,229364,1,0,0:0:0:0:
267,35,229436,1,8,0:0:0:0:
237,27,229507,1,0,0:0:0:0:
205,23,229578,1,10,0:0:0:0:
174,24,229650,1,0,0:0:0:0:
143,29,229721,1,8,0:0:0:0:
113,39,229793,1,0,0:0:0:0:
84,53,229864,2,0,L|52:75,7,31.4999990386963,10|0|8|0|8|0|8|0,0:0|0:0|0:0|0:0|0:0|0:0|0:0|0:0,0:0:0:0:
148,107,230436,5,10,0:0:0:0:
179,107,230507,1,0,0:0:0:0:
210,113,230578,1,8,0:0:0:0:
240,123,230650,1,0,0:0:0:0:
268,137,230721,2,0,L|317:167,7,31.4999990386963,10|0|8|0|8|0|8|0,0:0|0:0|0:0|0:0|0:0|0:0|0:0|0:0,0:0:0:0:
220,204,231293,5,10,0:0:0:0:
191,215,231364,1,0,0:0:0:0:
163,231,231436,1,8,0:0:0:0:
138,249,231507,1,0,0:0:0:0:
115,271,231578,2,0,L|92:295,7,31.4999990386963,10|0|8|0|8|0|8|0,0:0|0:0|0:0|0:0|0:0|0:0|0:0|0:0,0:0:0:0:
179,342,232150,2,0,L|177:375,3,31.4999990386963,14|0|8|0,0:0|0:0|0:0|0:0,0:0:0:0:
263,349,232436,5,14,0:0:0:0:
293,355,232507,1,0,0:0:0:0:
325,355,232578,1,8,0:0:0:0:
356,351,232650,1,0,0:0:0:0:
386,341,232721,1,8,0:0:0:0:
414,327,232793,1,0,0:0:0:0:
439,308,232864,1,8,0:0:0:0:
461,285,232936,1,0,0:0:0:0:
478,259,233007,1,8,0:0:0:0:
491,230,233078,1,0,0:0:0:0:
499,200,233150,1,8,0:0:0:0:
501,168,233221,1,0,0:0:0:0:
499,137,233293,5,10,0:0:0:0:
468,145,233364,1,0,0:0:0:0:
437,142,233436,1,8,0:0:0:0:
409,128,233507,1,0,0:0:0:0:
389,105,233578,5,10,0:0:0:0:
368,81,233650,1,0,0:0:0:0:
340,67,233721,1,8,0:0:0:0:
309,64,233793,1,0,0:0:0:0:
279,73,233864,1,14,0:0:0:0:
372,231,234007,1,8,0:0:0:0:
189,126,234150,5,14,0:0:0:0:
152,107,234221,1,8,0:0:0:0:
115,88,234293,1,8,0:0:0:0:
78,69,234364,1,8,0:0:0:0:
42,49,234436,5,4,0:3:0:0:
44,80,234507,1,4,0:3:0:0:
46,111,234578,1,4,0:3:0:0:
48,142,234650,1,4,0:3:0:0:
50,173,234721,5,8,0:0:0:0:
79,151,234793,1,8,0:0:0:0:
110,129,234864,1,8,0:0:0:0:
143,113,234936,1,8,0:0:0:0:
177,101,235007,6,8,L|221:88,3,31.4999990386963
212,204,235293,2,0,L|259:215,3,31.4999990386963,0|0|0|0,0:0|0:0|0:0|0:0,0:0:0:0:
123,251,235578,2,0,L|92:259,3,31.4999990386963
159,339,235864,5,0,0:0:0:0:
181,360,235936,1,0,0:0:0:0:
209,374,236007,1,0,0:0:0:0:
240,378,236078,1,0,0:0:0:0:
271,373,236150,1,0,0:0:0:0:
301,362,236221,1,0,0:0:0:0:
328,346,236293,1,0,0:0:0:0:
354,328,236364,1,0,0:0:0:0:
378,308,236436,1,0,0:0:0:0:
405,293,236507,1,0,0:0:0:0:
437,290,236578,1,0,0:0:0:0:
466,299,236650,1,0,0:0:0:0:
489,320,236721,1,6,0:0:0:0:
268,124,237578,5,0,0:0:0:0:
227,296,237721,1,0,0:0:0:0:
110,57,238007,5,0,0:0:0:0:
431,0,238293,5,0,0:0:0:0:
421,35,238364,1,0,0:0:0:0:
413,73,238436,1,6,0:0:0:0:
354,312,238578,1,6,0:0:0:0:
124,36,238864,5,6,0:0:0:0:
465,169,239150,5,6,0:0:0:0:
266,207,239293,5,2,0:0:0:0:
234,208,239364,1,0,0:0:0:0:
204,218,239436,1,0,0:0:0:0:
178,235,239507,1,0,0:0:0:0:
156,258,239578,2,0,P|99:291|42:267,1,125.999996154785,12|0,0:0|0:0,0:0:0:0:
79,99,240150,5,2,0:0:0:0:
77,130,240221,1,0,0:0:0:0:
80,161,240293,1,0,0:0:0:0:
87,192,240364,1,0,0:0:0:0:
98,221,240436,2,0,P|115:264|74:338,1,125.999996154785,12|0,0:0|0:0,0:0:0:0:
173,42,241007,6,0,B|292:102|201:176|329:240,1,251.999992309571,2|0,0:0|0:0,0:0:0:0:
361,128,241864,5,8,0:0:0:0:
134,151,242007,1,0,0:0:0:0:
270,190,242150,1,0,0:0:0:0:
270,190,242293,1,0,0:0:0:0:
279,319,242436,1,0,0:0:0:0:
279,319,242578,1,0,0:0:0:0:
127,324,242721,6,0,P|96:277|104:73,1,251.999992309571,2|0,0:0|0:0,0:0:0:0:
331,23,243578,5,0,0:0:0:0:
337,53,243650,1,0,0:0:0:0:
337,85,243721,1,0,0:0:0:0:
331,116,243793,1,0,0:0:0:0:
319,145,243864,1,0,0:0:0:0:
301,171,243936,1,0,0:0:0:0:
279,193,244007,1,0,0:0:0:0:
253,210,244078,1,0,0:0:0:0:
224,223,244150,1,0,0:0:0:0:
195,236,244221,1,0,0:0:0:0:
176,261,244293,1,0,0:0:0:0:
171,291,244364,1,0,0:0:0:0:
180,321,244436,6,0,B|214:364|286:375|347:298|431:309,1,251.999992309571,6|0,0:0|0:0,0:0:0:0:
247,117,245293,6,0,L|236:204,1,62.9999980773926,8|0,0:0|0:0,0:0:0:0:
111,236,245578,2,0,L|118:173,1,62.9999980773926,0|0,0:0|0:0,0:0:0:0:
277,95,245864,2,0,L|266:182,1,62.9999980773926,0|0,0:0|0:0,0:0:0:0:
78,265,246150,5,14,0:0:0:0:
189,18,246293,1,6,0:0:0:0:
403,328,246578,5,6,0:0:0:0:
116,89,246864,5,6,0:0:0:0:
231,261,247007,1,14,0:0:0:0:
364,0,247150,1,6,0:0:0:0:
480,368,247436,5,6,0:0:0:0:
310,93,247721,5,6,0:0:0:0:
313,251,247864,2,0,P|309:301|125:351,1,251.999992309571,14|0,0:0|0:0,0:0:0:0:
85,229,248578,1,0,0:0:0:0:
85,229,248721,5,10,0:0:0:0:
126,244,248793,1,8,0:0:0:0:
168,261,248864,1,8,0:0:0:0:
210,278,248936,1,8,0:0:0:0:
236,245,249007,5,2,0:0:0:0:
269,257,249078,1,0,0:0:0:0:
303,270,249150,1,0,0:0:0:0:
336,283,249221,1,0,0:0:0:0:
359,263,249293,5,6,0:3:0:0:
389,274,249364,1,4,0:3:0:0:
421,288,249436,1,4,0:3:0:0:
452,300,249507,1,4,0:3:0:0:
452,333,249578,6,0,P|394:363|259:347,1,180,6|8,0:0|0:0,0:0:0:0:
241,338,249936,1,0,0:0:0:0:
206,310,250007,1,8,0:0:0:0:
180,273,250078,1,0,0:0:0:0:
163,232,250150,1,8,0:0:0:0:
148,189,250221,1,0,0:0:0:0:
125,151,250293,1,8,0:0:0:0:
95,117,250364,1,0,0:0:0:0:
60,90,250436,5,10,0:0:0:0:
29,122,250507,1,0,0:0:0:0:
22,165,250578,1,8,0:0:0:0:
41,205,250650,1,0,0:0:0:0:
79,227,250721,5,10,0:0:0:0:
114,199,250793,1,0,0:0:0:0:
154,178,250864,1,8,0:0:0:0:
197,164,250936,1,0,0:0:0:0:
242,159,251007,5,10,0:0:0:0:
273,191,251078,1,0,0:0:0:0:
314,208,251150,1,8,0:0:0:0:
359,207,251221,1,0,0:0:0:0:
399,189,251293,6,0,L|435:144,5,45,10|0|8|0|8|0,0:0|0:0|0:0|0:0|0:0|0:0,0:0:0:0:
332,118,251721,2,0,L|296:72,5,45,10|0|8|0|8|0,0:0|0:0|0:0|0:0|0:0|0:0,0:0:0:0:
398,51,252150,5,10,0:0:0:0:
438,33,252221,1,0,0:0:0:0:
480,46,252293,1,8,0:0:0:0:
503,83,252364,1,0,0:0:0:0:
496,126,252436,5,10,0:0:0:0:
454,142,252507,1,0,0:0:0:0:
422,173,252578,1,8,0:0:0:0:
405,214,252650,1,0,0:0:0:0:
406,259,252721,5,10,0:0:0:0:
362,255,252793,1,0,0:0:0:0:
324,231,252864,1,8,0:0:0:0:
301,193,252936,1,0,0:0:0:0:
298,148,253007,5,14,0:0:0:0:
254,136,253078,1,0,0:0:0:0:
210,134,253150,1,8,0:0:0:0:
165,140,253221,1,0,0:0:0:0:
123,156,253293,1,8,0:0:0:0:
85,180,253364,1,0,0:0:0:0:
53,212,253436,1,8,0:0:0:0:
28,249,253507,1,0,0:0:0:0:
12,291,253578,5,10,0:0:0:0:
56,289,253650,1,0,0:0:0:0:
99,301,253721,1,8,0:0:0:0:
136,326,253793,1,0,0:0:0:0:
163,362,253864,5,10,0:0:0:0:
182,321,253936,1,0,0:0:0:0:
192,277,254007,1,8,0:0:0:0:
192,232,254078,1,0,0:0:0:0:
181,189,254150,1,8,0:0:0:0:
170,145,254221,1,0,0:0:0:0:
175,101,254293,1,8,0:0:0:0:
196,61,254364,1,0,0:0:0:0:
229,31,254436,1,8,0:0:0:0:
271,15,254507,1,0,0:0:0:0:
316,14,254578,6,0,L|375:28,1,45,10|0,0:0|0:0,0:0:0:0:
433,148,254721,2,0,L|462:192,3,45,10|0|8|0,0:0|0:0|0:0|0:0,0:0:0:0:
367,235,255007,2,0,L|338:279,5,45,10|0|8|0|8|0,0:0|0:0|0:0|0:0|0:0|0:0,0:0:0:0:
277,193,255436,6,0,L|212:211,1,45,10|0,0:0|0:0,0:0:0:0:
117,221,255578,1,10,0:0:0:0:
76,203,255650,1,0,0:0:0:0:
46,170,255721,1,8,0:0:0:0:
33,127,255793,1,0,0:0:0:0:
39,83,255864,5,10,0:0:0:0:
79,103,255936,1,0,0:0:0:0:
123,112,256007,1,8,0:0:0:0:
168,112,256078,1,0,0:0:0:0:
211,100,256150,1,10,0:0:0:0:
371,41,256293,5,0,0:0:0:0:
371,41,256364,1,0,0:0:0:0:
371,41,256436,1,6,0:0:0:0:
353,82,256507,1,0,0:0:0:0:
346,126,256578,1,0,0:0:0:0:
346,171,256650,1,0,0:0:0:0:
352,216,256721,1,0,0:0:0:0:
361,260,256793,1,0,0:0:0:0:
360,304,256864,1,0,0:0:0:0:
337,342,256936,1,0,0:0:0:0:
298,365,257007,1,2,0:0:0:0:
254,369,257078,1,0,0:0:0:0:
214,360,257150,1,0,0:0:0:0:
182,343,257221,1,0,0:0:0:0:
160,322,257293,6,0,P|124:270|128:107,1,215.999993408203,14|2,0:0|0:0,0:0:0:0:
232,168,258150,2,0,P|196:228|44:247,1,215.999993408203,6|0,0:0|0:0,0:0:0:0:
78,79,259007,5,10,0:0:0:0:
225,11,259293,1,0,0:0:0:0:
233,172,259578,1,2,0:0:0:0:
343,290,259864,2,0,P|425:302|459:285,1,107.999996704102,2|0,0:0|0:0,0:0:0:0:
382,144,260436,2,0,P|300:132|266:149,1,107.999996704102,2|8,0:0|0:0,0:0:0:0:
162,253,261007,2,0,P|125:290|58:311,1,107.999996704102,2|0,0:0|0:0,0:0:0:0:
51,138,261578,5,10,0:0:0:0:
83,118,261650,1,8,0:0:0:0:
116,99,261721,1,8,0:0:0:0:
150,80,261793,1,8,0:0:0:0:
171,100,261864,5,4,0:3:0:0:
205,91,261936,1,4,0:3:0:0:
239,82,262007,1,4,0:3:0:0:
274,74,262078,1,4,0:3:0:0:
288,94,262150,5,8,0:0:0:0:
331,106,262221,1,8,0:0:0:0:
373,118,262293,1,8,0:0:0:0:
416,131,262364,1,8,0:0:0:0:
408,160,262436,6,8,L|432:198,3,45,10|8|8|8,0:0|0:0|0:0|0:0,0:0:0:0:
332,245,262721,2,0,L|307:283,3,45,0|0|0|0,0:0|0:0|0:0|0:0,0:0:0:0:
240,193,263007,2,0,L|215:155,3,45,2|0|0|0,0:0|0:0|0:0|0:0,0:0:0:0:
145,260,263293,5,6,0:0:0:0:
112,228,263364,1,0,0:0:0:0:
93,188,263436,1,0,0:0:0:0:
89,143,263507,1,0,0:0:0:0:
100,100,263578,1,8,0:0:0:0:
126,64,263650,1,0,0:0:0:0:
163,38,263721,1,8,0:0:0:0:
206,27,263793,1,0,0:0:0:0:
251,32,263864,1,8,0:0:0:0:
292,50,263936,1,0,0:0:0:0:
336,53,264007,1,8,0:0:0:0:
377,37,264078,1,0,0:0:0:0:
413,10,264150,5,10,0:0:0:0:
397,49,264221,1,0,0:0:0:0:
393,92,264293,1,8,0:0:0:0:
397,136,264364,1,0,0:0:0:0:
412,176,264436,1,8,0:0:0:0:
421,218,264507,1,0,0:0:0:0:
411,260,264578,1,8,0:0:0:0:
386,294,264650,1,0,0:0:0:0:
348,316,264721,1,8,0:0:0:0:
305,319,264793,1,0,0:0:0:0:
261,316,264864,1,8,0:0:0:0:
222,298,264936,1,0,0:0:0:0:
191,269,265007,5,10,0:0:0:0:
234,257,265078,1,0,0:0:0:0:
271,232,265150,1,8,0:0:0:0:
297,195,265221,1,0,0:0:0:0:
309,152,265293,1,8,0:0:0:0:
306,108,265364,1,0,0:0:0:0:
287,67,265436,1,8,0:0:0:0:
256,35,265507,1,0,0:0:0:0:
216,15,265578,1,8,0:0:0:0:
171,10,265650,1,0,0:0:0:0:
128,21,265721,1,8,0:0:0:0:
91,46,265793,1,0,0:0:0:0:
64,82,265864,6,0,L|35:135,3,45,14|0|8|0,0:0|0:0|0:0|0:0,0:0:0:0:
95,191,266150,2,0,L|81:233,3,45,8|0|8|0,0:0|0:0|0:0|0:0,0:0:0:0:
175,121,266436,2,0,L|173:165,3,45,8|0|8|0,0:0|0:0|0:0|0:0,0:0:0:0:
234,223,266721,5,14,0:0:0:0:
248,261,266793,1,0,0:0:0:0:
270,296,266864,1,8,0:0:0:0:
304,323,266936,1,0,0:0:0:0:
344,337,267007,1,8,0:0:0:0:
387,338,267078,1,0,0:0:0:0:
427,319,267150,1,8,0:0:0:0:
456,289,267221,1,0,0:0:0:0:
472,249,267293,1,8,0:0:0:0:
476,207,267364,1,0,0:0:0:0:
464,165,267436,1,8,0:0:0:0:
440,131,267507,1,0,0:0:0:0:
404,106,267578,5,10,0:0:0:0:
403,149,267650,1,0,0:0:0:0:
393,191,267721,1,8,0:0:0:0:
377,230,267793,1,0,0:0:0:0:
354,267,267864,1,8,0:0:0:0:
324,297,267936,1,0,0:0:0:0:
290,324,268007,1,8,0:0:0:0:
251,342,268078,1,0,0:0:0:0:
211,356,268150,1,8,0:0:0:0:
169,360,268221,1,0,0:0:0:0:
125,359,268293,1,8,0:0:0:0:
84,349,268364,1,0,0:0:0:0:
45,332,268436,5,10,0:0:0:0:
62,293,268507,1,0,0:0:0:0:
83,256,268578,1,8,0:0:0:0:
113,223,268650,1,0,0:0:0:0:
144,195,268721,1,8,0:0:0:0:
179,169,268793,1,0,0:0:0:0:
219,151,268864,1,8,0:0:0:0:
258,137,268936,1,0,0:0:0:0:
301,129,269007,1,8,0:0:0:0:
343,126,269078,1,0,0:0:0:0:
386,130,269150,1,8,0:0:0:0:
428,139,269221,1,0,0:0:0:0:
468,153,269293,6,0,L|514:178,3,45,10|0|8|0,0:0|0:0|0:0|0:0,0:0:0:0:
415,231,269578,2,0,L|366:242,3,45,12|0|8|0,0:0|0:0|0:0|0:0,0:0:0:0:
452,319,269864,2,0,L|502:331,3,45,12|0|8|0,0:0|0:0|0:0|0:0,0:0:0:0:
353,345,270150,5,14,0:0:0:0:
310,348,270221,1,0,0:0:0:0:
266,343,270293,1,8,0:0:0:0:
224,332,270364,1,0,0:0:0:0:
186,315,270436,1,8,0:0:0:0:
150,292,270507,1,0,0:0:0:0:
119,263,270578,1,8,0:0:0:0:
91,230,270650,1,0,0:0:0:0:
70,192,270721,1,8,0:0:0:0:
55,151,270793,1,0,0:0:0:0:
47,109,270864,1,8,0:0:0:0:
46,66,270936,1,0,0:0:0:0:
52,22,271007,5,10,0:0:0:0:
95,25,271078,1,0,0:0:0:0:
136,37,271150,1,8,0:0:0:0:
173,60,271221,1,0,0:0:0:0:
203,90,271293,1,8,0:0:0:0:
223,128,271364,1,0,0:0:0:0:
234,169,271436,1,8,0:0:0:0:
234,213,271507,1,0,0:0:0:0:
222,254,271578,1,8,0:0:0:0:
202,291,271650,1,0,0:0:0:0:
171,321,271721,1,8,0:0:0:0:
135,343,271793,1,0,0:0:0:0:
94,355,271864,5,10,0:0:0:0:
83,315,271936,1,0,0:0:0:0:
83,271,272007,1,8,0:0:0:0:
92,229,272078,1,0,0:0:0:0:
110,190,272150,1,8,0:0:0:0:
136,155,272221,1,0,0:0:0:0:
168,127,272293,1,8,0:0:0:0:
207,108,272364,1,0,0:0:0:0:
248,97,272436,1,8,0:0:0:0:
291,95,272507,1,0,0:0:0:0:
334,103,272578,1,8,0:0:0:0:
373,120,272650,1,0,0:0:0:0:
407,145,272721,6,0,L|443:180,3,45,10|0|8|0,0:0|0:0|0:0|0:0,0:0:0:0:
365,256,273007,2,0,L|375:310,3,45,8|0|8|0,0:0|0:0|0:0|0:0,0:0:0:0:
268,306,273293,2,0,L|242:353,3,45,8|0|8|0,0:0|0:0|0:0|0:0,0:0:0:0:
160,272,273578,5,14,0:0:0:0:
190,241,273650,1,0,0:0:0:0:
210,203,273721,1,8,0:0:0:0:
221,161,273793,1,0,0:0:0:0:
222,117,273864,1,8,0:0:0:0:
207,77,273936,1,0,0:0:0:0:
179,44,274007,1,8,0:0:0:0:
138,29,274078,1,0,0:0:0:0:
94,30,274150,1,8,0:0:0:0:
55,47,274221,1,0,0:0:0:0:
29,81,274293,1,8,0:0:0:0:
18,121,274364,1,0,0:0:0:0:
22,164,274436,5,10,0:0:0:0:
57,143,274507,1,0,0:0:0:0:
98,132,274578,1,8,0:0:0:0:
141,129,274650,1,0,0:0:0:0:
182,137,274721,1,8,0:0:0:0:
223,152,274793,1,0,0:0:0:0:
260,173,274864,1,8,0:0:0:0:
297,195,274936,1,0,0:0:0:0:
340,207,275007,1,8,0:0:0:0:
382,210,275078,1,0,0:0:0:0:
424,207,275150,1,8,0:0:0:0:
465,194,275221,1,0,0:0:0:0:
501,172,275293,5,10,0:0:0:0:
504,216,275363,1,0,0:0:0:0:
496,260,275436,1,8,0:0:0:0:
476,300,275506,1,0,0:0:0:0:
445,333,275577,1,8,0:0:0:0:
407,357,275649,1,0,0:0:0:0:
364,369,275720,1,8,0:0:0:0:
319,369,275792,1,0,0:0:0:0:
276,357,275864,2,0,L|229:323,3,45,8|0|8|0,0:0|0:0|0:0|0:0,0:0:0:0:
142,217,276150,5,6,0:3:0:0:
133,167,276221,1,4,0:3:0:0:
124,118,276293,1,4,0:3:0:0:
115,68,276364,1,4,0:3:0:0:
109,19,276436,5,4,0:3:0:0:
124,28,276507,1,4,0:3:0:0:
140,36,276578,1,12,0:3:0:0:
156,42,276650,1,4,0:3:0:0:
172,48,276721,6,4,L|229:56,3,45,4|4|4|4,0:3|0:3|0:3|0:3,0:3:0:0:
304,116,277007,6,0,P|322:139|331:167,2,60,6|0|0,0:0|0:0|0:0,0:0:0:0:
231,195,277293,2,0,P|230:224|218:252,2,60,0|0|0,0:0|0:0|0:0,0:0:0:0:
211,137,277578,1,2,0:0:0:0:
161,102,277674,1,0,0:0:0:0:
102,113,277769,1,0,0:0:0:0:
65,160,277864,6,0,P|55:188|57:217,2,60,10|0|0,0:0|0:0|0:0,0:0:0:0:
173,209,278150,2,0,P|185:236|186:265,2,60,0|0|0,0:0|0:0|0:0,0:0:0:0:
165,149,278436,1,2,0:0:0:0:
179,90,278531,1,0,0:0:0:0:
223,49,278626,1,0,0:0:0:0:
281,37,278721,6,0,P|344:45|406:103,1,120,2|0,0:0|0:0,0:0:0:0:
299,156,279007,2,0,P|304:239|336:301,1,120,2|0,0:0|0:0,0:0:0:0:
433,360,279293,2,0,P|458:298|437:209,1,120,2|0,0:0|0:0,0:0:0:0:
410,204,279578,5,14,0:0:0:0:
386,148,279674,1,0,0:0:0:0:
433,107,279769,1,0,0:0:0:0:
486,140,279864,1,0,0:0:0:0:
471,199,279959,1,0,0:0:0:0:
410,204,280055,1,0,0:0:0:0:
372,250,280150,2,0,P|371:301|414:333,2,60,2|0|0,0:0|0:0|0:0,0:0:0:0:
410,204,280436,5,6,0:0:0:0:
421,146,280531,1,0,0:0:0:0:
398,91,280626,1,0,0:0:0:0:
348,60,280721,1,0,0:0:0:0:
303,99,280816,1,0,0:0:0:0:
248,122,280912,1,0,0:0:0:0:
188,131,281007,2,0,P|142:122|119:93,2,60,2|0|0,0:0|0:0|0:0,0:0:0:0:
248,122,281293,5,10,0:0:0:0:
307,113,281388,1,0,0:0:0:0:
358,143,281483,1,0,0:0:0:0:
372,200,281578,1,0,0:0:0:0:
344,254,281674,1,0,0:0:0:0:
288,275,281769,1,0,0:0:0:0:
232,253,281864,2,0,P|208:220|208:166,2,60,2|0|0,0:0|0:0|0:0,0:0:0:0:
251,310,282150,5,2,0:0:0:0:
217,358,282245,1,0,0:0:0:0:
160,371,282340,1,0,0:0:0:0:
109,343,282436,1,0,0:0:0:0:
90,287,282531,1,0,0:0:0:0:
113,233,282626,1,0,0:0:0:0:
167,209,282721,1,0,0:0:0:0:
155,144,282816,1,0,0:0:0:0:
177,83,282912,1,0,0:0:0:0:
227,42,283007,6,0,P|265:19|310:19,2,66.0000020141602,8|0|0,0:0|0:0|0:0,0:0:0:0:
318,160,283293,2,0,P|356:183|401:183,2,66.0000020141602,6|0|0,0:0|0:0|0:0,0:0:0:0:
243,136,283578,1,6,0:0:0:0:
166,142,283674,1,0,0:0:0:0:
101,184,283769,1,0,0:0:0:0:
64,251,283864,6,0,P|52:304|66:366,2,71.9999978027344,6|0|0,0:0|0:0|0:0,0:0:0:0:
164,302,284150,1,0,0:0:0:0:
216,276,284245,1,0,0:0:0:0:
232,221,284340,1,0,0:0:0:0:
228,163,284436,1,0,0:0:0:0:
250,109,284531,1,0,0:0:0:0:
301,84,284626,1,0,0:0:0:0:
358,79,284721,6,0,P|389:85|433:123,2,71.9999978027344,10|0|0,0:0|0:0|0:0,0:0:0:0:
356,209,285007,2,0,P|370:297|323:361,1,143.999995605469,2|0,0:0|0:0,0:0:0:0:
252,267,285293,2,0,P|161:239|90:252,1,143.999995605469,2|0,0:0|0:0,0:0:0:0:
53,241,285578,5,2,0:0:0:0:
13,197,285674,1,0,0:0:0:0:
12,138,285769,1,0,0:0:0:0:
48,92,285864,1,0,0:0:0:0:
103,116,285959,1,0,0:0:0:0:
162,115,286055,1,0,0:0:0:0:
216,90,286150,2,0,P|256:53|271:22,2,71.9999978027344
209,209,286436,6,0,P|169:246|154:277,2,71.9999978027344,10|0|0,0:0|0:0|0:0,0:0:0:0:
265,189,286721,1,0,0:0:0:0:
324,195,286816,1,0,0:0:0:0:
375,226,286912,1,0,0:0:0:0:
407,276,287007,2,0,P|425:326|426:372,2,71.9999978027344,0|0|0,0:0|0:0|0:0,0:0:0:0:
407,137,287293,6,0,P|420:103|426:68,2,71.9999978027344,6|0|0,0:0|0:0|0:0,0:0:0:0:
364,178,287578,1,0,0:0:0:0:
308,197,287674,1,0,0:0:0:0:
249,189,287769,1,0,0:0:0:0:
199,156,287864,1,2,0:0:0:0:
227,93,287959,1,2,0:0:0:0:
294,74,288055,1,2,0:0:0:0:
350,115,288150,6,0,P|368:166|351:245,2,71.9999978027344,10|0|0,0:0|0:0|0:0,0:0:0:0:
249,189,288436,2,0,P|229:238|166:288,2,71.9999978027344,2|0|0,0:0|0:0|0:0,0:0:0:0:
125,181,288721,2,0,P|78:206|-3:203,2,71.9999978027344,2|0|0,0:0|0:0|0:0,0:0:0:0:
159,131,289007,5,2,0:0:0:0:
180,75,289102,1,0,0:0:0:0:
223,34,289197,1,0,0:0:0:0:
279,16,289292,1,0,0:0:0:0:
338,24,289387,1,0,0:0:0:0:
388,57,289483,1,0,0:0:0:0:
418,108,289578,1,2,0:0:0:0:
423,168,289673,1,0,0:0:0:0:
402,223,289768,1,0,0:0:0:0:
358,264,289864,5,10,0:0:0:0:
308,232,289959,1,0,0:0:0:0:
249,227,290054,1,0,0:0:0:0:
194,247,290150,2,4,P|166:269|131:326,2,71.9999978027344,4|4|4,0:3|0:3|0:3,0:3:0:0:
163,112,290436,2,4,P|135:90|100:33,2,71.9999978027344,6|4|4,0:3|0:3|0:3,0:3:0:0:
266,154,290721,6,0,P|331:143|515:223,1,270,6|4,0:0|0:0,0:0:0:0:
109,56,292293,5,0,0:0:0:0:
109,56,292364,1,0,0:0:0:0:
109,56,292436,2,0,L|127:134,1,72,8|0,0:0|0:0,0:0:0:0:
300,276,292864,1,0,0:0:0:0:
373,101,293150,5,0,0:0:0:0:
373,101,293221,1,0,0:0:0:0:
373,101,293293,1,4,0:3:0:0:
346,125,293364,1,4,0:3:0:0:
319,149,293436,1,4,0:3:0:0:
292,173,293507,1,4,0:3:0:0:
265,197,293578,5,4,0:3:0:0:
300,276,293721,1,4,0:3:0:0:
174,126,293864,1,4,0:3:0:0:
145,193,294007,1,4,0:3:0:0:
273,37,294150,6,0,P|316:46|372:80,2,107.999996704102,6|2|2,0:0|0:0|0:0,0:0:0:0:
103,108,295007,1,8,0:0:0:0:
103,108,295293,2,0,B|109:149|109:149|151:211,1,107.999996704102,10|10,0:0|0:0,0:0:0:0:
323,247,295864,6,0,P|375:241|424:210,2,107.999996704102,10|2|2,0:0|0:0|0:0,0:0:0:0:
161,384,297007,2,0,B|134:352|134:352|116:279,1,107.999996704102,2|2,0:0|0:0,2:0:0:0:
175,115,297578,6,0,P|204:69|211:16,2,107.999996704102,2|2|2,0:0|0:0|0:0,0:0:0:0:
19,15,298436,1,8,0:0:0:0:
19,15,298721,2,0,B|22:56|22:56|61:120,1,107.999996704102,10|10,0:0|0:0,0:0:0:0:
202,225,299293,5,10,0:0:0:0:
272,56,299578,2,0,L|236:27,2,35.9999989013672,2|2|2,0:0|0:0|0:0,0:0:0:0:
310,104,299864,2,0,P|342:147|350:214,1,107.999996704102,2|10,0:0|0:0,0:0:0:0:
343,260,300245,1,2,0:0:0:0:
315,314,300340,1,2,0:0:0:0:
265,351,300436,1,2,0:0:0:0:
169,194,300721,1,2,0:0:0:0:
313,80,301007,6,0,P|378:61|447:71,2,107.999996704102,2|2|2,0:0|0:0|0:0,0:0:0:0:
256,254,301864,1,10,0:0:0:0:
256,254,302150,2,0,B|269:293|269:293|321:347,1,107.999996704102,10|10,0:0|0:0,0:0:0:0:
473,246,302721,6,0,P|454:184|411:133,1,107.999996704102,10|2,0:0|0:0,0:0:0:0:
295,22,303293,1,2,0:0:0:0:
126,93,303578,1,8,0:0:0:0:
126,93,303864,2,0,B|132:134|132:134|174:196,1,107.999996704102,2|2,0:0|0:0,0:0:0:0:
116,366,304436,6,0,P|55:378|6:363,2,107.999996704102,10|2|2,0:0|0:0|0:0,0:0:0:0:
56,196,305293,1,0,0:0:0:0:
56,196,305578,2,0,L|72:133,1,53.9999983520508,2|0,0:0|0:0,0:0:0:0:
167,58,305864,2,0,L|153:110,1,53.9999983520508,2|0,0:0|0:0,0:0:0:0:
194,191,306150,6,0,P|191:261|203:300,2,107.999996704102,2|2|2,0:0|0:0|0:0,0:0:0:0:
354,234,307007,1,0,0:0:0:0:
354,234,307293,2,0,L|325:121,1,107.999996704102,2|2,0:0|0:0,0:0:0:0:
168,35,307864,6,0,P|105:26|47:47,2,107.999996704102,2|2|2,0:0|0:0|0:0,0:0:0:0:
220,211,308721,1,8,0:0:0:0:
220,211,309007,2,0,B|256:193|256:193|297:132,1,107.999996704102,10|10,0:0|0:0,0:0:0:0:
202,293,309578,6,0,P|149:255|138:207,1,107.999996704102,10|2,0:0|0:0,0:0:0:0:
139,123,310007,1,0,0:0:0:0:
193,49,310150,2,0,L|256:29,1,53.9999983520508,2|0,0:0|0:0,0:0:0:0:
334,60,310436,1,8,0:0:0:0:
334,60,310721,2,0,L|325:136,1,53.9999983520508,2|0,0:0|0:0,0:0:0:0:
308,203,311007,2,0,L|334:268,1,53.9999983520508,2|0,0:0|0:0,0:0:0:0:
393,318,311293,6,0,P|456:354|503:355,2,107.999996704102,10|2|2,0:0|0:0|0:0,0:0:0:0:
226,257,312150,1,0,0:0:0:0:
226,257,312436,2,0,L|165:294,1,53.9999983520508,2|0,0:0|0:0,0:0:0:0:
89,303,312721,2,0,L|23:264,1,53.9999983520508,2|0,0:0|0:0,0:0:0:0:
17,193,313007,6,0,P|7:139|28:86,1,107.999996704102,10|2,0:0|0:0,0:0:0:0:
71,50,313388,1,2,0:0:0:0:
132,56,313483,1,2,0:0:0:0:
169,104,313578,2,0,P|193:137|271:143,1,107.999996704102,10|2,0:0|0:0,0:0:0:0:
307,114,313959,1,2,0:0:0:0:
298,53,314055,1,2,0:0:0:0:
240,73,314150,1,10,0:0:0:0:
193,250,314436,1,2,0:0:0:0:
345,352,314721,6,0,P|405:357|453:332,1,107.999996704102,10|2,0:0|0:0,0:0:0:0:
469,279,315102,2,0,L|477:235,2,35.9999989013672,2|2|2,0:0|0:0|0:0,0:0:0:0:
385,239,315436,1,0,0:0:0:0:
298,267,315578,1,8,0:0:0:0:
298,267,315864,2,0,B|263:245|263:245|223:167,1,107.999996704102,2|2,0:0|0:0,0:0:0:0:
111,46,316436,6,0,P|51:67|24:102,1,107.999996704102,10|2,0:0|0:0,0:0:0:0:
31,161,316816,2,0,L|51:206,2,35.9999989013672,2|2|2,0:0|0:0|0:0,0:0:0:0:
123,160,317150,1,0,0:0:0:0:
195,216,317293,1,8,0:0:0:0:
195,216,317578,2,0,B|229:239|229:239|303:251,1,107.999996704102,2|2,0:0|0:0,0:0:0:0:
431,89,318150,5,4,0:0:0:0:
157,69,318436,1,4,0:0:0:0:
338,273,318721,1,4,0:0:0:0:
93,153,319007,5,4,0:0:0:0:
338,32,319293,1,4,0:0:0:0:
222,279,319578,1,4,0:0:0:0:
428,87,319864,5,4,0:0:0:0:
156,62,320150,1,4,0:0:0:0:
132,334,320436,1,4,0:0:0:0:
403,358,320721,1,4,0:0:0:0:
304,109,321578,6,0,B|355:204|284:218|348:336,1,215.999993408203,6|0,0:0|0:0,0:0:0:0:
445,244,322436,1,8,0:0:0:0:
251,150,323007,5,0,0:0:0:0:
123,146,323293,2,0,B|128:254|196:230|202:364,1,215.999993408203,6|0,0:0|0:0,0:0:0:0:
71,337,324150,1,8,0:0:0:0:
246,151,324721,5,0,0:0:0:0:
246,151,325007,2,0,P|282:97|333:71,1,107.999996704102,6|0,0:0|0:0,0:0:0:0:
371,200,325578,1,0,0:0:0:0:
371,200,325650,1,0,0:0:0:0:
371,200,325721,2,0,L|408:191,2,26.9999991760254,0|0|8,0:0|0:0|0:0,0:0:0:0:
228,315,326150,6,0,P|179:340|106:345,1,107.999996704102,0|0,0:0|0:0,0:0:0:0:
115,151,326578,1,0,0:0:0:0:
151,117,326650,1,0,0:0:0:0:
187,83,326721,1,6,0:0:0:0:
485,236,328436,5,6,0:0:0:0:
398,88,328578,1,0,0:0:0:0:
314,228,328721,1,2,0:0:0:0:
434,166,328864,2,0,P|481:109|466:33,1,125.999996154785,2|0,0:0|0:0,0:0:0:0:
409,324,329293,2,0,P|350:358|274:352,1,125.999996154785,10|0,0:0|0:0,0:0:0:0:
227,183,329721,5,2,0:0:0:0:
160,335,329864,1,2,0:0:0:0:
313,256,330007,1,2,0:0:0:0:
112,182,330150,2,0,L|63:202,2,31.4999990386963,2|0|0,0:0|0:0|0:0,0:0:0:0:
205,70,330436,1,2,0:0:0:0:
308,157,330578,2,0,P|379:149|425:115,1,125.999996154785,2|0,0:0|0:0,0:0:0:0:
205,70,331007,2,0,P|177:136|186:193,1,125.999996154785,14|0,0:0|0:0,0:0:0:0:
308,157,331436,1,0,0:0:0:0:
132,6,331578,5,2,0:0:0:0:
72,117,331721,1,2,0:0:0:0:
108,237,331864,2,0,P|145:291|139:353,1,125.999996154785,6|0,0:0|0:0,0:0:0:0:
51,314,332436,1,0,0:0:0:0:
170,161,332721,1,10,0:0:0:0:
234,345,333007,1,0,0:0:0:0:
234,345,333293,1,0,0:0:0:0:
99,176,333578,6,0,P|68:131|63:97,1,62.9999980773926,6|0,0:0|0:0,0:0:0:0:
241,214,333864,2,0,P|217:263|190:284,1,62.9999980773926,2|0,0:0|0:0,0:0:0:0:
203,73,334150,2,0,P|257:68|289:81,1,62.9999980773926,2|0,0:0|0:0,0:0:0:0:
99,176,334436,5,10,0:0:0:0:
381,226,334721,1,2,0:0:0:0:
103,303,335007,1,2,0:0:0:0:
409,115,335293,6,0,B|462:96|467:42|467:42|461:149,1,180,6|0,0:0|0:0,0:0:0:0:
451,193,335674,1,0,0:0:0:0:
422,258,335769,1,0,0:0:0:0:
378,314,335864,2,0,P|342:343|306:349,1,62.9999980773926,2|0,0:0|0:0,0:0:0:0:
326,347,336078,1,0,0:0:0:0:
326,347,336150,1,10,0:0:0:0:
149,68,336436,1,0,0:0:0:0:
300,261,336721,1,2,0:0:0:0:
74,118,337007,6,0,P|62:63|103:-12,1,125.999996154785,6|0,0:0|0:0,0:0:0:0:
155,148,337436,2,0,P|137:177|105:199,1,62.9999980773926,2|0,0:0|0:0,0:0:0:0:
93,202,337650,1,0,0:0:0:0:
71,204,337721,1,0,0:0:0:0:
48,200,337793,1,0,0:0:0:0:
28,190,337864,1,10,0:0:0:0:
270,71,338150,1,2,0:0:0:0:
394,290,338436,2,0,P|366:333|295:355,1,125.999996154785,2|4,0:0|0:0,0:0:0:0:
167,86,339007,6,0,P|78:84|2:148,1,188.999994232178,2|0,0:0|0:0,0:0:0:0:
3,145,339507,1,0,0:0:0:0:
3,145,339578,1,8,0:0:0:0:
189,349,339864,2,0,B|237:348|237:348|320:317,1,125.999996154785,0|0,0:0|0:0,0:0:0:0:
378,121,340436,5,4,0:0:0:0:
267,180,340578,1,0,0:0:0:0:
141,159,340721,2,0,L|86:127,1,62.9999980773926,0|0,0:0|0:0,0:0:0:0:
86,127,340936,1,0,0:0:0:0:
86,127,341007,1,0,0:0:0:0:
162,10,341150,1,0,0:0:0:0:
261,118,341293,6,0,L|269:196,1,62.9999980773926,8|0,0:0|0:0,0:0:0:0:
213,290,341578,2,0,L|170:243,1,62.9999980773926,0|0,0:0|0:0,0:0:0:0:
149,65,341864,2,0,L|191:18,1,62.9999980773926,2|0,0:0|0:0,0:0:0:0:
406,71,342150,6,0,B|432:117|405:157|405:157|431:212|482:192|482:192|503:218,1,180,6|0,0:0|0:0,0:0:0:0:
339,112,342578,1,0,0:0:0:0:
231,109,342721,2,0,L|157:124,1,62.9999980773926,2|2,0:0|0:0,0:0:0:0:
169,122,342936,1,0,0:0:0:0:
169,122,343007,1,10,0:0:0:0:
183,348,343293,2,0,P|245:350|301:323,1,125.999996154785,2|2,0:0|0:0,0:0:0:0:
414,211,343721,1,2,0:0:0:0:
362,64,343864,6,0,P|321:44|217:56,1,125.999996154785,6|2,0:0|0:0,0:0:0:0:
291,162,344293,1,0,0:0:0:0:
291,162,344364,1,0,0:0:0:0:
291,162,344436,1,2,0:0:0:0:
291,162,344507,1,0,0:0:0:0:
291,162,344578,2,0,L|309:203,2,31.4999990386963,0|0|10,0:0|0:0|0:0,0:0:0:0:
164,276,345007,2,0,B|133:313|133:313|49:360,1,125.999996154785,6|2,0:0|0:0,0:0:0:0:
28,159,345578,5,4,0:0:0:0:
28,159,345864,2,0,B|120:176|72:264|177:279,1,188.999994232178,2|0,0:0|0:0,0:0:0:0:
164,276,346364,1,0,0:0:0:0:
164,276,346436,1,8,0:0:0:0:
324,142,346721,2,0,B|294:67|294:67|238:37,1,125.999996154785,0|0,0:0|0:0,0:0:0:0:
43,65,347293,5,4,0:0:0:0:
42,193,347436,1,0,0:0:0:0:
126,275,347578,1,0,0:0:0:0:
173,284,347650,1,0,0:0:0:0:
218,270,347721,1,0,0:0:0:0:
253,238,347793,1,0,0:0:0:0:
267,192,347864,2,0,L|267:160,1,31.4999990386963,0|0,0:0|0:0,0:0:0:0:
212,37,348007,2,0,L|184:81,1,31.4999990386963,0|0,0:0|0:0,0:0:0:0:
167,182,348150,5,8,0:0:0:0:
307,69,348293,1,0,0:0:0:0:
348,253,348436,1,0,0:0:0:0:
331,300,348507,1,0,0:0:0:0:
288,327,348578,1,0,0:0:0:0:
237,327,348650,1,0,0:0:0:0:
196,297,348721,2,0,L|173:258,1,31.4999990386963
199,97,348864,2,0,L|225:74,1,31.4999990386963
400,25,349007,6,0,B|421:81|394:125|394:125|417:194|463:200,1,198.000006042481,6|0,0:0|0:0,0:0:0:0:
493,117,349388,2,0,P|499:65|491:48,2,41.9999987182618,0|0|2,0:0|0:0|0:0,0:0:0:0:
307,69,349721,1,0,0:0:0:0:
141,97,349864,2,0,P|78:127|39:176,1,125.999996154785,10|2,0:0|0:0,0:0:0:0:
115,340,350436,1,2,0:0:0:0:
281,282,350578,1,2,0:0:0:0:
339,113,350721,6,0,P|313:55|265:16,1,125.999996154785,6|2,0:0|0:0,0:0:0:0:
245,9,351078,1,0,0:0:0:0:
223,7,351150,1,0,0:0:0:0:
201,12,351221,1,0,0:0:0:0:
179,23,351293,2,0,L|138:60,4,31.4999990386963,2|0|0|0|10,0:0|0:0|0:0|0:0|0:0,0:0:0:0:
314,251,351864,1,4,0:0:0:0:
48,257,352150,1,2,0:0:0:0:
311,101,352436,6,0,B|353:97|353:97|382:68|429:57|493:80|493:80|494:115,1,198.000006042481,6|0,0:0|0:0,0:0:0:0:
433,196,352864,1,0,0:0:0:0:
327,272,353007,2,0,L|239:281,1,62.9999980773926,2|2,0:0|0:0,0:0:0:0:
262,280,353221,1,0,0:0:0:0:
262,280,353293,1,10,0:0:0:0:
58,303,353578,2,0,P|31:247|31:158,1,125.999996154785,2|2,0:0|0:0,0:0:0:0:
193,47,354150,5,6,0:0:0:0:
244,169,354293,1,0,0:0:0:0:
324,63,354436,2,0,L|411:35,1,62.9999980773926
512,128,354721,2,0,L|423:154,1,62.9999980773926,0|0,0:0|0:0,0:0:0:0:
397,268,355007,5,8,0:0:0:0:
287,343,355150,1,0,0:0:0:0:
277,210,355293,2,0,L|236:126,1,62.9999980773926,2|0,0:0|0:0,0:0:0:0:
111,0,355578,2,0,L|70:82,1,62.9999980773926,2|0,0:0|0:0,0:0:0:0:
52,251,355864,6,0,P|80:288|154:306,1,125.999996154785,6|0,0:0|0:0,0:0:0:0:
178,99,356293,2,0,P|140:147|139:209,1,125.999996154785,2|0,0:0|0:0,0:0:0:0:
139,209,356650,1,0,0:0:0:0:
139,209,356721,1,10,0:0:0:0:
338,306,357007,1,0,0:0:0:0:
305,77,357293,1,2,0:0:0:0:
428,275,357578,6,0,P|422:349|385:388,1,125.999996154785,6|0,0:0|0:0,0:0:0:0:
220,208,358150,2,0,L|188:152,1,62.9999980773926,2|2,0:0|0:0,0:0:0:0:
188,153,358364,1,0,0:0:0:0:
188,153,358436,1,10,0:0:0:0:
245,31,358578,1,0,0:0:0:0:
325,161,358721,2,0,L|357:217,1,62.9999980773926,2|0,0:0|0:0,0:0:0:0:
311,368,359007,2,0,L|279:313,1,62.9999980773926,2|0,0:0|0:0,0:0:0:0:
167,107,359293,5,4,0:0:0:0:
167,107,359578,2,0,P|124:130|47:263,1,188.999994232178,2|0,0:0|0:0,0:0:0:0:
49,244,360078,1,0,0:0:0:0:
49,244,360150,1,8,0:0:0:0:
396,126,360436,1,4,0:0:0:0:
298,355,360721,1,0,0:0:0:0:
191,88,361007,6,0,P|124:93|108:105,1,62.9999980773926,4|0,0:0|0:0,0:0:0:0:
167,226,361293,2,0,P|203:278|221:285,1,62.9999980773926
297,178,361578,2,0,P|322:122|320:103,1,62.9999980773926,0|0,0:0|0:0,0:0:0:0:
322,122,361793,1,0,0:0:0:0:
322,122,361864,5,8,0:0:0:0:
413,316,362150,1,4,0:3:0:0:
200,276,362436,1,4,0:3:0:0:
322,122,362721,6,0,P|379:91|504:103,1,180,0|2,0:0|0:0,0:0:0:0:
491,97,363578,1,0,0:0:0:0:
423,230,363864,2,0,P|435:290|460:319,1,90,2|0,0:0|0:0,0:0:0:0:
236,322,364436,2,0,P|201:239|134:181,1,180,14|0,0:0|0:0,0:0:0:0:
31,247,365293,2,0,L|3:343,1,90
31,247,365864,1,0,0:0:0:0:
88,65,366150,1,4,0:0:0:0:
407,42,366721,6,0,P|354:82|316:85,1,90,2|0,0:0|0:0,0:0:0:0:
240,85,367293,2,0,P|222:150|238:169,1,90,10|0,0:0|0:0,0:0:0:0:
305,193,367864,2,0,P|238:244|250:86,1,360,14|0,0:0|0:0,0:0:0:0:
305,193,369293,1,0,0:0:0:0:
229,163,369578,6,0,P|249:251|388:189,1,270,6|0,0:0|0:0,0:0:0:0:
229,163,370721,1,0,0:0:0:0:
385,208,371007,1,0,0:0:0:0:
403,54,371293,2,0,P|484:142|370:202,1,270,12|0,0:0|0:0,0:0:0:0:
409,135,372864,5,0,0:0:0:0:
409,135,372936,1,0,0:0:0:0:
409,135,373007,2,0,L|313:155,1,90,6|0,0:0|0:0,0:0:0:0:
252,212,373578,1,0,0:0:0:0:
164,189,373864,2,0,L|68:209,1,90,10|0,0:0|0:0,0:0:0:0:
40,290,374436,1,0,0:0:0:0:
89,365,374721,6,0,L|185:385,1,90,6|4,0:0|0:0,0:0:0:0:
363,195,375293,1,4,0:0:0:0:
157,234,375436,1,0,0:0:0:0:
112,219,375507,1,0,0:0:0:0:
67,205,375578,1,6,0:0:0:0:
324,92,376436,6,0,P|277:64|201:63,2,125.999996154785,6|0|2,0:0|0:0|0:0,0:0:0:0:
378,184,377150,1,0,0:0:0:0:
378,184,377221,1,0,0:0:0:0:
378,184,377293,1,10,0:0:0:0:
102,166,377578,1,0,0:0:0:0:
335,303,377864,1,2,0:0:0:0:
288,76,378150,6,0,P|230:34|112:46,1,188.999994232178,6|0,0:0|0:0,0:0:0:0:
103,56,378650,1,0,0:0:0:0:
87,72,378721,1,0,0:0:0:0:
77,91,378793,1,0,0:0:0:0:
70,113,378864,2,0,L|58:161,2,31.4999990386963,0|0|10,0:0|0:0|0:0,0:0:0:0:
155,126,379150,1,0,0:0:0:0:
111,207,379293,1,0,0:0:0:0:
209,197,379436,1,0,0:0:0:0:
173,281,379578,1,2,0:0:0:0:
263,269,379721,1,0,0:0:0:0:
227,353,379864,6,0,P|98:328|114:215,1,251.999992309571,6|0,0:0|0:0,0:0:0:0:
113,218,380507,1,0,0:0:0:0:
126,206,380578,1,0,0:0:0:0:
142,194,380650,1,0,0:0:0:0:
157,185,380721,1,8,0:0:0:0:
355,143,381007,1,0,0:0:0:0:
173,281,381293,2,0,L|264:268,1,62.9999980773926,2|0,0:0|0:0,0:0:0:0:
342,272,381578,6,0,P|399:293|452:339,1,125.999996154785,6|0,0:0|0:0,0:0:0:0:
329,87,382150,1,0,0:0:0:0:
237,79,382293,1,0,0:0:0:0:
237,79,382364,1,0,0:0:0:0:
237,79,382436,2,0,B|217:157|104:136|104:136|70:208|143:256,1,288,10|2,0:0|0:0,0:0:0:0:
177,282,383102,1,2,0:0:0:0:
235,300,383197,1,2,0:0:0:0:
296,302,383293,6,0,P|360:289|468:222,1,188.999994232178,6|0,0:0|0:0,0:0:0:0:
474,16,384007,1,0,0:0:0:0:
474,16,384078,1,0,0:0:0:0:
474,16,384150,1,8,0:0:0:0:
301,62,384436,2,0,P|256:105|240:166,1,125.999996154785,2|0,0:0|0:0,0:0:0:0:
187,331,385007,6,0,P|132:364|73:351,1,125.999996154785,6|0,0:0|0:0,0:0:0:0:
61,343,385364,1,0,0:0:0:0:
48,329,385436,1,0,0:0:0:0:
39,312,385507,1,0,0:0:0:0:
33,293,385578,2,0,L|30:262,4,31.4999990386963,0|0|0|0|10,0:0|0:0|0:0|0:0|0:0,0:0:0:0:
103,208,386007,1,0,0:0:0:0:
194,219,386150,1,0,0:0:0:0:
265,161,386293,1,0,0:0:0:0:
356,172,386436,1,2,0:0:0:0:
427,114,386578,1,0,0:0:0:0:
364,46,386721,6,0,P|223:36|114:78,1,251.999992309571,6|0,0:0|0:0,0:0:0:0:
56,200,387436,1,0,0:0:0:0:
56,200,387507,1,0,0:0:0:0:
56,200,387578,2,0,L|62:262,1,62.9999980773926,10|0,0:0|0:0,0:0:0:0:
151,305,387864,2,0,L|144:241,1,62.9999980773926,2|0,0:0|0:0,0:0:0:0:
222,182,388150,2,0,L|228:244,1,62.9999980773926,2|0,0:0|0:0,0:0:0:0:
310,319,388436,5,6,0:0:0:0:
406,310,388578,1,0,0:0:0:0:
457,215,388721,1,0,0:0:0:0:
430,99,388864,1,0,0:0:0:0:
218,180,389007,6,0,L|234:142,1,31.4999990386963,2|0,0:0|0:0,0:0:0:0:
332,9,389150,2,0,L|337:43,1,31.4999990386963,2|0,0:0|0:0,0:0:0:0:
327,234,389293,2,0,P|277:328|123:377,1,251.999992309571,10|2,0:0|0:0,0:0:0:0:
24,188,390007,1,2,0:0:0:0:
217,268,390150,6,0,B|304:290|296:385|296:385|373:395|446:333,1,314.999990386963,6|0,0:0|0:0,0:0:0:0:
468,304,390936,1,0,0:0:0:0:
485,267,391007,5,10,0:0:0:0:
407,62,391150,1,0,0:0:0:0:
271,208,391293,1,0,0:0:0:0:
493,155,391436,5,2,0:0:0:0:
290,30,391578,1,0,0:0:0:0:
383,244,391721,1,0,0:0:0:0:
185,108,391864,5,6,0:0:0:0:
352,137,392007,1,0,0:0:0:0:
213,271,392150,1,0,0:0:0:0:
242,57,392293,6,0,L|265:88,1,31.4999990386963,2|0,0:0|0:0,0:0:0:0:
368,217,392436,2,0,L|329:219,1,31.4999990386963,0|0,0:0|0:0,0:0:0:0:
156,208,392578,2,0,L|182:182,1,31.4999990386963,0|0,0:0|0:0,0:0:0:0:
304,151,392721,5,10,0:0:0:0:
293,275,392864,1,0,0:0:0:0:
196,355,393007,1,0,0:0:0:0:
195,242,393150,5,2,0:0:0:0:
293,275,393293,1,0,0:0:0:0:
356,355,393436,1,0,0:0:0:0:
441,311,393578,6,0,L|486:248,1,62.9999980773926,6|0,0:0|0:0,0:0:0:0:
484,148,393864,2,0,P|438:107|377:95,1,125.999996154785,2|0,0:0|0:0,0:0:0:0:
361,101,394221,1,0,0:0:0:0:
344,110,394293,1,0,0:0:0:0:
329,121,394364,1,0,0:0:0:0:
315,134,394436,1,8,0:0:0:0:
147,310,394721,6,0,L|178:245,1,62.9999980773926,2|0,0:0|0:0,0:0:0:0:
349,186,395007,2,0,L|314:132,1,62.9999980773926,2|0,0:0|0:0,0:0:0:0:
159,17,395293,5,6,0:0:0:0:
22,182,395436,1,2,0:0:0:0:
217,82,395578,2,0,L|297:59,1,62.9999980773926,2|0,0:0|0:0,0:0:0:0:
394,140,395864,2,0,L|454:157,1,62.9999980773926
216,267,396150,5,10,0:0:0:0:
277,64,396293,1,2,0:0:0:0:
392,310,396436,2,0,L|409:388,1,62.9999980773926,2|0,0:0|0:0,0:0:0:0:
208,292,396721,2,0,L|131:267,1,62.9999980773926,0|0,0:0|0:0,0:0:0:0:
315,141,397007,6,0,P|344:100|488:27,1,188.999994232178,6|0,0:0|0:0,0:0:0:0:
162,102,397721,5,0,0:0:0:0:
162,102,397793,1,0,0:0:0:0:
162,102,397864,2,0,P|154:79|134:58,2,41.9999987182618,10|0|0,0:0|0:0|0:0,0:0:0:0:
156,179,398150,2,0,P|153:235|190:319,1,125.999996154785,2|2,0:0|0:0,0:0:0:0:
355,279,398721,6,0,L|313:212,1,62.9999980773926,6|0,0:0|0:0,0:0:0:0:
335,128,399007,2,0,L|257:110,1,62.9999980773926,0|0,0:0|0:0,0:0:0:0:
215,35,399293,2,0,L|148:76,1,62.9999980773926,0|0,0:0|0:0,0:0:0:0:
335,128,399578,1,14,0:0:0:0:
165,209,399864,5,0,0:0:0:0:
248,276,400007,1,0,0:0:0:0:
248,276,400078,1,0,0:0:0:0:
248,276,400150,2,0,P|297:285|383:264,1,125.999996154785,2|6,0:0|0:0,0:0:0:0:
292,49,400721,5,4,0:0:0:0:
107,172,401007,1,4,0:0:0:0:
304,273,401293,2,0,P|366:261|516:134,1,251.999992309571,4|0,0:0|0:0,0:0:0:0:
299,57,402150,5,6,0:0:0:0:
304,273,402436,1,4,0:0:0:0:
103,353,402721,1,4,0:0:0:0:
147,86,403007,5,6,0:0:0:0:
210,314,403293,1,4,0:0:0:0:
440,372,403578,1,4,0:0:0:0:
394,121,403864,6,0,B|350:101|341:56|341:56|314:86|314:86|292:72|253:98,1,180,6|0,0:0|0:0,0:0:0:0:
434,34,404436,1,2,0:0:0:0:
489,139,404578,1,2,0:0:0:0:
489,139,404650,1,0,0:0:0:0:
489,139,404721,2,0,P|481:186|422:265,1,144,10|0,0:0|0:0,0:0:0:0:
262,57,405293,1,2,0:0:0:0:
136,275,405578,6,0,P|177:345|255:382,1,144,6|0,0:0|0:0,0:0:0:0:
198,196,406007,2,0,P|134:175|57:213,1,144,2|0,0:0|0:0,0:0:0:0:
66,203,406364,1,0,0:0:0:0:
66,203,406436,1,10,0:0:0:0:
136,275,406578,1,0,0:0:0:0:
198,196,406721,1,2,0:0:0:0:
266,270,406864,1,0,0:0:0:0:
326,189,407007,1,2,0:0:0:0:
394,263,407150,1,0,0:0:0:0:
258,115,407293,5,4,0:0:0:0:
258,115,407578,2,0,P|169:104|32:167,1,216,2|0,0:0|0:0,0:0:0:0:
53,149,408078,1,0,0:0:0:0:
53,149,408150,1,8,0:0:0:0:
264,368,408436,2,0,L|329:224,1,144,0|0,0:0|0:0,0:0:0:0:
436,26,409007,6,0,L|489:165,1,144,4|0,0:0|0:0,0:0:0:0:
492,218,409388,1,0,0:0:0:0:
478,274,409483,1,0,0:0:0:0:
451,324,409578,2,0,L|426:350,4,36,0|0|0|0|8,0:0|0:0|0:0|0:0|0:0,0:0:0:0:
367,268,410007,1,0,0:0:0:0:
290,333,410150,1,0,0:0:0:0:
253,238,410293,1,0,0:0:0:0:
156,267,410436,1,2,0:0:0:0:
154,166,410578,1,0,0:0:0:0:
308,92,410721,6,0,B|337:77|348:46|348:46|370:72|370:72|412:43|459:61,1,180,6|0,0:0|0:0,0:0:0:0:
271,18,411293,2,0,L|183:46,1,72,2|2,0:0|0:0,0:0:0:0:
73,86,411578,1,10,0:0:0:0:
96,336,411864,1,2,0:0:0:0:
325,201,412150,2,0,L|418:231,1,72,2|2,0:0|0:0,0:0:0:0:
512,260,412436,5,6,0:0:0:0:
297,324,412721,2,0,L|212:304,1,72,2|0,0:0|0:0,0:0:0:0:
208,222,413007,2,0,L|137:238,1,72,2|0,0:0|0:0,0:0:0:0:
13,278,413293,1,10,0:0:0:0:
52,167,413578,1,2,0:0:0:0:
103,345,413864,1,2,0:0:0:0:
125,64,414150,5,4,0:0:0:0:
263,4,414436,2,0,P|186:25|125:63,1,153.000002918243,6|4,0:0|0:0,0:0:0:0:
397,278,415007,5,4,0:0:0:0:
247,334,415293,2,0,P|335:312|400:275,1,161.999995056153,6|4,0:0|0:0,0:0:0:0:
41,51,415864,6,4,P|96:51|132:68,1,85.4999977169037,6|4,0:0|0:0,0:0:0:0:
247,334,416293,1,6,0:0:0:0:
202,136,416578,5,0,0:0:0:0:
202,136,416650,1,0,0:0:0:0:
202,136,416721,1,10,0:0:0:0:
391,137,416864,1,0,0:0:0:0:
212,23,417007,1,6,0:0:0:0:
299,204,417150,1,0,0:0:0:0:
323,20,417293,1,6,0:0:0:0:
202,136,417436,1,0,0:0:0:0:
409,62,417578,6,0,B|456:70|472:121|472:121|490:117|490:117|457:152|473:201,1,198.000006042481,6|2,0:0|0:0,0:0:0:0:
484,255,417959,1,2,0:0:0:0:
477,312,418055,1,2,0:0:0:0:
450,363,418150,2,0,P|397:377|353:367,1,72,2|0,0:0|0:0,0:0:0:0:
380,375,418364,1,0,0:0:0:0:
380,375,418436,1,10,0:0:0:0:
341,130,418721,2,0,L|354:201,1,72,2|0,0:0|0:0,0:0:0:0:
183,150,419007,2,0,L|165:48,1,72,2|0,0:0|0:0,0:0:0:0:
57,278,419293,5,6,0:0:0:0:
163,363,419436,1,0,0:0:0:0:
292,321,419578,2,0,L|376:295,1,72
451,138,419864,2,0,L|382:159,1,72,2|0,0:0|0:0,0:0:0:0:
180,24,420150,5,14,0:0:0:0:
177,157,420293,1,0,0:0:0:0:
81,259,420436,2,0,L|8:331,1,72,0|0,0:0|0:0,0:0:0:0:
227,346,420721,2,0,L|278:295,1,72,2|0,0:0|0:0,0:0:0:0:
385,136,421007,6,0,B|364:96|327:93|327:93|320:60|320:60|265:98|219:93,1,180,6|0,0:0|0:0,0:0:0:0:
49,123,421578,2,0,L|58:210,1,72,2|2,0:0|0:0,0:0:0:0:
73,330,421864,1,10,0:0:0:0:
314,318,422150,1,2,0:0:0:0:
133,156,422436,1,2,0:0:0:0:
348,146,422721,6,0,P|418:160|470:209,1,144,6|2,0:0|0:0,0:0:0:0:
479,271,423102,1,2,0:0:0:0:
464,331,423197,1,2,0:0:0:0:
419,374,423293,2,0,L|376:395,3,36,2|0|0|0,0:0|0:0|0:0|0:0,0:0:0:0:
357,270,423578,1,8,0:0:0:0:
266,295,423721,1,0,0:0:0:0:
197,230,423864,1,2,0:0:0:0:
288,205,424007,1,0,0:0:0:0:
312,111,424150,1,2,0:0:0:0:
246,44,424293,1,0,0:0:0:0:
130,38,424436,6,0,L|40:58,1,72,6|0,0:0|0:0,0:0:0:0:
212,203,424721,2,0,L|282:187,1,72,10|0,0:0|0:0,0:0:0:0:
170,370,425007,2,0,L|99:385,1,72,10|0,0:0|0:0,0:0:0:0:
211,71,425293,6,0,L|166:129,1,72,10|0,0:0|0:0,0:0:0:0:
464,70,425578,2,0,L|512:122,1,72,10|0,0:0|0:0,0:0:0:0:
345,177,425864,2,0,L|348:249,1,72,10|0,0:0|0:0,0:0:0:0:
276,344,426150,6,0,P|256:314|249:279,1,72,10|0,0:0|0:0,0:0:0:0:
249,264,426364,1,0,0:0:0:0:
251,249,426436,1,8,0:0:0:0:
345,177,426578,1,0,0:0:0:0:
341,54,426721,1,10,0:0:0:0:
230,0,426864,1,2,0:0:0:0:
127,66,427007,6,0,L|109:147,1,72,10|0,0:0|0:0,0:0:0:0:
77,354,427293,2,0,L|138:303,1,72,10|0,0:0|0:0,0:0:0:0:
359,35,427578,2,0,L|329:117,1,72,10|0,0:0|0:0,0:0:0:0:
283,286,427864,5,10,0:0:0:0:
295,319,427936,1,0,0:0:0:0:
319,346,428007,1,0,0:0:0:0:
351,361,428078,1,0,0:0:0:0:
387,364,428150,1,10,0:0:0:0:
421,353,428221,1,0,0:0:0:0:
448,329,428293,1,0,0:0:0:0:
465,298,428364,1,0,0:0:0:0:
468,262,428436,6,0,L|456:208,1,36,10|0,0:0|0:0,0:0:0:0:
406,76,428578,2,0,L|396:118,1,36,2|0,0:0|0:0,0:0:0:0:
321,232,428721,1,10,0:0:0:0:
297,258,428793,1,0,0:0:0:0:
266,275,428864,1,0,0:0:0:0:
230,278,428936,1,0,0:0:0:0:
196,267,429007,1,10,0:0:0:0:
224,139,429150,1,0,0:0:0:0:
72,124,429293,6,0,P|79:43|78:123,1,233.999989288331,10|4,0:0|0:0,0:0:0:0:
251,164,430114,6,0,P|255:116|259:164,1,144
429,77,431007,6,0,P|438:41|437:80,1,107.999996704102,0|8,2:0|0:0,2:0:0:0:
411,109,431365,1,0,0:0:0:0:
388,148,431436,1,8,0:0:0:0:
377,191,431508,1,0,0:0:0:0:
380,236,431579,1,8,0:0:0:0:
378,280,431651,1,0,0:0:0:0:
356,319,431722,1,8,0:0:0:0:
319,344,431794,1,0,0:0:0:0:
275,350,431865,2,0,L|222:346,3,45,10|0|8|0,0:0|0:0|0:0|0:0,0:0:0:0:
273,250,432151,5,10,0:0:0:0:
266,205,432222,1,0,0:0:0:0:
244,167,432294,1,8,0:0:0:0:
208,140,432365,1,0,0:0:0:0:
165,128,432436,1,8,0:0:0:0:
121,120,432508,1,0,0:0:0:0:
95,85,432579,1,8,0:0:0:0:
100,41,432651,1,0,0:0:0:0:
134,13,432722,2,0,L|200:3,3,45,10|0|8|0,0:0|0:0|0:0|0:0,0:0:0:0:
257,63,433008,5,10,0:0:0:0:
298,81,433079,1,0,0:0:0:0:
334,107,433151,1,8,0:0:0:0:
364,141,433222,1,0,0:0:0:0:
386,180,433294,1,8,0:0:0:0:
399,223,433365,1,0,0:0:0:0:
402,268,433436,1,8,0:0:0:0:
393,311,433508,1,0,0:0:0:0:
368,348,433579,1,8,0:0:0:0:
331,374,433651,1,0,0:0:0:0:
287,384,433722,1,8,0:0:0:0:
243,377,433794,1,0,0:0:0:0:
204,355,433865,5,8,0:0:0:0:
212,310,433936,1,0,0:0:0:0:
229,269,434008,1,8,0:0:0:0:
255,232,434079,1,0,0:0:0:0:
288,202,434151,5,8,0:0:0:0:
289,157,434222,1,0,0:0:0:0:
269,116,434294,1,8,0:0:0:0:
233,90,434365,1,0,0:0:0:0:
189,85,434436,5,8,0:0:0:0:
162,121,434508,1,0,0:0:0:0:
128,150,434579,1,8,0:0:0:0:
87,169,434651,1,0,0:0:0:0:
44,178,434722,6,0,L|-31:175,11,45,14|0|8|0|8|0|8|0|8|0|8|0,0:0|0:0|0:0|0:0|0:0|0:0|0:0|0:0|0:0|0:0|0:0|0:0,0:0:0:0:
53,87,435579,5,10,0:0:0:0:
84,55,435651,1,0,0:0:0:0:
123,32,435722,1,8,0:0:0:0:
166,20,435794,1,0,0:0:0:0:
211,20,435865,1,8,0:0:0:0:
254,31,435936,1,0,0:0:0:0:
293,54,436008,1,8,0:0:0:0:
325,85,436079,1,0,0:0:0:0:
348,124,436151,1,8,0:0:0:0:
375,159,436222,1,0,0:0:0:0:
412,183,436294,1,8,0:0:0:0:
456,192,436365,1,0,0:0:0:0:
500,185,436436,5,10,0:0:0:0:
494,140,436508,1,0,0:0:0:0:
475,100,436579,1,8,0:0:0:0:
445,66,436651,1,0,0:0:0:0:
407,43,436722,1,8,0:0:0:0:
363,32,436794,1,0,0:0:0:0:
318,34,436865,1,8,0:0:0:0:
276,48,436936,1,0,0:0:0:0:
240,75,437008,1,8,0:0:0:0:
212,110,437079,1,0,0:0:0:0:
197,152,437151,1,8,0:0:0:0:
194,197,437222,1,0,0:0:0:0:
204,241,437294,5,8,0:0:0:0:
212,284,437365,1,0,0:0:0:0:
199,327,437436,1,8,0:0:0:0:
167,358,437508,1,0,0:0:0:0:
124,369,437579,1,8,0:0:0:0:
81,359,437651,1,0,0:0:0:0:
47,329,437722,1,8,0:0:0:0:
33,287,437794,1,0,0:0:0:0:
40,243,437865,2,0,L|57:181,3,45,10|0|8|0,0:0|0:0|0:0|0:0,0:0:0:0:
145,254,438151,5,14,0:0:0:0:
175,286,438222,1,0,0:0:0:0:
211,313,438294,1,8,0:0:0:0:
252,332,438365,1,0,0:0:0:0:
296,343,438436,1,8,0:0:0:0:
341,345,438508,1,0,0:0:0:0:
385,339,438579,1,8,0:0:0:0:
428,324,438651,1,0,0:0:0:0:
466,301,438722,2,0,L|518:263,3,45,10|0|8|0,0:0|0:0|0:0|0:0,0:0:0:0:
413,209,439008,5,10,0:0:0:0:
378,180,439079,1,0,0:0:0:0:
337,162,439151,1,8,0:0:0:0:
292,157,439222,1,0,0:0:0:0:
248,166,439294,1,8,0:0:0:0:
204,175,439365,1,0,0:0:0:0:
159,170,439436,1,8,0:0:0:0:
118,152,439508,1,0,0:0:0:0:
84,124,439579,2,0,L|47:80,3,45,10|0|8|0,0:0|0:0|0:0|0:0,0:0:0:0:
167,52,439865,5,10,0:0:0:0:
207,71,439936,1,0,0:0:0:0:
243,98,440008,1,8,0:0:0:0:
271,133,440079,1,0,0:0:0:0:
292,173,440151,1,8,0:0:0:0:
304,216,440222,1,0,0:0:0:0:
305,261,440294,1,8,0:0:0:0:
312,305,440365,1,0,0:0:0:0:
337,342,440436,1,8,0:0:0:0:
376,364,440508,1,0,0:0:0:0:
420,368,440579,1,8,0:0:0:0:
462,352,440651,1,0,0:0:0:0:
492,319,440722,6,0,L|512:267,7,45,10|0|8|0|8|0|8|0,0:0|0:0|0:0|0:0|0:0|0:0|0:0|0:0,0:0:0:0:
406,242,441294,2,0,L|402:175,3,45,14|0|8|0,0:0|0:0|0:0|0:0,0:0:0:0:
303,215,441579,5,14,0:0:0:0:
267,187,441651,1,0,0:0:0:0:
226,169,441722,1,8,0:0:0:0:
182,161,441794,1,0,0:0:0:0:
137,163,441865,1,8,0:0:0:0:
93,167,441936,1,0,0:0:0:0:
52,149,442008,1,8,0:0:0:0:
27,113,442079,1,0,0:0:0:0:
23,68,442151,1,8,0:0:0:0:
42,28,442222,1,0,0:0:0:0:
79,3,442294,1,8,0:0:0:0:
123,0,442365,1,0,0:0:0:0:
163,20,442436,6,0,L|208:54,3,45,8|0|8|0,0:0|0:0|0:0|0:0,0:0:0:0:
278,115,442722,2,0,L|233:148,3,45,8|0|8|0,0:0|0:0|0:0|0:0,0:0:0:0:
163,209,443008,2,0,L|207:242,3,45,8|0|8|0,0:0|0:0|0:0|0:0,0:0:0:0:
291,299,443294,5,10,0:0:0:0:
329,274,443365,1,8,0:0:0:0:
366,250,443436,1,8,0:0:0:0:
404,226,443508,1,8,0:0:0:0:
442,202,443579,5,4,0:3:0:0:
439,233,443651,1,4,0:3:0:0:
437,264,443722,1,4,0:3:0:0:
435,295,443794,1,4,0:3:0:0:
433,326,443865,5,8,0:0:0:0:
379,326,443936,1,8,0:0:0:0:
335,294,444008,1,8,0:0:0:0:
317,242,444079,1,8,0:0:0:0:
334,191,444151,5,8,0:0:0:0:
385,205,444222,1,8,0:0:0:0:
419,245,444294,1,8,0:0:0:0:
424,298,444365,1,8,0:0:0:0:
398,344,444436,5,4,0:3:0:0:
373,331,444508,1,4,0:3:0:0:
348,318,444579,1,4,0:3:0:0:
324,305,444651,1,4,0:3:0:0:
299,292,444722,6,4,L|236:255,3,45,4|4|4|4,0:3|0:3|0:3|0:3,0:3:0:0:
308,178,445008,5,10,0:0:0:0:
293,135,445079,1,0,0:0:0:0:
265,100,445151,2,0,L|222:66,1,45,0|0,0:0|0:0,0:0:0:0:
170,203,445294,1,12,0:0:0:0:
153,244,445365,1,0,0:0:0:0:
119,272,445436,2,0,L|63:298,1,45
36,154,445579,1,10,0:0:0:0:
47,110,445651,1,0,0:0:0:0:
76,76,445722,2,0,L|122:29,1,45,0|0,0:0|0:0,0:0:0:0:
170,203,445865,5,10,0:0:0:0:
206,229,445936,1,0,0:0:0:0:
249,242,446008,2,0,L|322:256,1,45,0|0,0:0|0:0,0:0:0:0:
431,155,446151,1,12,0:0:0:0:
401,121,446222,1,0,0:0:0:0:
362,98,446294,2,0,L|309:76,1,45,0|0,0:0|0:0,0:0:0:0:
293,250,446436,1,10,0:0:0:0:
265,286,446508,1,0,0:0:0:0:
226,309,446579,2,0,L|156:334,1,45,0|0,0:0|0:0,0:0:0:0:
105,208,446722,5,14,0:0:0:0:
82,168,446794,1,0,0:0:0:0:
79,124,446865,1,0,0:0:0:0:
101,85,446936,1,0,0:0:0:0:
140,61,447008,1,8,0:0:0:0:
185,58,447079,1,0,0:0:0:0:
226,78,447151,1,0,0:0:0:0:
254,114,447222,1,0,0:0:0:0:
284,150,447294,1,8,0:0:0:0:
322,174,447365,1,0,0:0:0:0:
366,189,447436,1,0,0:0:0:0:
410,182,447508,1,0,0:0:0:0:
441,149,447579,5,8,0:0:0:0:
452,105,447651,1,0,0:0:0:0:
438,62,447722,1,0,0:0:0:0:
402,33,447794,1,0,0:0:0:0:
358,25,447865,1,8,0:0:0:0:
314,37,447936,1,0,0:0:0:0:
276,62,448008,1,0,0:0:0:0:
246,95,448079,1,0,0:0:0:0:
226,135,448151,1,8,0:0:0:0:
205,174,448222,1,0,0:0:0:0:
170,203,448294,1,0,0:0:0:0:
130,223,448365,1,0,0:0:0:0:
85,229,448436,6,0,L|10:230,11,45,10|0|0|0|8|0|0|0|8|0|0|0,0:0|0:0|0:0|0:0|0:0|0:0|0:0|0:0|0:0|0:0|0:0|0:0,0:0:0:0:
62,137,449294,5,10,0:0:0:0:
102,118,449365,1,0,0:0:0:0:
146,115,449436,1,0,0:0:0:0:
189,130,449508,1,0,0:0:0:0:
223,158,449579,1,8,0:0:0:0:
244,198,449651,1,0,0:0:0:0:
249,242,449722,1,0,0:0:0:0:
253,286,449794,1,0,0:0:0:0:
273,326,449865,1,8,0:0:0:0:
307,356,449936,1,0,0:0:0:0:
350,369,450008,1,0,0:0:0:0:
395,366,450079,1,0,0:0:0:0:
435,348,450151,6,0,L|475:317,11,45,10|0|0|0|8|0|0|0|8|0|0|0,0:0|0:0|0:0|0:0|0:0|0:0|0:0|0:0|0:0|0:0|0:0|0:0,0:0:0:0:
375,263,451008,5,8,0:0:0:0:
330,267,451079,1,0,0:0:0:0:
285,264,451151,1,0,0:0:0:0:
241,254,451222,1,0,0:0:0:0:
200,236,451294,1,8,0:0:0:0:
162,213,451365,1,0,0:0:0:0:
128,183,451436,1,0,0:0:0:0:
99,148,451508,1,0,0:0:0:0:
77,109,451578,2,0,L|60:58,3,45,14|0|0|0,0:0|0:0|0:0|0:0,0:0:0:0:
167,89,451865,5,14,0:0:0:0:
210,93,451936,1,0,0:0:0:0:
255,102,452008,1,0,0:0:0:0:
297,118,452079,1,0,0:0:0:0:
336,141,452151,2,0,L|384:185,1,45,8|0,0:0|0:0,0:0:0:0:
415,329,452294,2,0,L|363:287,1,45,0|0,0:0|0:0,0:0:0:0:
251,215,452436,2,0,L|315:228,1,45,14|0,0:0|0:0,0:0:0:0:
499,255,452579,2,0,L|433:245,1,45,0|0,0:0|0:0,0:0:0:0:
256,303,452721,1,14,0:0:0:0:
215,321,452792,1,0,0:0:0:0:
169,319,452865,1,0,0:0:0:0:
128,299,452936,1,0,0:0:0:0:
98,264,453008,2,0,L|72:205,1,45,8|0,0:0|0:0,0:0:0:0:
82,66,453151,2,0,L|107:124,1,45,0|0,0:0|0:0,0:0:0:0:
202,212,453294,2,0,L|175:153,1,45,14|0,0:0|0:0,0:0:0:0:
183,13,453436,2,0,L|208:71,1,45,0|0,0:0|0:0,0:0:0:0:
280,184,453579,5,14,0:0:0:0:
288,227,453651,1,0,0:0:0:0:
275,270,453722,1,0,0:0:0:0:
245,302,453794,1,0,0:0:0:0:
202,316,453865,2,0,L|135:306,1,45,8|0,0:0|0:0,0:0:0:0:
13,245,454008,2,0,L|57:237,1,45,0|0,0:0|0:0,0:0:0:0:
202,173,454151,2,0,L|157:165,1,45,8|0,0:0|0:0,0:0:0:0:
17,102,454294,2,0,L|61:94,1,45,0|0,0:0|0:0,0:0:0:0:
194,39,454436,5,14,0:0:0:0:
238,37,454508,1,0,0:0:0:0:
282,46,454579,1,0,0:0:0:0:
323,65,454651,1,0,0:0:0:0:
359,92,454722,1,8,0:0:0:0:
387,127,454794,1,0,0:0:0:0:
407,167,454865,1,0,0:0:0:0:
417,211,454936,1,0,0:0:0:0:
417,256,455008,2,0,L|411:321,3,45,14|0|0|0,0:0|0:0|0:0|0:0,0:0:0:0:
314,259,455294,5,14,0:0:0:0:
309,214,455365,1,0,0:0:0:0:
294,172,455436,1,0,0:0:0:0:
269,134,455508,1,0,0:0:0:0:
236,104,455579,1,8,0:0:0:0:
197,82,455651,1,0,0:0:0:0:
154,71,455722,1,0,0:0:0:0:
109,71,455794,1,0,0:0:0:0:
68,89,455865,1,8,0:0:0:0:
38,122,455936,1,0,0:0:0:0:
23,164,456008,1,0,0:0:0:0:
26,209,456079,1,0,0:0:0:0:
46,248,456151,5,8,0:0:0:0:
81,277,456222,1,0,0:0:0:0:
124,289,456294,1,0,0:0:0:0:
168,283,456365,1,0,0:0:0:0:
206,260,456436,1,8,0:0:0:0:
247,241,456508,1,0,0:0:0:0:
291,232,456579,1,0,0:0:0:0:
336,233,456651,1,0,0:0:0:0:
380,245,456722,1,8,0:0:0:0:
419,266,456794,1,0,0:0:0:0:
453,295,456865,1,0,0:0:0:0:
480,331,456936,1,0,0:0:0:0:
497,373,457008,5,14,0:0:0:0:
452,376,457079,1,0,0:0:0:0:
407,375,457151,1,0,0:0:0:0:
363,369,457222,1,0,0:0:0:0:
319,357,457294,1,8,0:0:0:0:
277,341,457365,1,0,0:0:0:0:
238,320,457436,1,0,0:0:0:0:
200,295,457508,1,0,0:0:0:0:
166,266,457579,1,8,0:0:0:0:
135,234,457651,1,0,0:0:0:0:
108,198,457722,1,0,0:0:0:0:
85,159,457794,1,0,0:0:0:0:
67,118,457865,6,0,L|44:58,7,45,8|0|0|0|8|0|0|0,0:0|0:0|0:0|0:0|0:0|0:0|0:0|0:0,0:0:0:0:
175,70,458436,2,0,L|187:5,3,45,8|0|0|0,0:0|0:0|0:0|0:0,0:0:0:0:
292,82,458721,5,2,0:0:0:0:
127,316,458864,1,2,0:0:0:0:
115,334,459150,1,2,0:0:0:0:
103,352,459435,2,0,P|72:362|37:351,1,62.9999980773926,2|10,0:0|0:0,0:0:0:0:
182,202,459864,5,0,0:0:0:0:
204,180,459935,1,0,0:0:0:0:
234,172,460007,1,0,0:0:0:0:
264,180,460078,1,0,0:0:0:0:
287,201,460150,1,0,0:0:0:0:
309,222,460221,1,0,0:0:0:0:
339,229,460293,1,0,0:0:0:0:
370,222,460364,1,0,0:0:0:0:
393,200,460435,5,2,0:0:0:0:
119,65,460578,1,2,0:0:0:0:
100,55,460864,1,2,0:0:0:0:
80,44,461150,1,2,0:0:0:0:
129,251,461293,2,0,P|185:271|205:268,1,62.9999980773926,10|0,0:0|0:0,0:0:0:0:
220,88,461578,2,0,P|250:36|255:22,1,62.9999980773926,2|0,0:0|0:0,0:0:0:0:
0,160,461864,2,0,P|0:220|11:246,1,62.9999980773926,2|0,0:0|0:0,0:0:0:0:
188,182,462150,6,0,B|304:164|423:243|423:243|466:213|474:170,1,314.999990386963,6|0,0:0|0:0,0:0:0:0:
468,174,462935,1,0,0:0:0:0:
468,155,463007,2,0,L|450:71,1,62.9999980773926,14|0,0:0|0:0,0:0:0:0:
250,33,463293,2,0,L|263:94,1,62.9999980773926,2|0,0:0|0:0,0:0:0:0:
375,275,463578,2,0,L|357:191,1,62.9999980773926,6|0,0:0|0:0,0:0:0:0:
160,110,463864,6,0,B|132:127|130:161|130:161|177:301|92:329,1,251.999992309571,6|0,0:0|0:0,0:0:0:0:
77,329,464507,1,0,0:0:0:0:
59,321,464578,1,0,0:0:0:0:
48,305,464650,1,0,0:0:0:0:
45,286,464721,1,8,0:0:0:0:
253,249,464864,2,0,L|331:221,1,62.9999980773926,2|0,0:0|0:0,0:0:0:0:
253,249,465150,1,0,0:0:0:0:
349,369,465293,5,2,0:0:0:0:
443,178,465435,1,2,0:0:0:0:
207,163,465578,2,0,B|165:166|58:150|8:41|8:41|80:32,1,314.999990386963,6|0,0:0|0:0,0:0:0:0:
297,43,466435,1,10,0:0:0:0:
293,273,466721,5,0,0:0:0:0:
316,252,466793,1,0,0:0:0:0:
332,225,466864,1,0,0:0:0:0:
341,195,466935,1,0,0:0:0:0:
341,163,467007,1,2,0:0:0:0:
222,176,467150,1,2,0:0:0:0:
437,263,467293,2,0,B|475:311|479:315|479:315|360:371|220:347,1,314.999990386963,2|0,0:0|0:0,0:0:0:0:
221,344,468078,1,0,0:0:0:0:
207,336,468150,5,8,0:0:0:0:
187,220,468293,1,4,0:3:0:0:
256,96,468435,1,4,0:3:0:0:
371,250,468578,5,6,0:3:0:0:
398,26,468721,1,6,0:3:0:0:
161,127,468864,1,6,0:3:0:0:
440,162,469007,2,0,P|434:347|339:350,1,315,6|0,0:0|0:0,0:0:0:0:
333,344,469793,1,0,0:0:0:0:
320,333,469864,2,0,B|289:314|289:314|298:294|298:294|273:284|273:284|303:228|298:180|247:111,1,251.999992309571,10|2,0:0|0:0,0:0:0:0:
49,43,470721,6,0,P|32:106|114:288,1,251.999992309571,6|0,0:0|0:0,0:0:0:0:
258,127,471578,5,10,0:0:0:0:
333,202,471721,1,0,0:0:0:0:
241,257,471864,1,2,0:0:0:0:
314,334,472007,1,0,0:0:0:0:
209,359,472150,1,2,0:0:0:0:
137,279,472293,1,0,0:0:0:0:
203,100,472435,5,2,0:0:0:0:
415,307,472578,1,2,0:0:0:0:
429,324,472864,1,2,0:0:0:0:
446,339,473150,2,0,L|468:359,2,31.4999990386963,2|2|10,0:0|0:0|0:0,0:0:0:0:
345,140,473578,5,0,0:0:0:0:
319,122,473650,1,0,0:0:0:0:
288,121,473721,1,0,0:0:0:0:
262,138,473793,1,0,0:0:0:0:
249,166,473864,1,0,0:0:0:0:
239,195,473935,1,0,0:0:0:0:
221,221,474007,1,0,0:0:0:0:
196,240,474078,1,0,0:0:0:0:
167,251,474150,5,2,0:0:0:0:
401,49,474293,1,2,0:0:0:0:
418,34,474578,1,2,0:0:0:0:
435,19,474864,1,2,0:0:0:0:
432,160,475007,2,0,L|399:245,1,62.9999980773926,10|0,0:0|0:0,0:0:0:0:
312,384,475293,2,0,L|289:325,1,62.9999980773926,2|0,0:0|0:0,0:0:0:0:
236,112,475578,2,0,L|203:197,1,62.9999980773926,2|0,0:0|0:0,0:0:0:0:
123,346,475864,6,0,P|73:309|38:212,1,157.499995193482,6|0,0:0|0:0,0:0:0:0:
101,186,476293,2,0,P|156:157|147:64,1,157.499995193482,2|0,0:0|0:0,0:0:0:0:
95,113,476721,2,0,P|110:155|225:230,1,157.499995193482,10|0,0:0|0:0,0:0:0:0:
251,177,477150,2,0,P|308:153|406:205,1,157.499995193482,2|0,0:0|0:0,0:0:0:0:
377,256,477578,2,0,P|328:218|357:123,1,157.499995193482,6|0,0:0|0:0,0:0:0:0:
392,186,478007,2,0,P|469:161|496:76,1,157.499995193482,2|0,0:0|0:0,0:0:0:0:
464,12,478435,5,10,0:0:0:0:
349,43,478721,1,2,0:0:0:0:
234,76,479007,1,2,0:0:0:0:
234,76,479150,1,0,0:0:0:0:
254,321,479293,2,0,B|426:356|468:240|468:240|432:160,1,314.999990386963,2|0,0:0|0:0,0:0:0:0:
442,183,480150,1,14,0:0:0:0:
167,81,480435,5,0,0:0:0:0:
166,112,480507,1,0,0:0:0:0:
177,141,480578,1,0,0:0:0:0:
196,166,480650,1,0,0:0:0:0:
223,183,480721,1,2,0:0:0:0:
297,73,480864,1,2,0:0:0:0:
83,205,481007,2,0,B|59:250|59:250|115:332|237:320,1,251.999992309571,2|0,0:0|0:0,0:0:0:0:
427,82,481864,5,10,0:0:0:0:
455,202,482007,1,0,0:0:0:0:
286,96,482150,1,6,0:0:0:0:
295,270,482293,5,2,0:0:0:0:
144,110,482435,1,2,0:0:0:0:
165,348,482578,1,2,0:0:0:0:
28,145,482721,2,0,P|32:46|106:-3,1,188.999994232178,6|2,0:0|0:0,0:0:0:0:
324,81,483435,5,0,0:0:0:0:
124,102,483578,1,8,0:0:0:0:
360,320,483864,5,6,0:0:0:0:
109,232,484150,1,6,0:0:0:0:
391,114,484435,2,4,P|457:228|376:311,1,251.999992309571,2|0,0:0|0:0,0:0:0:0:
128,273,485293,5,8,0:0:0:0:
74,75,485435,1,0,0:0:0:0:
295,297,485721,5,0,0:0:0:0:
360,90,485864,1,12,0:0:0:0:
201,247,486007,1,0,0:0:0:0:
390,239,486150,2,0,L|467:212,1,62.9999980773926,6|0,0:0|0:0,0:0:0:0:
360,90,486435,2,0,L|300:69,1,62.9999980773926,0|0,0:0|0:0,0:0:0:0:
184,149,486721,2,0,L|107:176,1,62.9999980773926,0|0,0:0|0:0,0:0:0:0:
55,69,487007,6,0,L|22:12,1,62.9999980773926,10|0,0:0|0:0,0:0:0:0:
184,149,487293,2,0,L|195:84,1,62.9999980773926,2|0,0:0|0:0,0:0:0:0:
232,294,487578,2,0,L|282:251,1,62.9999980773926,10|0,0:0|0:0,0:0:0:0:
406,160,487864,6,0,L|462:223,1,62.9999980773926,2|0,0:0|0:0,0:0:0:0:
423,337,488150,2,0,L|359:393,1,62.9999980773926,0|0,0:0|0:0,0:0:0:0:
244,322,488436,5,0,0:0:0:0:
240,216,488578,1,0,0:0:0:0:
297,125,488721,2,0,L|353:97,1,62.9999980773926,10|0,0:0|0:0,0:0:0:0:
156,146,489007,2,0,L|189:69,1,62.9999980773926,2|0,0:0|0:0,0:0:0:0:
61,252,489293,2,0,L|37:171,1,62.9999980773926,10|0,0:0|0:0,0:0:0:0:
18,46,489578,6,0,L|92:65,1,62.9999980773926,2|0,0:0|0:0,0:0:0:0:
155,179,489864,2,0,L|229:198,1,62.9999980773926,0|0,0:0|0:0,0:0:0:0:
261,46,490150,2,0,L|199:61,1,62.9999980773926,0|0,0:0|0:0,0:0:0:0:
72,147,490435,6,0,L|17:72,1,62.9999980773926,10|0,0:0|0:0,0:0:0:0:
162,273,490721,2,0,L|71:250,1,62.9999980773926,2|0,0:0|0:0,0:0:0:0:
311,311,491007,2,0,L|227:352,1,62.9999980773926,2|0,0:0|0:0,0:0:0:0:
248,200,491293,6,0,L|219:141,1,62.9999980773926,2|0,0:0|0:0,0:0:0:0:
359,137,491578,2,0,L|417:107,1,62.9999980773926,0|0,0:0|0:0,0:0:0:0:
422,248,491864,2,0,L|450:306,1,62.9999980773926,0|0,0:0|0:0,0:0:0:0:
355,357,492150,5,14,0:0:0:0:
250,333,492293,1,8,0:0:0:0:
193,242,492435,1,6,0:0:0:0:
224,139,492578,1,4,0:3:0:0:
188,41,492721,1,6,0:0:0:0:
82,19,492864,1,4,0:3:0:0:
3,158,493007,6,0,P|9:211|38:255,2,80.9999975280763,2|0|6,0:0|0:0|0:0,0:0:0:0:
188,41,493435,1,0,0:0:0:0:
260,202,493578,1,2,0:0:0:0:
125,167,493721,1,0,0:0:0:0:
312,85,493864,2,0,L|401:56,1,80.9999975280763,10|0,0:0|0:0,0:0:0:0:
402,200,494150,2,0,L|479:225,1,80.9999975280763,0|0,0:0|0:0,0:0:0:0:
223,223,494435,1,0,0:0:0:0:
312,85,494578,1,2,0:0:0:0:
402,200,494721,6,0,P|415:259|401:309,2,80.9999975280763,2|0|2,0:0|0:0|0:0,0:0:0:0:
219,71,495150,1,0,0:0:0:0:
295,256,495293,1,2,0:0:0:0:
347,111,495435,1,0,0:0:0:0:
179,191,495578,2,0,L|97:231,1,80.9999975280763,10|0,0:0|0:0,0:0:0:0:
28,341,495864,2,0,L|109:381,1,80.9999975280763,0|0,0:0|0:0,0:0:0:0:
238,288,496150,2,0,L|324:290,1,80.9999975280763,0|0,0:0|0:0,0:0:0:0:
401,112,496435,2,0,L|326:143,1,80.9999975280763
123,182,496721,6,0,P|93:156|75:120,1,80.9999975280763,2|0,0:0|0:0,0:0:0:0:
205,74,497007,2,0,P|276:45|303:14,1,80.9999975280763,2|0,0:0|0:0,0:0:0:0:
73,31,497293,2,0,P|20:48|-13:92,1,80.9999975280763,8|0,0:0|0:0,0:0:0:0:
67,210,497578,2,0,P|64:278|45:311,1,80.9999975280763,2|0,0:0|0:0,0:0:0:0:
75,120,497864,2,0,P|137:150|157:183,1,80.9999975280763,2|0,0:0|0:0,0:0:0:0:
212,295,498150,2,0,P|281:318|319:313,1,80.9999975280763,0|0,0:0|0:0,0:0:0:0:
300,187,498435,2,0,P|359:161|373:139,1,80.9999975280763,2|0,0:0|0:0,0:0:0:0:
273,72,498721,2,0,P|226:27|220:1,1,80.9999975280763,2|0,0:0|0:0,0:0:0:0:
222,13,498935,1,0,0:0:0:0:
222,13,499007,1,10,0:0:0:0:
454,31,499150,1,10,0:0:0:0:
307,343,499435,5,8,0:0:0:0:
286,227,499578,1,0,0:0:0:0:
149,311,499721,1,8,0:0:0:0:
131,136,499864,2,0,L|106:47,1,62.9999980773926,6|0,0:0|0:0,0:0:0:0:
19,204,500150,2,0,L|-2:281,1,62.9999980773926,0|0,0:0|0:0,0:0:0:0:
133,263,500435,2,0,L|154:340,1,62.9999980773926,0|0,0:0|0:0,0:0:0:0:
270,231,500721,6,0,L|341:281,1,62.9999980773926,10|0,0:0|0:0,0:0:0:0:
339,84,501007,2,0,L|361:168,1,62.9999980773926,2|0,0:0|0:0,0:0:0:0:
486,15,501293,2,0,L|449:94,1,62.9999980773926,2|0,0:0|0:0,0:0:0:0:
489,186,501578,6,0,L|428:250,1,62.9999980773926,2|0,0:0|0:0,0:0:0:0:
300,292,501864,2,0,L|331:228,1,62.9999980773926,0|0,0:0|0:0,0:0:0:0:
249,142,502150,5,0,0:0:0:0:
188,226,502292,1,0,0:0:0:0:
84,253,502436,2,0,L|27:224,1,62.9999980773926,14|0,0:0|0:0,0:0:0:0:
213,334,502721,2,0,L|136:340,1,62.9999980773926,2|0,0:0|0:0,0:0:0:0:
364,313,503007,2,0,L|300:355,1,62.9999980773926,2|0,0:0|0:0,0:0:0:0:
265,230,503293,6,0,L|285:162,1,62.9999980773926,6|0,0:0|0:0,0:0:0:0:
174,131,503578,2,0,L|154:63,1,62.9999980773926,0|0,0:0|0:0,0:0:0:0:
47,92,503864,2,0,L|0:50,1,62.9999980773926,0|0,0:0|0:0,0:0:0:0:
131,220,504150,6,0,L|185:252,1,62.9999980773926,10|0,0:0|0:0,0:0:0:0:
191,90,504435,2,0,L|211:149,1,62.9999980773926,2|0,0:0|0:0,0:0:0:0:
321,28,504721,2,0,L|298:86,1,62.9999980773926,2|0,0:0|0:0,0:0:0:0:
306,208,505007,6,0,L|343:286,1,62.9999980773926,2|0,0:0|0:0,0:0:0:0:
178,322,505293,2,0,L|151:378,1,62.9999980773926,0|0,0:0|0:0,0:0:0:0:
37,253,505578,2,0,L|63:196,1,62.9999980773926,0|0,0:0|0:0,0:0:0:0:
114,100,505864,5,10,0:0:0:0:
196,31,506007,1,8,0:0:0:0:
300,54,506150,1,2,0:0:0:0:
334,155,506293,1,0,0:0:0:0:
269,239,506435,1,2,0:0:0:0:
325,330,506578,1,8,0:0:0:0:
474,315,506721,6,0,P|499:284|508:222,2,80.9999975280763,6|0|2,0:0|0:0|0:0,0:0:0:0:
269,239,507150,1,0,0:0:0:0:
369,95,507293,1,2,0:0:0:0:
404,229,507435,1,0,0:0:0:0:
244,116,507578,2,0,L|175:71,1,80.9999975280763,10|0,0:0|0:0,0:0:0:0:
52,279,507864,2,0,L|119:322,1,80.9999975280763,0|0,0:0|0:0,0:0:0:0:
244,117,508150,1,0,0:0:0:0:
74,159,508293,1,2,0:0:0:0:
277,317,508435,6,0,P|327:297|348:265,2,80.9999975280763,6|0|2,0:0|0:0|0:0,0:0:0:0:
154,92,508864,1,0,0:0:0:0:
261,222,509007,1,2,0:0:0:0:
98,235,509150,1,0,0:0:0:0:
267,115,509293,2,0,L|351:57,1,80.9999975280763,10|0,0:0|0:0,0:0:0:0:
493,94,509578,2,0,L|425:138,1,80.9999975280763,0|0,0:0|0:0,0:0:0:0:
387,293,509864,2,0,L|471:235,1,80.9999975280763,0|0,0:0|0:0,0:0:0:0:
283,181,510150,5,6,0:0:0:0:
262,352,510293,1,0,0:0:0:0:
387,293,510435,1,0,0:0:0:0:
151,222,510578,1,0,0:0:0:0:
340,360,510721,2,0,L|433:390,1,80.9999975280763,0|0,0:0|0:0,0:0:0:0:
364,222,511007,5,10,0:0:0:0:
186,331,511150,1,0,0:0:0:0:
277,159,511293,1,0,0:0:0:0:
340,360,511435,1,0,0:0:0:0:
142,180,511578,2,0,L|79:116,1,80.9999975280763,0|0,0:0|0:0,0:0:0:0:
53,256,511864,5,2,0:0:0:0:
199,82,512007,1,0,0:0:0:0:
210,251,512150,1,0,0:0:0:0:
85,122,512293,1,0,0:0:0:0:
285,142,512435,2,0,L|377:154,1,80.9999975280763,0|0,0:0|0:0,0:0:0:0:
364,152,512650,1,0,0:0:0:0:
364,152,512721,5,14,0:0:0:0:
225,292,512864,1,8,0:0:0:0:
301,373,513007,1,2,0:0:0:0:
298,224,513150,1,8,0:0:0:0:
156,363,513293,1,2,0:0:0:0:
98,171,513435,1,10,0:0:0:0:
213,48,513578,5,6,0:0:0:0:
238,40,513650,1,0,0:0:0:0:
265,37,513721,1,0,0:0:0:0:
291,37,513793,1,0,0:0:0:0:
318,43,513864,1,8,0:0:0:0:
343,53,513935,1,0,0:0:0:0:
366,67,514007,1,0,0:0:0:0:
386,84,514078,1,0,0:0:0:0:
404,106,514150,1,8,0:0:0:0:
417,129,514221,1,0,0:0:0:0:
427,154,514293,1,0,0:0:0:0:
431,180,514364,1,0,0:0:0:0:
432,208,514435,5,8,0:0:0:0:
408,220,514507,1,0,0:0:0:0:
381,227,514578,1,0,0:0:0:0:
355,229,514650,1,0,0:0:0:0:
328,227,514721,1,8,0:0:0:0:
302,220,514793,1,0,0:0:0:0:
278,209,514864,1,0,0:0:0:0:
253,197,514935,1,0,0:0:0:0:
227,190,515007,1,8,0:0:0:0:
200,187,515078,1,0,0:0:0:0:
173,190,515150,1,0,0:0:0:0:
148,197,515221,1,0,0:0:0:0:
123,209,515293,5,10,0:0:0:0:
122,236,515364,1,0,0:0:0:0:
126,263,515435,1,0,0:0:0:0:
137,287,515507,1,0,0:0:0:0:
152,310,515578,1,8,0:0:0:0:
172,328,515650,1,0,0:0:0:0:
195,342,515721,1,0,0:0:0:0:
220,351,515793,1,0,0:0:0:0:
247,353,515864,1,8,0:0:0:0:
273,351,515935,1,0,0:0:0:0:
299,342,516007,1,0,0:0:0:0:
322,328,516078,1,0,0:0:0:0:
342,310,516150,6,0,L|368:276,3,26.9999991760254,8|0|0|0,0:0|0:0|0:0|0:0,0:0:0:0:
274,233,516435,2,0,L|249:199,3,26.9999991760254,8|0|0|0,0:0|0:0|0:0|0:0,0:0:0:0:
353,172,516721,2,0,L|378:134,3,26.9999991760254,8|0|0|0,0:0|0:0|0:0|0:0,0:0:0:0:
277,96,517007,5,10,0:0:0:0:
253,83,517078,1,0,0:0:0:0:
227,76,517150,1,0,0:0:0:0:
200,73,517221,1,0,0:0:0:0:
173,77,517293,1,8,0:0:0:0:
147,85,517364,1,0,0:0:0:0:
124,98,517435,1,0,0:0:0:0:
103,116,517507,1,0,0:0:0:0:
87,137,517578,1,8,0:0:0:0:
75,161,517650,1,0,0:0:0:0:
68,187,517721,1,0,0:0:0:0:
66,214,517793,1,0,0:0:0:0:
69,241,517864,5,8,0:0:0:0:
94,250,517935,1,0,0:0:0:0:
121,257,518007,1,0,0:0:0:0:
147,262,518078,1,0,0:0:0:0:
174,263,518150,1,8,0:0:0:0:
201,262,518221,1,0,0:0:0:0:
228,258,518293,1,0,0:0:0:0:
254,252,518364,1,0,0:0:0:0:
279,242,518435,1,8,0:0:0:0:
303,230,518507,1,0,0:0:0:0:
326,216,518578,1,0,0:0:0:0:
348,199,518650,1,0,0:0:0:0:
367,181,518721,5,10,0:0:0:0:
357,156,518793,1,0,0:0:0:0:
355,129,518864,1,0,0:0:0:0:
362,103,518935,1,0,0:0:0:0:
380,82,519007,1,8,0:0:0:0:
403,68,519078,1,0,0:0:0:0:
429,63,519150,1,0,0:0:0:0:
456,67,519221,1,0,0:0:0:0:
479,81,519293,6,0,L|515:113,3,26.9999991760254,10|0|0|0,0:0|0:0|0:0|0:0,0:0:0:0:
434,167,519578,2,0,L|441:214,3,26.9999991760254,10|0|0|0,0:0|0:0|0:0|0:0,0:0:0:0:
353,111,519864,2,0,L|327:69,3,26.9999991760254,10|0|0|0,0:0|0:0|0:0|0:0,0:0:0:0:
264,155,520150,2,0,L|224:137,3,26.9999991760254,10|0|0|0,0:0|0:0|0:0|0:0,0:0:0:0:
338,224,520435,5,14,0:0:0:0:
324,247,520507,1,0,0:0:0:0:
306,267,520578,1,0,0:0:0:0:
285,284,520650,1,0,0:0:0:0:
262,298,520721,1,8,0:0:0:0:
237,307,520793,1,0,0:0:0:0:
210,312,520864,1,0,0:0:0:0:
183,312,520935,1,0,0:0:0:0:
157,308,521007,1,8,0:0:0:0:
131,299,521078,1,0,0:0:0:0:
107,286,521150,1,0,0:0:0:0:
86,269,521221,1,0,0:0:0:0:
69,249,521293,5,8,0:0:0:0:
55,226,521364,1,0,0:0:0:0:
46,201,521435,1,0,0:0:0:0:
42,174,521507,1,0,0:0:0:0:
45,147,521578,1,8,0:0:0:0:
52,121,521650,1,0,0:0:0:0:
65,98,521721,1,0,0:0:0:0:
83,77,521793,1,0,0:0:0:0:
104,61,521864,2,0,L|141:37,3,26.9999991760254,8|0|0|0,0:0|0:0|0:0|0:0,0:0:0:0:
183,109,522150,5,10,0:0:0:0:
191,134,522221,1,0,0:0:0:0:
203,158,522293,1,0,0:0:0:0:
220,179,522364,1,0,0:0:0:0:
240,198,522435,1,8,0:0:0:0:
262,212,522507,1,0,0:0:0:0:
287,222,522578,1,0,0:0:0:0:
314,228,522650,1,0,0:0:0:0:
341,229,522721,2,0,L|384:221,3,26.9999991760254,8|0|0|0,0:0|0:0|0:0|0:0,0:0:0:0:
320,121,523007,5,10,0:0:0:0:
294,129,523078,1,0,0:0:0:0:
270,142,523150,1,0,0:0:0:0:
248,157,523221,1,0,0:0:0:0:
229,176,523293,1,8,0:0:0:0:
212,197,523364,1,0,0:0:0:0:
199,221,523435,1,0,0:0:0:0:
189,246,523507,1,0,0:0:0:0:
184,272,523578,2,0,L|174:321,3,26.9999991760254,10|0|0|0,0:0|0:0|0:0|0:0,0:0:0:0:
291,304,523864,5,10,0:0:0:0:
297,277,523935,1,0,0:0:0:0:
300,251,524007,1,0,0:0:0:0:
298,224,524078,1,0,0:0:0:0:
291,198,524150,1,8,0:0:0:0:
280,173,524221,1,0,0:0:0:0:
266,150,524293,1,0,0:0:0:0:
247,130,524364,1,0,0:0:0:0:
226,114,524435,1,8,0:0:0:0:
202,101,524507,1,0,0:0:0:0:
177,93,524578,1,0,0:0:0:0:
150,89,524650,1,0,0:0:0:0:
123,89,524721,6,0,L|77:98,11,26.9999991760254,10|0|0|0|8|0|0|0|8|0|0|0,0:0|0:0|0:0|0:0|0:0|0:0|0:0|0:0|0:0|0:0|0:0|0:0,0:0:0:0:
120,199,525578,5,10,0:0:0:0:
136,219,525650,1,0,0:0:0:0:
159,235,525721,1,0,0:0:0:0:
184,243,525793,1,0,0:0:0:0:
211,243,525864,1,8,0:0:0:0:
237,236,525935,1,0,0:0:0:0:
260,222,526007,2,0,L|288:189,1,26.9999991760254,2|0,0:0|0:0,0:0:0:0:
383,99,526150,2,0,L|390:141,1,26.9999991760254,10|0,0:0|0:0,0:0:0:0:
407,252,526293,2,0,L|369:230,1,26.9999991760254,2|0,0:0|0:0,0:0:0:0:
287,106,526435,5,10,0:0:0:0:
261,98,526507,1,0,0:0:0:0:
234,96,526578,1,0,0:0:0:0:
207,99,526650,1,0,0:0:0:0:
182,108,526721,1,8,0:0:0:0:
159,122,526793,1,0,0:0:0:0:
139,141,526864,1,0,0:0:0:0:
124,163,526935,1,0,0:0:0:0:
114,188,527007,2,0,L|101:233,1,26.9999991760254,10|0,0:0|0:0,0:0:0:0:
144,343,527150,2,0,L|151:317,1,26.9999991760254,2|0,0:0|0:0,0:0:0:0:
239,207,527293,6,0,L|232:233,11,26.9999991760254,14|0|0|0|8|0|0|0|8|0|0|0,0:0|0:0|0:0|0:0|0:0|0:0|0:0|0:0|0:0|0:0|0:0|0:0,0:0:0:0:
160,130,528150,5,10,0:0:0:0:
180,112,528221,1,0,0:0:0:0:
204,99,528293,1,0,0:0:0:0:
229,90,528364,1,0,0:0:0:0:
256,86,528435,1,8,0:0:0:0:
283,86,528507,1,0,0:0:0:0:
309,92,528578,1,0,0:0:0:0:
335,101,528650,1,0,0:0:0:0:
358,115,528721,1,8,0:0:0:0:
378,133,528793,1,0,0:0:0:0:
395,154,528864,1,0,0:0:0:0:
408,177,528935,1,0,0:0:0:0:
417,203,529007,5,10,0:0:0:0:
390,203,529078,1,0,0:0:0:0:
363,206,529150,1,0,0:0:0:0:
336,210,529221,1,0,0:0:0:0:
310,216,529293,1,8,0:0:0:0:
284,223,529364,1,0,0:0:0:0:
259,233,529435,1,0,0:0:0:0:
234,244,529507,1,0,0:0:0:0:
210,257,529578,1,8,0:0:0:0:
187,271,529650,1,0,0:0:0:0:
166,287,529721,1,0,0:0:0:0:
145,304,529793,1,0,0:0:0:0:
125,323,529864,6,0,L|91:359,11,26.9999991760254,10|0|0|0|8|0|0|0|8|0|0|0,0:0|0:0|0:0|0:0|0:0|0:0|0:0|0:0|0:0|0:0|0:0|0:0,0:0:0:0:
66,244,530721,5,10,0:0:0:0:
65,217,530793,1,0,0:0:0:0:
70,190,530864,1,0,0:0:0:0:
80,165,530935,1,0,0:0:0:0:
96,143,531007,1,8,0:0:0:0:
116,125,531078,1,0,0:0:0:0:
139,112,531150,1,0,0:0:0:0:
165,104,531221,1,0,0:0:0:0:
192,102,531293,1,8,0:0:0:0:
219,106,531364,1,0,0:0:0:0:
244,116,531435,1,0,0:0:0:0:
266,131,531507,1,0,0:0:0:0:
285,150,531578,5,8,0:0:0:0:
304,168,531650,1,0,0:0:0:0:
327,182,531721,1,0,0:0:0:0:
352,192,531793,1,0,0:0:0:0:
379,195,531864,1,8,0:0:0:0:
406,193,531935,1,0,0:0:0:0:
432,186,532007,1,0,0:0:0:0:
455,173,532078,1,0,0:0:0:0:
476,156,532150,1,8,0:0:0:0:
493,135,532221,1,0,0:0:0:0:
504,110,532293,1,0,0:0:0:0:
511,84,532364,1,0,0:0:0:0:
512,57,532435,5,10,0:0:0:0:
485,55,532507,1,0,0:0:0:0:
458,54,532578,1,0,0:0:0:0:
431,54,532650,1,0,0:0:0:0:
404,54,532721,1,8,0:0:0:0:
377,55,532793,1,0,0:0:0:0:
350,58,532864,1,0,0:0:0:0:
323,61,532935,1,0,0:0:0:0:
297,65,533007,1,8,0:0:0:0:
270,70,533078,1,0,0:0:0:0:
244,75,533150,1,0,0:0:0:0:
217,82,533221,1,0,0:0:0:0:
191,89,533293,6,0,L|145:109,11,26.9999991760254,10|0|0|0|8|0|0|0|8|0|0|0,0:0|0:0|0:0|0:0|0:0|0:0|0:0|0:0|0:0|0:0|0:0|0:0,0:0:0:0:
186,188,534150,5,14,0:0:0:0:
190,214,534221,1,0,0:0:0:0:
199,239,534293,1,0,0:0:0:0:
213,263,534364,1,0,0:0:0:0:
230,283,534435,1,8,0:0:0:0:
251,300,534507,1,0,0:0:0:0:
275,314,534578,1,0,0:0:0:0:
300,322,534650,1,0,0:0:0:0:
327,327,534721,1,8,0:0:0:0:
354,326,534793,1,0,0:0:0:0:
380,321,534864,1,0,0:0:0:0:
405,311,534935,1,0,0:0:0:0:
428,296,535007,5,8,0:0:0:0:
448,278,535078,1,0,0:0:0:0:
464,257,535150,1,0,0:0:0:0:
477,233,535221,1,0,0:0:0:0:
485,207,535293,1,8,0:0:0:0:
488,180,535364,1,0,0:0:0:0:
487,154,535435,1,0,0:0:0:0:
480,127,535507,1,0,0:0:0:0:
470,103,535578,1,8,0:0:0:0:
455,80,535650,1,0,0:0:0:0:
436,61,535721,1,0,0:0:0:0:
414,45,535793,1,0,0:0:0:0:
390,33,535864,6,0,L|365:22,19,26.9999991760254,10|0|0|0|8|0|0|0|8|0|0|0|8|0|0|0|8|0|0|0,0:0|0:0|0:0|0:0|0:0|0:0|0:0|0:0|0:0|0:0|0:0|0:0|0:0|0:0|0:0|0:0|0:0|0:0|0:0|0:0,0:0:0:0:
351,114,537293,2,0,L|309:128,3,26.9999991760254,10|0|0|0,0:0|0:0|0:0|0:0,0:0:0:0:
356,208,537578,5,10,0:0:0:0:
337,227,537650,1,0,0:0:0:0:
316,245,537721,1,0,0:0:0:0:
293,259,537793,1,0,0:0:0:0:
269,269,537864,1,8,0:0:0:0:
243,276,537935,1,0,0:0:0:0:
216,279,538007,1,0,0:0:0:0:
189,279,538078,1,0,0:0:0:0:
162,275,538150,1,8,0:0:0:0:
136,266,538221,1,0,0:0:0:0:
112,255,538293,1,0,0:0:0:0:
90,240,538364,1,0,0:0:0:0:
70,222,538435,6,0,L|36:182,11,26.9999991760254,8|0|0|0|8|0|0|0|8|0|0|0,0:0|0:0|0:0|0:0|0:0|0:0|0:0|0:0|0:0|0:0|0:0|0:0,0:0:0:0:
125,126,539293,5,10,0:0:0:0:
137,90,539364,1,0,0:0:0:0:
164,64,539435,1,0,0:0:0:0:
195,44,539507,1,0,0:0:0:0:
231,35,539578,5,10,0:0:0:0:
246,68,539650,1,0,0:0:0:0:
254,105,539721,1,0,0:0:0:0:
253,142,539793,1,0,0:0:0:0:
245,179,539864,5,10,0:0:0:0:
208,170,539935,1,0,0:0:0:0:
175,154,540007,1,0,0:0:0:0:
146,128,540078,1,0,0:0:0:0:
129,98,540150,5,10,0:0:0:0:
94,85,540221,1,0,0:0:0:0:
55,88,540293,1,0,0:0:0:0:
22,103,540364,1,0,0:0:0:0:
0,132,540435,5,10,0:0:0:0:
15,164,540507,1,0,0:0:0:0:
27,201,540578,1,0,0:0:0:0:
27,237,540650,1,0,0:0:0:0:
14,272,540721,6,0,L|-2:311,3,26.9999991760254,10|0|0|0,0:0|0:0|0:0|0:0,0:0:0:0:
81,318,541007,5,2,0:0:0:0:
102,302,541078,1,0,0:0:0:0:
124,286,541150,1,0,0:0:0:0:
146,270,541221,1,0,0:0:0:0:
168,255,541293,1,0,0:0:0:0:
190,239,541364,1,0,0:0:0:0:
212,223,541435,1,0,0:0:0:0:
234,208,541507,1,0,0:0:0:0:
256,192,541578,1,0,0:0:0:0:
278,176,541650,1,0,0:0:0:0:
300,161,541721,1,0,0:0:0:0:
322,145,541793,1,0,0:0:0:0:
344,129,541864,2,0,L|435:62,1,108,10|4,0:0|0:0,0:0:0:0:
431,318,543578,5,2,0:0:0:0:
410,302,543650,1,0,0:0:0:0:
388,286,543721,1,0,0:0:0:0:
366,270,543793,1,0,0:0:0:0:
344,255,543864,1,0,0:0:0:0:
322,239,543935,1,0,0:0:0:0:
300,223,544007,1,0,0:0:0:0:
278,208,544078,1,0,0:0:0:0:
256,192,544150,1,0,0:0:0:0:
234,176,544221,1,0,0:0:0:0:
212,161,544293,1,0,0:0:0:0:
190,145,544364,1,0,0:0:0:0:
168,129,544435,2,0,L|77:62,1,108,10|4,0:0|0:0,0:0:0:0:
76,192,546150,5,2,0:0:0:0:
103,192,546221,1,0,0:0:0:0:
130,192,546293,1,0,0:0:0:0:
157,192,546364,1,0,0:0:0:0:
184,192,546435,1,0,0:0:0:0:
211,192,546507,1,0,0:0:0:0:
238,192,546578,1,0,0:0:0:0:
265,192,546650,1,0,0:0:0:0:
292,192,546721,1,0,0:0:0:0:
319,192,546793,1,0,0:0:0:0:
346,192,546864,1,0,0:0:0:0:
373,192,546935,1,0,0:0:0:0:
400,192,547007,2,0,L|436:192,2,36,10|2|2,0:0|0:0|0:0,0:0:0:0:
364,96,547864,5,2,0:0:0:0:
337,96,547935,1,0,0:0:0:0:
311,104,548007,1,0,0:0:0:0:
288,119,548078,1,0,0:0:0:0:
271,139,548150,1,0,0:0:0:0:
260,164,548221,1,0,0:0:0:0:
256,190,548293,1,0,0:0:0:0:
259,217,548364,1,0,0:0:0:0:
270,242,548435,1,0,0:0:0:0:
287,263,548507,1,0,0:0:0:0:
309,278,548578,1,0,0:0:0:0:
334,286,548650,1,0,0:0:0:0:
361,288,548721,2,0,L|404:288,1,36,10|2,0:0|0:0,0:0:0:0:
256,12,549578,5,4,0:0:0:0:
256,12,550435,5,2,0:0:0:0:
256,39,550507,1,0,0:0:0:0:
256,66,550578,1,0,0:0:0:0:
256,93,550650,1,0,0:0:0:0:
256,120,550721,1,0,0:0:0:0:
256,147,550793,1,0,0:0:0:0:
256,174,550864,1,0,0:0:0:0:
256,201,550935,1,0,0:0:0:0:
256,228,551007,1,0,0:0:0:0:
256,255,551078,1,0,0:0:0:0:
256,282,551150,1,0,0:0:0:0:
256,309,551221,1,0,0:0:0:0:
256,336,551293,2,0,L|256:372,2,36,10|2|2,0:0|0:0|0:0,0:0:0:0:
256,336,552150,5,6,0:0:0:0:
127,105,552721,5,2,0:0:0:0:
127,105,553007,1,2,0:0:0:0:
153,109,553078,1,0,0:0:0:0:
178,120,553150,1,0,0:0:0:0:
200,135,553221,1,0,0:0:0:0:
217,156,553293,1,2,0:0:0:0:
234,176,553364,1,0,0:0:0:0:
256,192,553435,1,0,0:0:0:0:
281,202,553507,1,0,0:0:0:0:
307,207,553578,1,2,0:0:0:0:
333,211,553650,1,0,0:0:0:0:
358,222,553721,1,0,0:0:0:0:
380,237,553793,1,0,0:0:0:0:
397,258,553864,1,14,0:0:0:0:
457,17,554150,5,4,0:3:0:0:
457,103,554293,1,4,0:3:0:0:
304,47,554435,1,4,0:3:0:0:
304,133,554578,1,4,0:3:0:0:
151,77,554721,6,0,L|147:185,1,108,6|2,0:0|0:0,0:0:0:0:
147,212,555650,1,0,0:0:0:0:
146,239,555721,1,0,0:0:0:0:
146,266,555793,1,0,0:0:0:0:
146,293,555864,1,0,0:0:0:0:
165,274,555935,1,0,0:0:0:0:
185,255,556007,1,0,0:0:0:0:
204,236,556078,1,0,0:0:0:0:
223,217,556150,1,0,0:0:0:0:
242,236,556221,1,0,0:0:0:0:
260,256,556293,1,0,0:0:0:0:
279,275,556364,1,0,0:0:0:0:
298,294,556435,6,0,L|378:372,1,108,14|2,0:0|0:0,0:0:0:0:
436,308,557435,1,0,0:0:0:0:
436,222,557578,1,0,0:0:0:0:
376,162,557721,1,0,0:0:0:0:
290,162,557864,1,0,0:0:0:0:
230,102,558007,1,0,0:0:0:0:
169,162,558150,6,0,L|92:238,1,108,14|2,0:0|0:0,0:0:0:0:
72,257,559078,1,0,0:0:0:0:
53,276,559150,1,0,0:0:0:0:
34,295,559221,1,0,0:0:0:0:
15,314,559293,1,0,0:0:0:0:
15,287,559364,1,0,0:0:0:0:
15,260,559435,1,0,0:0:0:0:
15,233,559507,1,0,0:0:0:0:
15,206,559578,1,0,0:0:0:0:
34,186,559650,1,0,0:0:0:0:
53,167,559721,1,0,0:0:0:0:
72,148,559793,1,0,0:0:0:0:
91,129,559864,6,0,L|120:97,1,31.4999990386963,14|0,0:0|0:0,0:0:0:0:
213,251,560007,1,8,0:0:0:0:
213,251,560078,1,8,0:0:0:0:
213,251,560150,1,0,0:0:0:0:
234,290,560221,1,0,0:0:0:0:
272,312,560293,1,4,0:0:0:0:
285,174,560435,5,4,0:3:0:0:
253,153,560507,1,4,0:3:0:0:
218,145,560578,1,4,0:3:0:0:
183,151,560650,1,4,0:3:0:0:
149,166,560721,1,4,2:3:0:0:
297,56,561007,5,0,0:0:0:0:
330,86,561078,1,0,0:0:0:0:
355,122,561150,1,0,0:0:0:0:
375,162,561221,1,0,0:0:0:0:
390,203,561293,1,4,0:3:0:0:
385,229,561364,1,4,0:3:0:0:
383,255,561435,1,4,0:3:0:0:
384,281,561507,1,4,0:3:0:0:
388,307,561578,1,6,0:0:0:0:
110,102,561864,6,0,L|173:237,1,125.999996154785,4|0,0:0|0:0,0:0:0:0:
324,356,562293,1,0,0:0:0:0:
350,129,562435,5,10,0:0:0:0:
350,129,562578,1,0,0:0:0:0:
240,288,562721,1,10,0:0:0:0:
240,288,562864,1,0,0:0:0:0:
435,290,563007,1,10,0:0:0:0:
435,290,563150,1,0,0:0:0:0:
219,157,563293,6,0,L|176:80,1,62.9999980773926,2|0,0:0|0:0,0:0:0:0:
396,368,563578,2,0,L|481:384,1,62.9999980773926,0|0,0:0|0:0,0:0:0:0:
453,215,563864,1,0,0:0:0:0:
431,198,563935,1,0,0:0:0:0:
405,189,564007,1,0,0:0:0:0:
378,191,564078,1,0,0:0:0:0:
353,200,564150,6,0,L|270:226,1,62.9999980773926,10|0,0:0|0:0,0:0:0:0:
23,119,564435,2,0,L|83:137,1,62.9999980773926,2|0,0:0|0:0,0:0:0:0:
421,69,564721,2,0,L|360:50,1,62.9999980773926,2|0,0:0|0:0,0:0:0:0:
151,59,565007,6,0,P|174:80|188:108,1,62.9999980773926,6|0,0:0|0:0,0:0:0:0:
188,107,565221,1,0,0:0:0:0:
188,107,565293,1,0,0:0:0:0:
59,294,565435,1,0,0:0:0:0:
104,142,565578,1,0,0:0:0:0:
104,142,565721,1,0,0:0:0:0:
301,315,565864,6,0,L|383:335,1,62.9999980773926,10|0,0:0|0:0,0:0:0:0:
387,65,566150,2,0,L|329:119,1,62.9999980773926,2|0,0:0|0:0,0:0:0:0:
169,330,566435,2,0,L|123:258,1,62.9999980773926,2|0,0:0|0:0,0:0:0:0:
117,64,566721,6,0,P|130:22|164:-4,2,60,10|8|0,0:0|0:0|0:0,0:0:0:0:
304,234,567007,6,4,P|277:268|235:281,2,60,4|0|0,0:3|0:0|0:0,0:3:0:0:
218,76,567293,6,4,P|254:53|297:55,2,60,4|0|0,0:3|0:0|0:0,0:3:0:0:
211,177,567578,5,10,0:0:0:0:
164,214,567673,1,8,0:0:0:0:
105,225,567769,1,0,0:0:0:0:
46,219,567864,5,4,0:3:0:0:
49,260,567959,1,0,0:0:0:0:
74,292,568054,1,0,0:0:0:0:
113,306,568150,5,4,0:3:0:0:
136,299,568245,1,0,0:0:0:0:
152,281,568340,1,0,0:0:0:0:
158,258,568435,6,0,L|148:129,1,125.999996154785,6|0,0:0|0:0,0:0:0:0:
158,258,569007,1,0,0:0:0:0:
339,169,569293,6,0,L|349:298,1,125.999996154785,2|0,0:0|0:0,0:0:0:0:
339,169,569864,1,0,0:0:0:0:
211,261,570150,6,0,L|94:205,1,125.999996154785,2|0,0:0|0:0,0:0:0:0:
211,261,570721,1,0,0:0:0:0:
284,80,571007,6,0,L|400:135,1,125.999996154785,2|0,0:0|0:0,0:0:0:0:
284,80,571578,1,0,0:0:0:0:
309,251,571864,6,0,L|287:378,1,125.999996154785,4|0,0:0|0:0,0:0:0:0:
309,251,572435,1,0,0:0:0:0:
195,157,572721,6,0,L|216:28,1,125.999996154785,2|0,0:0|0:0,0:0:0:0:
195,157,573293,1,0,0:0:0:0:
325,126,573578,6,0,L|421:212,1,125.999996154785,2|0,0:0|0:0,0:0:0:0:
325,126,574150,1,0,0:0:0:0:
203,265,574435,6,0,L|106:180,1,125.999996154785,2|0,0:0|0:0,0:0:0:0:
203,265,575007,1,0,0:0:0:0:
115,170,575293,6,0,P|116:109|80:45,1,125.999996154785,4|0,0:0|0:0,0:0:0:0:
115,170,575864,1,0,0:0:0:0:
232,233,576150,6,0,P|231:294|267:358,1,125.999996154785,6|0,0:0|0:0,0:0:0:0:
232,233,576721,1,0,0:0:0:0:
315,159,577007,6,0,P|288:55|280:34,1,125.999996154785,2|0,0:0|0:0,0:0:0:0:
315,159,577578,1,0,0:0:0:0:
449,221,577864,6,0,P|422:324|414:346,1,125.999996154785,2|0,0:0|0:0,0:0:0:0:
449,221,578435,1,0,0:0:0:0:
365,99,578721,6,0,P|297:79|260:22,1,125.999996154785,4|0,0:0|0:0,0:0:0:0:
365,99,579293,1,0,0:0:0:0:
314,260,579578,6,0,P|382:280|419:337,1,125.999996154785,2|0,0:0|0:0,0:0:0:0:
314,260,580150,1,0,0:0:0:0:
145,127,580435,6,0,P|91:74|40:50,1,125.999996154785,2|0,0:0|0:0,0:0:0:0:
145,127,581007,1,0,0:0:0:0:
117,272,581293,6,0,P|171:325|222:349,1,125.999996154785,2|0,0:0|0:0,0:0:0:0:
117,272,581864,1,4,0:0:0:0:
234,178,582150,6,0,B|206:116|206:116|138:75,2,125.999996154785,4|0|0,0:0|0:0|0:0,0:0:0:0:
105,229,583007,6,0,B|132:290|132:290|200:331,2,125.999996154785,2|0|0,0:0|0:0|0:0,0:0:0:0:
155,90,583864,6,0,B|100:68|100:68|34:83,2,125.999996154785,2|0|0,0:0|0:0|0:0,0:0:0:0:
182,320,584721,6,0,B|236:341|236:341|302:326,2,125.999996154785,2|0|0,0:0|0:0|0:0,0:0:0:0:
250,169,585578,6,0,B|235:112|235:112|259:49,2,125.999996154785,4|0|0,0:0|0:0|0:0,0:0:0:0:
428,139,586435,6,0,B|442:195|442:195|418:258,2,125.999996154785,2|0|0,0:0|0:0|0:0,0:0:0:0:
275,214,587293,6,0,B|221:237|221:237|160:209|160:209|104:218|104:218|46:168,1,251.999992309571,2|0,0:0|0:0,0:0:0:0:
166,81,588007,1,0,0:0:0:0:
313,54,588150,6,0,B|378:67|378:67|417:111,2,125.999996154785,2|0|4,0:0|0:0|0:0,0:0:0:0:
174,160,589007,5,4,0:0:0:0:
172,184,589293,1,0,0:0:0:0:
171,209,589578,1,0,0:0:0:0:
343,290,589864,5,2,0:0:0:0:
341,255,590149,1,0,0:0:0:0:
339,220,590435,1,0,0:0:0:0:
308,61,590721,5,2,0:0:0:0:
276,77,591006,1,0,0:0:0:0:
245,93,591292,1,0,0:0:0:0:
110,204,591578,5,2,0:0:0:0:
142,220,591863,1,0,0:0:0:0:
173,236,592149,1,0,0:0:0:0:
341,164,592435,5,0,0:0:0:0:
295,164,592720,1,0,0:0:0:0:
253,165,593006,1,0,0:0:0:0:
48,110,593293,5,2,0:0:0:0:
93,110,593578,1,0,0:0:0:0:
135,108,593864,1,0,0:0:0:0:
295,185,594150,6,0,B|397:280|397:280|400:186|366:125|435:109|435:109|396:72|387:82|355:73|370:31|370:31|308:113|308:113|310:62|260:20,1,629.999980773926,2|0,0:0|0:0,0:0:0:0:
280,39,595864,5,4,0:0:0:0:
143,323,597007,5,4,0:0:0:0:
143,323,597578,1,4,0:0:0:0:
432,301,599293,5,4,0:0:0:0:
217,38,601293,5,4,0:0:0:0:
217,38,601864,1,4,0:0:0:0:
266,261,602435,5,4,0:0:0:0:
40,305,602721,1,4,0:0:0:0:
88,101,603007,1,4,0:0:0:0:
483,23,604721,5,4,0:0:0:0:
483,23,605293,1,4,0:0:0:0:
366,176,606150,6,0,P|324:228|220:279,1,180,6|8,0:0|0:0,0:0:0:0:
181,290,606507,1,0,0:0:0:0:
136,285,606578,1,8,0:0:0:0:
97,264,606650,1,0,0:0:0:0:
69,229,606721,5,10,0:0:0:0:
99,196,606793,1,0,0:0:0:0:
138,174,606864,1,8,0:0:0:0:
182,166,606935,1,0,0:0:0:0:
227,172,607007,5,10,0:0:0:0:
205,133,607078,1,0,0:0:0:0:
174,100,607150,1,8,0:0:0:0:
137,75,607221,1,0,0:0:0:0:
95,59,607293,5,10,0:0:0:0:
86,103,607364,1,0,0:0:0:0:
83,148,607435,1,8,0:0:0:0:
85,193,607507,1,0,0:0:0:0:
94,237,607578,5,10,0:0:0:0:
136,222,607650,1,0,0:0:0:0:
177,237,607721,1,8,0:0:0:0:
199,275,607793,1,0,0:0:0:0:
192,318,607864,5,10,0:0:0:0:
147,311,607935,1,0,0:0:0:0:
106,293,608007,1,8,0:0:0:0:
71,265,608078,1,0,0:0:0:0:
44,230,608150,1,8,0:0:0:0:
26,188,608221,1,0,0:0:0:0:
19,144,608293,1,8,0:0:0:0:
24,99,608364,1,0,0:0:0:0:
39,57,608435,6,0,L|62:15,3,45,10|0|8|0,0:0|0:0|0:0|0:0,0:0:0:0:
140,91,608721,2,0,L|161:130,7,45,10|0|8|0|8|0|8|0,0:0|0:0|0:0|0:0|0:0|0:0|0:0|0:0,0:0:0:0:
248,74,609293,5,10,0:0:0:0:
290,60,609364,1,0,0:0:0:0:
335,54,609435,1,8,0:0:0:0:
380,56,609507,1,0,0:0:0:0:
423,67,609578,5,10,0:0:0:0:
399,105,609650,1,0,0:0:0:0:
382,146,609721,1,8,0:0:0:0:
372,190,609793,1,0,0:0:0:0:
371,235,609864,5,10,0:0:0:0:
414,246,609935,1,0,0:0:0:0:
455,231,610007,1,8,0:0:0:0:
479,193,610078,1,0,0:0:0:0:
477,149,610150,5,10,0:0:0:0:
433,160,610221,1,0,0:0:0:0:
387,162,610293,1,8,0:0:0:0:
342,157,610364,1,0,0:0:0:0:
298,145,610435,5,10,0:0:0:0:
300,189,610507,1,0,0:0:0:0:
290,233,610578,1,8,0:0:0:0:
267,272,610650,1,0,0:0:0:0:
235,303,610721,1,8,0:0:0:0:
195,324,610793,1,0,0:0:0:0:
151,332,610864,1,8,0:0:0:0:
107,328,610935,1,0,0:0:0:0:
65,311,611007,5,10,0:0:0:0:
72,98,611150,1,8,0:0:0:0:
174,235,611293,5,10,0:0:0:0:
196,195,611364,1,8,0:0:0:0:
217,156,611435,1,8,0:0:0:0:
238,117,611507,1,8,0:0:0:0:
259,78,611578,5,0,0:0:0:0:
240,80,611650,1,0,0:0:0:0:
221,81,611721,1,0,0:0:0:0:
203,82,611793,1,0,0:0:0:0:
185,85,611864,5,8,0:0:0:0:
181,119,611935,1,8,0:0:0:0:
190,153,612007,1,8,0:0:0:0:
210,183,612078,1,8,0:0:0:0:
237,206,612150,5,8,0:0:0:0:
256,155,612221,1,8,0:0:0:0:
294,116,612293,1,8,0:0:0:0:
341,90,612364,1,8,0:0:0:0:
394,88,612435,5,4,0:3:0:0:
408,110,612507,1,4,0:3:0:0:
422,134,612578,1,4,0:3:0:0:
435,156,612650,1,4,0:3:0:0:
448,179,612721,5,4,0:3:0:0:
460,181,612793,1,4,0:3:0:0:
472,186,612864,1,4,0:3:0:0:
483,193,612935,1,4,0:3:0:0:
490,204,613007,5,4,0:0:0:0:
169,271,613293,5,10,0:0:0:0:
192,232,613364,1,0,0:0:0:0:
210,191,613435,1,8,0:0:0:0:
221,148,613507,1,0,0:0:0:0:
225,103,613578,5,10,0:0:0:0:
180,106,613650,1,0,0:0:0:0:
138,122,613721,1,8,0:0:0:0:
102,149,613793,1,0,0:0:0:0:
72,183,613864,6,0,L|33:235,7,45,10|0|8|0|8|0|8|0,0:0|0:0|0:0|0:0|0:0|0:0|0:0|0:0,0:0:0:0:
145,248,614435,5,10,0:0:0:0:
178,218,614507,1,0,0:0:0:0:
197,178,614578,1,8,0:0:0:0:
196,133,614650,1,0,0:0:0:0:
175,93,614721,5,10,0:0:0:0:
132,103,614793,1,0,0:0:0:0:
96,78,614864,1,8,0:0:0:0:
91,35,614935,1,0,0:0:0:0:
119,0,615007,5,10,0:0:0:0:
155,26,615078,1,0,0:0:0:0:
196,45,615150,1,8,0:0:0:0:
240,54,615221,1,0,0:0:0:0:
283,53,615293,5,10,0:0:0:0:
309,18,615364,1,0,0:0:0:0:
353,9,615435,1,8,0:0:0:0:
390,32,615507,1,0,0:0:0:0:
402,74,615578,6,0,L|416:140,5,45,10|0|8|0|8|0,0:0|0:0|0:0|0:0|0:0|0:0,0:0:0:0:
307,143,616007,2,0,L|301:191,5,45,10|0|8|0|8|0,0:0|0:0|0:0|0:0|0:0|0:0,0:0:0:0:
408,209,616435,5,10,0:0:0:0:
398,253,616507,1,0,0:0:0:0:
388,296,616578,1,8,0:0:0:0:
375,340,616650,1,0,0:0:0:0:
362,382,616721,5,10,0:0:0:0:
324,358,616793,1,0,0:0:0:0:
289,329,616864,1,8,0:0:0:0:
257,298,616935,1,0,0:0:0:0:
229,263,617007,1,8,0:0:0:0:
204,225,617078,1,0,0:0:0:0:
183,185,617150,1,8,0:0:0:0:
167,143,617221,1,0,0:0:0:0:
155,100,617293,2,0,L|142:49,7,45,8|0|8|0|8|0|8|0,0:0|0:0|0:0|0:0|0:0|0:0|0:0|0:0,0:0:0:0:
276,73,617864,6,0,L|289:21,3,45,10|0|8|0,0:0|0:0|0:0|0:0,0:0:0:0:
389,89,618150,5,10,0:0:0:0:
425,128,618221,1,8,0:0:0:0:
449,176,618293,1,8,0:0:0:0:
462,227,618364,1,8,0:0:0:0:
459,280,618435,5,4,0:3:0:0:
426,266,618507,1,4,0:3:0:0:
391,254,618578,1,6,0:3:0:0:
355,250,618650,1,4,0:3:0:0:
318,250,618721,5,0,0:0:0:0:
163,254,618864,1,0,0:0:0:0:
163,254,618935,1,0,0:0:0:0:
163,254,619007,5,0,0:0:0:0:
128,222,619078,1,0,0:0:0:0:
102,185,619150,1,0,0:0:0:0:
86,141,619221,1,0,0:0:0:0:
77,96,619293,5,4,0:3:0:0:
112,104,619364,1,4,0:3:0:0:
147,107,619435,1,4,0:3:0:0:
181,97,619507,1,4,0:3:0:0:
211,77,619578,6,0,L|251:38,3,45,4|4|4|4,0:3|0:3|0:3|0:3,0:3:0:0:
299,133,619864,6,0,P|353:160|445:282,1,198.000006042481,14|10,0:0|0:0,0:0:0:0:
446,312,620221,1,0,0:0:0:0:
422,354,620293,1,8,0:0:0:0:
376,369,620364,1,0,0:0:0:0:
331,351,620435,1,10,0:0:0:0:
293,319,620507,1,0,0:0:0:0:
249,297,620578,1,8,0:0:0:0:
201,286,620650,1,0,0:0:0:0:
152,287,620721,2,0,L|88:299,3,49.5000015106202,8|0|8|0,0:0|0:0|0:0|0:0,0:0:0:0:
104,175,621007,5,10,0:0:0:0:
135,137,621078,1,0,0:0:0:0:
179,114,621150,2,0,L|251:102,1,49.5000015106202,8|0,0:0|0:0,0:0:0:0:
347,251,621293,1,10,0:0:0:0:
391,229,621364,1,0,0:0:0:0:
418,188,621435,2,0,L|442:132,1,49.5000015106202,8|0,0:0|0:0,0:0:0:0:
465,13,621578,6,0,L|415:9,3,49.5000015106202,8|0|8|0,0:0|0:0|0:0|0:0,0:0:0:0:
347,92,621864,1,10,0:0:0:0:
304,115,621935,1,0,0:0:0:0:
255,119,622007,1,8,0:0:0:0:
209,101,622078,1,0,0:0:0:0:
175,66,622150,1,10,0:0:0:0:
144,28,622221,1,0,0:0:0:0:
98,14,622293,1,8,0:0:0:0:
52,31,622364,1,0,0:0:0:0:
24,71,622435,2,0,L|-3:136,3,49.5000015106202,8|0|8|0,0:0|0:0|0:0|0:0,0:0:0:0:
115,173,622721,5,10,0:0:0:0:
125,220,622793,1,0,0:0:0:0:
149,263,622864,2,0,L|201:311,1,49.5000015106202,8|0,0:0|0:0,0:0:0:0:
297,132,623007,1,10,0:0:0:0:
343,148,623078,1,0,0:0:0:0:
384,174,623150,2,0,L|421:223,1,49.5000015106202,8|0,0:0|0:0,0:0:0:0:
376,378,623293,6,0,L|303:363,3,49.5000015106202,12|0|8|0,0:0|0:0|0:0|0:0,0:0:0:0:
357,271,623578,1,10,0:0:0:0:
326,232,623650,1,0,0:0:0:0:
282,208,623721,1,8,0:0:0:0:
232,206,623793,1,0,0:0:0:0:
187,225,623864,1,10,0:0:0:0:
159,265,623935,1,0,0:0:0:0:
118,294,624007,1,8,0:0:0:0:
69,303,624078,1,0,0:0:0:0:
22,283,624150,2,0,L|-12:211,3,49.5000015106202,8|0|8|0,0:0|0:0|0:0|0:0,0:0:0:0:
82,186,624435,5,10,0:0:0:0:
60,140,624507,1,0,0:0:0:0:
57,90,624578,2,0,L|75:29,1,49.5000015106202,8|0,0:0|0:0,0:0:0:0:
242,17,624721,1,10,0:0:0:0:
255,63,624793,1,0,0:0:0:0:
252,112,624864,2,0,L|229:202,1,49.5000015106202,8|0,0:0|0:0,0:0:0:0:
154,281,625007,5,10,0:0:0:0:
187,317,625078,1,8,0:0:0:0:
231,337,625150,1,8,0:0:0:0:
279,347,625221,1,8,0:0:0:0:
328,344,625293,5,2,0:0:0:0:
321,314,625364,1,0,0:0:0:0:
321,284,625435,1,0,0:0:0:0:
329,255,625507,1,0,0:0:0:0:
346,231,625578,5,10,0:0:0:0:
404,233,625650,1,8,0:0:0:0:
455,264,625721,1,8,0:0:0:0:
474,319,625793,1,8,0:0:0:0:
458,376,625864,5,10,0:0:0:0:
423,348,625935,1,8,0:0:0:0:
385,324,626007,1,8,0:0:0:0:
344,305,626078,1,8,0:0:0:0:
300,294,626150,5,6,0:3:0:0:
294,264,626221,1,4,0:3:0:0:
288,234,626293,1,4,0:3:0:0:
282,204,626364,1,4,0:3:0:0:
277,174,626435,6,4,L|270:120,3,49.5000015106202,6|4|4|4,0:3|0:3|0:3|0:3,0:3:0:0:
260,45,626721,5,6,0:0:0:0:
452,75,627007,5,10,0:0:0:0:
416,109,627078,1,0,0:0:0:0:
392,152,627150,1,8,0:0:0:0:
382,200,627221,1,0,0:0:0:0:
387,250,627293,5,10,0:0:0:0:
433,264,627364,1,0,0:0:0:0:
453,308,627435,1,8,0:0:0:0:
434,352,627507,1,0,0:0:0:0:
389,368,627578,6,0,L|310:364,1,49.5000015106202,10|0,0:0|0:0,0:0:0:0:
149,275,627721,2,0,L|228:270,1,49.5000015106202,10|0,0:0|0:0,0:0:0:0:
331,190,627864,5,10,0:0:0:0:
377,177,627935,1,0,0:0:0:0:
404,137,628007,1,8,0:0:0:0:
396,89,628078,1,0,0:0:0:0:
357,59,628150,6,0,L|310:35,3,49.5000015106202,10|0|8|0,0:0|0:0|0:0|0:0,0:0:0:0:
250,120,628435,5,10,0:0:0:0:
205,140,628507,1,0,0:0:0:0:
155,143,628578,1,8,0:0:0:0:
108,131,628650,1,0,0:0:0:0:
67,103,628721,5,10,0:0:0:0:
72,152,628793,1,0,0:0:0:0:
87,199,628864,1,8,0:0:0:0:
110,243,628935,1,0,0:0:0:0:
139,282,629007,5,10,0:0:0:0:
175,247,629078,1,0,0:0:0:0:
220,225,629150,1,8,0:0:0:0:
268,218,629221,1,0,0:0:0:0:
317,227,629293,6,0,L|377:254,1,49.5000015106202,10|0,0:0|0:0,0:0:0:0:
512,353,629435,2,0,L|458:363,1,49.5000015106202,10|0,0:0|0:0,0:0:0:0:
287,375,629578,5,10,0:0:0:0:
238,364,629650,1,0,0:0:0:0:
195,340,629721,1,8,0:0:0:0:
162,304,629793,1,0,0:0:0:0:
140,260,629864,6,0,L|118:192,3,49.5000015106202,14|0|8|0,0:0|0:0|0:0|0:0,0:0:0:0:
220,210,630150,5,14,0:0:0:0:
267,198,630221,1,0,0:0:0:0:
315,208,630293,1,8,0:0:0:0:
354,237,630364,1,0,0:0:0:0:
377,281,630435,5,10,0:0:0:0:
355,321,630507,1,0,0:0:0:0:
310,311,630578,1,8,0:0:0:0:
308,265,630650,1,0,0:0:0:0:
352,251,630721,5,10,0:0:0:0:
369,205,630793,1,0,0:0:0:0:
366,156,630864,1,8,0:0:0:0:
343,112,630935,1,0,0:0:0:0:
305,82,631007,6,0,L|240:32,1,49.5000015106202,10|0,0:0|0:0,0:0:0:0:
86,68,631150,2,0,L|125:98,1,49.5000015106202,10|0,0:0|0:0,0:0:0:0:
274,189,631293,5,10,0:0:0:0:
323,193,631364,1,0,0:0:0:0:
368,173,631435,1,8,0:0:0:0:
402,139,631507,1,0,0:0:0:0:
416,91,631578,6,0,L|406:29,3,49.5000015106202,10|0|8|0,0:0|0:0|0:0|0:0,0:0:0:0:
305,82,631864,5,10,0:0:0:0:
306,136,631935,1,8,0:0:0:0:
296,184,632007,1,8,0:0:0:0:
275,224,632078,1,8,0:0:0:0:
250,254,632150,1,2,0:0:0:0:
223,276,632221,1,0,0:0:0:0:
195,285,632293,1,2,0:0:0:0:
170,285,632364,1,0,0:0:0:0:
150,280,632435,5,10,0:0:0:0:
164,232,632507,1,8,0:0:0:0:
172,182,632578,1,8,0:0:0:0:
171,132,632650,1,8,0:0:0:0:
161,82,632721,5,10,0:0:0:0:
102,85,632793,1,8,0:0:0:0:
57,116,632864,1,8,0:0:0:0:
48,164,632935,1,8,0:0:0:0:
64,204,633007,1,6,0:3:0:0:
99,221,633078,1,4,0:3:0:0:
136,222,633150,1,6,0:3:0:0:
165,215,633221,1,4,0:3:0:0:
187,204,633293,6,4,L|220:182,3,22.5,6|4|6|4,0:3|0:3|0:3|0:3,0:3:0:0:
312,113,633578,5,6,0:0:0:0:
57,293,635577,5,4,0:0:0:0:
426,298,636148,1,4,0:0:0:0:
196,78,637005,5,6,0:0:0:0:
399,50,639005,5,4,0:0:0:0:
277,300,639576,1,4,0:0:0:0:
24,89,640433,5,6,0:0:0:0:
413,124,642433,5,4,0:0:0:0:
203,294,643004,1,4,0:0:0:0:
116,177,643290,2,0,B|66:106|66:106|51:66,1,125.999996154785,4|4,0:0|0:0,0:0:0:0:
221,148,644718,5,6,0:0:0:0:
256,192,644766,12,0,652718,0:0:0:0:
320,59,662430,6,0,L|391:158,1,90
372,132,662664,1,0,0:0:0:0:
372,132,662742,1,0,0:0:0:0:
349,258,662898,1,0,0:0:0:0:
162,152,663055,6,0,L|130:220,2,45,4|0|0,0:0|0:0|0:0,0:0:0:0:
199,331,663367,1,0,0:0:0:0:
199,331,663445,1,0,0:0:0:0:
199,331,663523,2,0,L|243:222,1,90
293,136,663836,1,0,0:0:0:0:
293,136,663914,1,0,0:0:0:0:
293,136,663992,1,0,0:0:0:0:
217,31,664148,1,0,0:0:0:0:
120,176,664305,6,0,B|137:245|137:245|168:238,1,90,4|0,0:0|0:0,0:0:0:0:
175,235,664539,1,0,0:0:0:0:
197,230,664617,1,0,0:0:0:0:
218,225,664695,1,0,0:0:0:0:
239,219,664773,2,0,L|283:207,2,45
250,87,665086,1,0,0:0:0:0:
250,87,665164,1,0,0:0:0:0:
250,87,665242,1,0,0:0:0:0:
370,55,665398,1,0,0:0:0:0:
313,261,665555,6,0,L|284:332,2,45,4|0|0,0:0|0:0|0:0,0:0:0:0:
65,233,665867,1,0,0:0:0:0:
65,233,665945,1,0,0:0:0:0:
65,233,666023,2,0,L|176:202,1,90
316,158,666336,1,0,0:0:0:0:
316,158,666414,1,0,0:0:0:0:
316,158,666492,1,0,0:0:0:0:
176,63,666648,1,0,0:0:0:0:
248,307,666805,6,0,L|352:352,1,90,4|0,0:0|0:0,0:0:0:0:
501,266,667117,1,0,0:0:0:0:
362,209,667273,1,0,0:0:0:0:
226,157,667430,2,0,L|133:119,1,90
142,122,667664,1,0,0:0:0:0:
142,122,667742,1,0,0:0:0:0:
257,20,667898,1,0,0:0:0:0:
425,187,668055,5,4,0:0:0:0:
425,187,668133,1,0,0:0:0:0:
425,187,668211,1,0,0:0:0:0:
363,317,668367,1,0,0:0:0:0:
363,317,668445,1,0,0:0:0:0:
363,317,668523,1,0,0:0:0:0:
275,178,668680,2,0,L|322:64,1,90,0|0,0:0|0:0,0:0:0:0:
309,94,668914,1,0,0:0:0:0:
309,94,668992,1,0,0:0:0:0:
170,33,669148,1,0,0:0:0:0:
59,224,669305,6,0,B|90:287|90:287|106:280,1,90,4|0,0:0|0:0,0:0:0:0:
125,268,669539,1,0,0:0:0:0:
145,258,669617,1,0,0:0:0:0:
165,249,669695,1,0,0:0:0:0:
186,238,669773,1,0,0:0:0:0:
203,229,669851,1,0,0:0:0:0:
224,219,669930,2,0,B|239:210|239:210|271:275,1,90
443,346,670242,2,0,L|403:263,1,90
276,51,670555,5,4,0:0:0:0:
276,51,670711,1,0,0:0:0:0:
115,113,670867,1,0,0:0:0:0:
115,113,671023,1,0,0:0:0:0:
120,274,671180,5,0,0:0:0:0:
315,280,671336,1,12,0:0:0:0:
215,158,671492,1,4,0:3:0:0:
207,362,671648,1,0,0:0:0:0:
392,186,671805,2,0,P|414:148|419:89,1,90,12|0,0:0|0:0,0:0:0:0:
422,103,672039,1,0,0:0:0:0:
422,103,672117,1,0,0:0:0:0:
266,101,672273,1,0,0:0:0:0:
87,252,672430,6,0,P|43:248|4:227,1,90,2|0,0:0|0:0,0:0:0:0:
3,226,672664,1,0,0:0:0:0:
3,226,672742,1,0,0:0:0:0:
84,120,672898,1,0,0:0:0:0:
297,42,673055,2,0,P|358:42|423:64,1,90,10|0,0:0|0:0,0:0:0:0:
481,267,673367,6,0,P|433:306|308:302,1,180,6|0,0:0|0:0,0:0:0:0:
47,249,673836,1,0,0:0:0:0:
47,249,673914,1,0,0:0:0:0:
47,249,673992,2,0,P|99:313|139:324,1,90,0|0,0:0|0:0,0:0:0:0:
231,206,674305,2,0,P|271:223|316:221,1,90,10|0,0:0|0:0,0:0:0:0:
465,120,674617,1,2,0:0:0:0:
412,311,674773,1,2,0:0:0:0:
424,98,674930,5,2,0:0:0:0:
380,86,675008,1,0,0:0:0:0:
335,85,675086,1,0,0:0:0:0:
292,95,675164,1,0,0:0:0:0:
252,116,675242,1,0,0:0:0:0:
213,139,675320,1,0,0:0:0:0:
170,151,675398,1,0,0:0:0:0:
125,149,675476,1,0,0:0:0:0:
83,136,675555,1,10,0:0:0:0:
148,17,675711,1,2,0:0:0:0:
173,280,675867,6,0,P|226:311|270:319,1,90,6|0,0:0|0:0,0:0:0:0:
404,137,676180,2,0,P|366:112|323:99,1,90,0|0,0:0|0:0,0:0:0:0:
389,328,676492,2,0,P|426:352|469:365,1,90
469,365,676726,1,0,0:0:0:0:
469,365,676805,1,10,0:0:0:0:
478,229,676961,1,0,0:0:0:0:
359,165,677117,1,2,0:0:0:0:
247,240,677273,1,0,0:0:0:0:
49,252,677430,5,2,0:0:0:0:
191,100,677586,1,2,0:0:0:0:
147,309,677742,2,0,P|109:350|43:368,1,90,2|0,0:0|0:0,0:0:0:0:
173,67,678055,2,0,P|138:25|94:5,1,90,10|0,0:0|0:0,0:0:0:0:
43,141,678367,5,6,0:0:0:0:
161,209,678523,1,0,0:0:0:0:
295,174,678680,2,0,L|387:102,1,90
203,95,678992,1,0,0:0:0:0:
382,273,679148,1,0,0:0:0:0:
382,273,679226,1,0,0:0:0:0:
382,273,679305,2,0,L|479:255,3,60,2|0|0|2,0:0|0:0|0:0|0:0,0:0:0:0:
400,123,679773,1,2,0:0:0:0:
270,283,679930,5,2,0:0:0:0:
220,249,680034,1,0,0:0:0:0:
192,196,680138,1,0,0:0:0:0:
175,138,680242,2,0,P|146:102|87:90,1,107.999996704102,12|0,0:0|0:0,0:0:0:0:
361,107,680867,5,2,0:0:0:0:
311,141,680971,1,0,0:0:0:0:
283,194,681075,1,0,0:0:0:0:
266,252,681180,2,0,P|237:288|178:300,1,107.999996704102,12|4,0:0|0:0,0:0:0:0:
464,45,681805,6,4,P|457:89|435:128,1,90,4|4,0:3|0:3,0:0:0:0:
208,144,682117,2,0,P|171:203|164:246,1,90,8|4,0:0|0:3,0:0:0:0:
311,371,682430,5,6,0:0:0:0:
354,361,682508,1,0,0:0:0:0:
387,331,682586,1,0,0:0:0:0:
402,289,682664,1,0,0:0:0:0:
395,246,682742,1,8,0:0:0:0:
382,202,682820,1,0,0:0:0:0:
379,158,682898,1,0,0:0:0:0:
387,113,682976,1,0,0:0:0:0:
404,72,683055,2,0,P|445:34|489:24,1,90,2|0,0:0|0:0,0:0:0:0:
475,285,683367,2,0,P|455:346|420:374,1,90,10|0,0:0|0:0,0:0:0:0:
212,184,683680,6,0,P|221:227|247:264,1,90,2|0,0:0|0:0,0:0:0:0:
245,263,683914,1,0,0:0:0:0:
245,263,683992,1,8,0:0:0:0:
427,59,684148,1,0,0:0:0:0:
332,186,684305,1,2,0:0:0:0:
298,47,684461,1,0,0:0:0:0:
453,198,684617,1,10,0:0:0:0:
216,145,684773,1,0,0:0:0:0:
258,359,684930,5,2,0:0:0:0:
300,372,685008,1,0,0:0:0:0:
344,366,685086,1,0,0:0:0:0:
386,351,685164,1,0,0:0:0:0:
407,313,685242,1,10,0:0:0:0:
372,284,685320,1,0,0:0:0:0:
344,249,685398,1,2,0:0:0:0:
323,209,685476,1,0,0:0:0:0:
312,166,685555,2,0,P|300:112|251:65,1,90,2|0,0:0|0:0,0:0:0:0:
109,276,685867,2,0,P|144:317|212:335,1,90,10|0,0:0|0:0,0:0:0:0:
380,297,686180,5,2,0:0:0:0:
205,233,686336,1,0,0:0:0:0:
346,131,686492,1,8,0:0:0:0:
284,339,686648,1,0,0:0:0:0:
205,111,686805,1,2,0:0:0:0:
65,296,686961,1,0,0:0:0:0:
289,252,687117,1,8,0:0:0:0:
87,150,687273,1,0,0:0:0:0:
182,328,687430,5,6,0:0:0:0:
312,357,687586,1,2,0:0:0:0:
420,276,687742,2,0,P|450:233|462:170,1,90,2|0,0:0|0:0,0:0:0:0:
321,43,688055,5,10,0:0:0:0:
242,152,688211,1,2,0:0:0:0:
263,284,688367,2,0,P|281:328|322:362,1,90,6|0,0:0|0:0,0:0:0:0:
468,169,688680,6,0,P|450:209|416:239,1,90
416,239,688914,1,0,0:0:0:0:
416,239,688992,1,0,0:0:0:0:
366,77,689148,1,0,0:0:0:0:
233,194,689305,2,0,L|203:293,1,90,10|0,0:0|0:0,0:0:0:0:
50,320,689617,2,0,L|76:233,1,90,2|0,0:0|0:0,0:0:0:0:
143,76,689930,5,6,0:0:0:0:
180,51,690008,1,0,0:0:0:0:
223,37,690086,1,0,0:0:0:0:
268,34,690164,1,0,0:0:0:0:
312,42,690242,1,12,0:0:0:0:
352,61,690320,1,0,0:0:0:0:
387,89,690398,1,0,0:0:0:0:
413,126,690476,1,0,0:0:0:0:
430,167,690555,2,0,P|439:220|431:292,1,90,2|0,0:0|0:0,0:0:0:0:
279,148,690867,5,2,0:0:0:0:
326,299,691023,1,2,0:0:0:0:
371,97,691180,1,10,0:0:0:0:
190,241,691336,1,2,0:0:0:0:
248,33,691492,1,10,0:0:0:0:
359,210,691648,1,2,0:0:0:0:
115,198,691805,1,2,0:0:0:0:
98,242,691883,1,0,0:0:0:0:
106,291,691961,1,0,0:0:0:0:
136,329,692039,1,0,0:0:0:0:
182,349,692117,1,6,0:3:0:0:
230,354,692195,1,4,0:3:0:0:
279,348,692273,1,4,0:3:0:0:
328,338,692351,1,4,0:3:0:0:
373,318,692430,6,0,L|417:299,1,45,2|0,0:0|0:0,0:0:0:0:
453,116,692586,2,0,L|381:99,1,45,2|0,0:0|0:0,0:0:0:0:
253,104,692742,2,0,L|321:137,1,45,10|0,0:0|0:0,0:0:0:0:
511,200,692898,2,0,L|443:233,1,45,2|0,0:0|0:0,0:0:0:0:
293,266,693055,5,2,0:0:0:0:
248,267,693133,1,0,0:0:0:0:
205,253,693211,1,2,0:0:0:0:
171,225,693289,1,0,0:0:0:0:
148,186,693367,5,10,0:0:0:0:
192,176,693445,1,0,0:0:0:0:
236,166,693523,1,0,0:0:0:0:
280,155,693601,1,0,0:0:0:0:
324,145,693680,5,0,0:0:0:0:
294,113,693758,1,0,0:0:0:0:
251,119,693836,1,0,0:0:0:0:
230,156,693914,1,0,0:0:0:0:
249,196,693992,5,8,0:0:0:0:
209,214,694070,1,0,0:0:0:0:
165,205,694148,1,0,0:0:0:0:
137,171,694226,1,0,0:0:0:0:
136,127,694305,6,0,L|164:79,1,45,2|0,0:0|0:0,0:0:0:0:
339,38,694461,2,0,L|319:82,1,45,2|0,0:0|0:0,0:0:0:0:
275,251,694617,5,10,0:0:0:0:
267,292,694695,1,0,0:0:0:0:
305,310,694773,1,0,0:0:0:0:
332,279,694851,1,0,0:0:0:0:
310,244,694930,5,6,0:0:0:0:
278,199,695008,1,0,0:0:0:0:
247,155,695086,1,0,0:0:0:0:
216,111,695164,1,0,0:0:0:0:
185,67,695242,5,8,0:0:0:0:
235,87,695320,1,0,0:0:0:0:
285,106,695398,6,0,L|360:132,1,45,2|0,0:0|0:0,0:0:0:0:
512,160,695555,2,2,L|437:186,1,45,2|0,0:0|0:0,0:0:0:0:
316,282,695711,2,0,L|341:218,1,45,2|0,0:0|0:0,0:0:0:0:
426,76,695867,5,14,0:0:0:0:
388,51,695945,1,0,0:0:0:0:
344,48,696023,1,0,0:0:0:0:
303,66,696101,1,0,0:0:0:0:
277,102,696180,1,0,0:0:0:0:
257,142,696258,1,0,0:0:0:0:
228,176,696336,1,0,0:0:0:0:
190,201,696414,1,0,0:0:0:0:
147,215,696492,1,8,0:0:0:0:
102,214,696570,1,0,0:0:0:0:
58,224,696648,1,0,0:0:0:0:
23,252,696726,1,0,0:0:0:0:
1,291,696805,5,8,0:0:0:0:
34,338,696883,1,8,0:0:0:0:
85,365,696961,1,8,0:0:0:0:
141,380,697039,1,8,0:0:0:0:
199,381,697117,5,0,0:0:0:0:
186,352,697195,1,0,0:0:0:0:
175,308,697273,1,8,0:0:0:0:
174,249,697351,1,8,0:0:0:0:
189,192,697430,6,0,L|211:124,1,45,2|0,0:0|0:0,0:0:0:0:
291,23,697586,2,0,L|289:93,1,45,2|0,0:0|0:0,0:0:0:0:
340,214,697742,2,0,L|362:146,1,45,14|0,0:0|0:0,0:0:0:0:
427,24,697898,2,0,L|425:94,1,45,2|0,0:0|0:0,0:0:0:0:
471,214,698055,2,0,L|407:222,1,45,2|0,0:0|0:0,0:0:0:0:
218,196,698211,2,0,L|274:225,1,45,2|0,0:0|0:0,0:0:0:0:
440,304,698367,5,14,0:0:0:0:
482,310,698445,1,0,0:0:0:0:
500,349,698523,1,0,0:0:0:0:
475,384,698601,1,0,0:0:0:0:
432,383,698680,1,0,0:0:0:0:
393,362,698758,1,0,0:0:0:0:
350,349,698836,1,0,0:0:0:0:
305,345,698914,1,0,0:0:0:0:
260,349,698992,1,8,0:0:0:0:
217,359,699070,1,0,0:0:0:0:
173,351,699148,1,0,0:0:0:0:
136,325,699226,1,0,0:0:0:0:
113,287,699305,6,0,L|97:223,1,45,2|0,0:0|0:0,0:0:0:0:
119,50,699461,2,0,L|155:116,1,45,2|0,0:0|0:0,0:0:0:0:
252,210,699617,5,10,0:0:0:0:
281,239,699695,1,0,0:0:0:0:
263,277,699773,1,0,0:0:0:0:
221,272,699851,1,0,0:0:0:0:
212,231,699930,5,6,0:0:0:0:
228,179,700008,1,0,0:0:0:0:
233,125,700086,1,0,0:0:0:0:
214,74,700164,1,0,0:0:0:0:
178,33,700242,1,8,0:0:0:0:
125,20,700320,1,0,0:0:0:0:
72,33,700398,6,0,L|12:80,1,45,2|0,0:0|0:0,0:0:0:0:
12,233,700555,2,0,L|54:219,1,45,2|0,0:0|0:0,0:0:0:0:
216,94,700711,2,0,L|200:168,1,45,2|0,0:0|0:0,0:0:0:0:
228,265,700867,5,14,0:0:0:0:
264,290,700945,1,0,0:0:0:0:
302,302,701023,1,0,0:0:0:0:
337,303,701101,1,0,0:0:0:0:
367,294,701180,1,0,0:0:0:0:
390,280,701258,1,0,0:0:0:0:
406,265,701336,1,0,0:0:0:0:
417,251,701414,1,0,0:0:0:0:
424,239,701492,6,0,L|448:197,3,26.9999991760254,8|0|0|0,0:0|0:0|0:0|0:0,0:0:0:0:
341,191,701805,5,8,0:0:0:0:
311,127,701909,1,8,0:0:0:0:
265,74,702013,1,8,0:0:0:0:
202,42,702117,5,4,0:3:0:0:
185,87,702221,1,4,0:3:0:0:
176,135,702325,1,4,0:3:0:0:
170,184,702430,6,0,P|176:254|219:338,1,144,6|0,0:0|0:0,0:0:0:0:
390,164,702898,1,0,0:0:0:0:
390,164,702976,1,0,0:0:0:0:
390,164,703055,2,0,L|313:130,1,72,10|2,0:0|0:0,0:0:0:0:
76,115,703367,6,0,P|102:209|153:261,1,144,6|0,0:0|0:0,0:0:0:0:
242,294,703836,1,0,0:0:0:0:
363,282,703992,1,0,0:0:0:0:
453,199,704148,2,0,L|458:152,1,36,0|0,0:0|0:0,0:0:0:0:
289,83,704305,1,8,0:0:0:0:
363,282,704461,1,0,0:0:0:0:
408,80,704617,1,0,0:0:0:0:
281,234,704773,1,0,0:0:0:0:
124,98,704930,6,0,P|91:135|117:308,1,216,6|0,0:0|0:0,0:0:0:0:
100,290,705476,1,0,0:0:0:0:
100,290,705555,1,10,0:0:0:0:
220,210,705711,1,2,0:0:0:0:
361,365,705867,6,0,B|384:329|384:329|397:229,1,144,6|0,0:0|0:0,0:0:0:0:
218,302,706336,1,0,0:0:0:0:
199,128,706492,2,0,L|189:24,1,72,0|0,0:0|0:0,0:0:0:0:
192,55,706726,1,0,0:0:0:0:
192,55,706805,1,12,0:0:0:0:
434,107,706961,1,0,0:0:0:0:
301,219,707117,1,12,0:0:0:0:
301,84,707273,1,0,0:0:0:0:
427,270,707430,5,2,0:0:0:0:
407,313,707534,1,2,0:0:0:0:
372,345,707638,1,2,0:0:0:0:
327,362,707742,2,4,B|273:368|273:368|258:332,1,72,6|4,0:3|0:3,0:3:0:0:
266,351,707976,1,4,0:3:0:0:
266,351,708055,1,8,0:0:0:0:
282,200,708211,1,0,0:0:0:0:
282,200,708289,1,8,0:0:0:0:
282,200,708367,6,0,B|218:188|154:206|134:287|134:287|77:208,1,288,6|0,0:0|0:0,0:0:0:0:
237,303,709148,2,0,L|233:344,2,36,0|0|10,0:0|0:0|0:0,0:0:0:0:
239,61,709461,1,0,0:0:0:0:
339,288,709617,1,2,0:0:0:0:
374,110,709773,1,0,0:0:0:0:
471,233,709930,6,0,L|451:331,1,72,2|0,0:0|0:0,0:0:0:0:
325,358,710242,2,0,L|339:287,1,72,14|0,0:0|0:0,0:0:0:0:
333,56,710555,1,2,0:0:0:0:
138,152,710711,1,2,0:0:0:0:
303,152,710867,6,0,L|374:142,1,72,2|0,0:0|0:0,0:0:0:0:
405,46,711101,1,0,0:0:0:0:
405,46,711180,2,0,L|334:56,1,72,14|0,0:0|0:0,0:0:0:0:
119,84,711492,1,2,0:0:0:0:
278,278,711648,1,10,0:0:0:0:
232,42,711805,1,2,0:0:0:0:
140,244,711961,1,0,0:0:0:0:
328,148,712117,1,6,0:3:0:0:
191,151,712273,1,6,0:3:0:0:
368,253,712430,6,0,B|397:236|397:236|429:210,2,72,6|0|0,0:0|0:0|0:0,0:0:0:0:
205,195,712898,1,0,0:0:0:0:
205,195,712976,1,0,0:0:0:0:
205,195,713055,2,0,P|162:211|131:235,1,72,10|2,0:0|0:0,0:0:0:0:
34,361,713367,6,0,B|17:234|17:234|38:148,1,216,6|0,0:0|0:0,0:0:0:0:
224,125,713992,2,0,L|204:196,1,72,0|0,0:0|0:0,0:0:0:0:
254,306,714305,1,8,0:0:0:0:
336,164,714461,1,0,0:0:0:0:
422,309,714617,1,0,0:0:0:0:
205,195,714773,1,0,0:0:0:0:
339,36,714930,6,0,P|410:30|473:62,1,144,6|0,0:0|0:0,0:0:0:0:
483,86,715320,1,0,0:0:0:0:
489,110,715398,1,0,0:0:0:0:
490,135,715476,1,0,0:0:0:0:
487,160,715555,1,10,0:0:0:0:
308,197,715711,1,2,0:0:0:0:
474,318,715867,6,0,L|383:341,1,72,6|0,0:0|0:0,0:0:0:0:
238,214,716180,2,0,L|307:196,1,72,0|0,0:0|0:0,0:0:0:0:
380,35,716492,2,0,L|289:58,1,72,0|0,0:0|0:0,0:0:0:0:
183,104,716805,1,8,0:0:0:0:
70,49,716961,1,0,0:0:0:0:
70,49,717039,1,0,0:0:0:0:
70,49,717117,2,0,P|32:27|-8:23,1,72,0|0,0:0|0:0,0:0:0:0:
8,172,717430,5,6,0:0:0:0:
51,204,717534,1,2,0:0:0:0:
104,206,717638,1,2,0:0:0:0:
153,184,717742,2,0,P|215:149|291:152,1,144,2|8,0:0|0:0,0:0:0:0:
406,366,718367,6,0,P|303:340|246:252,1,216,6|0,0:0|0:0,0:0:0:0:
71,230,718992,1,0,0:0:0:0:
144,324,719148,1,0,0:0:0:0:
168,132,719305,2,0,L|140:60,2,48,2|0|0,0:0|0:0|0:0,0:0:0:0:
189,157,719617,2,0,P|226:181|274:192,1,72,2|0,0:0|0:0,0:0:0:0:
434,212,719930,5,6,0:0:0:0:
311,36,720086,1,0,0:0:0:0:
303,276,720242,2,0,P|310:313|331:350,1,72,2|2,0:0|0:0,0:0:0:0:
326,343,720476,1,0,0:0:0:0:
326,343,720555,1,10,0:0:0:0:
456,239,720711,1,0,0:0:0:0:
450,37,720867,6,0,P|350:147|277:172,1,216,6|0,0:0|0:0,0:0:0:0:
289,169,721414,1,0,0:0:0:0:
77,54,721648,5,0,0:0:0:0:
77,54,721726,1,0,0:0:0:0:
77,54,721805,5,8,0:0:0:0:
68,88,721883,1,8,0:0:0:0:
69,124,721961,1,8,0:0:0:0:
80,158,722039,1,8,0:0:0:0:
100,188,722117,1,4,0:3:0:0:
128,210,722195,1,4,0:3:0:0:
142,243,722273,1,4,0:3:0:0:
140,278,722351,1,4,0:3:0:0:
123,302,722430,6,0,P|78:328|38:314,1,72,6|0,0:0|0:0,0:0:0:0:
60,326,722664,1,0,0:0:0:0:
59,325,722742,1,0,0:0:0:0:
164,113,722898,1,8,0:0:0:0:
297,275,723055,2,0,P|342:301|382:287,1,72,2|8,0:0|0:0,0:0:0:0:
460,108,723367,6,0,P|448:74|425:47,1,72,2|8,0:0|0:0,0:0:0:0:
402,28,723601,1,0,0:0:0:0:
374,17,723680,1,0,0:0:0:0:
299,172,723836,1,8,0:0:0:0:
286,205,723914,1,0,0:0:0:0:
285,241,723992,1,0,0:0:0:0:
297,275,724070,1,0,0:0:0:0:
319,303,724148,1,8,0:0:0:0:
504,224,724305,2,0,L|403:226,1,72,2|8,0:0|0:0,0:0:0:0:
133,193,724617,1,2,0:0:0:0:
280,45,724773,1,10,0:0:0:0:
243,271,724930,6,0,P|198:309|158:320,1,72,6|8,0:0|0:0,0:0:0:0:
187,314,725164,1,0,0:0:0:0:
187,314,725242,1,0,0:0:0:0:
133,193,725398,1,8,0:0:0:0:
398,214,725555,1,2,0:0:0:0:
169,62,725711,1,10,0:0:0:0:
297,262,725867,6,0,P|324:297|358:320,1,72,2|8,0:0|0:0,0:0:0:0:
370,328,726101,1,0,0:0:0:0:
398,333,726180,2,0,L|459:326,1,36,0|0,0:0|0:0,0:0:0:0:
398,214,726336,1,8,0:0:0:0:
425,214,726414,1,0,0:0:0:0:
452,204,726493,2,0,L|501:167,1,36,0|0,0:0|0:0,0:0:0:0:
402,111,726648,1,8,0:0:0:0:
389,85,726726,1,0,0:0:0:0:
367,65,726805,2,0,L|312:36,1,36,2|0,0:0|0:0,0:0:0:0:
123,27,726961,2,0,L|154:42,1,36,10|0,0:0|0:0,0:0:0:0:
293,157,727117,1,2,0:0:0:0:
130,199,727273,1,10,0:0:0:0:
395,204,727430,6,0,P|369:244|335:256,1,72,6|8,0:0|0:0,0:0:0:0:
348,254,727664,1,0,0:0:0:0:
348,254,727742,1,0,0:0:0:0:
158,305,727898,1,8,0:0:0:0:
158,305,727976,1,0,0:0:0:0:
158,305,728055,2,0,P|142:273|135:238,1,72,2|8,0:0|0:0,0:0:0:0:
418,262,728367,6,0,P|383:263|348:254,1,72,2|8,0:0|0:0,0:0:0:0:
322,242,728601,1,0,0:0:0:0:
299,223,728680,1,0,0:0:0:0:
387,36,728836,1,8,0:0:0:0:
409,54,728914,1,0,0:0:0:0:
423,78,728992,1,0,0:0:0:0:
219,189,729148,1,8,0:0:0:0:
217,35,729305,2,0,P|265:39|298:58,1,72,2|8,0:0|0:0,0:0:0:0:
288,309,729617,1,2,0:0:0:0:
450,147,729773,1,2,0:0:0:0:
219,189,729930,5,14,0:0:0:0:
183,216,730008,1,0,0:0:0:0:
148,244,730086,2,0,L|102:281,1,45
116,86,730242,5,10,0:0:0:0:
151,58,730320,1,0,0:0:0:0:
186,30,730398,2,0,L|232:-6,1,45,0|0,0:0|0:0,0:0:0:0:
290,110,730555,5,10,0:0:0:0:
330,132,730633,1,0,0:0:0:0:
369,154,730711,2,0,L|420:182,1,45,0|0,0:0|0:0,0:0:0:0:
465,298,730867,5,10,0:0:0:0:
425,320,730945,1,0,0:0:0:0:
386,342,731023,2,0,L|334:370,1,45,0|0,0:0|0:0,0:0:0:0:
244,284,731180,5,10,0:0:0:0:
226,241,731258,1,0,0:0:0:0:
210,200,731336,2,0,L|187:145,1,45,0|0,0:0|0:0,0:0:0:0:
333,66,731492,5,10,0:0:0:0:
351,108,731570,1,0,0:0:0:0:
367,150,731648,2,0,L|389:204,1,45,0|0,0:0|0:0,0:0:0:0:
377,325,731805,5,6,0:3:0:0:
349,359,731883,1,4,0:3:0:0:
308,378,731961,1,4,0:3:0:0:
264,375,732039,1,4,0:3:0:0:
226,352,732117,1,6,0:3:0:0:
190,324,732195,1,4,0:3:0:0:
151,302,732273,1,6,0:3:0:0:
110,284,732351,1,4,0:3:0:0:
66,273,732430,6,0,P|20:242|5:207,1,72,6|0,0:0|0:0,0:0:0:0:
12,228,732664,1,0,0:0:0:0:
12,228,732742,1,0,0:0:0:0:
172,105,732898,1,8,0:0:0:0:
0,53,733055,1,2,0:0:0:0:
103,174,733211,1,10,0:0:0:0:
238,33,733367,6,0,P|287:9|328:10,1,72,6|8,0:0|0:0,0:0:0:0:
339,12,733601,1,0,0:0:0:0:
368,32,733680,1,0,0:0:0:0:
254,186,733836,1,8,0:0:0:0:
266,219,733914,1,0,0:0:0:0:
290,245,733992,1,0,0:0:0:0:
454,360,734148,1,8,0:0:0:0:
451,179,734305,2,0,P|425:155|360:130,1,72,2|8,0:0|0:0,0:0:0:0:
131,115,734617,1,2,0:0:0:0:
231,258,734773,1,10,0:0:0:0:
285,38,734930,5,6,0:0:0:0:
326,55,735008,1,0,0:0:0:0:
363,80,735086,1,0,0:0:0:0:
394,113,735164,1,0,0:0:0:0:
417,151,735242,1,0,0:0:0:0:
432,193,735320,1,0,0:0:0:0:
438,238,735398,1,8,0:0:0:0:
434,283,735476,1,0,0:0:0:0:
421,326,735555,5,2,0:0:0:0:
389,294,735633,1,0,0:0:0:0:
353,267,735711,1,8,0:0:0:0:
313,246,735789,1,0,0:0:0:0:
271,232,735867,1,0,0:0:0:0:
226,224,735945,1,0,0:0:0:0:
181,223,736023,1,8,0:0:0:0:
137,229,736101,1,0,0:0:0:0:
94,241,736180,6,0,L|5:293,1,90,2|8,0:0|0:0,0:0:0:0:
307,313,736492,2,0,L|396:261,1,90,2|8,0:0|0:0,0:0:0:0:
173,10,736805,2,0,P|150:50|142:120,1,90,2|8,0:0|0:0,0:0:0:0:
205,314,737117,1,6,0:0:0:0:
282,100,737273,1,10,0:0:0:0:
470,250,737430,6,0,P|486:304|484:358,1,90,6|8,0:0|0:0,0:0:0:0:
486,337,737664,1,0,0:0:0:0:
486,337,737742,1,0,0:0:0:0:
291,257,737898,1,8,0:0:0:0:
291,257,737976,1,0,0:0:0:0:
291,257,738055,2,0,P|245:200|227:189,1,90,2|8,0:0|0:0,0:0:0:0:
12,336,738367,6,0,L|112:311,1,90,6|8,0:0|0:0,0:0:0:0:
142,302,738601,1,0,0:0:0:0:
185,290,738680,1,0,0:0:0:0:
239,67,738836,1,8,0:0:0:0:
196,79,738914,1,0,0:0:0:0:
153,91,738992,1,0,0:0:0:0:
68,196,739148,1,8,0:0:0:0:
306,195,739305,2,0,P|364:215|401:257,1,90,2|8,0:0|0:0,0:0:0:0:
270,347,739617,1,2,0:0:0:0:
171,193,739773,1,2,0:0:0:0:
44,298,739930,5,14,0:0:0:0:
66,335,740008,1,0,0:0:0:0:
106,353,740086,2,0,L|163:356,1,45,0|0,0:0|0:0,0:0:0:0:
171,193,740242,5,10,0:0:0:0:
197,156,740320,1,0,0:0:0:0:
237,135,740398,2,0,L|298:124,1,45,0|0,0:0|0:0,0:0:0:0:
367,319,740555,5,10,0:0:0:0:
322,310,740633,1,0,0:0:0:0:
286,282,740711,2,0,L|242:223,1,45,0|0,0:0|0:0,0:0:0:0:
187,51,740867,5,10,0:0:0:0:
147,29,740945,1,0,0:0:0:0:
102,28,741023,2,0,L|37:61,1,45,0|0,0:0|0:0,0:0:0:0:
110,218,741180,5,10,0:0:0:0:
136,254,741258,1,0,0:0:0:0:
143,298,741336,2,0,L|128:355,1,45,0|0,0:0|0:0,0:0:0:0:
0,215,741492,5,10,0:0:0:0:
7,170,741570,1,0,0:0:0:0:
34,134,741648,2,0,L|84:104,1,45,0|0,0:0|0:0,0:0:0:0:
230,110,741805,5,10,0:0:0:0:
273,119,741883,1,8,0:0:0:0:
311,141,741961,1,0,0:0:0:0:
342,172,742039,1,0,0:0:0:0:
363,211,742117,6,0,L|388:258,3,45,2|0|0|0,0:0|0:0|0:0|0:0,0:0:0:0:
298,277,742430,6,0,P|360:341|474:264,1,215.999993408203,6|8,0:0|0:0,0:0:0:0:
487,247,742820,1,0,0:0:0:0:
496,194,742898,1,8,0:0:0:0:
490,140,742976,1,0,0:0:0:0:
471,90,743055,1,8,0:0:0:0:
436,49,743133,1,0,0:0:0:0:
386,31,743211,1,8,0:0:0:0:
333,40,743289,1,0,0:0:0:0:
292,73,743367,1,8,0:0:0:0:
259,115,743445,1,0,0:0:0:0:
236,164,743523,1,8,0:0:0:0:
225,217,743601,1,0,0:0:0:0:
226,271,743680,5,12,0:0:0:0:
211,321,743758,1,0,0:0:0:0:
166,349,743836,1,8,0:0:0:0:
114,340,743914,1,0,0:0:0:0:
82,298,743992,1,8,0:0:0:0:
75,245,744070,1,0,0:0:0:0:
86,192,744148,1,8,0:0:0:0:
115,147,744226,1,0,0:0:0:0:
157,114,744305,5,12,0:0:0:0:
196,80,744383,1,0,0:0:0:0:
188,29,744461,1,8,0:0:0:0:
141,9,744539,1,0,0:0:0:0:
98,39,744617,5,10,0:0:0:0:
111,90,744695,1,0,0:0:0:0:
141,135,744773,1,8,0:0:0:0:
184,168,744851,1,0,0:0:0:0:
234,186,744930,5,14,0:0:0:0:
260,139,745008,1,0,0:0:0:0:
306,113,745086,1,8,0:0:0:0:
359,113,745164,1,0,0:0:0:0:
404,141,745242,6,0,L|447:184,1,53.9999983520508,10|0,0:0|0:0,0:0:0:0:
428,373,745398,2,0,L|385:330,1,53.9999983520508,10|0,0:0|0:0,0:0:0:0:
237,239,745555,5,10,0:0:0:0:
192,211,745633,1,0,0:0:0:0:
187,159,745711,1,8,0:0:0:0:
224,123,745789,1,0,0:0:0:0:
276,130,745867,5,10,0:0:0:0:
327,138,745945,1,0,0:0:0:0:
364,101,746023,1,8,0:0:0:0:
356,50,746101,1,0,0:0:0:0:
310,26,746180,5,10,0:0:0:0:
304,79,746258,1,0,0:0:0:0:
273,123,746336,1,8,0:0:0:0:
225,147,746414,1,0,0:0:0:0:
172,146,746492,5,10,0:0:0:0:
163,94,746570,1,0,0:0:0:0:
183,44,746648,1,8,0:0:0:0:
226,13,746726,1,0,0:0:0:0:
279,10,746805,6,0,L|345:12,3,53.9999983520508,8|0|8|0,0:0|0:0|0:0|0:0,0:0:0:0:
383,136,747117,2,0,L|422:173,3,53.9999983520508,8|0|8|0,0:0|0:0|0:0|0:0,0:0:0:0:
310,226,747430,5,12,0:0:0:0:
320,278,747508,1,0,0:0:0:0:
342,326,747586,1,8,0:0:0:0:
381,362,747664,1,0,0:0:0:0:
434,371,747742,5,10,0:0:0:0:
459,323,747820,1,0,0:0:0:0:
469,270,747898,1,8,0:0:0:0:
469,216,747976,1,0,0:0:0:0:
448,165,748055,1,10,0:0:0:0:
400,139,748133,1,0,0:0:0:0:
346,138,748211,1,8,0:0:0:0:
297,161,748289,1,0,0:0:0:0:
245,177,748367,1,10,0:0:0:0:
191,174,748445,1,0,0:0:0:0:
143,148,748523,1,8,0:0:0:0:
105,109,748601,1,0,0:0:0:0:
83,58,748680,5,14,0:0:0:0:
47,98,748758,1,0,0:0:0:0:
36,150,748836,1,8,0:0:0:0:
50,201,748914,1,0,0:0:0:0:
89,237,748992,1,10,0:0:0:0:
142,242,749070,1,0,0:0:0:0:
195,233,749148,1,8,0:0:0:0:
243,208,749226,1,0,0:0:0:0:
290,181,749305,5,14,0:0:0:0:
325,221,749383,1,0,0:0:0:0:
332,274,749461,1,8,0:0:0:0:
311,323,749539,1,0,0:0:0:0:
265,351,749617,1,10,0:0:0:0:
212,341,749695,1,0,0:0:0:0:
167,310,749773,1,8,0:0:0:0:
134,267,749851,1,0,0:0:0:0:
110,217,749930,6,0,L|90:153,1,53.9999983520508,14|0,0:0|0:0,0:0:0:0:
246,22,750086,1,10,0:0:0:0:
292,49,750164,1,0,0:0:0:0:
326,91,750242,1,8,0:0:0:0:
345,141,750320,1,0,0:0:0:0:
345,195,750398,2,0,L|335:261,1,53.9999983520508,10|0,0:0|0:0,0:0:0:0:
161,359,750555,6,0,L|169:305,1,53.9999983520508,10|0,0:0|0:0,0:0:0:0:
203,121,750711,1,10,0:0:0:0:
239,81,750789,1,0,0:0:0:0:
286,54,750867,1,8,0:0:0:0:
338,43,750945,1,0,0:0:0:0:
392,47,751023,1,8,0:0:0:0:
442,68,751101,1,0,0:0:0:0:
483,102,751180,5,10,0:0:0:0:
441,136,751258,1,0,0:0:0:0:
403,174,751336,1,8,0:0:0:0:
369,216,751414,1,0,0:0:0:0:
339,261,751492,1,8,0:0:0:0:
313,308,751570,1,0,0:0:0:0:
272,343,751648,1,8,0:0:0:0:
222,363,751726,1,0,0:0:0:0:
169,365,751805,5,8,0:0:0:0:
156,306,751883,1,8,0:0:0:0:
143,248,751961,1,8,0:0:0:0:
130,189,752039,1,8,0:0:0:0:
118,130,752117,5,4,0:3:0:0:
153,143,752195,1,4,0:3:0:0:
188,156,752273,1,4,0:3:0:0:
223,169,752351,1,4,0:3:0:0:
255,181,752430,6,0,L|338:214,3,58.4999973220826,4|0|0|0,0:0|0:0|0:0|0:0,0:0:0:0:
354,85,752742,5,2,0:0:0:0:
402,116,752820,1,0,0:0:0:0:
431,165,752898,1,8,0:0:0:0:
440,222,752976,1,0,0:0:0:0:
422,278,753055,1,2,0:0:0:0:
383,320,753133,1,0,0:0:0:0:
330,343,753211,1,8,0:0:0:0:
272,342,753289,1,0,0:0:0:0:
220,316,753367,1,2,0:0:0:0:
179,274,753445,1,0,0:0:0:0:
132,240,753523,2,0,L|75:199,1,58.4999973220826,8|0,0:0|0:0,0:0:0:0:
17,334,753680,5,6,0:0:0:0:
60,367,753758,1,0,0:0:0:0:
111,384,753836,1,10,0:0:0:0:
167,384,753914,1,0,0:0:0:0:
219,366,753992,1,0,0:0:0:0:
262,332,754070,1,0,0:0:0:0:
292,287,754148,2,0,L|325:238,1,58.4999973220826,10|0,0:0|0:0,0:0:0:0:
273,81,754305,5,4,0:0:0:0:
327,68,754383,1,0,0:0:0:0:
382,76,754461,1,8,0:0:0:0:
432,102,754539,1,0,0:0:0:0:
470,144,754617,1,2,0:0:0:0:
492,196,754695,1,0,0:0:0:0:
494,252,754773,1,8,0:0:0:0:
478,305,754851,1,0,0:0:0:0:
444,351,754930,5,6,0:0:0:0:
434,296,755008,1,0,0:0:0:0:
394,258,755086,1,8,0:0:0:0:
339,252,755164,1,0,0:0:0:0:
291,279,755242,1,2,0:0:0:0:
245,313,755320,1,0,0:0:0:0:
193,332,755398,1,8,0:0:0:0:
135,334,755476,1,0,0:0:0:0:
82,320,755555,5,6,0:0:0:0:
81,264,755633,1,0,0:0:0:0:
118,224,755711,1,8,0:0:0:0:
174,222,755789,1,0,0:0:0:0:
215,259,755867,1,2,0:0:0:0:
257,296,755945,1,0,0:0:0:0:
307,323,756023,1,8,0:0:0:0:
362,335,756101,1,0,0:0:0:0:
418,334,756180,5,6,0:0:0:0:
372,302,756258,1,0,0:0:0:0:
358,248,756336,1,8,0:0:0:0:
381,199,756414,1,0,0:0:0:0:
432,175,756492,1,0,0:0:0:0:
484,156,756570,1,0,0:0:0:0:
508,106,756648,1,10,0:0:0:0:
489,53,756726,1,0,0:0:0:0:
442,28,756805,5,6,0:0:0:0:
419,79,756883,1,0,0:0:0:0:
376,116,756961,1,10,0:0:0:0:
323,131,757039,1,0,0:0:0:0:
267,120,757117,1,0,0:0:0:0:
214,99,757195,1,0,0:0:0:0:
159,88,757273,2,0,L|69:78,1,58.4999973220826,10|0,0:0|0:0,0:0:0:0:
3,232,757430,5,6,0:0:0:0:
31,280,757508,1,0,0:0:0:0:
71,323,757586,1,8,0:0:0:0:
118,356,757664,1,0,0:0:0:0:
174,376,757742,1,0,0:0:0:0:
231,384,757820,1,0,0:0:0:0:
289,377,757898,1,8,0:0:0:0:
345,359,757976,1,0,0:0:0:0:
395,328,758055,1,0,0:0:0:0:
441,293,758133,1,0,0:0:0:0:
470,243,758211,1,8,0:0:0:0:
475,185,758289,1,0,0:0:0:0:
458,129,758367,1,2,0:0:0:0:
424,82,758445,1,0,0:0:0:0:
377,49,758523,1,8,0:0:0:0:
320,38,758601,1,0,0:0:0:0:
264,49,758680,5,6,0:0:0:0:
293,99,758758,1,0,0:0:0:0:
295,157,758836,1,8,0:0:0:0:
267,207,758914,1,0,0:0:0:0:
222,244,758992,1,2,0:0:0:0:
166,261,759070,1,0,0:0:0:0:
108,260,759148,1,10,0:0:0:0:
55,234,759226,1,0,0:0:0:0:
19,191,759305,5,4,0:0:0:0:
52,142,759383,1,0,0:0:0:0:
107,130,759461,1,8,0:0:0:0:
158,159,759539,1,0,0:0:0:0:
174,213,759617,1,2,0:0:0:0:
191,271,759695,1,0,0:0:0:0:
225,314,759773,1,8,0:0:0:0:
277,345,759851,1,0,0:0:0:0:
332,354,759930,5,6,0:0:0:0:
287,318,760008,1,0,0:0:0:0:
277,261,760086,1,8,0:0:0:0:
306,212,760164,1,0,0:0:0:0:
361,194,760242,1,2,0:0:0:0:
418,202,760320,1,0,0:0:0:0:
468,232,760398,1,8,0:0:0:0:
500,280,760476,1,0,0:0:0:0:
510,337,760555,5,4,0:0:0:0:
457,361,760633,1,0,0:0:0:0:
401,353,760711,1,8,0:0:0:0:
356,317,760789,1,0,0:0:0:0:
339,261,760867,1,0,0:0:0:0:
331,201,760945,1,0,0:0:0:0:
304,150,761023,1,8,0:0:0:0:
263,109,761101,1,0,0:0:0:0:
209,84,761180,5,4,0:0:0:0:
225,136,761258,1,0,0:0:0:0:
279,158,761336,1,8,0:0:0:0:
330,133,761414,1,0,0:0:0:0:
345,80,761492,1,0,0:0:0:0:
317,30,761570,1,0,0:0:0:0:
260,19,761648,1,8,0:0:0:0:
204,33,761726,1,0,0:0:0:0:
151,59,761805,1,0,0:0:0:0:
104,95,761883,1,0,0:0:0:0:
67,140,761961,1,8,0:0:0:0:
42,193,762039,1,0,0:0:0:0:
26,248,762117,5,2,0:0:0:0:
71,261,762195,1,0,0:0:0:0:
120,263,762273,1,0,0:0:0:0:
167,249,762351,1,0,0:0:0:0:
209,224,762430,5,6,0:0:0:0:
216,180,762508,1,0,0:0:0:0:
238,141,762586,1,0,0:0:0:0:
276,117,762664,1,0,0:0:0:0:
322,112,762742,5,6,0:0:0:0:
352,144,762820,1,0,0:0:0:0:
394,153,762898,1,0,0:0:0:0:
437,135,762976,1,0,0:0:0:0:
462,100,763055,6,0,L|477:62,23,31.4999990386963,6|0|0|0|0|0|0|0|0|0|0|0|8|0|0|0|0|0|0|0|0|0|0|0,0:0|0:0|0:0|0:0|0:0|0:0|0:0|0:0|0:0|0:0|0:0|0:0|0:0|0:0|0:0|0:0|0:0|0:0|0:0|0:0|0:0|0:0|0:0|0:0,0:0:0:0:
376,60,764769,2,0,L|359:14,19,31.4999990386963,6|0|0|0|0|0|0|0|0|0|0|0|8|0|0|0|0|0|0|0,0:0|0:0|0:0|0:0|0:0|0:0|0:0|0:0|0:0|0:0|0:0|0:0|0:0|0:0|0:0|0:0|0:0|0:0|0:0|0:0,0:0:0:0:
296,89,766197,5,2,0:0:0:0:
268,104,766269,1,0,0:0:0:0:
244,124,766340,1,0,0:0:0:0:
223,148,766412,1,0,0:0:0:0:
207,175,766483,2,0,L|193:211,15,31.4999990386963,6|0|0|0|0|0|0|0|0|0|0|0|8|0|0|0,0:0|0:0|0:0|0:0|0:0|0:0|0:0|0:0|0:0|0:0|0:0|0:0|0:0|0:0|0:0|0:0,0:0:0:0:
290,218,767626,5,2,0:0:0:0:
272,244,767697,1,0,0:0:0:0:
254,270,767769,1,0,0:0:0:0:
237,296,767840,1,0,0:0:0:0:
219,322,767912,1,2,0:0:0:0:
193,304,767983,1,0,0:0:0:0:
167,286,768055,1,0,0:0:0:0:
142,267,768126,1,0,0:0:0:0:
116,249,768197,2,0,L|82:224,11,31.4999990386963,6|0|0|0|0|0|0|0|0|0|0|0,0:0|0:0|0:0|0:0|0:0|0:0|0:0|0:0|0:0|0:0|0:0|0:0,0:0:0:0:
30,285,769055,2,0,L|42:313,11,31.4999990386963,10|0|0|0|0|0|0|0|0|0|0|0,0:0|0:0|0:0|0:0|0:0|0:0|0:0|0:0|0:0|0:0|0:0|0:0,0:0:0:0:
122,343,769912,5,6,0:0:0:0:
153,347,769983,1,0,0:0:0:0:
184,346,770055,1,0,0:0:0:0:
215,338,770126,1,0,0:0:0:0:
243,325,770197,1,0,0:0:0:0:
268,307,770269,1,0,0:0:0:0:
290,283,770340,1,0,0:0:0:0:
306,256,770412,1,0,0:0:0:0:
317,227,770483,1,0,0:0:0:0:
326,197,770555,1,0,0:0:0:0:
347,174,770626,1,0,0:0:0:0:
376,161,770697,1,0,0:0:0:0:
407,161,770769,2,0,L|457:163,3,31.4999990386963,10|0|0|0,0:0|0:0|0:0|0:0,0:0:0:0:
413,247,771055,2,0,L|449:280,3,31.4999990386963,2|0|0|0,0:0|0:0|0:0|0:0,0:0:0:0:
360,326,771340,2,0,L|367:375,3,31.4999990386963,2|0|0|0,0:0|0:0|0:0|0:0,0:0:0:0:
262,352,771626,2,0,L|245:378,11,31.4999990386963,6|0|0|0|0|0|0|0|0|0|0|0,0:0|0:0|0:0|0:0|0:0|0:0|0:0|0:0|0:0|0:0|0:0|0:0,0:0:0:0:
291,256,772483,5,10,0:0:0:0:
292,224,772555,1,0,0:0:0:0:
286,193,772626,1,0,0:0:0:0:
273,165,772697,1,0,0:0:0:0:
253,140,772769,1,0,0:0:0:0:
228,121,772840,1,0,0:0:0:0:
199,109,772912,1,0,0:0:0:0:
168,103,772983,1,0,0:0:0:0:
137,106,773055,1,0,0:0:0:0:
107,115,773126,1,0,0:0:0:0:
80,132,773197,1,0,0:0:0:0:
58,154,773269,1,0,0:0:0:0:
42,181,773340,2,0,L|22:226,11,31.4999990386963,6|0|0|0|0|0|0|0|0|0|0|0,0:0|0:0|0:0|0:0|0:0|0:0|0:0|0:0|0:0|0:0|0:0|0:0,0:0:0:0:
106,245,774197,5,10,0:0:0:0:
139,233,774269,1,0,0:0:0:0:
173,227,774340,1,0,0:0:0:0:
208,224,774412,1,0,0:0:0:0:
242,226,774483,1,0,0:0:0:0:
278,230,774555,1,0,0:0:0:0:
311,239,774626,1,0,0:0:0:0:
345,251,774697,1,0,0:0:0:0:
376,266,774769,1,0,0:0:0:0:
406,285,774840,1,0,0:0:0:0:
432,307,774912,1,0,0:0:0:0:
457,331,774983,1,0,0:0:0:0:
479,359,775055,2,0,L|512:405,11,31.4999990386963,6|0|0|0|0|0|0|0|0|0|0|0,0:0|0:0|0:0|0:0|0:0|0:0|0:0|0:0|0:0|0:0|0:0|0:0,0:0:0:0:
412,262,775912,2,0,L|393:236,11,31.4999990386963,10|0|0|0|0|0|0|0|0|0|0|0,0:0|0:0|0:0|0:0|0:0|0:0|0:0|0:0|0:0|0:0|0:0|0:0,0:0:0:0:
345,332,776769,5,6,0:0:0:0:
112,72,777055,5,8,0:0:0:0:
163,298,777197,1,8,0:0:0:0:
231,73,777340,5,8,0:0:0:0:
346,276,777483,1,8,0:0:0:0:
161,138,777626,5,8,0:0:0:0:
276,341,777769,1,8,0:0:0:0:
260,77,777912,5,10,0:0:0:0:
152,285,778055,1,8,0:0:0:0:
161,51,778197,5,10,0:0:0:0:
265,260,778340,1,8,0:0:0:0:
334,87,778483,5,10,0:0:0:0:
94,165,778626,1,8,0:0:0:0:
346,181,778769,5,10,0:0:0:0:
119,70,778912,1,8,0:0:0:0:
376,89,779055,5,10,0:0:0:0:
120,172,779197,1,8,0:0:0:0:
381,205,779340,5,8,0:0:0:0:
116,260,779483,1,8,0:0:0:0:
380,316,779626,5,8,0:0:0:0:
154,166,779769,1,8,0:0:0:0:
439,179,779912,5,10,0:0:0:0:
177,246,780055,1,8,0:0:0:0:
385,89,780197,5,10,0:0:0:0:
235,325,780340,1,8,0:0:0:0:
307,55,780483,5,10,0:0:0:0:
321,333,780626,1,8,0:0:0:0:
234,84,780769,5,10,0:0:0:0:
409,312,780912,1,8,0:0:0:0:
377,75,781055,5,10,0:0:0:0:
232,322,781197,1,8,0:0:0:0:
244,49,781340,5,8,0:0:0:0:
139,317,781483,1,8,0:0:0:0:
142,56,781626,5,10,0:0:0:0:
294,300,781769,1,8,0:0:0:0:
103,140,781912,5,10,0:0:0:0:
390,216,782055,1,8,0:0:0:0:
81,225,782197,5,8,0:0:0:0:
373,125,782340,1,8,0:0:0:0:
129,296,782483,5,8,0:0:0:0:
337,35,782626,1,8,0:0:0:0:
0,135,782769,1,14,0:0:0:0:
129,296,783055,5,14,0:0:0:0:
406,148,783197,1,8,0:0:0:0:
134,90,783340,5,14,0:0:0:0:
418,234,783483,1,8,0:0:0:0:
245,163,783626,5,14,0:0:0:0:
189,160,783697,1,0,0:0:0:0:
136,174,783769,1,8,0:0:0:0:
89,204,783840,1,0,0:0:0:0:
54,245,783912,5,8,0:0:0:0:
92,285,783983,1,0,0:0:0:0:
137,315,784055,1,8,0:0:0:0:
189,334,784126,1,0,0:0:0:0:
243,342,784197,5,8,0:0:0:0:
253,289,784269,1,0,0:0:0:0:
285,243,784340,1,8,0:0:0:0:
330,213,784412,1,0,0:0:0:0:
384,203,784483,6,0,L|459:205,11,49.5000015106202,8|0|8|0|8|0|8|0|8|0|8|0,0:0|0:0|0:0|0:0|0:0|0:0|0:0|0:0|0:0|0:0|0:0|0:0,0:0:0:0:
421,328,785340,5,10,0:0:0:0:
366,331,785412,1,0,0:0:0:0:
313,316,785483,1,8,0:0:0:0:
271,281,785555,1,0,0:0:0:0:
242,234,785626,5,8,0:0:0:0:
297,237,785697,1,0,0:0:0:0:
350,222,785769,1,8,0:0:0:0:
392,187,785840,1,0,0:0:0:0:
421,140,785912,5,8,0:0:0:0:
366,143,785983,1,0,0:0:0:0:
313,128,786055,1,8,0:0:0:0:
271,93,786126,1,0,0:0:0:0:
242,46,786197,5,8,0:0:0:0:
244,100,786269,1,0,0:0:0:0:
235,153,786340,1,8,0:0:0:0:
205,199,786412,1,0,0:0:0:0:
159,228,786483,1,8,0:0:0:0:
105,241,786555,1,0,0:0:0:0:
51,234,786626,2,0,L|4:211,1,49.5000015106202,8|0,0:0|0:0,0:0:0:0:
24,83,786769,5,8,0:0:0:0:
77,94,786840,1,0,0:0:0:0:
131,107,786912,1,8,0:0:0:0:
184,123,786983,1,0,0:0:0:0:
237,141,787055,6,0,L|293:162,3,49.5000015106202,10|0|8|0,0:0|0:0|0:0|0:0,0:0:0:0:
377,81,787340,2,0,L|330:64,15,49.5000015106202,8|0|8|0|8|0|8|0|8|0|8|0|8|0|8|0,0:0|0:0|0:0|0:0|0:0|0:0|0:0|0:0|0:0|0:0|0:0|0:0|0:0|0:0|0:0|0:0,0:0:0:0:
438,172,788483,5,8,0:0:0:0:
408,218,788555,1,0,0:0:0:0:
400,272,788626,1,8,0:0:0:0:
416,324,788697,1,0,0:0:0:0:
453,365,788769,5,10,0:0:0:0:
496,332,788840,1,0,0:0:0:0:
502,278,788912,1,8,0:0:0:0:
470,235,788983,1,0,0:0:0:0:
416,227,789055,1,8,0:0:0:0:
365,247,789126,1,0,0:0:0:0:
312,256,789197,1,8,0:0:0:0:
256,253,789269,1,0,0:0:0:0:
203,237,789340,1,8,0:0:0:0:
156,209,789412,1,0,0:0:0:0:
116,171,789483,1,0,0:0:0:0:
84,126,789555,1,0,0:0:0:0:
62,74,789626,6,0,P|45:34|39:-1,2,66.0000020141602,4|0|0,0:0|0:0|0:0,0:0:0:0:
324,154,789912,2,0,P|337:123|343:91,2,66.0000020141602,4|0|0,0:0|0:0|0:0,0:0:0:0:
112,237,790197,2,0,P|97:201|92:168,2,66.0000020141602,4|0|0,0:0|0:0|0:0,0:0:0:0:
275,302,790483,5,4,0:0:0:0:
477,193,791923,5,0,0:0:0:0:
477,193,792208,2,0,P|434:142|366:117,1,135,8|8,0:0|0:0,0:0:0:0:
267,272,793636,1,0,0:0:0:0:
267,272,793922,6,0,P|174:288|86:241,1,180,8|0,0:0|0:0,0:0:0:0:
71,157,795350,1,0,0:0:0:0:
122,72,795636,1,8,0:0:0:0:
401,321,797065,5,0,0:0:0:0:
402,321,797350,2,0,B|401:243|294:200|341:70,1,270,8|0,0:0|0:0,0:0:0:0:
436,109,800779,6,0,B|378:180|264:172|247:255,1,225,8|0,0:0|0:0,0:0:0:0:
253,234,802493,1,0,0:0:0:0:
137,112,804208,6,0,P|183:117|128:227,1,225,8|0,0:0|0:0,0:0:0:0:
150,172,805922,1,0,0:0:0:0:
276,62,807636,5,8,0:0:0:0:
320,232,808779,6,0,L|273:273,1,45
191,293,809350,2,0,P|113:283|91:267,2,90,8|8|8,0:0|0:0|0:0,0:0:0:0:
276,263,811065,1,8,0:0:0:0:
351,214,811636,2,0,P|402:160|385:56,1,180,8|8,0:0|0:0,0:0:0:0:
300,46,813350,1,8,0:0:0:0:
213,69,813922,1,8,0:0:0:0:
136,115,814493,2,0,B|96:178|133:251|83:345,1,225,8|0,0:0|0:0,0:0:0:0:
89,332,816208,1,0,0:0:0:0:
339,266,817922,6,8,B|268:200|357:129|274:45,1,225,8|0,0:0|0:0,0:0:0:0:
284,56,819636,1,0,0:0:0:0:
175,220,821350,6,0,P|170:258|248:287,2,135,0|0|0,0:0|0:0|0:0,0:0:0:0:
256,192,824208,12,4,826485,0:0:0:0:
371,102,828199,5,6,0:0:0:0:
105,189,829770,5,0,0:0:0:0:
105,189,829842,1,0,0:0:0:0:
105,189,829913,1,6,0:0:0:0:
303,44,830199,1,6,0:0:0:0:
336,280,830485,1,6,0:0:0:0:
389,55,830770,5,4,0:0:0:0:
210,291,831056,1,4,0:0:0:0:
224,25,831342,1,4,0:0:0:0:
419,247,831627,5,4,0:0:0:0:
109,143,831913,1,4,0:0:0:0:
412,104,832199,1,4,0:0:0:0:
286,212,832342,1,0,0:0:0:0:
286,212,832413,1,0,0:0:0:0:
286,212,832485,2,0,L|188:273,1,90,0|0,0:0|0:0,0:0:0:0:
0,207,832770,2,0,L|76:159,1,90,0|0,0:0|0:0,0:0:0:0:
283,23,833056,2,0,L|381:84,1,90,0|0,0:0|0:0,0:0:0:0:
417,241,833342,5,4,0:0:0:0:
200,98,833485,1,4,0:0:0:0:
182,83,833770,1,4,0:0:0:0:
164,68,834056,1,4,0:0:0:0:
114,207,834199,2,0,P|136:299|257:361,1,225,6|0,0:0|0:0,0:0:0:0:
243,360,834985,1,0,0:0:0:0:
243,360,835056,5,6,0:0:0:0:
357,118,835199,1,4,0:0:0:0:
368,97,835485,1,4,0:0:0:0:
380,77,835770,1,4,0:0:0:0:
450,252,835913,2,0,P|416:316|230:312,1,270,6|6,0:0|0:0,0:0:0:0:
324,225,836913,5,0,0:0:0:0:
269,89,837056,2,0,L|220:1,1,90,2|2,0:0|0:0,0:0:0:0:
448,59,837342,2,0,L|415:143,1,90
160,154,837627,2,0,L|209:242,1,90,4|0,0:0|0:0,0:0:0:0:
440,336,837913,2,0,L|391:248,1,90,0|0,0:0|0:0,0:0:0:0:
291,41,838199,2,0,L|242:129,1,90,0|0,0:0|0:0,0:0:0:0:
162,304,838485,5,0,0:0:0:0:
120,319,838556,1,0,0:0:0:0:
76,315,838627,1,0,0:0:0:0:
39,291,838699,1,0,0:0:0:0:
22,250,838770,1,0,0:0:0:0:
20,205,838842,1,0,0:0:0:0:
37,164,838913,1,0,0:0:0:0:
72,135,838985,1,0,0:0:0:0:
113,118,839056,1,0,0:0:0:0:
157,114,839127,1,0,0:0:0:0:
202,113,839199,1,0,0:0:0:0:
243,96,839270,1,0,0:0:0:0:
270,60,839342,5,4,0:0:0:0:
234,231,839485,1,0,0:0:0:0:
376,27,839627,1,4,0:0:0:0:
340,198,839770,1,0,0:0:0:0:
487,0,839913,1,4,0:0:0:0:
451,171,840056,1,0,0:0:0:0:
96,101,841056,6,0,B|88:209|88:209|206:337,1,270,6|6,0:0|0:0,0:0:0:0:
303,101,842770,5,6,0:0:0:0:
84,324,843485,5,0,0:0:0:0:
84,324,843556,1,0,0:0:0:0:
84,324,843627,2,0,B|25:350|25:350|-16:348,2,90,6|4|4,0:0|0:0|0:0,0:0:0:0:
428,330,844485,6,4,B|487:356|487:356|528:354,2,90
245,87,845342,6,4,B|238:22|238:22|253:-15,2,90
380,52,846056,5,0,0:0:0:0:
380,52,846127,1,0,0:0:0:0:
380,52,846199,2,0,L|404:166,1,90,0|0,0:0|0:0,0:0:0:0:
243,366,846485,2,0,L|224:277,1,90,0|0,0:0|0:0,0:0:0:0:
50,68,846770,2,0,L|74:182,1,90,0|0,0:0|0:0,0:0:0:0:
68,156,846985,1,0,0:0:0:0:
68,156,847056,5,4,0:0:0:0:
376,230,847199,1,4,0:0:0:0:
398,237,847485,1,4,0:0:0:0:
420,245,847770,1,4,0:0:0:0:
397,113,847913,2,0,P|338:137|288:280,1,225,6|0,0:0|0:0,0:0:0:0:
287,279,848699,1,0,0:0:0:0:
287,279,848770,5,6,0:0:0:0:
153,43,848913,1,4,0:0:0:0:
143,21,849199,1,4,0:0:0:0:
134,0,849485,1,4,0:0:0:0:
46,182,849627,2,0,B|77:250|77:250|271:334,1,270,6|6,0:0|0:0,0:0:0:0:
381,276,850627,5,0,0:0:0:0:
405,143,850770,2,0,L|370:52,1,90,2|0,0:0|0:0,0:0:0:0:
238,284,851056,2,0,L|272:374,1,90,0|0,0:0|0:0,0:0:0:0:
330,212,851342,1,4,0:0:0:0:
206,186,851485,1,0,0:0:0:0:
125,282,851627,2,0,L|90:372,1,90,0|0,0:0|0:0,0:0:0:0:
304,112,851913,2,0,L|336:27,1,90,2|0,0:0|0:0,0:0:0:0:
336,27,852127,1,0,0:0:0:0:
336,27,852199,1,10,0:0:0:0:
74,36,852485,5,6,0:3:0:0:
65,53,852556,1,4,0:3:0:0:
56,71,852627,1,4,0:3:0:0:
47,89,852699,1,4,0:3:0:0:
21,98,852770,5,10,0:0:0:0:
37,134,852842,1,8,0:0:0:0:
53,171,852913,1,8,0:0:0:0:
69,206,852985,1,8,0:0:0:0:
62,224,853056,5,10,0:0:0:0:
114,200,853127,1,8,0:0:0:0:
171,190,853199,1,8,0:0:0:0:
228,194,853270,1,8,0:0:0:0:
281,213,853342,5,0,0:0:0:0:
258,256,853413,1,0,0:0:0:0:
215,282,853485,1,0,0:0:0:0:
166,281,853556,1,0,0:0:0:0:
125,254,853627,5,2,0:0:0:0:
149,222,853699,1,0,0:0:0:0:
168,186,853770,1,0,0:0:0:0:
182,148,853842,1,0,0:0:0:0:
188,108,853913,6,0,P|182:56|67:32,1,180,6|8,0:0|0:0,0:0:0:0:
42,59,854270,1,0,0:0:0:0:
23,100,854342,1,8,0:0:0:0:
18,144,854413,1,0,0:0:0:0:
27,188,854485,5,10,0:0:0:0:
65,163,854556,1,0,0:0:0:0:
108,152,854627,1,8,0:0:0:0:
153,155,854699,1,0,0:0:0:0:
194,173,854770,5,10,0:0:0:0:
196,217,854842,1,0,0:0:0:0:
212,259,854913,1,8,0:0:0:0:
240,294,854985,1,0,0:0:0:0:
279,317,855056,1,8,0:0:0:0:
322,326,855127,1,0,0:0:0:0:
367,321,855199,1,8,0:0:0:0:
407,301,855270,1,0,0:0:0:0:
439,270,855342,5,10,0:0:0:0:
396,258,855413,1,0,0:0:0:0:
360,232,855485,1,8,0:0:0:0:
335,194,855556,1,0,0:0:0:0:
326,150,855627,5,10,0:0:0:0:
370,148,855699,1,0,0:0:0:0:
413,162,855770,1,8,0:0:0:0:
448,191,855842,1,0,0:0:0:0:
470,229,855913,5,10,0:0:0:0:
438,259,855985,1,0,0:0:0:0:
394,268,856056,1,8,0:0:0:0:
353,251,856127,1,0,0:0:0:0:
328,214,856199,5,10,0:0:0:0:
362,185,856270,1,0,0:0:0:0:
382,145,856342,1,8,0:0:0:0:
383,100,856413,1,0,0:0:0:0:
367,59,856485,1,8,0:0:0:0:
335,28,856556,1,0,0:0:0:0:
293,14,856627,1,8,0:0:0:0:
248,16,856699,1,0,0:0:0:0:
209,37,856770,6,0,L|175:69,3,45,10|0|8|0,0:0|0:0|0:0|0:0,0:0:0:0:
279,144,857056,2,0,L|311:190,3,45,10|0|8|0,0:0|0:0|0:0|0:0,0:0:0:0:
181,234,857342,5,10,0:0:0:0:
147,204,857413,1,0,0:0:0:0:
130,163,857485,1,8,0:0:0:0:
131,118,857556,1,0,0:0:0:0:
152,79,857627,5,10,0:0:0:0:
181,114,857699,1,0,0:0:0:0:
217,140,857770,1,8,0:0:0:0:
259,157,857842,1,0,0:0:0:0:
303,164,857913,5,10,0:0:0:0:
317,121,857985,1,0,0:0:0:0:
347,87,858056,1,8,0:0:0:0:
386,67,858127,1,0,0:0:0:0:
431,62,858199,5,10,0:0:0:0:
405,99,858270,1,0,0:0:0:0:
390,141,858342,1,8,0:0:0:0:
387,186,858413,1,0,0:0:0:0:
395,230,858485,5,10,0:0:0:0:
436,244,858556,1,0,0:0:0:0:
452,285,858627,1,8,0:0:0:0:
434,324,858699,1,0,0:0:0:0:
392,336,858770,5,10,0:0:0:0:
356,296,858842,1,8,0:0:0:0:
306,272,858913,1,8,0:0:0:0:
287,286,858985,1,0,0:0:0:0:
236,303,859056,5,10,0:0:0:0:
183,299,859127,1,8,0:0:0:0:
144,268,859199,1,8,0:0:0:0:
127,223,859270,1,8,0:0:0:0:
134,178,859342,1,8,0:0:0:0:
158,142,859413,1,8,0:0:0:0:
192,120,859485,1,8,0:0:0:0:
227,112,859556,1,8,0:0:0:0:
258,113,859627,1,4,0:3:0:0:
284,118,859699,1,4,0:3:0:0:
304,126,859770,1,4,0:3:0:0:
319,135,859842,1,4,0:3:0:0:
329,144,859913,6,0,P|354:178|255:242,1,180,6|6,0:0|0:0,0:0:0:0:
219,222,860294,1,2,0:0:0:0:
159,215,860389,1,2,0:0:0:0:
100,229,860485,1,6,0:0:0:0:
292,339,860770,6,0,P|332:334|430:228,1,180,6|2,0:0|0:0,0:0:0:0:
363,165,861151,1,0,0:0:0:0:
355,105,861246,1,0,0:0:0:0:
376,48,861342,2,0,P|405:20|462:6,2,60,2|0|0,0:0|0:0|0:0,0:0:0:0:
479,124,861627,1,14,0:0:0:0:
242,67,861913,1,4,0:0:0:0:
223,54,862485,5,6,0:0:0:0:
391,200,862770,1,2,0:0:0:0:
434,241,862865,1,0,0:0:0:0:
438,301,862961,1,0,0:0:0:0:
404,351,863056,1,2,0:0:0:0:
342,356,863151,1,0,0:0:0:0:
288,328,863246,1,0,0:0:0:0:
355,274,863342,1,14,0:0:0:0:
119,337,863913,6,0,L|142:134,1,180,2|6,0:0|0:0,0:0:0:0:
230,27,864485,6,8,L|263:113,1,90
487,177,864770,2,8,L|454:263,1,90
271,370,865056,2,8,L|237:283,1,90,10|8,0:0|0:0,0:0:0:0:
325,120,865342,2,8,L|213:104,1,90,10|8,0:0|0:0,0:0:0:0:
397,272,865627,2,8,L|486:259,1,90,10|8,0:0|0:0,0:0:0:0:
429,24,865913,5,10,0:0:0:0:
394,181,866056,1,8,0:0:0:0:
263,64,866199,5,8,0:0:0:0:
284,224,866342,1,8,0:0:0:0:
123,157,866485,5,8,0:0:0:0:
199,301,866627,1,8,0:0:0:0:
25,147,866770,5,8,0:0:0:0:
190,214,866913,1,0,0:0:0:0:
304,75,867056,1,4,0:3:0:0:
346,45,867127,1,4,0:3:0:0:
394,32,867199,1,4,0:3:0:0:
445,30,867270,1,4,0:3:0:0:
494,43,867342,5,4,0:3:0:0:
483,63,867413,1,4,0:3:0:0:
478,82,867485,1,4,0:3:0:0:
477,103,867556,1,4,0:3:0:0:
480,124,867627,6,0,P|487:199|482:229,1,90,6|0,0:0|0:0,0:0:0:0:
474,257,867842,1,0,0:0:0:0:
453,297,867913,1,8,0:0:0:0:
422,330,867985,1,0,0:0:0:0:
383,352,868056,2,0,L|310:361,1,45
302,216,868199,5,10,0:0:0:0:
268,190,868270,1,0,0:0:0:0:
226,173,868342,2,0,P|202:167|178:165,1,45
135,298,868485,5,10,0:0:0:0:
178,285,868556,1,0,0:0:0:0:
217,263,868627,1,0,0:0:0:0:
247,229,868699,1,0,0:0:0:0:
268,190,868770,1,8,0:0:0:0:
278,145,868842,1,0,0:0:0:0:
296,104,868913,2,0,L|335:55,1,45,0|0,0:0|0:0,0:0:0:0:
444,20,869056,5,10,0:0:0:0:
463,59,869127,1,0,0:0:0:0:
455,104,869199,2,0,L|428:167,1,45,0|0,0:0|0:0,0:0:0:0:
278,145,869342,5,10,0:0:0:0:
232,143,869413,1,0,0:0:0:0:
188,131,869485,2,0,L|130:90,1,45,0|0,0:0|0:0,0:0:0:0:
71,23,869627,5,10,0:0:0:0:
48,59,869699,1,0,0:0:0:0:
39,101,869770,2,0,L|37:164,1,45,0|0,0:0|0:0,0:0:0:0:
135,230,869913,5,10,0:0:0:0:
171,206,869985,1,0,0:0:0:0:
204,177,870056,1,0,0:0:0:0:
232,143,870127,1,0,0:0:0:0:
254,105,870199,1,8,0:0:0:0:
281,71,870270,1,0,0:0:0:0:
318,47,870342,2,0,L|377:24,1,45,0|0,0:0|0:0,0:0:0:0:
480,27,870485,5,10,0:0:0:0:
474,70,870556,1,0,0:0:0:0:
446,105,870627,2,0,L|399:152,1,45,0|0,0:0|0:0,0:0:0:0:
311,172,870770,5,10,0:0:0:0:
329,210,870842,1,0,0:0:0:0:
366,232,870913,2,0,L|421:253,1,45,0|0,0:0|0:0,0:0:0:0:
511,321,871056,5,14,0:0:0:0:
477,349,871127,1,0,0:0:0:0:
436,362,871199,2,0,L|369:362,1,45,0|0,0:0|0:0,0:0:0:0:
251,351,871342,5,10,0:0:0:0:
220,318,871413,1,0,0:0:0:0:
208,274,871485,2,0,L|213:195,1,45,0|0,0:0|0:0,0:0:0:0:
307,153,871627,5,10,0:0:0:0:
282,116,871699,1,0,0:0:0:0:
241,97,871770,2,0,L|183:83,1,45
138,224,871913,5,10,0:0:0:0:
167,258,871985,1,0,0:0:0:0:
208,274,872056,2,0,L|262:268,1,45,0|0,0:0|0:0,0:0:0:0:
350,376,872199,5,10,0:0:0:0:
380,343,872270,1,0,0:0:0:0:
396,300,872342,2,0,L|398:226,1,45,0|0,0:0|0:0,0:0:0:0:
479,168,872485,5,10,0:0:0:0:
474,124,872556,1,0,0:0:0:0:
459,81,872627,1,0,0:0:0:0:
436,41,872699,1,0,0:0:0:0:
409,5,872770,1,6,0:0:0:0:
285,53,873056,5,0,0:0:0:0:
303,87,873127,1,0,0:0:0:0:
313,125,873199,1,0,0:0:0:0:
314,165,873270,1,0,0:0:0:0:
312,203,873342,1,0,0:0:0:0:
317,242,873413,1,0,0:0:0:0:
329,279,873485,1,0,0:0:0:0:
350,312,873556,1,0,0:0:0:0:
378,339,873627,1,14,0:0:0:0:
139,97,873913,6,0,P|117:55|118:3,2,60,2|2|2,0:0|0:0|0:0,0:0:0:0:
180,139,874199,1,6,0:0:0:0:
354,172,874485,6,0,P|380:256|330:326,1,180,6|2,0:0|0:0,0:0:0:0:
271,336,874865,1,0,0:0:0:0:
217,308,874961,1,0,0:0:0:0:
192,253,875056,1,2,0:0:0:0:
206,194,875151,1,0,0:0:0:0:
251,154,875246,1,0,0:0:0:0:
285,241,875342,1,14,0:0:0:0:
366,69,875913,5,4,0:0:0:0:
121,186,876199,5,2,0:0:0:0:
100,30,876485,2,0,P|75:120|153:199,1,180,6|2,0:0|0:0,0:0:0:0:
179,202,876865,1,0,0:0:0:0:
235,182,876961,1,0,0:0:0:0:
173,99,877056,1,14,0:0:0:0:
274,291,877627,5,2,0:0:0:0:
421,145,877913,6,0,L|435:49,1,90,6|0,0:0|0:0,0:0:0:0:
421,145,878485,1,0,0:0:0:0:
320,136,878770,2,0,L|298:31,1,99.0000030212403,2|0,0:0|0:0,0:0:0:0:
320,136,879342,1,0,0:0:0:0:
216,176,879627,2,0,L|157:81,1,107.999996704102,2|0,0:0|0:0,0:0:0:0:
216,176,880199,1,0,0:0:0:0:
128,272,880485,2,0,L|34:198,1,116.999994644165,2|0,0:0|0:0,0:0:0:0:
128,272,881057,1,0,0:0:0:0:
288,280,881342,6,0,L|297:392,1,99.0000030212403
288,280,881914,1,0,0:0:0:0:
208,184,882199,2,0,L|179:292,1,107.999996704102,6|0,0:0|0:0,0:0:0:0:
208,184,882771,1,0,0:0:0:0:
320,104,883056,2,0,L|358:251,1,116.999994644165,2|0,0:0|0:0,0:0:0:0:
320,104,883628,1,0,0:0:0:0:
176,32,883913,2,0,L|120:152,1,125.999996154785,2|0,0:0|0:0,0:0:0:0:
176,32,884485,1,0,0:0:0:0:
448,192,884770,6,0,P|471:250|483:309,1,107.999996704102,4|0,0:0|0:0,0:0:0:0:
448,192,885342,1,0,0:0:0:0:
320,168,885627,2,0,P|343:115|334:46,1,116.999994644165,2|0,0:0|0:0,0:0:0:0:
320,168,886199,1,0,0:0:0:0:
192,240,886485,2,0,P|169:298|200:361,1,125.999996154785,2|0,0:0|0:0,0:0:0:0:
192,240,887057,1,0,0:0:0:0:
64,120,887342,2,0,P|46:60|99:-1,1,135.000005149842,2|0,0:0|0:0,0:0:0:0:
64,120,887914,1,0,0:0:0:0:
80,344,888199,6,0,P|164:350|170:306,1,144,2|0,0:0|0:0,0:0:0:0:
80,344,888770,1,0,0:0:0:0:
432,344,889056,6,0,P|347:350|341:306,1,144,0|0,0:0|0:0,0:0:0:0:
432,344,889627,1,2,0:0:0:0:
279,115,889913,5,6,0:0:0:0:
308,81,890008,2,0,L|347:35,1,48
356,233,890199,5,4,0:0:0:0:
396,248,890294,2,0,L|452:268,1,48
233,279,890485,5,4,0:0:0:0:
231,323,890580,2,0,L|230:383,1,48
84,242,890770,6,0,P|36:220|23:196,2,48,4|0|0,0:0|0:0|0:0,0:0:0:0:
162,164,891056,2,0,P|196:155|208:141,2,48,4|0|0,0:0|0:0|0:0,0:0:0:0:
110,99,891342,6,0,P|102:45|117:97,1,158.400004833984,4|2,0:0|0:0,0:0:0:0:
246,174,892199,6,0,P|255:137|256:175,1,99.0000030212403,0|2,2:0|2:0,2:0:0:0:
380,40,893056,6,0,P|385:17|385:41,1,66.6000016259766,0|8,2:0|0:0,2:0:0:0:
114,257,894199,5,0,0:0:0:0:
227,312,894485,1,2,0:0:0:0:
345,269,894770,2,0,P|392:233|373:177,1,125.999996154785,0|2,0:0|0:0,0:0:0:0:
374,178,895485,1,0,0:0:0:0:
142,79,895913,2,0,P|183:195|94:295,1,251.999992309571,2|0,0:0|0:0,0:0:0:0:
59,173,896770,1,2,0:0:0:0:
298,285,898199,5,0,0:0:0:0:
329,163,898485,2,0,L|293:308,1,125.999996154785,2|0,0:0|0:0,0:0:0:0:
235,285,898913,2,0,P|260:234|360:278,1,188.999994232178,2|2,0:0|0:0,0:0:0:0:
298,285,899485,1,2,0:0:0:0:
384,117,899913,2,0,L|432:51,2,62.9999980773926,2|2|2,0:0|0:0|0:0,0:0:0:0:
194,117,900485,1,2,0:0:0:0:
257,117,900627,2,0,P|232:168|132:124,1,188.999994232178,2|2,0:0|0:0,0:0:0:0:
194,117,901199,1,2,0:0:0:0:
375,73,901627,2,0,L|231:125,1,125.999996154785,0|2,0:0|0:0,0:0:0:0:
334,332,903627,5,2,0:0:0:0:
246,77,905056,6,0,P|184:92|154:165,1,125.999996154785,0|2,0:0|0:0,0:0:0:0:
341,312,905913,2,0,P|415:314|457:266,1,125.999996154785,0|2,0:0|0:0,0:0:0:0:
364,43,906770,2,0,L|369:177,1,125.999996154785,0|2,0:0|0:0,0:0:0:0:
187,192,907913,5,0,0:0:0:0:
249,300,908199,2,0,P|310:326|378:320,1,125.999996154785,2|0,0:0|0:0,0:0:0:0:
330,202,908770,2,0,P|326:130|350:73,1,125.999996154785,2|2,0:0|0:0,0:0:0:0:
388,34,909199,1,2,0:0:0:0:
372,155,909627,1,2,0:0:0:0:
330,201,909770,2,0,P|266:247|141:234,1,188.999994232178,2|0,0:0|0:0,0:0:0:0:
78,340,910485,1,2,0:0:0:0:
150,150,911913,5,0,0:0:0:0:
245,231,912199,2,0,P|339:255|379:238,1,125.999996154785,2|0,0:0|0:0,0:0:0:0:
419,216,912627,1,2,0:0:0:0:
299,255,912913,1,2,0:0:0:0:
245,231,913056,2,0,L|187:182,1,62.9999980773926,2|0,0:0|0:0,0:0:0:0:
364,278,913627,1,0,0:0:0:0:
245,231,913913,1,2,0:0:0:0:
193,102,914770,6,0,P|132:86|70:97,2,125.999996154785
279,194,915627,1,2,0:0:0:0:
403,158,917342,5,4,0:0:0:0:
294,315,918199,5,8,0:0:0:0:
251,298,918270,1,8,0:0:0:0:
211,280,918342,1,8,0:0:0:0:
174,263,918413,1,8,0:0:0:0:
145,285,918485,5,4,0:3:0:0:
117,291,918556,1,4,0:3:0:0:
88,298,918627,1,4,0:3:0:0:
61,305,918699,1,4,0:3:0:0:
40,280,918770,6,0,L|-8:257,3,31.4999990386963,2|4|4|4,0:0|0:3|0:3|0:3,0:0:0:0:
86,198,919056,6,0,P|141:105|32:73,1,215.999993408203,6|8,0:0|0:0,0:0:0:0:
19,85,919413,1,0,0:0:0:0:
5,137,919485,1,8,0:0:0:0:
33,183,919556,1,0,0:0:0:0:
86,198,919627,5,10,0:0:0:0:
136,219,919699,1,0,0:0:0:0:
179,250,919770,1,8,0:0:0:0:
218,287,919842,1,0,0:0:0:0:
248,330,919913,5,10,0:0:0:0:
302,337,919984,1,0,0:0:0:0:
335,297,920056,1,8,0:0:0:0:
319,245,920127,1,0,0:0:0:0:
265,235,920199,1,8,0:0:0:0:
230,278,920270,1,0,0:0:0:0:
248,330,920342,1,8,0:0:0:0:
302,337,920413,1,0,0:0:0:0:
335,297,920485,5,10,0:0:0:0:
334,248,920556,1,0,0:0:0:0:
346,201,920627,1,8,0:0:0:0:
374,161,920699,1,0,0:0:0:0:
414,133,920771,5,10,0:0:0:0:
422,82,920842,1,0,0:0:0:0:
377,56,920914,1,8,0:0:0:0:
338,93,920985,1,0,0:0:0:0:
359,137,921056,5,8,0:0:0:0:
411,150,921127,1,0,0:0:0:0:
451,185,921198,1,8,0:0:0:0:
472,234,921270,1,0,0:0:0:0:
469,288,921341,1,8,0:0:0:0:
442,334,921413,1,0,0:0:0:0:
397,363,921484,1,8,0:0:0:0:
344,370,921555,1,0,0:0:0:0:
293,351,921627,1,8,0:0:0:0:
256,313,921698,1,0,0:0:0:0:
240,262,921770,1,8,0:0:0:0:
249,209,921841,1,0,0:0:0:0:
280,165,921913,6,0,L|332:129,3,53.9999983520508,10|0|8|0,0:0|0:0|0:0|0:0,0:0:0:0:
402,217,922199,2,0,L|454:253,3,53.9999983520508,10|0|8|0,0:0|0:0|0:0|0:0,0:0:0:0:
337,310,922485,5,14,0:0:0:0:
286,328,922556,1,0,0:0:0:0:
233,332,922627,1,8,0:0:0:0:
180,320,922699,1,0,0:0:0:0:
132,294,922770,6,0,L|72:238,1,53.9999983520508,10|0,0:0|0:0,0:0:0:0:
131,121,922913,1,10,0:0:0:0:
173,86,922985,1,0,0:0:0:0:
222,65,923056,1,8,0:0:0:0:
275,59,923127,1,0,0:0:0:0:
329,60,923199,1,8,0:0:0:0:
380,75,923270,1,0,0:0:0:0:
423,107,923342,5,10,0:0:0:0:
438,158,923413,1,0,0:0:0:0:
416,207,923485,1,8,0:0:0:0:
374,240,923556,1,0,0:0:0:0:
324,261,923627,1,8,0:0:0:0:
269,266,923699,1,0,0:0:0:0:
215,274,923770,1,8,0:0:0:0:
166,299,923842,1,0,0:0:0:0:
127,336,923913,6,0,L|75:399,3,53.9999983520508,10|0|8|0,0:0|0:0|0:0|0:0,0:0:0:0:
132,218,924199,5,10,0:0:0:0:
122,165,924270,1,0,0:0:0:0:
135,113,924342,1,8,0:0:0:0:
167,70,924413,1,0,0:0:0:0:
215,45,924485,1,8,0:0:0:0:
268,42,924556,1,0,0:0:0:0:
318,61,924627,1,8,0:0:0:0:
351,102,924699,1,0,0:0:0:0:
366,154,924770,1,8,0:0:0:0:
359,207,924842,1,0,0:0:0:0:
354,260,924913,1,8,0:0:0:0:
374,310,924985,1,0,0:0:0:0:
416,344,925056,2,0,L|476:384,3,53.9999983520508,8|0|8|0,0:0|0:0|0:0|0:0,0:0:0:0:
492,258,925342,5,8,0:0:0:0:
478,201,925413,1,8,0:0:0:0:
458,146,925485,1,8,0:0:0:0:
431,94,925556,1,8,0:0:0:0:
397,46,925627,5,6,0:3:0:0:
368,70,925699,1,4,0:3:0:0:
334,88,925770,1,4,0:3:0:0:
299,103,925842,1,4,0:3:0:0:
261,109,925913,5,6,0:0:0:0:
481,76,926199,5,10,0:0:0:0:
459,125,926270,1,0,0:0:0:0:
415,155,926342,1,10,0:0:0:0:
371,133,926413,1,0,0:0:0:0:
326,111,926485,1,8,0:0:0:0:
281,91,926556,1,0,0:0:0:0:
233,80,926627,1,8,0:0:0:0:
184,77,926699,1,0,0:0:0:0:
138,92,926770,6,0,L|89:141,1,53.9999983520508,10|0,0:0|0:0,0:0:0:0:
163,270,926913,1,10,0:0:0:0:
186,318,926985,1,0,0:0:0:0:
225,356,927056,1,8,0:0:0:0:
273,379,927127,1,0,0:0:0:0:
326,384,927199,1,8,0:0:0:0:
379,371,927270,1,0,0:0:0:0:
423,341,927342,6,0,L|466:297,1,53.9999983520508,10|0,0:0|0:0,0:0:0:0:
481,142,927485,2,0,L|401:122,1,53.9999983520508,10|0,0:0|0:0,0:0:0:0:
294,39,927627,1,10,0:0:0:0:
246,63,927699,1,0,0:0:0:0:
215,107,927770,1,8,0:0:0:0:
207,160,927842,1,0,0:0:0:0:
224,210,927913,1,8,0:0:0:0:
263,248,927985,1,0,0:0:0:0:
314,264,928056,1,10,0:0:0:0:
367,266,928127,1,0,0:0:0:0:
421,262,928199,1,8,0:0:0:0:
469,278,928270,1,0,0:0:0:0:
479,329,928342,1,10,0:0:0:0:
439,361,928413,1,0,0:0:0:0:
385,369,928485,6,0,L|310:355,1,53.9999983520508,10|0,0:0|0:0,0:0:0:0:
155,328,928627,1,10,0:0:0:0:
133,278,928699,1,0,0:0:0:0:
125,225,928770,1,8,0:0:0:0:
134,172,928842,1,0,0:0:0:0:
157,123,928913,1,8,0:0:0:0:
193,83,928985,1,0,0:0:0:0:
238,55,929056,6,0,L|300:35,3,53.9999983520508,14|0|8|0,0:0|0:0|0:0|0:0,0:0:0:0:
316,141,929342,5,14,0:0:0:0:
269,168,929413,1,0,0:0:0:0:
217,181,929485,1,8,0:0:0:0:
163,177,929556,1,0,0:0:0:0:
110,179,929627,1,8,0:0:0:0:
66,209,929699,1,0,0:0:0:0:
44,257,929770,1,8,0:0:0:0:
52,310,929842,1,0,0:0:0:0:
86,351,929913,1,8,0:0:0:0:
134,375,929985,1,0,0:0:0:0:
187,379,930056,1,8,0:0:0:0:
238,360,930127,1,0,0:0:0:0:
276,322,930199,6,0,L|309:262,3,53.9999983520508,8|0|8|0,0:0|0:0|0:0|0:0,0:0:0:0:
158,245,930485,2,0,L|125:184,3,53.9999983520508,8|0|8|0,0:0|0:0|0:0|0:0,0:0:0:0:
268,156,930770,2,0,L|300:95,3,53.9999983520508,8|0|8|0,0:0|0:0|0:0|0:0,0:0:0:0:
191,104,931056,5,8,0:0:0:0:
174,161,931127,1,8,0:0:0:0:
176,220,931199,1,8,0:0:0:0:
187,278,931270,1,8,0:0:0:0:
212,331,931342,5,4,0:3:0:0:
239,297,931413,1,4,0:3:0:0:
249,255,931485,1,4,0:3:0:0:
240,212,931556,1,4,0:3:0:0:
219,173,931627,5,8,0:0:0:0:
163,193,931699,1,8,0:0:0:0:
108,168,931770,1,8,0:0:0:0:
79,116,931842,1,8,0:0:0:0:
92,57,931913,5,8,0:0:0:0:
147,77,931985,1,8,0:0:0:0:
202,97,932056,1,8,0:0:0:0:
258,117,932127,1,8,0:0:0:0:
313,137,932199,5,4,0:3:0:0:
329,115,932270,1,4,0:3:0:0:
345,94,932342,1,4,0:3:0:0:
362,72,932413,1,4,0:3:0:0:
379,51,932485,6,0,L|410:0,3,53.9999983520508,2|0|0|0,0:0|0:0|0:0|0:0,0:0:0:0:
466,137,932770,5,6,0:0:0:0:
455,189,932842,1,0,0:0:0:0:
421,231,932913,2,0,L|346:280,1,53.9999983520508,0|0,0:0|0:0,0:0:0:0:
235,207,933056,5,8,0:0:0:0:
184,185,933127,1,0,0:0:0:0:
157,138,933199,2,0,L|137:67,1,53.9999983520508,0|0,0:0|0:0,0:0:0:0:
316,121,933342,5,10,0:0:0:0:
346,164,933413,1,0,0:0:0:0:
349,217,933485,2,0,L|340:285,1,53.9999983520508,0|0,0:0|0:0,0:0:0:0:
223,324,933627,5,14,0:0:0:0:
172,343,933699,1,0,0:0:0:0:
118,332,933770,2,0,L|60:290,1,53.9999983520508,0|0,0:0|0:0,0:0:0:0:
157,202,933913,5,8,0:0:0:0:
177,152,933985,1,0,0:0:0:0:
167,99,934056,2,0,L|142:46,1,53.9999983520508,0|0,0:0|0:0,0:0:0:0:
13,136,934199,5,10,0:0:0:0:
14,190,934270,1,0,0:0:0:0:
37,238,934342,2,0,L|105:292,1,53.9999983520508,0|0,0:0|0:0,0:0:0:0:
196,191,934485,5,14,0:0:0:0:
248,201,934556,1,0,0:0:0:0:
297,223,934627,2,0,L|343:265,1,53.9999983520508,0|0,0:0|0:0,0:0:0:0:
414,372,934770,5,8,0:0:0:0:
453,334,934842,1,0,0:0:0:0:
469,282,934913,2,0,L|465:212,1,53.9999983520508,0|0,0:0|0:0,0:0:0:0:
385,151,935056,5,8,0:0:0:0:
372,96,935127,1,0,0:0:0:0:
393,46,935199,2,0,L|421:-2,1,53.9999983520508,0|0,0:0|0:0,0:0:0:0:
485,177,935342,5,8,0:0:0:0:
466,228,935413,1,0,0:0:0:0:
419,255,935485,2,0,L|327:284,1,53.9999983520508,0|0,0:0|0:0,0:0:0:0:
254,161,935627,6,0,L|209:126,3,53.9999983520508,10|0|0|0,0:0|0:0|0:0|0:0,0:0:0:0:
162,270,935913,2,0,L|105:264,3,53.9999983520508,10|0|0|0,0:0|0:0|0:0|0:0,0:0:0:0:
233,378,936199,5,14,0:0:0:0:
273,340,936270,1,0,0:0:0:0:
293,290,936342,2,0,L|294:224,1,53.9999983520508,0|0,0:0|0:0,0:0:0:0:
162,176,936485,5,10,0:0:0:0:
170,123,936556,1,0,0:0:0:0:
202,79,936627,2,0,L|259:32,1,53.9999983520508,2|0,0:0|0:0,0:0:0:0:
377,108,936770,5,8,0:0:0:0:
405,154,936842,1,0,0:0:0:0:
452,178,936913,2,0,L|513:177,1,53.9999983520508,0|0,0:0|0:0,0:0:0:0:
414,8,937056,5,10,0:0:0:0:
362,0,937127,1,0,0:0:0:0:
314,26,937199,2,0,L|275:63,1,53.9999983520508,2|0,0:0|0:0,0:0:0:0:
300,172,937342,5,8,0:0:0:0:
284,224,937413,1,0,0:0:0:0:
254,269,937485,2,0,L|196:311,1,53.9999983520508,0|0,0:0|0:0,0:0:0:0:
131,192,937627,5,10,0:0:0:0:
91,154,937699,1,0,0:0:0:0:
71,104,937770,2,0,L|59:35,1,53.9999983520508,0|0,0:0|0:0,0:0:0:0:
221,95,937913,5,14,0:0:0:0:
270,116,937985,1,0,0:0:0:0:
323,121,938056,2,0,L|395:111,1,53.9999983520508,0|0,0:0|0:0,0:0:0:0:
490,62,938199,5,8,0:0:0:0:
498,115,938270,1,0,0:0:0:0:
489,167,938342,2,0,L|453:228,1,53.9999983520508,0|0,0:0|0:0,0:0:0:0:
363,282,938485,5,8,0:0:0:0:
313,303,938556,1,0,0:0:0:0:
258,302,938627,2,0,L|181:288,1,53.9999983520508,0|0,0:0|0:0,0:0:0:0:
270,154,938770,5,8,0:0:0:0:
255,101,938842,1,0,0:0:0:0:
212,65,938913,2,0,L|155:30,1,53.9999983520508,0|0,0:0|0:0,0:0:0:0:
126,163,939056,5,8,0:0:0:0:
124,218,939127,1,0,0:0:0:0:
145,267,939199,2,0,L|194:318,1,53.9999983520508,0|0,0:0|0:0,0:0:0:0:
306,227,939342,6,0,L|375:180,3,53.9999983520508,14|0|0|0,0:0|0:0|0:0|0:0,0:0:0:0:
256,149,939627,5,14,0:0:0:0:
299,119,939699,1,0,0:0:0:0:
307,68,939770,1,0,0:0:0:0:
273,27,939842,1,0,0:0:0:0:
221,25,939913,6,0,L|153:39,1,53.9999983520508,10|0,0:0|0:0,0:0:0:0:
76,131,940056,1,2,0:0:0:0:
48,177,940127,1,0,0:0:0:0:
44,230,940199,1,8,0:0:0:0:
63,280,940270,1,0,0:0:0:0:
101,317,940342,1,2,0:0:0:0:
152,334,940413,1,0,0:0:0:0:
205,328,940485,5,10,0:0:0:0:
200,274,940556,1,0,0:0:0:0:
206,220,940627,1,0,0:0:0:0:
223,169,940699,1,0,0:0:0:0:
249,122,940770,1,8,0:0:0:0:
285,82,940842,1,0,0:0:0:0:
328,49,940913,1,0,0:0:0:0:
377,26,940985,1,0,0:0:0:0:
429,14,941056,5,10,0:0:0:0:
438,67,941127,1,0,0:0:0:0:
436,121,941199,1,0,0:0:0:0:
424,174,941270,1,0,0:0:0:0:
402,223,941342,6,0,L|361:312,3,53.9999983520508,10|0|0|0,0:0|0:0|0:0|0:0,0:0:0:0:
305,159,941627,2,0,L|282:110,3,53.9999983520508,10|0|0|0,0:0|0:0|0:0|0:0,0:0:0:0:
211,212,941913,2,0,L|169:300,3,53.9999983520508,10|0|0|0,0:0|0:0|0:0|0:0,0:0:0:0:
104,178,942199,5,10,0:0:0:0:
123,127,942270,1,0,0:0:0:0:
157,85,942342,1,0,0:0:0:0:
200,54,942413,1,0,0:0:0:0:
251,37,942485,1,8,0:0:0:0:
305,34,942556,1,0,0:0:0:0:
357,48,942627,1,0,0:0:0:0:
404,75,942699,1,0,0:0:0:0:
440,115,942770,6,0,L|485:192,3,53.9999983520508,14|0|0|0,0:0|0:0|0:0|0:0,0:0:0:0:
352,186,943056,5,14,0:0:0:0:
303,162,943127,1,0,0:0:0:0:
250,151,943199,1,0,0:0:0:0:
196,154,943270,1,0,0:0:0:0:
145,169,943342,1,8,0:0:0:0:
99,197,943413,1,0,0:0:0:0:
61,235,943485,1,0,0:0:0:0:
47,287,943556,1,0,0:0:0:0:
62,338,943627,1,8,0:0:0:0:
101,374,943699,1,0,0:0:0:0:
153,385,943770,1,0,0:0:0:0:
204,367,943842,1,0,0:0:0:0:
238,326,943913,5,8,0:0:0:0:
253,275,943985,1,0,0:0:0:0:
245,222,944056,1,0,0:0:0:0:
217,176,944127,1,0,0:0:0:0:
172,147,944199,1,8,0:0:0:0:
119,138,944270,1,0,0:0:0:0:
70,119,944342,1,0,0:0:0:0:
50,71,944413,1,0,0:0:0:0:
72,23,944485,1,8,0:0:0:0:
122,7,944556,1,0,0:0:0:0:
168,32,944627,1,0,0:0:0:0:
213,60,944699,1,0,0:0:0:0:
264,77,944770,6,4,P|325:77|368:46,2,71.9999978027344,6|4|4,0:3|0:3|0:3,0:3:0:0:
165,154,945056,2,4,P|217:184|270:179,2,71.9999978027344,4|4|4,0:3|0:3|0:3,0:3:0:0:
40,171,945342,2,4,P|70:223|118:245,2,71.9999978027344,4|4|4,0:3|0:3|0:3,0:3:0:0:
86,52,945627,6,0,P|112:28|146:16,2,71.9999978027344,10|4|4,0:0|0:3|0:3,0:0:0:0:
273,64,945913,2,0,P|280:98|274:133,2,71.9999978027344,4|4|4,0:3|0:3|0:3,0:0:0:0:
196,232,946199,2,4,P|162:220|135:196,2,71.9999978027344,4|4|4,0:3|0:3|0:3,0:3:0:0:
310,231,946485,5,6,0:0:0:0:
373,197,946580,1,0,0:0:0:0:
420,143,946675,1,0,0:0:0:0:
425,70,946770,1,0,0:0:0:0:
377,16,946865,1,0,0:0:0:0:
305,17,946961,1,0,0:0:0:0:
251,64,947056,2,0,P|241:97|260:156,2,71.9999978027344,2|0|0,0:0|0:0|0:0,0:0:0:0:
348,110,947342,5,10,0:0:0:0:
393,165,947437,1,0,0:0:0:0:
410,235,947532,1,0,0:0:0:0:
398,305,947627,1,0,0:0:0:0:
349,358,947723,1,0,0:0:0:0:
279,376,947818,1,0,0:0:0:0:
209,358,947913,2,0,P|174:333|154:278,2,71.9999978027344,2|0|0,0:0|0:0|0:0,0:0:0:0:
261,253,948199,5,2,0:0:0:0:
311,202,948294,1,0,0:0:0:0:
382,191,948389,1,0,0:0:0:0:
449,214,948485,1,0,0:0:0:0:
485,276,948580,1,0,0:0:0:0:
475,347,948675,1,0,0:0:0:0:
412,384,948770,1,0,0:0:0:0:
342,367,948865,1,0,0:0:0:0:
291,316,948961,1,0,0:0:0:0:
234,272,949056,5,8,0:0:0:0:
166,245,949151,1,0,0:0:0:0:
94,251,949246,1,0,0:0:0:0:
37,295,949342,2,0,P|18:327|18:374,2,71.9999978027344,2|0|0,0:0|0:0|0:0,0:0:0:0:
239,313,949627,2,0,P|258:281|256:235,2,71.9999978027344,2|0|0,0:0|0:0|0:0,0:0:0:0:
145,273,949913,5,2,0:0:0:0:
115,207,950008,1,0,0:0:0:0:
128,136,950104,1,0,0:0:0:0:
175,81,950199,1,0,0:0:0:0:
245,69,950294,1,0,0:0:0:0:
294,121,950389,1,2,0:0:0:0:
278,191,950485,1,0,0:0:0:0:
208,207,950580,1,0,0:0:0:0:
158,154,950675,1,0,0:0:0:0:
175,81,950770,5,10,0:0:0:0:
135,20,950865,1,0,0:0:0:0:
62,15,950961,1,0,0:0:0:0:
19,72,951056,1,0,0:0:0:0:
16,143,951151,1,0,0:0:0:0:
53,204,951246,1,0,0:0:0:0:
112,245,951342,2,0,P|138:256|201:230,2,71.9999978027344,2|0|0,0:0|0:0|0:0,0:0:0:0:
156,132,951627,5,2,0:0:0:0:
194,71,951723,1,0,0:0:0:0:
260,43,951818,1,0,0:0:0:0:
332,45,951913,1,0,0:0:0:0:
397,73,952008,1,0,0:0:0:0:
441,129,952104,1,0,0:0:0:0:
454,199,952199,5,2,0:0:0:0:
383,209,952294,1,0,0:0:0:0:
314,185,952389,1,0,0:0:0:0:
272,126,952485,5,10,0:0:0:0:
200,136,952580,1,0,0:0:0:0:
152,190,952675,1,0,0:0:0:0:
134,260,952770,2,4,P|131:303|143:344,2,71.9999978027344,4|4|4,0:0|0:3|0:3,0:3:0:0:
272,126,953056,2,4,P|275:83|263:42,2,71.9999978027344,6|4|4,0:0|0:3|0:3,0:3:0:0:
267,265,953342,5,6,0:0:0:0:
311,321,953437,1,0,0:0:0:0:
382,331,953532,1,0,0:0:0:0:
447,302,953627,1,0,0:0:0:0:
484,239,953723,1,0,0:0:0:0:
485,167,953818,1,0,0:0:0:0:
455,101,953913,1,0,0:0:0:0:
403,50,954008,1,0,0:0:0:0:
335,23,954104,1,0,0:0:0:0:
263,17,954199,6,0,P|215:27|170:65,2,71.9999978027344,10|0|0,0:0|0:0|0:0,0:0:0:0:
262,130,954485,1,0,0:0:0:0:
310,181,954580,1,0,0:0:0:0:
337,247,954675,1,0,0:0:0:0:
341,319,954770,2,0,P|332:363|298:395,2,71.9999978027344,2|0|0,0:0|0:0|0:0,0:0:0:0:
220,312,955056,5,2,0:0:0:0:
171,257,955151,1,0,0:0:0:0:
164,185,955246,1,0,0:0:0:0:
198,121,955342,1,0,0:0:0:0:
175,52,955437,1,0,0:0:0:0:
106,27,955532,1,0,0:0:0:0:
39,53,955627,1,2,0:0:0:0:
7,117,955723,1,0,0:0:0:0:
28,185,955818,1,0,0:0:0:0:
85,229,955913,6,0,P|132:249|178:238,2,71.9999978027344,10|0|0,0:0|0:0|0:0,0:0:0:0:
196,109,956199,2,4,P|243:89|289:100,2,71.9999978027344,6|4|4,0:3|0:3|0:3,0:3:0:0:
302,210,956485,2,4,P|349:230|395:219,2,71.9999978027344,6|4|4,0:3|0:3|0:3,0:3:0:0:
367,123,956770,5,6,0:0:0:0:
380,52,956865,1,0,0:0:0:0:
449,29,956961,1,0,0:0:0:0:
495,84,957056,1,0,0:0:0:0:
476,153,957151,1,0,0:0:0:0:
410,181,957246,1,0,0:0:0:0:
355,228,957342,1,0,0:0:0:0:
357,299,957437,1,0,0:0:0:0:
398,358,957532,1,0,0:0:0:0:
469,361,957627,5,8,0:0:0:0:
505,299,957723,1,0,0:0:0:0:
476,233,957818,1,0,0:0:0:0:
404,218,957913,1,0,0:0:0:0:
333,233,958008,1,0,0:0:0:0:
261,228,958104,1,0,0:0:0:0:
199,190,958199,1,0,0:0:0:0:
165,126,958294,1,0,0:0:0:0:
181,56,958389,1,0,0:0:0:0:
242,18,958485,6,0,P|261:8|329:13,8,71.9999978027344,2|0|0|0|0|0|0|0|0,0:0|0:0|0:0|0:0|0:0|0:0|0:0|0:0|0:0,0:0:0:0:
286,109,959342,5,10,0:0:0:0:
234,137,959413,1,8,0:0:0:0:
182,167,959485,1,8,0:0:0:0:
131,198,959556,1,8,0:0:0:0:
93,192,959627,5,8,0:0:0:0:
88,228,959699,1,8,0:0:0:0:
84,266,959770,1,8,0:0:0:0:
79,301,959842,1,8,0:0:0:0:
62,327,959913,6,4,L|72:380,3,53.9999983520508,6|4|4|4,0:3|0:3|0:3|0:3,0:3:0:0:
188,329,960199,5,6,0:0:0:0:
221,285,960270,1,0,0:0:0:0:
266,256,960342,2,0,L|343:229,1,53.9999983520508,0|0,0:0|0:0,0:0:0:0:
425,309,960485,5,8,0:0:0:0:
453,263,960556,1,0,0:0:0:0:
453,209,960627,2,0,L|433:137,1,53.9999983520508,0|0,0:0|0:0,0:0:0:0:
365,50,960770,5,10,0:0:0:0:
316,73,960842,1,0,0:0:0:0:
285,116,960913,2,0,L|263:177,1,53.9999983520508,0|0,0:0|0:0,0:0:0:0:
262,306,961056,5,10,0:0:0:0:
207,306,961127,1,0,0:0:0:0:
163,274,961199,2,0,L|129:220,1,53.9999983520508,0|0,0:0|0:0,0:0:0:0:
61,127,961342,5,8,0:0:0:0:
82,76,961413,1,0,0:0:0:0:
124,43,961485,2,0,L|200:22,1,53.9999983520508,0|0,0:0|0:0,0:0:0:0:
269,113,961627,5,14,0:0:0:0:
266,166,961699,1,0,0:0:0:0:
244,216,961770,2,0,L|192:272,1,53.9999983520508,0|0,0:0|0:0,0:0:0:0:
85,281,961913,5,14,0:0:0:0:
91,333,961985,1,0,0:0:0:0:
134,364,962056,2,0,L|188:383,1,53.9999983520508,0|0,0:0|0:0,0:0:0:0:
304,330,962199,5,8,0:0:0:0:
348,299,962270,1,0,0:0:0:0:
374,252,962342,2,0,L|383:188,1,53.9999983520508,0|0,0:0|0:0,0:0:0:0:
285,87,962485,5,8,0:0:0:0:
249,127,962556,1,0,0:0:0:0:
252,180,962627,2,0,L|274:245,1,53.9999983520508,0|0,0:0|0:0,0:0:0:0:
420,118,962770,5,8,0:0:0:0:
411,64,962842,1,0,0:0:0:0:
370,27,962913,2,0,L|286:-9,1,53.9999983520508,0|0,0:0|0:0,0:0:0:0:
249,127,963056,6,0,L|171:139,3,53.9999983520508,8|0|0|0,0:0|0:0|0:0|0:0,0:0:0:0:
95,37,963342,2,0,L|24:1,3,53.9999983520508,10|0|2|0,0:0|0:0|0:0|0:0,0:0:0:0:
31,139,963627,5,14,0:0:0:0:
34,193,963699,1,0,0:0:0:0:
49,243,963770,2,0,L|87:286,1,53.9999983520508,0|0,0:0|0:0,0:0:0:0:
210,275,963913,5,8,0:0:0:0:
262,259,963985,1,0,0:0:0:0:
303,224,964056,2,0,L|349:151,1,53.9999983520508,0|0,0:0|0:0,0:0:0:0:
177,58,964199,5,10,0:0:0:0:
143,100,964270,1,0,0:0:0:0:
143,154,964342,2,0,L|166:221,1,53.9999983520508,0|0,0:0|0:0,0:0:0:0:
262,259,964485,5,10,0:0:0:0:
232,303,964556,1,0,0:0:0:0:
184,328,964627,2,0,L|110:335,1,53.9999983520508,0|0,0:0|0:0,0:0:0:0:
60,248,964770,5,8,0:0:0:0:
43,196,964842,1,0,0:0:0:0:
46,142,964913,2,0,L|75:82,1,53.9999983520508,0|0,0:0|0:0,0:0:0:0:
194,69,965056,5,10,0:0:0:0:
247,70,965127,1,0,0:0:0:0:
297,90,965199,2,0,L|357:129,1,53.9999983520508,0|0,0:0|0:0,0:0:0:0:
236,221,965342,5,10,0:0:0:0:
255,270,965413,1,0,0:0:0:0:
294,307,965485,2,0,L|356:343,1,53.9999983520508,0|0,0:0|0:0,0:0:0:0:
471,347,965627,5,8,0:0:0:0:
482,293,965699,1,0,0:0:0:0:
466,241,965770,2,0,L|426:179,1,53.9999983520508,0|0,0:0|0:0,0:0:0:0:
301,264,965913,5,10,0:0:0:0:
262,225,965985,1,0,0:0:0:0:
245,173,966056,2,0,L|241:93,1,53.9999983520508,0|0,0:0|0:0,0:0:0:0:
344,63,966199,5,10,0:0:0:0:
310,21,966270,1,0,0:0:0:0:
257,8,966342,2,0,L|174:5,1,53.9999983520508,0|0,0:0|0:0,0:0:0:0:
127,103,966485,5,12,0:0:0:0:
102,150,966556,1,0,0:0:0:0:
96,203,966627,2,0,L|104:264,1,53.9999983520508,0|0,0:0|0:0,0:0:0:0:
197,332,966770,6,0,L|262:357,3,53.9999983520508,14|0|0|0,0:0|0:0|0:0|0:0,0:0:0:0:
255,243,967056,5,14,0:0:0:0:
263,189,967127,1,0,0:0:0:0:
284,140,967199,1,0,0:0:0:0:
318,98,967270,1,0,0:0:0:0:
361,66,967342,6,0,L|417:30,1,53.9999983520508,10|0,0:0|0:0,0:0:0:0:
500,154,967485,1,2,0:0:0:0:
496,206,967556,1,0,0:0:0:0:
479,258,967627,1,8,0:0:0:0:
449,303,967699,1,0,0:0:0:0:
408,337,967770,1,0,0:0:0:0:
359,360,967842,1,0,0:0:0:0:
306,368,967913,6,0,L|227:367,1,53.9999983520508,14|0,0:0|0:0,0:0:0:0:
121,315,968056,1,2,0:0:0:0:
110,262,968127,1,0,0:0:0:0:
126,211,968199,1,8,0:0:0:0:
141,159,968270,1,0,0:0:0:0:
133,106,968342,1,0,0:0:0:0:
104,61,968413,1,0,0:0:0:0:
59,32,968485,5,10,0:0:0:0:
41,83,968556,1,0,0:0:0:0:
35,136,968627,1,0,0:0:0:0:
42,190,968699,1,0,0:0:0:0:
60,241,968770,5,14,0:0:0:0:
92,198,968842,1,0,0:0:0:0:
138,169,968913,1,0,0:0:0:0:
190,158,968985,1,0,0:0:0:0:
244,165,969056,6,0,L|316:192,1,53.9999983520508,10|0,0:0|0:0,0:0:0:0:
422,254,969199,1,0,0:0:0:0:
460,217,969270,1,0,0:0:0:0:
478,166,969342,1,10,0:0:0:0:
472,113,969413,1,0,0:0:0:0:
442,69,969485,1,0,0:0:0:0:
395,44,969556,1,0,0:0:0:0:
341,37,969627,6,0,L|285:44,1,53.9999983520508,10|0,0:0|0:0,0:0:0:0:
135,118,969770,1,0,0:0:0:0:
108,163,969842,1,0,0:0:0:0:
116,216,969913,1,8,0:0:0:0:
155,251,969985,1,0,0:0:0:0:
208,254,970056,1,0,0:0:0:0:
261,260,970127,1,0,0:0:0:0:
309,284,970199,5,10,0:0:0:0:
291,334,970270,1,0,0:0:0:0:
252,371,970342,1,0,0:0:0:0:
201,384,970413,1,0,0:0:0:0:
149,372,970485,5,14,0:0:0:0:
167,321,970556,1,0,0:0:0:0:
171,267,970627,1,0,0:0:0:0:
161,215,970699,1,0,0:0:0:0:
135,167,970770,1,8,0:0:0:0:
118,115,970842,1,0,0:0:0:0:
127,62,970913,1,0,0:0:0:0:
163,21,970985,1,0,0:0:0:0:
214,5,971056,1,8,0:0:0:0:
266,17,971127,1,0,0:0:0:0:
306,53,971199,1,0,0:0:0:0:
327,102,971270,1,0,0:0:0:0:
326,156,971342,5,8,0:0:0:0:
315,208,971413,1,0,0:0:0:0:
315,261,971485,1,0,0:0:0:0:
345,312,971556,1,0,0:0:0:0:
395,323,971627,1,8,0:0:0:0:
446,309,971699,1,0,0:0:0:0:
481,268,971770,1,0,0:0:0:0:
486,216,971842,1,0,0:0:0:0:
472,163,971913,6,0,L|442:88,3,53.9999983520508,14|0|0|0,0:0|0:0|0:0|0:0,0:0:0:0:
359,213,972199,5,14,0:0:0:0:
338,262,972270,1,0,0:0:0:0:
298,298,972342,1,0,0:0:0:0:
247,314,972413,1,0,0:0:0:0:
194,307,972485,1,8,0:0:0:0:
149,278,972556,1,0,0:0:0:0:
120,233,972627,1,0,0:0:0:0:
113,180,972699,1,0,0:0:0:0:
128,129,972770,1,8,0:0:0:0:
164,89,972842,1,0,0:0:0:0:
214,68,972913,1,0,0:0:0:0:
267,70,972985,1,0,0:0:0:0:
315,94,973056,5,4,0:0:0:0:
438,340,973913,6,0,P|355:268|199:239,1,269.999991760254,6|0,0:0|0:0,0:0:0:0:
201,238,974770,1,8,0:0:0:0:
29,198,975056,6,0,L|75:101,1,80.9999975280763,2|0,0:0|0:0,0:0:0:0:
185,19,975342,2,0,L|217:129,1,80.9999975280763,2|0,0:0|0:0,0:0:0:0:
293,263,975627,2,0,P|368:275|470:182,1,215.999993408203,2|0,0:0|0:0,0:0:0:0:
469,167,976270,1,0,0:0:0:0:
469,145,976342,1,0,0:0:0:0:
465,123,976413,1,0,0:0:0:0:
458,102,976485,1,14,0:0:0:0:
201,64,977342,6,0,P|207:148|227:192,1,107.999996704102,4|0,0:0|0:0,0:0:0:0:
429,284,978056,1,0,0:0:0:0:
218,323,978199,5,8,0:0:0:0:
158,214,978485,1,0,0:0:0:0:
105,109,978770,1,0,0:0:0:0:
313,38,979056,5,6,0:0:0:0:
507,81,979199,1,2,0:0:0:0:
368,181,979342,2,0,L|291:241,1,80.9999975280763,2|0,0:0|0:0,0:0:0:0:
507,81,979627,2,0,L|442:129,1,80.9999975280763,2|0,0:0|0:0,0:0:0:0:
304,230,979913,5,10,0:0:0:0:
172,162,980056,1,0,0:0:0:0:
357,102,980199,1,2,0:0:0:0:
207,247,980342,1,2,0:0:0:0:
262,112,980485,1,2,0:0:0:0:
391,190,980627,1,2,0:0:0:0:
177,63,980770,2,0,P|118:73|61:255,1,269.999991760254,2|0,0:0|0:0,0:0:0:0:
71,272,981556,1,0,0:0:0:0:
85,288,981627,1,8,0:0:0:0:
430,324,982199,5,2,0:0:0:0:
314,73,982485,2,0,P|238:35|105:74,1,215.999993408203,6|0,0:0|0:0,0:0:0:0:
101,81,983127,1,0,0:0:0:0:
90,99,983199,1,0,0:0:0:0:
82,119,983270,1,0,0:0:0:0:
76,139,983342,1,8,0:0:0:0:
273,39,983913,5,0,0:0:0:0:
273,39,984199,2,0,P|340:65|371:103,2,107.999996704102,6|0|0,0:0|0:0|0:0,0:0:0:0:
260,159,985056,1,10,0:0:0:0:
435,331,985342,1,2,0:0:0:0:
455,51,985627,1,2,0:0:0:0:
262,196,985913,6,0,P|263:245|452:322,1,269.999991760254,2|0,0:0|0:0,0:0:0:0:
452,318,986699,1,0,0:0:0:0:
465,300,986770,1,14,0:0:0:0:
433,178,986913,1,0,0:0:0:0:
421,160,986984,1,0,0:0:0:0:
414,139,987056,1,2,0:0:0:0:
353,24,987199,1,0,0:0:0:0:
225,82,987342,1,2,0:0:0:0:
232,222,987485,1,0,0:0:0:0:
125,312,987627,6,0,P|76:332|24:321,2,107.999996704102,6|0|0,0:0|0:0|0:0,0:0:0:0:
25,43,988485,1,8,0:0:0:0:
240,76,988770,6,0,L|334:100,1,80.9999975280763,2|0,0:0|0:0,0:0:0:0:
257,282,989056,2,0,L|163:306,1,80.9999975280763,2|0,0:0|0:0,0:0:0:0:
97,136,989342,2,0,P|44:177|18:336,1,215.999993408203,6|0,0:0|0:0,0:0:0:0:
19,336,989985,1,0,0:0:0:0:
32,352,990056,1,0,0:0:0:0:
48,366,990127,1,0,0:0:0:0:
67,374,990199,1,10,0:0:0:0:
309,68,990770,5,0,0:0:0:0:
309,68,991056,2,0,P|357:39|494:121,1,215.999993408203,6|0,0:0|0:0,0:0:0:0:
459,314,991913,1,8,0:0:0:0:
205,279,992485,1,0,0:0:0:0:
121,41,992770,5,6,0:0:0:0:
62,193,992913,1,2,0:0:0:0:
244,141,993056,2,0,L|351:111,1,80.9999975280763,2|0,0:0|0:0,0:0:0:0:
62,193,993342,2,0,L|169:163,1,80.9999975280763,2|0,0:0|0:0,0:0:0:0:
320,232,993627,5,10,0:0:0:0:
373,358,993770,1,0,0:0:0:0:
232,307,993913,1,2,0:0:0:0:
455,273,994056,1,2,0:0:0:0:
321,119,994199,1,2,0:0:0:0:
294,356,994342,1,2,0:0:0:0:
411,177,994485,6,0,P|402:50|280:17,1,269.999991760254,6|0,0:0|0:0,0:0:0:0:
249,28,995270,1,0,0:0:0:0:
232,41,995342,1,8,0:0:0:0:
119,167,995627,1,0,0:0:0:0:
215,319,995913,1,2,0:0:0:0:
286,161,996199,6,0,P|313:101|497:180,1,323.999990112305,6|8,0:0|0:0,0:0:0:0:
245,182,997627,5,0,0:0:0:0:
245,182,997913,2,0,P|181:105|37:218,1,323.999990112305,6|8,0:0|0:0,0:0:0:0:
168,337,999056,1,2,0:0:0:0:
122,72,999342,1,2,0:0:0:0:
451,117,999627,5,4,0:0:0:0:
395,340,999913,1,4,0:0:0:0:
348,59,1000199,1,4,0:0:0:0:
250,310,1000485,5,4,0:0:0:0:
169,15,1000770,1,4,0:0:0:0:
114,302,1001056,1,4,0:0:0:0:
332,340,1001342,6,0,P|356:280|360:235,1,90,2|0,0:0|0:0,0:0:0:0:
47,35,1001627,2,0,L|83:155,1,90,4|0,0:0|0:0,0:0:0:0:
446,36,1001913,2,0,L|420:122,1,90,4|0,0:0|0:0,0:0:0:0:
227,249,1002199,6,0,P|274:307|309:324,1,90,8|0,0:0|0:0,0:0:0:0:
102,50,1002485,2,0,L|23:102,1,90,4|0,0:0|0:0,0:0:0:0:
410,334,1002770,2,0,L|489:282,1,90,4|0,0:0|0:0,0:0:0:0:
391,115,1003056,5,2,0:0:0:0:
327,230,1003199,1,0,0:0:0:0:
98,79,1003342,1,4,0:0:0:0:
122,255,1003485,1,0,0:0:0:0:
379,52,1003627,1,4,0:0:0:0:
339,251,1003770,1,0,0:0:0:0:
95,40,1003913,5,8,0:0:0:0:
122,280,1004056,2,0,L|152:172,1,90,4|0,0:0|0:0,0:0:0:0:
421,7,1004342,2,0,L|391:115,1,90,4|0,0:0|0:0,0:0:0:0:
334,326,1004627,1,4,0:0:0:0:
447,326,1004770,6,0,P|438:282|413:245,1,90,2|0,0:0|0:0,0:0:0:0:
90,284,1005056,1,4,0:0:0:0:
248,256,1005199,1,0,0:0:0:0:
382,39,1005342,1,4,0:0:0:0:
248,93,1005485,1,0,0:0:0:0:
363,141,1005627,6,0,P|424:135|463:102,1,90,8|0,0:0|0:0,0:0:0:0:
131,43,1005913,1,4,0:0:0:0:
363,141,1006056,1,0,0:0:0:0:
109,172,1006199,1,4,0:0:0:0:
341,270,1006342,1,0,0:0:0:0:
217,342,1006485,6,0,P|201:291|202:253,1,90,2|0,0:0|0:0,0:0:0:0:
490,43,1006770,2,0,L|382:110,1,90,4|0,0:0|0:0,0:0:0:0:
125,302,1007056,2,0,L|233:235,1,90,4|0,0:0|0:0,0:0:0:0:
306,25,1007342,5,8,0:0:0:0:
359,331,1007485,1,4,0:0:0:0:
279,206,1007627,1,0,0:0:0:0:
512,47,1007770,1,4,0:0:0:0:
386,53,1007913,2,0,P|397:106|426:140,1,90,0|4,0:0|0:0,0:0:0:0:
446,270,1008199,6,0,P|400:294|351:295,1,90,2|0,0:0|0:0,0:0:0:0:
189,56,1008485,1,4,0:0:0:0:
96,176,1008627,1,0,0:0:0:0:
362,296,1008770,1,4,0:0:0:0:
208,327,1008913,1,0,0:0:0:0:
289,43,1009056,6,8,P|328:91|329:137,1,90,8|0,0:0|0:0,0:0:0:0:
35,266,1009342,2,0,L|118:331,1,90,4|0,0:0|0:0,0:0:0:0:
477,266,1009627,2,0,L|395:334,1,90,4|0,0:0|0:0,0:0:0:0:
262,248,1009913,5,2,0:0:0:0:
235,117,1010056,1,0,0:0:0:0:
477,266,1010199,1,4,0:0:0:0:
317,341,1010342,1,0,0:0:0:0:
327,82,1010485,1,4,0:0:0:0:
498,129,1010627,1,0,0:0:0:0:
249,292,1010770,5,8,0:0:0:0:
117,64,1010913,2,0,L|63:172,1,90,4|0,0:0|0:0,0:0:0:0:
404,382,1011199,2,0,L|458:274,1,90,4|0,0:0|0:0,0:0:0:0:
234,255,1011485,1,4,0:0:0:0:
124,344,1011627,6,0,P|82:367|24:375,1,90,2|0,0:0|0:0,0:0:0:0:
129,139,1011913,2,0,P|167:115|230:103,1,90
420,203,1012199,2,0,P|384:228|322:248,1,90,0|0,0:0|0:0,0:0:0:0:
341,244,1012413,1,0,0:0:0:0:
341,244,1012485,5,8,0:0:0:0:
217,126,1012627,1,0,0:0:0:0:
164,232,1012770,1,0,0:0:0:0:
308,132,1012913,1,0,0:0:0:0:
127,105,1013056,1,0,0:0:0:0:
258,212,1013199,1,0,0:0:0:0:
345,45,1013342,6,0,P|382:76|428:82,1,90,2|0,0:0|0:0,0:0:0:0:
258,212,1013627,2,0,P|262:261|290:297,1,90,0|0,0:0|0:0,0:0:0:0:
81,242,1013913,2,0,P|49:279|43:325,1,90,0|0,0:0|0:0,0:0:0:0:
42,318,1014127,1,0,0:0:0:0:
42,318,1014199,5,8,0:0:0:0:
199,293,1014342,1,0,0:0:0:0:
195,161,1014485,1,4,0:3:0:0:
81,242,1014627,1,0,0:0:0:0:
199,293,1014770,1,4,0:3:0:0:
316,257,1014913,1,0,0:0:0:0:
437,309,1015056,6,0,P|475:351|492:393,1,90,2|0,0:0|0:0,0:0:0:0:
89,135,1015342,2,0,L|163:84,1,90,4|0,0:0|0:0,0:0:0:0:
512,260,1015627,2,0,L|437:310,1,90,4|0,0:0|0:0,0:0:0:0:
339,82,1015913,5,8,0:0:0:0:
212,163,1016056,1,0,0:0:0:0:
328,384,1016199,2,0,L|357:276,1,90,4|0,0:0|0:0,0:0:0:0:
145,0,1016485,2,0,L|116:108,1,90,4|0,0:0|0:0,0:0:0:0:
239,175,1016770,5,2,0:0:0:0:
317,63,1016913,1,0,0:0:0:0:
34,226,1017056,2,0,L|83:330,1,90,4|0,0:0|0:0,0:0:0:0:
478,226,1017342,2,0,L|429:330,1,90,4|0,0:0|0:0,0:0:0:0:
309,41,1017627,5,8,0:0:0:0:
286,384,1017770,2,0,L|222:320,1,90,4|0,0:0|0:0,0:0:0:0:
169,0,1018056,2,0,L|104:63,1,90,4|0,0:0|0:0,0:0:0:0:
72,311,1018342,1,4,0:0:0:0:
244,226,1018485,6,0,P|296:212|336:185,1,90,2|0,0:0|0:0,0:0:0:0:
104,62,1018770,1,4,0:0:0:0:
246,97,1018913,1,0,0:0:0:0:
190,343,1019056,1,4,0:0:0:0:
349,276,1019199,1,0,0:0:0:0:
489,292,1019342,6,0,P|477:336|445:377,1,90,8|0,0:0|0:0,0:0:0:0:
388,47,1019627,1,4,0:0:0:0:
349,276,1019770,1,0,0:0:0:0:
238,51,1019913,1,4,0:0:0:0:
193,279,1020056,1,0,0:0:0:0:
83,211,1020199,6,0,P|126:170|167:155,1,90,2|0,0:0|0:0,0:0:0:0:
473,362,1020485,2,0,L|439:272,1,90,4|0,0:0|0:0,0:0:0:0:
121,74,1020770,2,0,L|155:164,1,90,4|0,0:0|0:0,0:0:0:0:
337,373,1021056,5,8,0:0:0:0:
38,290,1021199,2,0,L|161:256,1,90,4|0,0:0|0:0,0:0:0:0:
457,192,1021485,2,0,L|334:158,1,90,4|0,0:0|0:0,0:0:0:0:
89,103,1021770,1,4,0:0:0:0:
268,53,1021913,6,0,L|370:24,1,90,2|0,0:0|0:0,0:0:0:0:
331,285,1022199,1,4,0:0:0:0:
288,146,1022342,1,0,0:0:0:0:
36,348,1022485,1,4,0:0:0:0:
74,181,1022627,1,0,0:0:0:0:
311,326,1022770,6,0,P|345:288|357:216,1,90,8|0,0:0|0:0,0:0:0:0:
159,82,1023056,1,4,0:0:0:0:
246,231,1023199,1,0,0:0:0:0:
0,79,1023342,1,4,0:0:0:0:
124,182,1023485,1,0,0:0:0:0:
319,90,1023627,6,0,P|386:66|424:67,1,90,2|0,0:0|0:0,0:0:0:0:
295,316,1023913,1,4,0:0:0:0:
393,191,1024056,1,0,0:0:0:0:
139,331,1024199,1,4,0:0:0:0:
120,164,1024342,1,0,0:0:0:0:
242,32,1024485,5,8,0:0:0:0:
403,307,1024627,2,0,L|453:391,1,90,4|0,0:0|0:0,0:0:0:0:
242,32,1024913,2,0,L|292:116,1,90,4|0,0:0|0:0,0:0:0:0:
167,322,1025199,1,4,0:0:0:0:
8,70,1025342,6,0,P|10:114|36:183,1,90,2|0,0:0|0:0,0:0:0:0:
42,198,1025556,1,0,0:0:0:0:
68,233,1025627,1,0,0:0:0:0:
167,322,1025770,1,0,0:0:0:0:
223,179,1025913,1,0,0:0:0:0:
365,125,1026056,1,0,0:0:0:0:
343,276,1026199,6,0,P|279:323|241:324,1,90,8|0,0:0|0:0,0:0:0:0:
145,234,1026485,1,0,0:0:0:0:
160,81,1026627,1,0,0:0:0:0:
282,172,1026770,1,0,0:0:0:0:
270,324,1026913,1,0,0:0:0:0:
394,234,1027056,5,2,0:0:0:0:
411,190,1027127,1,0,0:0:0:0:
409,145,1027199,1,0,0:0:0:0:
297,40,1027342,1,0,0:0:0:0:
213,168,1027485,1,0,0:0:0:0:
314,280,1027627,1,0,0:0:0:0:
170,333,1027770,1,0,0:0:0:0:
125,324,1027842,1,0,0:0:0:0:
93,292,1027913,5,8,0:0:0:0:
17,72,1028056,1,8,0:0:0:0:
226,194,1028199,1,6,0:3:0:0:
150,0,1028342,1,6,0:3:0:0:
110,187,1028485,1,6,0:3:0:0:
256,84,1028627,1,6,0:3:0:0:
350,324,1028770,6,0,P|225:347|206:296,1,180,6|0,0:0|0:0,0:0:0:0:
297,160,1029912,5,0,0:0:0:0:
127,99,1030484,2,0,P|56:123|16:158,2,90
127,99,1031627,1,0,0:0:0:0:
418,61,1032198,6,0,P|397:173|417:263,1,180,6|0,0:0|0:0,0:0:0:0:
229,266,1033341,1,0,0:0:0:0:
174,94,1033912,2,0,P|106:62|53:72,2,90
174,94,1035055,1,0,0:0:0:0:
365,45,1035627,6,0,P|394:102|380:243,2,180,6|0|0,0:0|0:0|0:0,0:0:0:0:
152,320,1037341,2,0,L|114:238,2,90
239,297,1038055,6,4,L|248:325,2,22.5,4|4|4,0:3|0:3|0:3,0:3:0:0:
239,297,1038341,1,4,0:3:0:0:
317,252,1038484,1,4,0:3:0:0:
317,252,1038627,1,4,0:3:0:0:
346,166,1038770,1,4,0:3:0:0:
346,166,1038912,1,4,0:3:0:0:
171,157,1039055,5,6,0:0:0:0:
403,264,1039627,2,0,P|447:181|412:86,1,180
207,84,1040770,2,0,P|156:69|117:42,2,90
318,160,1041627,2,0,L|321:214,1,45,2|0,0:0|0:0,0:0:0:0:
236,364,1041912,2,0,L|233:319,1,45,2|0,0:0|0:0,0:0:0:0:
122,174,1042198,2,0,L|125:219,1,45,2|0,0:0|0:0,0:0:0:0:
23,369,1042484,5,6,0:0:0:0:
42,103,1043055,2,0,P|112:71|221:68,1,180
386,193,1044198,1,0,0:0:0:0:
397,282,1044484,1,0,0:0:0:0:
310,256,1044770,1,0,0:0:0:0:
310,256,1045341,1,0,0:0:0:0:
73,306,1045912,6,0,P|177:358|237:347,1,180,6|0,0:0|0:0,0:0:0:0:
306,181,1047055,1,0,0:0:0:0:
90,140,1047627,5,2,0:0:0:0:
362,305,1047912,1,2,0:0:0:0:
343,51,1048770,5,2,0:0:0:0:
170,318,1049055,1,2,0:0:0:0:
173,49,1049341,2,0,P|114:65|18:152,1,180,6|0,0:0|0:0,0:0:0:0:
133,285,1050484,2,0,P|209:295|315:274,1,180
390,236,1051341,1,0,0:0:0:0:
455,174,1051627,1,0,0:0:0:0:
455,174,1052198,1,0,0:0:0:0:
311,81,1052770,6,0,B|189:97|234:215|253:253|116:248|116:248|306:379|321:175|321:175|414:292,1,720,6|0,0:0|0:0,0:0:0:0:
399,273,1055627,1,0,0:0:0:0:
132,24,1056198,6,0,B|188:101|70:159|70:159|242:221|242:221|162:211|70:255|70:255|168:204|212:139|212:139|285:147|315:107|347:14,1,900,6|0,0:0|0:0,0:0:0:0:
242,223,1059627,5,4,0:0:0:0:
369,192,1063055,6,0,P|346:267|233:227,1,216,2|0,0:0|0:0,0:0:0:0:
195,177,1064198,1,2,0:0:0:0:
130,145,1064484,1,0,0:0:0:0:
62,171,1064770,2,0,P|30:223|82:301,1,144,2|2,0:0|0:0,0:0:0:0:
101,231,1065627,2,0,P|61:170|139:45,1,216,0|2,0:0|0:0,0:0:0:0:
189,41,1066770,5,0,0:0:0:0:
203,111,1067055,2,0,P|161:140|130:144,2,72,2|0|0,0:0|0:0|0:0,0:0:0:0:
265,74,1067912,1,0,0:0:0:0:
337,74,1068198,2,0,P|392:92|469:234,1,216,2|0,0:0|0:0,0:0:0:0:
100,51,1069912,6,0,L|254:203,1,216,2|0,0:0|0:0,0:0:0:0:
321,229,1071055,1,0,0:0:0:0:
388,203,1071341,1,0,0:0:0:0:
412,135,1071627,2,0,P|436:78|529:76,1,144,2|2,0:0|0:0,0:0:0:0:
485,132,1072484,1,0,0:0:0:0:
346,93,1073055,5,0,0:0:0:0:
279,119,1073341,2,0,P|200:173|166:220,1,144,2|2,0:0|0:0,0:0:0:0:
133,272,1074198,1,0,0:0:0:0:
98,208,1074484,1,0,0:0:0:0:
128,142,1074770,1,0,0:0:0:0:
184,97,1075055,2,0,P|245:71|357:185,2,216,2|0|2,0:0|0:0|0:0,0:0:0:0:
257,187,1077627,6,0,L|267:259,2,72
244,115,1078484,2,0,P|215:70|131:68,1,144,2|2,0:0|0:0,0:0:0:0:
173,126,1079341,2,0,P|126:184|9:135,1,216,0|2,0:0|0:0,0:0:0:0:
5,68,1080484,5,0,0:0:0:0:
73,46,1080770,2,0,P|93:87|83:139,1,72,2|0,0:0|0:0,0:0:0:0:
152,153,1081341,2,0,P|154:188|172:219,1,72,2|0,0:0|0:0,0:0:0:0:
224,170,1081912,1,2,0:0:0:0:
73,275,1082770,1,0,0:0:0:0:
360,182,1083627,6,0,P|342:125|208:51,1,216,2|0,0:0|0:0,0:0:0:0:
166,105,1084770,2,0,P|162:152|140:203,1,72
198,232,1085341,2,0,P|273:233|348:272,1,144,2|2,0:0|0:0,0:0:0:0:
308,328,1086198,2,0,P|245:302|197:163,1,216,0|2,0:0|0:0,0:0:0:0:
363,165,1087627,6,0,L|386:87,2,72,2|0|0,0:0|0:0|0:0,0:0:0:0:
318,221,1088484,1,0,0:0:0:0:
267,272,1088770,2,0,B|205:355|107:279|61:365,1,216,2|0,0:0|0:0,0:0:0:0:
140,150,1090484,5,2,0:0:0:0:
140,150,1091341,1,0,0:0:0:0:
179,210,1091627,1,0,0:0:0:0:
240,247,1091912,1,0,0:0:0:0:
311,258,1092198,2,0,P|365:249|341:168,1,144,2|2,0:0|0:0,0:0:0:0:
286,188,1093055,2,0,B|205:209|218:344|327:337,1,216,0|2,0:0|0:0,0:0:0:0:
372,224,1094484,6,0,L|296:266,1,72,2|0,0:0|0:0,0:0:0:0:
240,280,1095055,2,0,L|164:238,1,72,2|0,0:0|0:0,0:0:0:0:
152,177,1095627,2,0,P|106:264|188:317,1,216,2|0,0:0|0:0,0:0:0:0:
405,253,1097341,6,0,P|350:329|289:347,1,144,2|2,0:0|0:0,0:0:0:0:
236,326,1098198,1,0,0:0:0:0:
191,269,1098484,1,0,0:0:0:0:
172,199,1098770,1,0,0:0:0:0:
195,131,1099055,2,0,P|195:73|96:37,1,144,2|2,0:0|0:0,0:0:0:0:
128,101,1099912,1,0,0:0:0:0:
245,255,1100770,5,2,0:0:0:0:
245,255,1101341,2,0,L|179:225,1,72,2|0,0:0|0:0,0:0:0:0:
221,166,1101912,2,0,L|306:148,1,72,2|0,0:0|0:0,0:0:0:0:
246,94,1102484,2,0,P|220:143|331:214,1,216,2|0,0:0|0:0,0:0:0:0:
291,151,1104198,5,2,0:0:0:0:
148,273,1105055,2,0,L|88:344,2,72
214,245,1105912,2,0,P|209:181|154:219,1,144,2|0,0:0|0:0,0:0:0:0:
214,245,1106770,1,0,0:0:0:0:
327,61,1107627,6,0,P|292:132|402:184,1,216,2|0,0:0|0:0,0:0:0:0:
364,123,1108770,2,0,P|399:119|443:144,2,72,0|0|2,0:0|0:0|0:0,0:0:0:0:
152,83,1110198,1,0,0:0:0:0:
302,238,1111055,5,2,0:0:0:0:
131,105,1111912,2,0,P|104:139|93:186,1,72
103,237,1112484,1,0,0:0:0:0:
157,284,1112770,1,2,0:0:0:0:
240,166,1113341,2,0,L|326:130,1,72,2|0,0:0|0:0,0:0:0:0:
406,324,1114484,6,0,B|323:323|299:214|204:245,1,216,2|0,0:0|0:0,0:0:0:0:
238,310,1115627,1,0,0:0:0:0:
283,254,1115912,1,0,0:0:0:0:
261,184,1116198,2,0,P|163:135|53:174,1,216,2|0,0:0|0:0,0:0:0:0:
161,204,1117912,6,0,P|138:146|169:53,2,144,2|2|0,0:0|0:0|0:0,0:0:0:0:
292,145,1119627,1,2,0:0:0:0:
362,131,1119912,1,2,0:0:0:0:
412,182,1120198,1,2,0:0:0:0:
283,246,1121341,5,2,0:0:0:0:
170,156,1121912,1,2,0:0:0:0:
283,246,1122484,1,0,0:0:0:0:
408,174,1123055,2,0,P|448:138|459:100,2,72,2|2|2,0:0|0:0|0:0,0:0:0:0:
124,226,1124770,6,0,P|176:155|176:86,1,144,2|2,0:0|0:0,0:0:0:0:
302,27,1125912,1,0,0:0:0:0:
321,169,1126484,2,0,L|356:240,1,72,2|2,0:0|0:0,0:0:0:0:
386,297,1127055,1,2,0:0:0:0:
208,69,1128198,6,0,P|146:125|191:157,2,144,2|2|0,0:0|0:0|0:0,0:0:0:0:
342,119,1129912,2,0,P|361:140|326:156,2,72,2|2|2,0:0|0:0|0:0,0:0:0:0:
256,192,1131627,12,0,1135055,0:0:0:0:
256,192,1135198,12,0,1138484,0:0:0:0:
