osu file format v14

[General]
AudioFilename: audio.mp3
AudioLeadIn: 0
PreviewTime: 428698
Countdown: 0
SampleSet: Normal
StackLeniency: 0.7
Mode: 1
LetterboxInBreaks: 0
WidescreenStoryboard: 0

[Editor]
Bookmarks: 130,403406,721977
DistanceSpacing: 0.4
BeatDivisor: 8
GridSize: 32
TimelineZoom: 2.999999

[Metadata]
Title:The Sun, The Moon, The Star
TitleUnicode:The Sun, The Moon, The Star
Artist:Aether Realm
ArtistUnicode:Æther Realm
Creator:frukoyurdakul
Version:Echoes From The Past
Source:osu!
Tags:fa featured artist lzd raiden tarot melodic folk death metal tstmts stars english
BeatmapID:2179670
BeatmapSetID:1042815

[Difficulty]
HPDrainRate:3
CircleSize:2
OverallDifficulty:6.5
ApproachRate:10
SliderMultiplier:1.4
SliderTickRate:1

[Events]
//Background and Video events
0,0,"background.jpg",0,-50
//Break Periods
2,100184,138555
2,293899,316835
2,648435,661535
2,790231,823306
2,891375,916440
//Storyboard Layer 0 (Background)
//Storyboard Layer 1 (Fail)
//Storyboard Layer 2 (Pass)
//Storyboard Layer 3 (Foreground)
//Storyboard Layer 4 (Overlay)
//Storyboard Sound Samples

[TimingPoints]
130,437.956204379562,4,1,0,70,1,0
14144,-66.6666666666667,4,1,0,70,0,0
71954,-57.1428571428571,4,1,0,70,0,0
77210,-66.6666666666667,4,1,0,70,0,0
78962,-57.1428571428571,4,1,0,70,0,0
86407,-66.6666666666667,4,1,0,70,0,0
99984,285.714285714286,3,1,0,70,1,0
141121,284.36018957346,3,1,0,70,1,0
141121,-100.47619047619,3,1,0,70,0,0
142263,285.714285714286,3,1,0,70,1,8
142263,-100,3,1,0,70,0,0
142834,285.714285714286,3,1,0,70,1,8
142842,285.714285714286,3,1,0,70,1,0
142842,-100,3,1,0,70,0,0
167127,-100,3,1,0,60,0,0
180484,-100,3,1,0,65,0,0
190127,-100,3,1,0,65,0,0
192270,-80,3,1,0,65,0,0
192520,-80,3,1,0,80,0,0
192842,-100,3,1,0,70,0,0
193409,-111.111111111111,3,1,0,70,0,0
193481,-108.695652173913,3,1,0,70,0,0
193552,-106.382978723404,3,1,0,70,0,0
193624,-104.166666666667,3,1,0,70,0,0
193695,-102.040816326531,3,1,0,70,0,0
193766,-100,3,1,0,70,0,0
193838,-98.0392156862745,3,1,0,70,0,0
193909,-96.1538461538461,3,1,0,70,0,0
193981,-94.3396226415094,3,1,0,70,0,0
194052,-92.5925925925926,3,1,0,70,0,0
194124,-90.9090909090909,3,1,0,70,0,0
194270,-86.9565217391304,3,1,0,70,0,1
207127,-86.9565217391304,3,1,0,70,0,1
207199,-87.9120879120879,3,1,0,70,0,1
207270,-88.8888888888889,3,1,0,70,0,1
207342,-89.8876404494382,3,1,0,70,0,1
207413,-90.9090909090909,3,1,0,70,0,1
207484,-91.9540229885058,3,1,0,70,0,1
207556,-93.0232558139535,3,1,0,70,0,1
207627,-94.1176470588235,3,1,0,70,0,1
207699,-95.2380952380952,3,1,0,70,0,1
207770,-96.3855421686747,3,1,0,70,0,1
207842,-97.5609756097561,3,1,0,70,0,1
207913,-98.7654320987654,3,1,0,70,0,1
207984,-100,3,1,0,70,0,0
221125,-100,3,1,0,70,0,0
221196,-98.159509202454,3,1,0,70,0,0
221267,-96.3855421686747,3,1,0,70,0,0
221339,-94.6745562130178,3,1,0,70,0,0
221410,-93.0232558139535,3,1,0,70,0,0
221482,-91.4285714285714,3,1,0,70,0,0
221553,-89.8876404494382,3,1,0,70,0,0
221625,-88.3977900552486,3,1,0,70,0,0
221699,-86.9565217391304,3,1,0,70,0,1
235413,-86.9565217391304,3,1,0,70,0,0
235481,-87.9120879120879,3,1,0,70,0,0
235552,-88.8888888888889,3,1,0,70,0,0
235624,-89.8876404494382,3,1,0,70,0,0
235695,-90.9090909090909,3,1,0,70,0,0
235766,-91.9540229885058,3,1,0,70,0,0
235838,-93.0232558139535,3,1,0,70,0,0
235909,-94.1176470588235,3,1,0,70,0,0
235981,-95.2380952380952,3,1,0,70,0,0
236052,-96.3855421686747,3,1,0,70,0,0
236124,-97.5609756097561,3,1,0,70,0,0
236195,-98.7654320987654,3,1,0,70,0,0
236266,-100,3,1,0,70,0,0
261125,-100,3,1,0,70,0,0
261196,-99.5475563563603,3,1,0,70,0,0
261267,-99.0990901712531,3,1,0,70,0,0
261339,-98.6547439120158,3,1,0,70,0,0
261410,-98.2142681760236,3,1,0,70,0,0
261482,-97.7778038518588,3,1,0,70,0,0
261553,-97.3451068995291,3,1,0,70,0,0
261625,-96.9163166372364,3,1,0,70,0,0
261696,-96.4911942136161,3,1,0,70,0,0
261767,-96.0698773860155,3,1,0,70,0,0
261839,-95.6521323251599,3,1,0,70,0,0
261910,-95.2380952380952,3,1,0,70,0,0
261982,-94.8276270808737,3,1,0,70,0,0
262053,-94.4205927535972,3,1,0,70,0,0
262125,-94.0171261597012,3,1,0,70,0,0
262196,-93.6170053417863,3,1,0,70,0,0
262267,-93.2203626831431,3,1,0,70,0,0
262339,-92.8269807189078,3,1,0,70,0,0
262410,-92.4369903255446,3,1,0,70,0,0
262482,-92.0501783932457,3,1,0,70,0,0
262553,-91.6666743055562,3,1,0,70,0,0
262625,-91.2862691758219,3,1,0,70,0,0
262696,-90.9090909090909,3,1,0,70,0,0
262842,-86.9565217391304,3,1,0,70,0,1
293699,-86.9565217391304,3,1,0,70,0,0
294557,-100,3,1,0,70,0,0
403413,-100,4,1,0,60,0,0
430770,-100,4,1,0,70,0,0
430842,-100,3,1,0,70,0,1
458234,-100,3,1,0,60,0,1
458270,-100,3,1,0,60,0,0
513056,-100,3,1,0,70,0,0
513127,-100,3,1,0,70,0,1
541377,-100,3,1,0,60,0,1
541413,-100,3,1,0,60,0,0
595413,-100,3,1,0,70,0,0
596556,-90.9090909090909,3,1,0,70,0,0
604270,-95.2380952380952,3,1,0,70,0,0
604842,-100,3,1,0,70,0,0
605699,-100,3,1,0,70,0,1
618556,-100,3,1,0,70,0,0
619413,-100,3,1,0,70,0,1
633127,-100,3,1,0,70,0,0
635127,-100,3,1,0,70,0,0
636556,-83.3333333333333,3,1,0,70,0,0
638413,-100,3,1,0,70,0,0
639984,-83.3333333333333,3,1,0,70,0,0
640842,-100,3,1,0,70,0,0
642842,-83.3333333333333,3,1,0,70,0,0
643413,-100,3,1,0,70,0,0
644270,-166.666666666667,3,1,0,70,0,0
644556,-50,3,1,0,10,0,0
644842,-200,3,1,0,10,0,0
647698,285.714285714286,3,1,0,10,1,8
647698,-200,3,1,0,10,0,0
648235,312.5,4,1,0,70,1,0
648235,-200,3,1,0,70,0,0
661828,-100,4,1,0,10,0,0
662531,-100,4,1,0,60,0,0
662766,-100,4,1,0,10,0,0
663781,-100,4,1,0,60,0,0
664016,-100,4,1,0,12,0,0
665031,-100,4,1,0,60,0,0
665188,-100,4,1,0,15,0,0
665656,-100,4,1,0,18,0,0
666281,-100,4,1,0,60,0,0
666437,-100,4,1,0,20,0,0
666593,-100,4,1,0,22,0,0
666749,-100,4,1,0,24,0,0
666906,-100,4,1,0,60,0,0
667062,-100,4,1,0,25,0,0
667531,-100,4,1,0,60,0,0
667687,-100,4,1,0,30,0,0
668156,-100,4,1,0,35,0,0
668781,-100,4,1,0,60,0,0
702453,-100,4,1,0,50,0,0
721985,-100,4,1,0,60,0,0
741985,-100,4,1,0,60,0,1
742297,-90.9090909090909,4,1,0,60,0,1
761828,-95.2380952380952,4,1,0,60,0,1
761985,-100,4,1,0,60,0,0
762603,285.714285714286,3,1,0,50,1,0
776317,-100,3,1,0,60,0,1
776603,-90.9090909090909,3,1,0,50,0,1
783174,-86.9565217391304,3,1,0,50,0,1
790031,574.712643678161,3,1,0,60,1,0
790031,-43.4782608695652,3,1,0,60,0,0
791471,571.428571428571,3,1,0,10,1,8
791756,571.428571428571,3,1,0,10,1,0
823613,-100,3,1,0,10,0,0
825898,-100,3,1,0,60,0,0
826033,285.714285714286,3,1,0,60,1,0
826033,-125,3,1,0,50,0,0
840604,-111.111111111111,3,1,0,50,0,0
853461,-100,3,1,0,60,0,1
853747,-90.9090909090909,3,1,0,60,0,1
860318,-100,3,1,0,60,0,0
866604,-98.9010989010989,4,1,0,60,0,0
866675,-97.8260869565217,4,1,0,60,0,0
866747,-96.7741935483871,4,1,0,60,0,0
866818,-95.7446808510638,4,1,0,60,0,0
866890,-94.7368421052632,4,1,0,60,0,0
866961,-93.75,4,1,0,60,0,0
867033,-92.7835051546392,4,1,0,60,0,0
867104,-91.8367346938775,4,1,0,60,0,0
867175,-90.9090909090909,3,1,0,60,0,1
872318,-90.9090909090909,3,1,0,60,0,0
872604,-100,3,1,0,60,0,0
891175,-100,3,1,0,60,0,0
892032,-200,3,1,0,10,0,0
916890,-66.6666666666667,3,1,0,60,0,0
917747,-100,3,1,0,60,0,0
917818,-99.173586503665,3,1,0,60,0,0
917890,-98.3606234883202,3,1,0,60,0,0
917961,-97.5609756097561,3,1,0,60,0,0
918033,-96.774224765879,3,1,0,60,0,0
918104,-95.9999692800098,3,1,0,60,0,0
918175,-95.2380952380952,3,1,0,60,0,0
918247,-94.4882187364469,3,1,0,60,0,0
918318,-93.7499707031342,3,1,0,60,0,0
918390,-93.0232558139535,3,1,0,60,0,0
918461,-92.3077207100679,3,1,0,60,0,0
918533,-91.6030254647251,3,1,0,60,0,0
918604,-90.9090909090909,3,1,0,70,0,1
944318,-90.9090909090909,3,1,0,70,0,0
946033,-90.9090909090909,3,1,0,60,0,1
958890,-90.9090909090909,3,1,0,70,0,1
972604,-90.9090909090909,3,1,0,70,0,0
973461,-100,3,1,0,60,0,0
1028318,571.428571428571,3,1,0,60,1,0
1028318,-50,3,1,0,60,0,0
1030032,-66.6666666666667,3,1,0,60,0,0
1059175,-100,3,1,0,40,0,0

[HitObjects]
160,288,14144,5,4,0:0:0:0:
352,96,14290,1,8,0:0:0:0:
160,96,14363,1,0,0:0:0:0:
352,96,14436,1,8,0:0:0:0:
160,96,14509,1,0,0:0:0:0:
352,96,14582,1,8,0:0:0:0:
352,96,14655,1,8,0:0:0:0:
160,96,14728,1,0,0:0:0:0:
160,96,14801,1,0,0:0:0:0:
352,96,14874,1,8,0:0:0:0:
160,96,14947,1,0,0:0:0:0:
352,96,15020,1,8,0:0:0:0:
352,96,15093,1,8,0:0:0:0:
352,96,15166,1,8,0:0:0:0:
160,96,15239,1,0,0:0:0:0:
352,96,15312,1,8,0:0:0:0:
160,96,15385,1,0,0:0:0:0:
352,96,15458,1,8,0:0:0:0:
352,96,15531,1,8,0:0:0:0:
352,96,15604,1,8,0:0:0:0:
160,96,15677,1,0,0:0:0:0:
160,96,15750,1,0,0:0:0:0:
160,96,15823,1,0,0:0:0:0:
352,96,15896,1,8,0:0:0:0:
160,96,15969,1,0,0:0:0:0:
352,96,16042,1,8,0:0:0:0:
352,96,16115,1,8,0:0:0:0:
160,96,16188,1,0,0:0:0:0:
160,96,16261,1,0,0:0:0:0:
352,96,16334,1,8,0:0:0:0:
352,96,16407,1,8,0:0:0:0:
160,96,16480,1,0,0:0:0:0:
160,96,16553,1,0,0:0:0:0:
160,96,16626,1,0,0:0:0:0:
160,96,16699,1,0,0:0:0:0:
352,96,16772,1,8,0:0:0:0:
352,96,16845,1,8,0:0:0:0:
352,96,16918,1,8,0:0:0:0:
160,96,16991,1,0,0:0:0:0:
352,96,17064,1,8,0:0:0:0:
160,96,17137,1,0,0:0:0:0:
352,96,17210,1,8,0:0:0:0:
352,96,17283,1,8,0:0:0:0:
352,96,17356,1,8,0:0:0:0:
352,96,17429,1,8,0:0:0:0:
160,96,17502,1,0,0:0:0:0:
160,96,17575,1,0,0:0:0:0:
352,96,17648,1,8,0:0:0:0:
160,96,17721,1,0,0:0:0:0:
352,96,17794,1,8,0:0:0:0:
160,96,17867,1,0,0:0:0:0:
352,96,17940,1,8,0:0:0:0:
160,96,18013,1,0,0:0:0:0:
352,96,18086,1,8,0:0:0:0:
352,96,18159,1,8,0:0:0:0:
160,96,18232,1,0,0:0:0:0:
160,96,18305,1,0,0:0:0:0:
352,96,18378,1,8,0:0:0:0:
160,96,18451,1,0,0:0:0:0:
352,96,18524,1,8,0:0:0:0:
352,96,18597,1,8,0:0:0:0:
160,96,18670,1,0,0:0:0:0:
160,96,18743,1,0,0:0:0:0:
352,96,18816,1,8,0:0:0:0:
160,96,18889,1,0,0:0:0:0:
352,96,18962,1,8,0:0:0:0:
352,96,19035,1,8,0:0:0:0:
160,96,19108,1,0,0:0:0:0:
160,96,19181,1,0,0:0:0:0:
352,96,19254,1,8,0:0:0:0:
352,96,19327,1,8,0:0:0:0:
160,96,19400,1,0,0:0:0:0:
160,96,19473,1,0,0:0:0:0:
352,96,19546,1,8,0:0:0:0:
160,96,19619,1,0,0:0:0:0:
352,96,19692,1,8,0:0:0:0:
160,96,19765,1,0,0:0:0:0:
160,96,19838,1,0,0:0:0:0:
160,96,19911,1,0,0:0:0:0:
352,96,19984,1,8,0:0:0:0:
160,96,20057,1,0,0:0:0:0:
352,96,20129,1,8,0:0:0:0:
160,96,20202,1,0,0:0:0:0:
352,96,20275,1,8,0:0:0:0:
160,96,20348,1,0,0:0:0:0:
352,96,20421,1,8,0:0:0:0:
352,96,20494,1,8,0:0:0:0:
160,96,20567,1,0,0:0:0:0:
160,96,20640,1,0,0:0:0:0:
352,96,20713,1,8,0:0:0:0:
352,96,20786,1,8,0:0:0:0:
160,96,20859,1,0,0:0:0:0:
160,96,20932,1,0,0:0:0:0:
160,96,21005,1,0,0:0:0:0:
160,288,21151,1,4,0:0:0:0:
160,288,21297,1,4,0:0:0:0:
160,288,21443,1,4,0:0:0:0:
352,288,21589,1,12,0:0:0:0:
160,96,21735,1,0,0:0:0:0:
160,96,21881,1,0,0:0:0:0:
352,96,22027,1,8,0:0:0:0:
160,96,22100,1,0,0:0:0:0:
352,96,22173,1,8,0:0:0:0:
160,96,22246,1,0,0:0:0:0:
352,96,22319,1,8,0:0:0:0:
352,96,22392,1,8,0:0:0:0:
160,96,22465,1,0,0:0:0:0:
160,96,22538,1,0,0:0:0:0:
352,96,22611,1,8,0:0:0:0:
352,96,22684,1,8,0:0:0:0:
352,96,22757,1,8,0:0:0:0:
160,96,22830,1,0,0:0:0:0:
352,96,22903,1,8,0:0:0:0:
160,96,22976,1,0,0:0:0:0:
160,96,23049,1,0,0:0:0:0:
160,96,23122,1,0,0:0:0:0:
352,96,23195,1,8,0:0:0:0:
160,96,23268,1,0,0:0:0:0:
352,96,23341,1,8,0:0:0:0:
160,96,23414,1,0,0:0:0:0:
160,96,23487,1,0,0:0:0:0:
160,96,23560,1,0,0:0:0:0:
352,96,23633,1,8,0:0:0:0:
160,96,23706,1,0,0:0:0:0:
352,96,23779,1,8,0:0:0:0:
160,96,23852,1,0,0:0:0:0:
352,96,23925,1,8,0:0:0:0:
352,96,23998,1,8,0:0:0:0:
160,96,24071,1,0,0:0:0:0:
160,96,24144,1,0,0:0:0:0:
352,96,24217,1,8,0:0:0:0:
352,96,24290,1,8,0:0:0:0:
352,96,24363,1,8,0:0:0:0:
160,96,24436,1,0,0:0:0:0:
352,96,24509,1,8,0:0:0:0:
160,96,24582,1,0,0:0:0:0:
352,96,24655,1,8,0:0:0:0:
352,96,24728,1,8,0:0:0:0:
160,96,24801,1,0,0:0:0:0:
160,96,24874,1,0,0:0:0:0:
352,96,24947,1,8,0:0:0:0:
160,96,25020,1,0,0:0:0:0:
352,96,25093,1,8,0:0:0:0:
352,96,25166,1,8,0:0:0:0:
352,96,25239,1,8,0:0:0:0:
160,96,25312,1,0,0:0:0:0:
352,96,25385,1,8,0:0:0:0:
160,96,25458,1,0,0:0:0:0:
352,96,25531,1,8,0:0:0:0:
352,96,25604,1,8,0:0:0:0:
160,96,25677,1,0,0:0:0:0:
160,96,25750,1,0,0:0:0:0:
352,96,25823,1,8,0:0:0:0:
160,96,25896,1,0,0:0:0:0:
352,96,25969,1,8,0:0:0:0:
160,96,26115,1,0,0:0:0:0:
160,96,26261,1,0,0:0:0:0:
352,96,26407,1,8,0:0:0:0:
352,96,26443,1,8,0:0:0:0:
160,96,26553,1,0,0:0:0:0:
160,96,26699,1,0,0:0:0:0:
352,96,26845,1,8,0:0:0:0:
352,96,26881,1,8,0:0:0:0:
160,96,26991,1,0,0:0:0:0:
160,96,27137,1,0,0:0:0:0:
352,96,27283,1,8,0:0:0:0:
160,96,27356,1,0,0:0:0:0:
352,96,27429,1,8,0:0:0:0:
352,96,27502,1,8,0:0:0:0:
352,96,27575,1,8,0:0:0:0:
352,96,27648,1,8,0:0:0:0:
160,96,27721,1,0,0:0:0:0:
160,96,27794,1,0,0:0:0:0:
160,96,27867,1,0,0:0:0:0:
160,96,27940,1,0,0:0:0:0:
160,96,28013,1,0,0:0:0:0:
160,96,28086,1,0,0:0:0:0:
352,96,28159,1,8,0:0:0:0:
352,96,28232,1,8,0:0:0:0:
352,96,28305,1,8,0:0:0:0:
352,96,28378,1,8,0:0:0:0:
352,96,28451,1,8,0:0:0:0:
352,96,28524,1,8,0:0:0:0:
160,96,28597,1,0,0:0:0:0:
160,96,28670,1,0,0:0:0:0:
160,96,28743,1,0,0:0:0:0:
160,96,28816,1,0,0:0:0:0:
160,96,28889,1,0,0:0:0:0:
160,96,28962,1,0,0:0:0:0:
352,96,29035,1,8,0:0:0:0:
160,96,29108,1,0,0:0:0:0:
160,96,29181,1,0,0:0:0:0:
160,96,29254,1,0,0:0:0:0:
160,96,29327,1,0,0:0:0:0:
160,96,29400,1,0,0:0:0:0:
352,96,29473,1,8,0:0:0:0:
160,96,29546,1,0,0:0:0:0:
160,96,29619,1,0,0:0:0:0:
160,96,29692,1,0,0:0:0:0:
160,96,29765,1,0,0:0:0:0:
160,96,29838,1,0,0:0:0:0:
352,96,29911,1,8,0:0:0:0:
352,96,29984,1,8,0:0:0:0:
160,96,30057,1,0,0:0:0:0:
160,96,30129,1,0,0:0:0:0:
160,96,30202,1,0,0:0:0:0:
160,96,30275,1,0,0:0:0:0:
352,96,30348,1,8,0:0:0:0:
160,96,30421,1,0,0:0:0:0:
352,96,30494,1,8,0:0:0:0:
160,96,30567,1,0,0:0:0:0:
352,96,30640,1,8,0:0:0:0:
160,96,30713,1,0,0:0:0:0:
352,96,30786,1,8,0:0:0:0:
352,96,30859,1,8,0:0:0:0:
160,96,30932,1,0,0:0:0:0:
160,96,31005,1,0,0:0:0:0:
160,96,31078,1,0,0:0:0:0:
160,96,31151,1,0,0:0:0:0:
352,96,31224,1,8,0:0:0:0:
352,96,31297,1,8,0:0:0:0:
352,96,31370,1,8,0:0:0:0:
352,96,31443,1,8,0:0:0:0:
160,96,31516,1,0,0:0:0:0:
160,96,31589,1,0,0:0:0:0:
352,96,31662,1,8,0:0:0:0:
352,96,31735,1,8,0:0:0:0:
352,96,31808,1,8,0:0:0:0:
352,96,31881,1,8,0:0:0:0:
352,96,31954,1,8,0:0:0:0:
352,96,32027,1,8,0:0:0:0:
160,96,32100,1,0,0:0:0:0:
160,96,32173,1,0,0:0:0:0:
160,96,32246,1,0,0:0:0:0:
160,96,32319,1,0,0:0:0:0:
160,96,32392,1,0,0:0:0:0:
160,96,32465,1,0,0:0:0:0:
352,96,32538,1,8,0:0:0:0:
160,96,32611,1,0,0:0:0:0:
160,96,32684,1,0,0:0:0:0:
160,96,32757,1,0,0:0:0:0:
160,96,32830,1,0,0:0:0:0:
160,96,32903,1,0,0:0:0:0:
352,96,32976,1,8,0:0:0:0:
160,96,33049,1,0,0:0:0:0:
160,96,33122,1,0,0:0:0:0:
160,96,33195,1,0,0:0:0:0:
160,96,33268,1,0,0:0:0:0:
160,96,33341,1,0,0:0:0:0:
352,96,33414,1,8,0:0:0:0:
352,96,33487,1,8,0:0:0:0:
352,96,33560,1,8,0:0:0:0:
352,96,33633,1,8,0:0:0:0:
352,96,33706,1,8,0:0:0:0:
352,96,33779,1,8,0:0:0:0:
160,96,33852,1,0,0:0:0:0:
160,96,33925,1,0,0:0:0:0:
160,96,33998,1,0,0:0:0:0:
160,96,34071,1,0,0:0:0:0:
160,96,34144,1,0,0:0:0:0:
160,96,34217,1,0,0:0:0:0:
352,96,34290,1,8,0:0:0:0:
160,96,34363,1,0,0:0:0:0:
160,96,34436,1,0,0:0:0:0:
160,96,34509,1,0,0:0:0:0:
160,96,34582,1,0,0:0:0:0:
160,96,34655,1,0,0:0:0:0:
352,96,34728,1,8,0:0:0:0:
160,96,34801,1,0,0:0:0:0:
352,96,34874,1,8,0:0:0:0:
352,96,34947,1,8,0:0:0:0:
352,96,35020,1,8,0:0:0:0:
160,288,35166,1,4,0:0:0:0:
160,288,35312,1,4,0:0:0:0:
352,288,35458,1,12,0:0:0:0:
160,288,35604,1,4,0:0:0:0:
352,96,36042,1,8,0:0:0:0:
352,96,36115,1,8,0:0:0:0:
352,96,36188,1,8,0:0:0:0:
160,96,36261,1,0,0:0:0:0:
352,96,36334,1,8,0:0:0:0:
160,96,36407,1,0,0:0:0:0:
352,96,36480,1,8,0:0:0:0:
352,96,36553,1,8,0:0:0:0:
160,96,36626,1,0,0:0:0:0:
160,96,36699,1,0,0:0:0:0:
352,96,36772,1,8,0:0:0:0:
160,96,36845,1,0,0:0:0:0:
352,96,36918,1,8,0:0:0:0:
160,96,36991,1,0,0:0:0:0:
160,96,37064,1,0,0:0:0:0:
160,96,37137,1,0,0:0:0:0:
352,96,37210,1,8,0:0:0:0:
160,96,37283,1,0,0:0:0:0:
352,96,37356,1,8,0:0:0:0:
352,96,37429,1,8,0:0:0:0:
160,96,37502,1,0,0:0:0:0:
160,96,37575,1,0,0:0:0:0:
352,96,37648,1,8,0:0:0:0:
160,96,37721,1,0,0:0:0:0:
352,96,37794,1,8,0:0:0:0:
352,96,37867,1,8,0:0:0:0:
352,96,37940,1,8,0:0:0:0:
160,96,38013,1,0,0:0:0:0:
352,96,38086,1,8,0:0:0:0:
160,96,38159,1,0,0:0:0:0:
352,96,38232,1,8,0:0:0:0:
160,96,38305,1,0,0:0:0:0:
352,96,38378,1,8,0:0:0:0:
160,96,38451,1,0,0:0:0:0:
352,96,38524,1,8,0:0:0:0:
352,96,38597,1,8,0:0:0:0:
160,96,38670,1,0,0:0:0:0:
160,96,38816,1,0,0:0:0:0:
160,96,38962,1,0,0:0:0:0:
352,96,39108,1,8,0:0:0:0:
160,96,39254,1,0,0:0:0:0:
160,96,39400,1,0,0:0:0:0:
352,96,39546,1,8,0:0:0:0:
352,96,39692,1,8,0:0:0:0:
160,96,39838,1,0,0:0:0:0:
352,96,39984,1,8,0:0:0:0:
160,96,40129,1,0,0:0:0:0:
160,96,40275,1,0,0:0:0:0:
352,96,40421,1,8,0:0:0:0:
352,96,40567,1,8,0:0:0:0:
352,96,40640,1,8,0:0:0:0:
352,96,40713,1,8,0:0:0:0:
352,96,40786,1,8,0:0:0:0:
160,96,40859,1,0,0:0:0:0:
160,96,41005,1,0,0:0:0:0:
160,96,41151,1,0,0:0:0:0:
352,96,41297,1,8,0:0:0:0:
160,96,41370,1,0,0:0:0:0:
352,96,41443,1,8,0:0:0:0:
352,96,41516,1,8,0:0:0:0:
352,96,41589,1,8,0:0:0:0:
352,96,41662,1,8,0:0:0:0:
160,96,41735,1,0,0:0:0:0:
352,96,41808,1,8,0:0:0:0:
160,96,41881,1,0,0:0:0:0:
160,96,41954,1,0,0:0:0:0:
160,96,42027,1,0,0:0:0:0:
160,288,42173,1,4,0:0:0:0:
160,96,42319,1,0,0:0:0:0:
160,96,42465,1,0,0:0:0:0:
352,96,42611,1,8,0:0:0:0:
160,96,42757,1,0,0:0:0:0:
160,96,42903,1,0,0:0:0:0:
352,96,43049,1,8,0:0:0:0:
160,96,43195,1,0,0:0:0:0:
160,96,43341,1,0,0:0:0:0:
352,96,43487,1,8,0:0:0:0:
352,96,43633,1,8,0:0:0:0:
352,96,43779,1,8,0:0:0:0:
352,96,43925,1,8,0:0:0:0:
160,96,44071,1,0,0:0:0:0:
160,96,44217,1,0,0:0:0:0:
352,96,44363,1,8,0:0:0:0:
352,96,44509,1,8,0:0:0:0:
160,96,44655,1,0,0:0:0:0:
352,96,44801,1,8,0:0:0:0:
160,96,44947,1,0,0:0:0:0:
160,96,45093,1,0,0:0:0:0:
352,96,45239,1,8,0:0:0:0:
352,96,45385,1,8,0:0:0:0:
352,96,45531,1,8,0:0:0:0:
352,96,45677,1,8,0:0:0:0:
160,96,45823,1,0,0:0:0:0:
160,96,45896,1,0,0:0:0:0:
160,96,45969,1,0,0:0:0:0:
352,96,46115,1,8,0:0:0:0:
160,96,46261,1,0,0:0:0:0:
352,96,46407,1,8,0:0:0:0:
352,96,46553,1,8,0:0:0:0:
160,96,46699,1,0,0:0:0:0:
160,96,46845,1,0,0:0:0:0:
352,96,46991,1,8,0:0:0:0:
352,96,47137,1,8,0:0:0:0:
352,96,47283,1,8,0:0:0:0:
352,96,47429,1,8,0:0:0:0:
160,96,47575,1,0,0:0:0:0:
160,96,47721,1,0,0:0:0:0:
352,96,47867,1,8,0:0:0:0:
352,96,48013,1,8,0:0:0:0:
160,96,48159,1,0,0:0:0:0:
352,96,48305,1,8,0:0:0:0:
160,96,48451,1,0,0:0:0:0:
352,96,48597,1,8,0:0:0:0:
352,96,48743,1,8,0:0:0:0:
160,96,48889,1,0,0:0:0:0:
352,96,49035,1,8,0:0:0:0:
352,96,49181,1,8,0:0:0:0:
160,96,49327,1,0,0:0:0:0:
160,96,49400,1,0,0:0:0:0:
160,96,49473,1,0,0:0:0:0:
352,96,49619,1,8,0:0:0:0:
160,96,49765,1,0,0:0:0:0:
160,96,49911,1,0,0:0:0:0:
352,96,50057,1,8,0:0:0:0:
352,96,50202,1,8,0:0:0:0:
160,96,50348,1,0,0:0:0:0:
352,96,50494,1,8,0:0:0:0:
352,96,50640,1,8,0:0:0:0:
352,96,50786,1,8,0:0:0:0:
160,96,50932,1,0,0:0:0:0:
160,96,51078,1,0,0:0:0:0:
160,96,51224,1,0,0:0:0:0:
352,96,51370,1,8,0:0:0:0:
352,96,51516,1,8,0:0:0:0:
352,96,51662,1,8,0:0:0:0:
160,96,51808,1,0,0:0:0:0:
160,96,51954,1,0,0:0:0:0:
352,96,52100,1,8,0:0:0:0:
352,96,52246,1,8,0:0:0:0:
160,96,52392,1,0,0:0:0:0:
352,96,52538,1,8,0:0:0:0:
160,96,52684,1,0,0:0:0:0:
160,96,52830,1,0,0:0:0:0:
352,96,52976,1,8,0:0:0:0:
352,96,53122,1,8,0:0:0:0:
160,96,53268,1,0,0:0:0:0:
352,96,53414,1,8,0:0:0:0:
160,96,53560,1,0,0:0:0:0:
160,96,53706,1,0,0:0:0:0:
352,96,53852,1,8,0:0:0:0:
352,96,53998,1,8,0:0:0:0:
160,96,54144,1,0,0:0:0:0:
352,96,54290,1,8,0:0:0:0:
352,96,54436,1,8,0:0:0:0:
160,96,54582,1,0,0:0:0:0:
352,96,54728,1,8,0:0:0:0:
352,96,54874,1,8,0:0:0:0:
160,96,55020,1,0,0:0:0:0:
352,96,55166,1,8,0:0:0:0:
160,96,55312,1,0,0:0:0:0:
352,96,55458,1,8,0:0:0:0:
352,96,55531,1,8,0:0:0:0:
352,96,55604,1,8,0:0:0:0:
352,96,55677,1,8,0:0:0:0:
352,96,55750,1,8,0:0:0:0:
352,96,55896,1,8,0:0:0:0:
160,96,56042,1,0,0:0:0:0:
160,288,56188,1,4,0:0:0:0:
352,96,56334,1,8,0:0:0:0:
160,96,56480,1,0,0:0:0:0:
352,96,56626,1,8,0:0:0:0:
352,96,56699,1,8,0:0:0:0:
160,96,56772,1,0,0:0:0:0:
352,96,56918,1,8,0:0:0:0:
160,96,57064,1,0,0:0:0:0:
352,96,57210,1,8,0:0:0:0:
160,96,57356,1,0,0:0:0:0:
160,96,57429,1,0,0:0:0:0:
352,96,57502,1,8,0:0:0:0:
160,96,57648,1,0,0:0:0:0:
352,96,57794,1,8,0:0:0:0:
352,96,57940,1,8,0:0:0:0:
352,96,58086,1,8,0:0:0:0:
160,96,58159,1,0,0:0:0:0:
160,96,58232,1,0,0:0:0:0:
352,96,58378,1,8,0:0:0:0:
160,96,58524,1,0,0:0:0:0:
352,96,58670,1,8,0:0:0:0:
352,96,58816,1,8,0:0:0:0:
160,96,58962,1,0,0:0:0:0:
160,96,59035,1,0,0:0:0:0:
352,96,59108,1,8,0:0:0:0:
160,96,59254,1,0,0:0:0:0:
352,96,59400,1,8,0:0:0:0:
352,96,59473,1,8,0:0:0:0:
352,96,59546,1,8,0:0:0:0:
352,96,59692,1,8,0:0:0:0:
352,96,59838,1,8,0:0:0:0:
352,96,59911,1,8,0:0:0:0:
160,96,59984,1,0,0:0:0:0:
352,96,60129,1,8,0:0:0:0:
160,96,60275,1,0,0:0:0:0:
160,96,60348,1,0,0:0:0:0:
352,96,60421,1,8,0:0:0:0:
352,96,60567,1,8,0:0:0:0:
352,96,60713,1,8,0:0:0:0:
160,96,60859,1,0,0:0:0:0:
352,96,61005,1,8,0:0:0:0:
160,96,61078,1,0,0:0:0:0:
160,96,61151,1,0,0:0:0:0:
352,96,61297,1,8,0:0:0:0:
352,288,61443,1,12,0:0:0:0:
160,96,61589,1,0,0:0:0:0:
160,96,61662,1,0,0:0:0:0:
160,96,61735,1,0,0:0:0:0:
352,288,61881,1,12,0:0:0:0:
160,96,62027,1,0,0:0:0:0:
352,288,62173,1,12,0:0:0:0:
160,288,62319,1,4,0:0:0:0:
160,96,62611,1,0,0:0:0:0:
160,96,62684,1,0,0:0:0:0:
352,96,62757,1,8,0:0:0:0:
352,96,62830,1,8,0:0:0:0:
160,96,62903,1,0,0:0:0:0:
160,96,62976,1,0,0:0:0:0:
160,96,63049,1,0,0:0:0:0:
160,96,63122,1,0,0:0:0:0:
352,288,63195,1,12,0:0:0:0:
160,96,63487,1,0,0:0:0:0:
352,96,63633,1,8,0:0:0:0:
352,96,63706,1,8,0:0:0:0:
160,96,63779,1,0,0:0:0:0:
352,96,63925,1,8,0:0:0:0:
160,96,64071,1,0,0:0:0:0:
352,96,64217,1,8,0:0:0:0:
352,96,64290,1,8,0:0:0:0:
160,96,64363,1,0,0:0:0:0:
352,96,64509,1,8,0:0:0:0:
160,96,64655,1,0,0:0:0:0:
160,96,64728,1,0,0:0:0:0:
352,96,64801,1,8,0:0:0:0:
352,96,64947,1,8,0:0:0:0:
352,96,65093,1,8,0:0:0:0:
160,96,65166,1,0,0:0:0:0:
160,96,65239,1,0,0:0:0:0:
352,96,65385,1,8,0:0:0:0:
160,96,65531,1,0,0:0:0:0:
352,96,65677,1,8,0:0:0:0:
160,96,65823,1,0,0:0:0:0:
160,96,65896,1,0,0:0:0:0:
352,96,65969,1,8,0:0:0:0:
160,96,66115,1,0,0:0:0:0:
352,96,66261,1,8,0:0:0:0:
160,96,66334,1,0,0:0:0:0:
160,96,66407,1,0,0:0:0:0:
352,96,66553,1,8,0:0:0:0:
352,96,66699,1,8,0:0:0:0:
352,96,66845,1,8,0:0:0:0:
160,96,66991,1,0,0:0:0:0:
352,96,67137,1,8,0:0:0:0:
352,96,67283,1,8,0:0:0:0:
160,96,67429,1,0,0:0:0:0:
160,96,67575,1,0,0:0:0:0:
160,96,67648,1,0,0:0:0:0:
160,96,67721,1,0,0:0:0:0:
160,96,67867,1,0,0:0:0:0:
352,96,68013,1,8,0:0:0:0:
160,96,68159,1,0,0:0:0:0:
160,96,68305,1,0,0:0:0:0:
160,288,68451,1,4,0:0:0:0:
352,96,68889,1,8,0:0:0:0:
160,96,68962,1,0,0:0:0:0:
160,96,69035,1,0,0:0:0:0:
160,96,69108,1,0,0:0:0:0:
160,96,69181,1,0,0:0:0:0:
160,96,69254,1,0,0:0:0:0:
352,96,69327,1,8,0:0:0:0:
160,96,69400,1,0,0:0:0:0:
160,96,69473,1,0,0:0:0:0:
160,96,69546,1,0,0:0:0:0:
160,96,69619,1,0,0:0:0:0:
160,96,69692,1,0,0:0:0:0:
352,96,69765,1,8,0:0:0:0:
160,96,69838,1,0,0:0:0:0:
352,96,69911,1,8,0:0:0:0:
160,96,69984,1,0,0:0:0:0:
352,96,70057,1,8,0:0:0:0:
352,96,70129,1,8,0:0:0:0:
160,288,70202,1,4,0:0:0:0:
352,96,70640,1,8,0:0:0:0:
352,96,70713,1,8,0:0:0:0:
352,96,70786,1,8,0:0:0:0:
352,96,70859,1,8,0:0:0:0:
352,96,70932,1,8,0:0:0:0:
352,96,71005,1,8,0:0:0:0:
160,96,71078,1,0,0:0:0:0:
160,96,71151,1,0,0:0:0:0:
160,96,71224,1,0,0:0:0:0:
160,96,71297,1,0,0:0:0:0:
160,96,71370,1,0,0:0:0:0:
160,96,71443,1,0,0:0:0:0:
352,96,71516,1,8,0:0:0:0:
160,96,71662,1,0,0:0:0:0:
160,96,71808,1,0,0:0:0:0:
160,288,71954,1,4,0:0:0:0:
160,288,73268,1,4,0:0:0:0:
160,288,73414,1,4,0:0:0:0:
160,288,73560,1,4,0:0:0:0:
160,288,75458,1,4,0:0:0:0:
160,288,75604,1,4,0:0:0:0:
160,288,75750,1,4,0:0:0:0:
160,288,76772,1,4,0:0:0:0:
160,96,77210,1,0,0:0:0:0:
352,96,77283,1,8,0:0:0:0:
352,96,77356,1,8,0:0:0:0:
352,96,77429,1,8,0:0:0:0:
352,96,77502,1,8,0:0:0:0:
352,96,77575,1,8,0:0:0:0:
160,96,77648,1,0,0:0:0:0:
352,96,77721,1,8,0:0:0:0:
352,96,77794,1,8,0:0:0:0:
160,96,77867,1,0,0:0:0:0:
352,96,77940,1,8,0:0:0:0:
160,96,78013,1,0,0:0:0:0:
352,96,78086,1,8,0:0:0:0:
352,96,78159,1,8,0:0:0:0:
160,96,78232,1,0,0:0:0:0:
160,96,78305,1,0,0:0:0:0:
160,96,78378,1,0,0:0:0:0:
160,96,78451,1,0,0:0:0:0:
352,96,78524,1,8,0:0:0:0:
160,96,78597,1,0,0:0:0:0:
160,96,78670,1,0,0:0:0:0:
160,96,78743,1,0,0:0:0:0:
352,96,78816,1,8,0:0:0:0:
160,288,78962,1,4,0:0:0:0:
160,288,80129,1,4,0:0:0:0:
160,288,80275,1,4,0:0:0:0:
160,288,80567,1,4,0:0:0:0:
352,96,81151,1,8,0:0:0:0:
352,96,82027,1,8,0:0:0:0:
160,288,82465,1,4,0:0:0:0:
352,96,82903,1,8,0:0:0:0:
160,288,83779,1,4,0:0:0:0:
352,288,84217,1,12,0:0:0:0:
352,96,84436,1,8,0:0:0:0:
352,96,84491,1,8,0:0:0:0:
352,96,84546,1,8,0:0:0:0:
352,96,84600,1,8,0:0:0:0:
160,96,84655,1,0,0:0:0:0:
352,96,84874,1,8,0:0:0:0:
352,96,84929,1,8,0:0:0:0:
352,96,84984,1,8,0:0:0:0:
352,96,85038,1,8,0:0:0:0:
160,96,85093,1,0,0:0:0:0:
160,96,85148,1,0,0:0:0:0:
352,96,85202,1,8,0:0:0:0:
352,96,85257,1,8,0:0:0:0:
160,96,85312,1,0,0:0:0:0:
160,96,85367,1,0,0:0:0:0:
352,96,85421,1,8,0:0:0:0:
352,96,85476,1,8,0:0:0:0:
160,96,85531,1,0,0:0:0:0:
160,96,85586,1,0,0:0:0:0:
160,96,85640,1,0,0:0:0:0:
160,96,85695,1,0,0:0:0:0:
160,96,85750,1,0,0:0:0:0:
160,96,85805,1,0,0:0:0:0:
160,96,85859,1,0,0:0:0:0:
160,288,85969,1,4,0:0:0:0:
352,288,86407,1,12,0:0:0:0:
160,96,86553,1,0,0:0:0:0:
160,96,86626,1,0,0:0:0:0:
352,96,86699,1,8,0:0:0:0:
160,96,86772,1,0,0:0:0:0:
352,96,86845,1,8,0:0:0:0:
352,96,86918,1,8,0:0:0:0:
160,96,86991,1,0,0:0:0:0:
160,96,87064,1,0,0:0:0:0:
352,96,87137,1,8,0:0:0:0:
160,96,87210,1,0,0:0:0:0:
352,96,87283,1,8,0:0:0:0:
352,96,87356,1,8,0:0:0:0:
352,96,87429,1,8,0:0:0:0:
160,96,87502,1,0,0:0:0:0:
352,96,87575,1,8,0:0:0:0:
160,96,87648,1,0,0:0:0:0:
352,96,87721,1,8,0:0:0:0:
352,96,87794,1,8,0:0:0:0:
160,96,87867,1,0,0:0:0:0:
160,96,87940,1,0,0:0:0:0:
352,96,88013,1,8,0:0:0:0:
352,96,88086,1,8,0:0:0:0:
352,96,88159,1,8,0:0:0:0:
160,96,88232,1,0,0:0:0:0:
352,96,88305,1,8,0:0:0:0:
160,96,88378,1,0,0:0:0:0:
352,96,88451,1,8,0:0:0:0:
160,96,88524,1,0,0:0:0:0:
352,96,88597,1,8,0:0:0:0:
352,96,88670,1,8,0:0:0:0:
160,96,88743,1,0,0:0:0:0:
352,96,88816,1,8,0:0:0:0:
352,96,88889,1,8,0:0:0:0:
160,96,88962,1,0,0:0:0:0:
352,96,89035,1,8,0:0:0:0:
352,96,89108,1,8,0:0:0:0:
352,96,89181,1,8,0:0:0:0:
352,96,89254,1,8,0:0:0:0:
160,96,89327,1,0,0:0:0:0:
160,96,89400,1,0,0:0:0:0:
352,96,89473,1,8,0:0:0:0:
160,96,89546,1,0,0:0:0:0:
160,96,89619,1,0,0:0:0:0:
160,96,89692,1,0,0:0:0:0:
352,96,89765,1,8,0:0:0:0:
160,96,89838,1,0,0:0:0:0:
352,96,89911,1,8,0:0:0:0:
352,96,89984,1,8,0:0:0:0:
352,96,90057,1,8,0:0:0:0:
160,96,90129,1,0,0:0:0:0:
352,96,90202,1,8,0:0:0:0:
160,96,90275,1,0,0:0:0:0:
352,96,90348,1,8,0:0:0:0:
352,96,90421,1,8,0:0:0:0:
160,96,90494,1,0,0:0:0:0:
160,96,90567,1,0,0:0:0:0:
160,96,90640,1,0,0:0:0:0:
160,96,90713,1,0,0:0:0:0:
352,96,90786,1,8,0:0:0:0:
160,96,90859,1,0,0:0:0:0:
352,96,90932,1,8,0:0:0:0:
160,96,91005,1,0,0:0:0:0:
352,96,91078,1,8,0:0:0:0:
352,96,91151,1,8,0:0:0:0:
352,96,91224,1,8,0:0:0:0:
160,96,91297,1,0,0:0:0:0:
160,96,91370,1,0,0:0:0:0:
160,96,91443,1,0,0:0:0:0:
352,96,91516,1,8,0:0:0:0:
160,96,91589,1,0,0:0:0:0:
352,96,91662,1,8,0:0:0:0:
352,96,91735,1,8,0:0:0:0:
352,96,91808,1,8,0:0:0:0:
160,96,91881,1,0,0:0:0:0:
352,96,91954,1,8,0:0:0:0:
160,96,92027,1,0,0:0:0:0:
352,96,92100,1,8,0:0:0:0:
352,96,92173,1,8,0:0:0:0:
160,96,92246,1,0,0:0:0:0:
352,96,92319,1,8,0:0:0:0:
160,96,92392,1,0,0:0:0:0:
160,96,92465,1,0,0:0:0:0:
352,96,92538,1,8,0:0:0:0:
352,96,92611,1,8,0:0:0:0:
352,96,92684,1,8,0:0:0:0:
160,96,92757,1,0,0:0:0:0:
352,96,92830,1,8,0:0:0:0:
160,96,92903,1,0,0:0:0:0:
352,96,92976,1,8,0:0:0:0:
352,96,93049,1,8,0:0:0:0:
160,96,93122,1,0,0:0:0:0:
160,96,93195,1,0,0:0:0:0:
160,96,93268,1,0,0:0:0:0:
160,96,93341,1,0,0:0:0:0:
352,96,93414,1,8,0:0:0:0:
160,96,93487,1,0,0:0:0:0:
160,96,93560,1,0,0:0:0:0:
160,96,93633,1,0,0:0:0:0:
352,96,93706,1,8,0:0:0:0:
160,96,93779,1,0,0:0:0:0:
352,96,93852,1,8,0:0:0:0:
160,96,93925,1,0,0:0:0:0:
160,96,93998,1,0,0:0:0:0:
160,96,94071,1,0,0:0:0:0:
352,96,94144,1,8,0:0:0:0:
160,96,94217,1,0,0:0:0:0:
352,96,94290,1,8,0:0:0:0:
160,96,94363,1,0,0:0:0:0:
160,96,94436,1,0,0:0:0:0:
160,96,94509,1,0,0:0:0:0:
352,96,94582,1,8,0:0:0:0:
160,96,94655,1,0,0:0:0:0:
352,96,94728,1,8,0:0:0:0:
352,96,94801,1,8,0:0:0:0:
160,96,94874,1,0,0:0:0:0:
160,96,94947,1,0,0:0:0:0:
352,96,95020,1,8,0:0:0:0:
160,96,95093,1,0,0:0:0:0:
352,96,95166,1,8,0:0:0:0:
160,96,95239,1,0,0:0:0:0:
352,96,95312,1,8,0:0:0:0:
160,96,95385,1,0,0:0:0:0:
352,96,95458,1,8,0:0:0:0:
160,96,95531,1,0,0:0:0:0:
352,96,95604,1,8,0:0:0:0:
160,96,95677,1,0,0:0:0:0:
160,96,95750,1,0,0:0:0:0:
352,96,95823,1,8,0:0:0:0:
352,96,95896,1,8,0:0:0:0:
160,96,95969,1,0,0:0:0:0:
352,96,96042,1,8,0:0:0:0:
352,96,96115,1,8,0:0:0:0:
160,96,96188,1,0,0:0:0:0:
160,96,96261,1,0,0:0:0:0:
352,96,96334,1,8,0:0:0:0:
352,96,96407,1,8,0:0:0:0:
352,96,96480,1,8,0:0:0:0:
160,96,96553,1,0,0:0:0:0:
352,96,96626,1,8,0:0:0:0:
160,96,96699,1,0,0:0:0:0:
352,96,96772,1,8,0:0:0:0:
160,96,96845,1,0,0:0:0:0:
352,96,96918,1,8,0:0:0:0:
352,96,96991,1,8,0:0:0:0:
352,96,97064,1,8,0:0:0:0:
160,96,97137,1,0,0:0:0:0:
352,96,97210,1,8,0:0:0:0:
160,96,97283,1,0,0:0:0:0:
352,96,97356,1,8,0:0:0:0:
352,96,97429,1,8,0:0:0:0:
352,96,97502,1,8,0:0:0:0:
160,96,97575,1,0,0:0:0:0:
352,96,97648,1,8,0:0:0:0:
160,96,97721,1,0,0:0:0:0:
352,96,97794,1,8,0:0:0:0:
352,96,97867,1,8,0:0:0:0:
352,96,97940,1,8,0:0:0:0:
352,96,98013,1,8,0:0:0:0:
160,96,98086,1,0,0:0:0:0:
160,96,98159,1,0,0:0:0:0:
352,96,98232,1,8,0:0:0:0:
352,96,98305,1,8,0:0:0:0:
160,96,98378,1,0,0:0:0:0:
160,96,98451,1,0,0:0:0:0:
160,96,98524,1,0,0:0:0:0:
160,96,98597,1,0,0:0:0:0:
352,96,98670,1,8,0:0:0:0:
160,96,98743,1,0,0:0:0:0:
160,96,98816,1,0,0:0:0:0:
160,96,98889,1,0,0:0:0:0:
352,96,98962,1,8,0:0:0:0:
160,96,99035,1,0,0:0:0:0:
352,96,99108,1,8,0:0:0:0:
352,96,99181,1,8,0:0:0:0:
352,96,99254,1,8,0:0:0:0:
352,96,99327,1,8,0:0:0:0:
352,96,99400,1,8,0:0:0:0:
352,96,99473,1,8,0:0:0:0:
160,96,99546,1,0,0:0:0:0:
160,96,99619,1,0,0:0:0:0:
160,96,99692,1,0,0:0:0:0:
160,96,99765,1,0,0:0:0:0:
352,96,99838,1,8,0:0:0:0:
160,288,99984,1,4,0:0:0:0:
160,288,139412,5,4,0:0:0:0:
160,288,141121,1,4,0:0:0:0:
352,96,141405,1,8,0:0:0:0:
352,96,141476,1,8,0:0:0:0:
352,96,141547,1,8,0:0:0:0:
352,96,141618,1,8,0:0:0:0:
352,96,141689,1,8,0:0:0:0:
352,96,141760,1,8,0:0:0:0:
352,96,141831,1,8,0:0:0:0:
352,96,141902,1,8,0:0:0:0:
160,288,141974,1,4,0:0:0:0:
160,96,142263,1,0,0:0:0:0:
160,96,142334,1,0,0:0:0:0:
160,96,142405,1,0,0:0:0:0:
160,96,142477,1,0,0:0:0:0:
160,96,142548,1,0,0:0:0:0:
160,96,142620,1,0,0:0:0:0:
160,96,142691,1,0,0:0:0:0:
160,288,142842,1,4,0:0:0:0:
160,96,144413,1,0,0:0:0:0:
160,96,144484,1,0,0:0:0:0:
352,288,144556,1,12,0:0:0:0:
160,96,144699,1,0,0:0:0:0:
160,96,144984,1,0,0:0:0:0:
160,96,145270,1,0,0:0:0:0:
160,96,145342,1,0,0:0:0:0:
352,96,145413,1,8,0:0:0:0:
160,96,145556,1,0,0:0:0:0:
160,96,145842,1,0,0:0:0:0:
160,96,146127,1,0,0:0:0:0:
160,288,146270,1,4,0:0:0:0:
352,96,146556,1,8,0:0:0:0:
160,96,146699,1,0,0:0:0:0:
352,96,146842,1,8,0:0:0:0:
160,96,146984,1,0,0:0:0:0:
352,288,147127,1,12,0:0:0:0:
160,96,147699,1,0,0:0:0:0:
352,288,147984,1,12,0:0:0:0:
352,96,148413,1,8,0:0:0:0:
160,96,148556,1,0,0:0:0:0:
160,96,148699,1,0,0:0:0:0:
160,96,148770,1,0,0:0:0:0:
352,96,148842,1,8,0:0:0:0:
160,96,148984,1,0,0:0:0:0:
160,96,149127,1,0,0:0:0:0:
160,96,149270,1,0,0:0:0:0:
160,96,149413,1,0,0:0:0:0:
160,96,149556,1,0,0:0:0:0:
352,288,149699,1,12,0:0:0:0:
352,96,149984,1,8,0:0:0:0:
160,96,150270,1,0,0:0:0:0:
160,96,150413,1,0,0:0:0:0:
160,96,150484,1,0,0:0:0:0:
352,96,150556,1,8,0:0:0:0:
160,96,150842,1,0,0:0:0:0:
160,96,151127,1,0,0:0:0:0:
160,96,151413,1,0,0:0:0:0:
160,96,151484,1,0,0:0:0:0:
160,96,151556,1,0,0:0:0:0:
160,96,151627,1,0,0:0:0:0:
160,96,151699,1,0,0:0:0:0:
160,96,151770,1,0,0:0:0:0:
160,96,151842,1,0,0:0:0:0:
160,96,151913,1,0,0:0:0:0:
160,96,151984,1,0,0:0:0:0:
160,96,152056,1,0,0:0:0:0:
160,96,152127,1,0,0:0:0:0:
160,96,152199,1,0,0:0:0:0:
352,288,152270,1,12,0:0:0:0:
256,192,152413,2,0,L|192:192,4,35
160,288,153127,5,4,0:0:0:0:
160,96,153413,1,0,0:0:0:0:
352,96,153556,1,8,0:0:0:0:
160,96,153699,1,0,0:0:0:0:
352,96,153842,1,8,0:0:0:0:
160,96,153913,1,0,0:0:0:0:
352,96,153984,1,8,0:0:0:0:
352,96,154127,1,8,0:0:0:0:
160,96,154270,1,0,0:0:0:0:
352,96,154413,1,8,0:0:0:0:
352,96,154556,1,8,0:0:0:0:
160,96,154627,1,0,0:0:0:0:
352,96,154699,1,8,0:0:0:0:
352,96,154770,1,8,0:0:0:0:
160,96,154842,1,0,0:0:0:0:
352,96,154984,1,8,0:0:0:0:
160,96,155127,1,0,0:0:0:0:
160,96,155199,1,0,0:0:0:0:
352,96,155270,1,8,0:0:0:0:
352,96,155413,1,8,0:0:0:0:
160,96,155484,1,0,0:0:0:0:
352,96,155556,1,8,0:0:0:0:
352,96,155627,1,8,0:0:0:0:
160,96,155699,1,0,0:0:0:0:
160,96,155770,1,0,0:0:0:0:
352,96,155842,1,8,0:0:0:0:
160,96,155913,1,0,0:0:0:0:
160,96,155984,1,0,0:0:0:0:
160,96,156056,1,0,0:0:0:0:
352,96,156127,1,8,0:0:0:0:
160,96,156199,1,0,0:0:0:0:
160,96,156270,1,0,0:0:0:0:
160,96,156342,1,0,0:0:0:0:
352,96,156413,1,8,0:0:0:0:
352,96,156484,1,8,0:0:0:0:
160,96,156556,1,0,0:0:0:0:
352,96,156699,1,8,0:0:0:0:
160,96,156842,1,0,0:0:0:0:
160,96,156913,1,0,0:0:0:0:
352,96,156984,1,8,0:0:0:0:
160,96,157127,1,0,0:0:0:0:
352,96,157270,1,8,0:0:0:0:
160,96,157342,1,0,0:0:0:0:
352,96,157413,1,8,0:0:0:0:
352,96,157556,1,8,0:0:0:0:
352,96,157627,1,8,0:0:0:0:
160,96,157699,1,0,0:0:0:0:
352,96,157842,1,8,0:0:0:0:
160,96,157984,1,0,0:0:0:0:
160,96,158056,1,0,0:0:0:0:
352,96,158127,1,8,0:0:0:0:
160,96,158270,1,0,0:0:0:0:
160,96,158342,1,0,0:0:0:0:
352,96,158413,1,8,0:0:0:0:
352,96,158484,1,8,0:0:0:0:
160,96,158556,1,0,0:0:0:0:
160,96,158627,1,0,0:0:0:0:
352,96,158699,1,8,0:0:0:0:
352,96,158770,1,8,0:0:0:0:
160,96,158842,1,0,0:0:0:0:
160,96,158913,1,0,0:0:0:0:
352,96,158984,1,8,0:0:0:0:
160,96,159056,1,0,0:0:0:0:
160,96,159127,1,0,0:0:0:0:
160,96,159199,1,0,0:0:0:0:
352,96,159270,1,8,0:0:0:0:
352,96,159342,1,8,0:0:0:0:
160,96,159413,1,0,0:0:0:0:
160,96,159484,1,0,0:0:0:0:
352,96,159556,1,8,0:0:0:0:
160,96,159627,1,0,0:0:0:0:
160,96,159699,1,0,0:0:0:0:
160,96,159770,1,0,0:0:0:0:
352,96,159842,1,8,0:0:0:0:
160,288,159984,1,4,0:0:0:0:
160,96,160127,1,0,0:0:0:0:
160,96,160199,1,0,0:0:0:0:
160,96,160270,1,0,0:0:0:0:
160,96,160413,1,0,0:0:0:0:
352,96,160556,1,8,0:0:0:0:
160,96,160699,1,0,0:0:0:0:
352,288,160842,1,12,0:0:0:0:
160,96,161413,1,0,0:0:0:0:
352,96,161699,1,8,0:0:0:0:
352,96,161984,1,8,0:0:0:0:
160,96,162127,1,0,0:0:0:0:
160,96,162270,1,0,0:0:0:0:
352,288,162556,1,12,0:0:0:0:
160,96,162842,1,0,0:0:0:0:
352,96,163127,1,8,0:0:0:0:
352,96,163270,1,8,0:0:0:0:
160,288,163413,1,4,0:0:0:0:
160,96,163699,1,0,0:0:0:0:
160,96,163842,1,0,0:0:0:0:
160,96,163984,1,0,0:0:0:0:
160,96,164127,1,0,0:0:0:0:
352,96,164270,1,8,0:0:0:0:
160,96,164556,1,0,0:0:0:0:
160,96,164842,1,0,0:0:0:0:
160,288,165127,1,4,0:0:0:0:
352,96,165413,1,8,0:0:0:0:
352,96,165556,1,8,0:0:0:0:
160,96,165699,1,0,0:0:0:0:
160,96,165842,1,0,0:0:0:0:
160,96,165913,1,0,0:0:0:0:
352,96,165984,1,8,0:0:0:0:
352,96,166270,1,8,0:0:0:0:
160,96,166556,1,0,0:0:0:0:
160,288,166842,1,4,0:0:0:0:
160,96,167413,1,0,0:0:0:0:
352,96,167699,1,8,0:0:0:0:
352,96,167984,1,8,0:0:0:0:
160,96,168270,1,0,0:0:0:0:
160,96,168556,1,0,0:0:0:0:
160,96,168984,1,0,0:0:0:0:
160,96,169270,1,0,0:0:0:0:
160,96,169342,1,0,0:0:0:0:
352,288,169413,1,12,0:0:0:0:
352,96,169699,1,8,0:0:0:0:
352,96,169770,1,8,0:0:0:0:
160,96,169842,1,0,0:0:0:0:
352,96,169913,1,8,0:0:0:0:
160,96,169984,1,0,0:0:0:0:
160,96,170127,1,0,0:0:0:0:
160,288,170270,1,4,0:0:0:0:
352,96,170556,1,8,0:0:0:0:
160,96,170842,1,0,0:0:0:0:
160,96,170984,1,0,0:0:0:0:
352,96,171127,1,8,0:0:0:0:
160,96,171699,1,0,0:0:0:0:
160,96,171984,1,0,0:0:0:0:
352,96,172127,1,8,0:0:0:0:
160,96,172413,1,0,0:0:0:0:
160,96,172556,1,0,0:0:0:0:
160,96,172627,1,0,0:0:0:0:
160,96,172699,1,0,0:0:0:0:
160,96,172770,1,0,0:0:0:0:
352,288,172842,1,12,0:0:0:0:
160,96,173127,1,0,0:0:0:0:
160,96,173270,1,0,0:0:0:0:
352,96,173413,1,8,0:0:0:0:
352,96,173508,1,8,0:0:0:0:
352,96,173603,1,8,0:0:0:0:
160,288,173699,1,4,0:0:0:0:
160,96,174270,1,0,0:0:0:0:
160,96,174413,1,0,0:0:0:0:
352,96,174556,1,8,0:0:0:0:
160,96,174842,1,0,0:0:0:0:
160,96,175127,1,0,0:0:0:0:
352,96,175413,1,8,0:0:0:0:
352,96,175556,1,8,0:0:0:0:
160,96,175699,1,0,0:0:0:0:
352,96,175842,1,8,0:0:0:0:
160,96,175984,1,0,0:0:0:0:
160,96,176127,1,0,0:0:0:0:
160,96,176199,1,0,0:0:0:0:
352,288,176270,1,12,0:0:0:0:
160,96,176413,1,0,0:0:0:0:
160,288,176556,1,4,0:0:0:0:
352,96,176699,1,8,0:0:0:0:
160,288,176842,1,4,0:0:0:0:
352,96,176984,1,8,0:0:0:0:
160,288,177127,1,4,0:0:0:0:
160,96,177699,1,0,0:0:0:0:
352,96,177984,1,8,0:0:0:0:
160,96,178556,1,0,0:0:0:0:
352,96,178842,1,8,0:0:0:0:
352,96,178984,1,8,0:0:0:0:
160,96,179127,1,0,0:0:0:0:
352,96,179270,1,8,0:0:0:0:
352,96,179413,1,8,0:0:0:0:
160,96,179556,1,0,0:0:0:0:
160,96,179627,1,0,0:0:0:0:
352,288,179699,1,12,0:0:0:0:
160,96,179842,1,0,0:0:0:0:
160,96,179984,1,0,0:0:0:0:
352,96,180127,1,8,0:0:0:0:
352,96,180199,1,8,0:0:0:0:
160,96,180270,1,0,0:0:0:0:
352,96,180413,1,8,0:0:0:0:
160,288,180556,1,4,0:0:0:0:
160,96,180699,1,0,0:0:0:0:
160,96,180842,1,0,0:0:0:0:
160,96,180984,1,0,0:0:0:0:
160,96,181127,1,0,0:0:0:0:
160,96,181270,1,0,0:0:0:0:
352,96,181413,1,8,0:0:0:0:
160,96,181556,1,0,0:0:0:0:
352,96,181699,1,8,0:0:0:0:
160,96,181842,1,0,0:0:0:0:
352,96,181984,1,8,0:0:0:0:
160,96,182127,1,0,0:0:0:0:
352,96,182270,1,8,0:0:0:0:
352,96,182413,1,8,0:0:0:0:
160,96,182556,1,0,0:0:0:0:
160,96,182699,1,0,0:0:0:0:
160,96,182842,1,0,0:0:0:0:
160,96,182913,1,0,0:0:0:0:
160,96,182984,1,0,0:0:0:0:
160,96,183056,1,0,0:0:0:0:
352,288,183127,1,12,0:0:0:0:
352,96,183699,1,8,0:0:0:0:
160,96,183770,1,0,0:0:0:0:
352,96,183842,1,8,0:0:0:0:
352,96,183913,1,8,0:0:0:0:
160,288,183984,1,4,0:0:0:0:
352,288,184270,1,12,0:0:0:0:
160,288,184556,1,4,0:0:0:0:
352,96,184842,1,8,0:0:0:0:
160,96,184984,1,0,0:0:0:0:
352,96,185127,1,8,0:0:0:0:
352,96,185270,1,8,0:0:0:0:
160,96,185413,1,0,0:0:0:0:
160,96,185556,1,0,0:0:0:0:
160,96,185699,1,0,0:0:0:0:
160,96,185842,1,0,0:0:0:0:
352,96,185984,1,8,0:0:0:0:
160,96,186127,1,0,0:0:0:0:
160,96,186270,1,0,0:0:0:0:
160,96,186413,1,0,0:0:0:0:
352,96,186556,1,8,0:0:0:0:
352,96,186627,1,8,0:0:0:0:
160,96,186699,1,0,0:0:0:0:
160,96,186842,1,0,0:0:0:0:
160,96,186984,1,0,0:0:0:0:
352,96,187127,1,8,0:0:0:0:
160,96,187270,1,0,0:0:0:0:
352,288,187413,1,12,0:0:0:0:
160,96,187984,1,0,0:0:0:0:
352,96,188270,1,8,0:0:0:0:
352,96,188556,1,8,0:0:0:0:
160,96,188842,1,0,0:0:0:0:
160,96,189127,1,0,0:0:0:0:
160,96,189413,1,0,0:0:0:0:
160,96,189699,1,0,0:0:0:0:
160,96,189842,1,0,0:0:0:0:
352,96,189984,1,8,0:0:0:0:
160,288,190270,1,4,0:0:0:0:
160,288,190556,1,4,0:0:0:0:
352,288,190842,1,12,0:0:0:0:
160,96,192413,1,0,0:0:0:0:
160,96,192484,1,0,0:0:0:0:
160,288,192556,1,4,0:0:0:0:
352,96,193413,1,8,0:0:0:0:
352,96,193484,1,8,0:0:0:0:
352,96,193556,1,8,0:0:0:0:
352,96,193627,1,8,0:0:0:0:
160,96,193699,1,0,0:0:0:0:
160,96,193770,1,0,0:0:0:0:
160,96,193842,1,0,0:0:0:0:
160,96,193913,1,0,0:0:0:0:
352,96,193984,1,8,0:0:0:0:
160,96,194056,1,0,0:0:0:0:
160,96,194127,1,0,0:0:0:0:
160,288,194270,1,4,0:0:0:0:
160,96,194413,1,0,0:0:0:0:
160,96,194484,1,0,0:0:0:0:
352,96,194556,1,8,0:0:0:0:
160,96,194627,1,0,0:0:0:0:
160,96,194699,1,0,0:0:0:0:
160,96,194770,1,0,0:0:0:0:
352,96,194842,1,8,0:0:0:0:
160,96,194913,1,0,0:0:0:0:
160,96,194984,1,0,0:0:0:0:
160,96,195056,1,0,0:0:0:0:
352,96,195127,1,8,0:0:0:0:
352,96,195199,1,8,0:0:0:0:
160,96,195270,1,0,0:0:0:0:
160,96,195342,1,0,0:0:0:0:
352,96,195413,1,8,0:0:0:0:
352,96,195484,1,8,0:0:0:0:
160,96,195556,1,0,0:0:0:0:
160,96,195627,1,0,0:0:0:0:
352,96,195699,1,8,0:0:0:0:
352,96,195770,1,8,0:0:0:0:
160,96,195842,1,0,0:0:0:0:
160,96,195913,1,0,0:0:0:0:
352,96,195984,1,8,0:0:0:0:
352,96,196056,1,8,0:0:0:0:
352,96,196127,1,8,0:0:0:0:
160,96,196199,1,0,0:0:0:0:
352,96,196270,1,8,0:0:0:0:
160,96,196342,1,0,0:0:0:0:
352,96,196413,1,8,0:0:0:0:
352,96,196484,1,8,0:0:0:0:
352,96,196556,1,8,0:0:0:0:
352,96,196627,1,8,0:0:0:0:
160,96,196699,1,0,0:0:0:0:
160,96,196770,1,0,0:0:0:0:
352,96,196842,1,8,0:0:0:0:
160,96,196913,1,0,0:0:0:0:
160,96,196984,1,0,0:0:0:0:
160,96,197056,1,0,0:0:0:0:
352,96,197127,1,8,0:0:0:0:
352,96,197199,1,8,0:0:0:0:
160,96,197270,1,0,0:0:0:0:
160,96,197342,1,0,0:0:0:0:
352,96,197413,1,8,0:0:0:0:
160,96,197484,1,0,0:0:0:0:
160,96,197556,1,0,0:0:0:0:
160,96,197627,1,0,0:0:0:0:
352,96,197699,1,8,0:0:0:0:
352,96,197770,1,8,0:0:0:0:
160,96,197842,1,0,0:0:0:0:
160,96,197913,1,0,0:0:0:0:
352,96,197984,1,8,0:0:0:0:
160,96,198056,1,0,0:0:0:0:
352,96,198127,1,8,0:0:0:0:
352,96,198199,1,8,0:0:0:0:
160,96,198270,1,0,0:0:0:0:
160,96,198342,1,0,0:0:0:0:
160,96,198413,1,0,0:0:0:0:
160,96,198484,1,0,0:0:0:0:
352,96,198556,1,8,0:0:0:0:
352,96,198627,1,8,0:0:0:0:
352,96,198699,1,8,0:0:0:0:
160,96,198770,1,0,0:0:0:0:
352,96,198842,1,8,0:0:0:0:
352,96,198913,1,8,0:0:0:0:
160,96,198984,1,0,0:0:0:0:
160,96,199056,1,0,0:0:0:0:
352,96,199127,1,8,0:0:0:0:
352,96,199199,1,8,0:0:0:0:
352,96,199270,1,8,0:0:0:0:
160,96,199342,1,0,0:0:0:0:
352,96,199413,1,8,0:0:0:0:
352,96,199484,1,8,0:0:0:0:
352,96,199556,1,8,0:0:0:0:
352,96,199627,1,8,0:0:0:0:
352,96,199699,1,8,0:0:0:0:
352,96,199770,1,8,0:0:0:0:
160,96,199842,1,0,0:0:0:0:
160,96,199913,1,0,0:0:0:0:
352,96,199984,1,8,0:0:0:0:
160,96,200056,1,0,0:0:0:0:
160,96,200127,1,0,0:0:0:0:
160,96,200199,1,0,0:0:0:0:
352,96,200270,1,8,0:0:0:0:
352,96,200342,1,8,0:0:0:0:
352,96,200413,1,8,0:0:0:0:
160,96,200484,1,0,0:0:0:0:
352,96,200556,1,8,0:0:0:0:
352,96,200627,1,8,0:0:0:0:
160,96,200699,1,0,0:0:0:0:
160,96,200770,1,0,0:0:0:0:
352,96,200842,1,8,0:0:0:0:
160,96,200913,1,0,0:0:0:0:
160,96,200984,1,0,0:0:0:0:
160,96,201056,1,0,0:0:0:0:
352,96,201127,1,8,0:0:0:0:
352,96,201199,1,8,0:0:0:0:
352,96,201270,1,8,0:0:0:0:
352,96,201342,1,8,0:0:0:0:
160,96,201413,1,0,0:0:0:0:
160,96,201484,1,0,0:0:0:0:
160,96,201556,1,0,0:0:0:0:
160,96,201627,1,0,0:0:0:0:
352,96,201699,1,8,0:0:0:0:
352,96,201770,1,8,0:0:0:0:
160,96,201842,1,0,0:0:0:0:
160,96,201913,1,0,0:0:0:0:
352,96,201984,1,8,0:0:0:0:
352,96,202056,1,8,0:0:0:0:
160,96,202127,1,0,0:0:0:0:
160,96,202199,1,0,0:0:0:0:
352,96,202270,1,8,0:0:0:0:
160,96,202342,1,0,0:0:0:0:
160,96,202413,1,0,0:0:0:0:
160,96,202484,1,0,0:0:0:0:
352,96,202556,1,8,0:0:0:0:
160,96,202627,1,0,0:0:0:0:
160,96,202699,1,0,0:0:0:0:
160,96,202770,1,0,0:0:0:0:
352,96,202842,1,8,0:0:0:0:
160,96,202913,1,0,0:0:0:0:
160,96,202984,1,0,0:0:0:0:
160,96,203056,1,0,0:0:0:0:
352,96,203127,1,8,0:0:0:0:
160,96,203199,1,0,0:0:0:0:
352,96,203270,1,8,0:0:0:0:
352,96,203342,1,8,0:0:0:0:
352,96,203413,1,8,0:0:0:0:
352,96,203484,1,8,0:0:0:0:
160,96,203556,1,0,0:0:0:0:
160,96,203627,1,0,0:0:0:0:
352,96,203699,1,8,0:0:0:0:
352,96,203770,1,8,0:0:0:0:
160,96,203842,1,0,0:0:0:0:
160,96,203913,1,0,0:0:0:0:
352,96,203984,1,8,0:0:0:0:
160,96,204056,1,0,0:0:0:0:
352,96,204127,1,8,0:0:0:0:
160,96,204199,1,0,0:0:0:0:
352,96,204270,1,8,0:0:0:0:
352,96,204342,1,8,0:0:0:0:
160,96,204413,1,0,0:0:0:0:
160,96,204484,1,0,0:0:0:0:
352,96,204556,1,8,0:0:0:0:
160,96,204627,1,0,0:0:0:0:
160,96,204699,1,0,0:0:0:0:
160,96,204770,1,0,0:0:0:0:
352,96,204842,1,8,0:0:0:0:
352,96,204913,1,8,0:0:0:0:
160,96,204984,1,0,0:0:0:0:
160,96,205056,1,0,0:0:0:0:
352,96,205127,1,8,0:0:0:0:
352,96,205199,1,8,0:0:0:0:
160,96,205270,1,0,0:0:0:0:
160,96,205342,1,0,0:0:0:0:
352,96,205413,1,8,0:0:0:0:
352,96,205484,1,8,0:0:0:0:
160,96,205556,1,0,0:0:0:0:
352,96,205627,1,8,0:0:0:0:
352,96,205699,1,8,0:0:0:0:
352,96,205770,1,8,0:0:0:0:
160,96,205842,1,0,0:0:0:0:
160,96,205913,1,0,0:0:0:0:
352,96,205984,1,8,0:0:0:0:
352,96,206056,1,8,0:0:0:0:
160,96,206127,1,0,0:0:0:0:
160,96,206199,1,0,0:0:0:0:
352,96,206270,1,8,0:0:0:0:
160,96,206342,1,0,0:0:0:0:
160,96,206413,1,0,0:0:0:0:
160,96,206484,1,0,0:0:0:0:
352,96,206556,1,8,0:0:0:0:
352,96,206627,1,8,0:0:0:0:
160,96,206699,1,0,0:0:0:0:
160,96,206770,1,0,0:0:0:0:
352,96,206842,1,8,0:0:0:0:
352,96,206913,1,8,0:0:0:0:
352,96,206984,1,8,0:0:0:0:
160,96,207056,1,0,0:0:0:0:
352,96,207127,1,8,0:0:0:0:
160,96,207199,1,0,0:0:0:0:
160,96,207270,1,0,0:0:0:0:
160,96,207342,1,0,0:0:0:0:
352,96,207413,1,8,0:0:0:0:
352,96,207484,1,8,0:0:0:0:
352,96,207556,1,8,0:0:0:0:
352,96,207627,1,8,0:0:0:0:
160,96,207699,1,0,0:0:0:0:
160,96,207770,1,0,0:0:0:0:
160,96,207842,1,0,0:0:0:0:
160,96,207913,1,0,0:0:0:0:
352,288,207984,1,12,0:0:0:0:
160,96,208270,1,0,0:0:0:0:
352,96,208413,1,8,0:0:0:0:
352,96,208484,1,8,0:0:0:0:
160,96,208556,1,0,0:0:0:0:
352,96,208699,1,8,0:0:0:0:
352,96,208842,1,8,0:0:0:0:
160,96,208913,1,0,0:0:0:0:
352,96,208984,1,8,0:0:0:0:
160,96,209127,1,0,0:0:0:0:
352,96,209270,1,8,0:0:0:0:
160,96,209342,1,0,0:0:0:0:
160,96,209413,1,0,0:0:0:0:
352,96,209556,1,8,0:0:0:0:
160,96,209627,1,0,0:0:0:0:
352,96,209699,1,8,0:0:0:0:
352,96,209770,1,8,0:0:0:0:
160,96,209842,1,0,0:0:0:0:
160,96,209984,1,0,0:0:0:0:
352,96,210127,1,8,0:0:0:0:
352,96,210199,1,8,0:0:0:0:
160,96,210270,1,0,0:0:0:0:
352,96,210413,1,8,0:0:0:0:
160,96,210484,1,0,0:0:0:0:
352,96,210556,1,8,0:0:0:0:
352,96,210699,1,8,0:0:0:0:
160,96,210842,1,0,0:0:0:0:
160,96,210913,1,0,0:0:0:0:
352,96,210984,1,8,0:0:0:0:
160,96,211127,1,0,0:0:0:0:
352,96,211270,1,8,0:0:0:0:
160,96,211342,1,0,0:0:0:0:
352,96,211413,1,8,0:0:0:0:
352,96,211484,1,8,0:0:0:0:
352,96,211556,1,8,0:0:0:0:
160,96,211699,1,0,0:0:0:0:
352,96,211842,1,8,0:0:0:0:
352,96,211913,1,8,0:0:0:0:
160,96,211984,1,0,0:0:0:0:
352,96,212127,1,8,0:0:0:0:
352,96,212270,1,8,0:0:0:0:
352,96,212342,1,8,0:0:0:0:
352,96,212413,1,8,0:0:0:0:
352,96,212484,1,8,0:0:0:0:
160,96,212556,1,0,0:0:0:0:
352,96,212699,1,8,0:0:0:0:
160,96,212842,1,0,0:0:0:0:
352,96,212913,1,8,0:0:0:0:
352,96,212984,1,8,0:0:0:0:
352,96,213056,1,8,0:0:0:0:
160,96,213127,1,0,0:0:0:0:
160,96,213199,1,0,0:0:0:0:
352,96,213270,1,8,0:0:0:0:
160,96,213342,1,0,0:0:0:0:
160,96,213413,1,0,0:0:0:0:
160,96,213484,1,0,0:0:0:0:
352,96,213556,1,8,0:0:0:0:
160,96,213627,1,0,0:0:0:0:
160,96,213699,1,0,0:0:0:0:
160,96,213770,1,0,0:0:0:0:
352,96,213842,1,8,0:0:0:0:
160,96,213913,1,0,0:0:0:0:
352,96,213984,1,8,0:0:0:0:
352,96,214056,1,8,0:0:0:0:
160,96,214127,1,0,0:0:0:0:
160,96,214199,1,0,0:0:0:0:
352,96,214270,1,8,0:0:0:0:
352,96,214342,1,8,0:0:0:0:
160,96,214413,1,0,0:0:0:0:
160,96,214484,1,0,0:0:0:0:
352,96,214556,1,8,0:0:0:0:
352,96,214627,1,8,0:0:0:0:
352,96,214699,1,8,0:0:0:0:
352,96,214770,1,8,0:0:0:0:
160,288,214842,1,4,0:0:0:0:
160,96,214984,1,0,0:0:0:0:
160,96,215056,1,0,0:0:0:0:
352,96,215127,1,8,0:0:0:0:
160,96,215270,1,0,0:0:0:0:
352,96,215413,1,8,0:0:0:0:
160,96,215556,1,0,0:0:0:0:
352,288,215699,1,12,0:0:0:0:
160,96,215842,1,0,0:0:0:0:
160,96,216127,1,0,0:0:0:0:
160,96,216270,1,0,0:0:0:0:
160,96,216413,1,0,0:0:0:0:
352,288,216556,1,12,0:0:0:0:
352,96,216699,1,8,0:0:0:0:
160,96,216842,1,0,0:0:0:0:
352,96,216984,1,8,0:0:0:0:
160,96,217127,1,0,0:0:0:0:
160,96,217270,1,0,0:0:0:0:
160,96,217342,1,0,0:0:0:0:
352,96,217413,1,8,0:0:0:0:
160,96,217699,1,0,0:0:0:0:
160,96,217842,1,0,0:0:0:0:
160,96,217984,1,0,0:0:0:0:
160,96,218127,1,0,0:0:0:0:
352,288,218270,1,12,0:0:0:0:
160,96,218556,1,0,0:0:0:0:
160,96,218699,1,0,0:0:0:0:
352,96,218842,1,8,0:0:0:0:
160,96,218984,1,0,0:0:0:0:
352,96,219127,1,8,0:0:0:0:
160,96,219413,1,0,0:0:0:0:
160,96,219699,1,0,0:0:0:0:
160,96,219984,1,0,0:0:0:0:
160,96,220056,1,0,0:0:0:0:
160,96,220127,1,0,0:0:0:0:
160,96,220199,1,0,0:0:0:0:
160,96,220270,1,0,0:0:0:0:
160,96,220342,1,0,0:0:0:0:
160,96,220413,1,0,0:0:0:0:
160,96,220484,1,0,0:0:0:0:
160,96,220556,1,0,0:0:0:0:
160,96,220627,1,0,0:0:0:0:
160,96,220699,1,0,0:0:0:0:
160,96,220770,1,0,0:0:0:0:
352,288,220842,1,12,0:0:0:0:
352,96,221127,1,8,0:0:0:0:
352,96,221199,1,8,0:0:0:0:
352,96,221270,1,8,0:0:0:0:
352,96,221342,1,8,0:0:0:0:
352,96,221413,1,8,0:0:0:0:
352,96,221484,1,8,0:0:0:0:
352,96,221556,1,8,0:0:0:0:
352,96,221627,1,8,0:0:0:0:
160,96,221699,1,0,0:0:0:0:
160,96,221770,1,0,0:0:0:0:
352,96,221842,1,8,0:0:0:0:
160,96,221913,1,0,0:0:0:0:
352,96,221984,1,8,0:0:0:0:
160,96,222056,1,0,0:0:0:0:
352,96,222127,1,8,0:0:0:0:
160,96,222199,1,0,0:0:0:0:
352,96,222270,1,8,0:0:0:0:
160,96,222342,1,0,0:0:0:0:
352,96,222413,1,8,0:0:0:0:
160,96,222484,1,0,0:0:0:0:
352,96,222556,1,8,0:0:0:0:
352,96,222627,1,8,0:0:0:0:
160,96,222699,1,0,0:0:0:0:
160,96,222770,1,0,0:0:0:0:
352,96,222842,1,8,0:0:0:0:
160,96,222913,1,0,0:0:0:0:
160,96,222984,1,0,0:0:0:0:
160,96,223056,1,0,0:0:0:0:
352,96,223127,1,8,0:0:0:0:
160,96,223199,1,0,0:0:0:0:
160,96,223270,1,0,0:0:0:0:
160,96,223342,1,0,0:0:0:0:
352,96,223413,1,8,0:0:0:0:
160,96,223484,1,0,0:0:0:0:
352,96,223556,1,8,0:0:0:0:
160,96,223627,1,0,0:0:0:0:
352,96,223699,1,8,0:0:0:0:
352,96,223770,1,8,0:0:0:0:
160,96,223842,1,0,0:0:0:0:
160,96,223913,1,0,0:0:0:0:
352,96,223984,1,8,0:0:0:0:
160,96,224056,1,0,0:0:0:0:
160,96,224127,1,0,0:0:0:0:
160,96,224199,1,0,0:0:0:0:
352,96,224270,1,8,0:0:0:0:
160,96,224342,1,0,0:0:0:0:
352,96,224413,1,8,0:0:0:0:
352,96,224484,1,8,0:0:0:0:
160,96,224556,1,0,0:0:0:0:
352,96,224627,1,8,0:0:0:0:
352,96,224699,1,8,0:0:0:0:
160,96,224770,1,0,0:0:0:0:
352,96,224842,1,8,0:0:0:0:
160,96,224913,1,0,0:0:0:0:
352,96,224984,1,8,0:0:0:0:
160,96,225056,1,0,0:0:0:0:
352,96,225127,1,8,0:0:0:0:
352,96,225199,1,8,0:0:0:0:
160,96,225270,1,0,0:0:0:0:
160,96,225342,1,0,0:0:0:0:
352,96,225413,1,8,0:0:0:0:
160,96,225484,1,0,0:0:0:0:
352,96,225556,1,8,0:0:0:0:
160,96,225627,1,0,0:0:0:0:
352,96,225699,1,8,0:0:0:0:
160,96,225770,1,0,0:0:0:0:
352,96,225842,1,8,0:0:0:0:
160,96,225913,1,0,0:0:0:0:
352,96,225984,1,8,0:0:0:0:
352,96,226056,1,8,0:0:0:0:
160,96,226127,1,0,0:0:0:0:
160,96,226199,1,0,0:0:0:0:
352,96,226270,1,8,0:0:0:0:
160,96,226342,1,0,0:0:0:0:
352,96,226413,1,8,0:0:0:0:
160,96,226484,1,0,0:0:0:0:
352,96,226556,1,8,0:0:0:0:
352,96,226627,1,8,0:0:0:0:
160,96,226699,1,0,0:0:0:0:
160,96,226770,1,0,0:0:0:0:
352,96,226842,1,8,0:0:0:0:
160,96,226913,1,0,0:0:0:0:
352,96,226984,1,8,0:0:0:0:
160,96,227056,1,0,0:0:0:0:
352,96,227127,1,8,0:0:0:0:
160,96,227199,1,0,0:0:0:0:
352,96,227270,1,8,0:0:0:0:
352,96,227342,1,8,0:0:0:0:
352,96,227413,1,8,0:0:0:0:
160,96,227484,1,0,0:0:0:0:
352,96,227556,1,8,0:0:0:0:
160,96,227627,1,0,0:0:0:0:
352,96,227699,1,8,0:0:0:0:
352,96,227770,1,8,0:0:0:0:
160,96,227842,1,0,0:0:0:0:
352,96,227913,1,8,0:0:0:0:
352,96,227984,1,8,0:0:0:0:
352,96,228056,1,8,0:0:0:0:
160,96,228127,1,0,0:0:0:0:
160,96,228199,1,0,0:0:0:0:
352,96,228270,1,8,0:0:0:0:
160,96,228342,1,0,0:0:0:0:
352,96,228413,1,8,0:0:0:0:
160,96,228484,1,0,0:0:0:0:
352,96,228556,1,8,0:0:0:0:
352,96,228627,1,8,0:0:0:0:
352,96,228699,1,8,0:0:0:0:
160,96,228770,1,0,0:0:0:0:
352,96,228842,1,8,0:0:0:0:
160,96,228913,1,0,0:0:0:0:
352,96,228984,1,8,0:0:0:0:
352,96,229056,1,8,0:0:0:0:
160,96,229127,1,0,0:0:0:0:
160,96,229199,1,0,0:0:0:0:
352,96,229270,1,8,0:0:0:0:
160,96,229342,1,0,0:0:0:0:
352,96,229413,1,8,0:0:0:0:
352,96,229484,1,8,0:0:0:0:
352,96,229556,1,8,0:0:0:0:
352,96,229627,1,8,0:0:0:0:
160,96,229699,1,0,0:0:0:0:
160,96,229770,1,0,0:0:0:0:
352,96,229842,1,8,0:0:0:0:
160,96,229913,1,0,0:0:0:0:
352,96,229984,1,8,0:0:0:0:
160,96,230056,1,0,0:0:0:0:
352,96,230127,1,8,0:0:0:0:
160,96,230199,1,0,0:0:0:0:
352,96,230270,1,8,0:0:0:0:
352,96,230342,1,8,0:0:0:0:
160,96,230413,1,0,0:0:0:0:
160,96,230484,1,0,0:0:0:0:
352,96,230556,1,8,0:0:0:0:
160,96,230627,1,0,0:0:0:0:
352,96,230699,1,8,0:0:0:0:
352,96,230770,1,8,0:0:0:0:
352,96,230842,1,8,0:0:0:0:
160,96,230913,1,0,0:0:0:0:
160,96,230984,1,0,0:0:0:0:
160,96,231056,1,0,0:0:0:0:
352,96,231127,1,8,0:0:0:0:
352,96,231199,1,8,0:0:0:0:
160,96,231270,1,0,0:0:0:0:
352,96,231342,1,8,0:0:0:0:
160,96,231413,1,0,0:0:0:0:
160,96,231484,1,0,0:0:0:0:
352,96,231556,1,8,0:0:0:0:
352,96,231627,1,8,0:0:0:0:
160,96,231699,1,0,0:0:0:0:
160,96,231770,1,0,0:0:0:0:
352,96,231842,1,8,0:0:0:0:
352,96,231913,1,8,0:0:0:0:
352,96,231984,1,8,0:0:0:0:
160,96,232056,1,0,0:0:0:0:
352,96,232127,1,8,0:0:0:0:
160,96,232199,1,0,0:0:0:0:
352,96,232270,1,8,0:0:0:0:
352,96,232342,1,8,0:0:0:0:
352,96,232413,1,8,0:0:0:0:
352,96,232484,1,8,0:0:0:0:
160,96,232556,1,0,0:0:0:0:
160,96,232627,1,0,0:0:0:0:
352,96,232699,1,8,0:0:0:0:
160,96,232770,1,0,0:0:0:0:
352,96,232842,1,8,0:0:0:0:
352,96,232913,1,8,0:0:0:0:
352,96,232984,1,8,0:0:0:0:
160,96,233056,1,0,0:0:0:0:
352,96,233127,1,8,0:0:0:0:
160,96,233199,1,0,0:0:0:0:
352,96,233270,1,8,0:0:0:0:
160,96,233342,1,0,0:0:0:0:
352,96,233413,1,8,0:0:0:0:
160,96,233556,1,0,0:0:0:0:
352,96,233699,1,8,0:0:0:0:
352,96,233770,1,8,0:0:0:0:
352,96,233842,1,8,0:0:0:0:
352,96,233913,1,8,0:0:0:0:
160,96,233984,1,0,0:0:0:0:
160,96,234056,1,0,0:0:0:0:
160,96,234127,1,0,0:0:0:0:
160,96,234199,1,0,0:0:0:0:
352,96,234270,1,8,0:0:0:0:
352,96,234342,1,8,0:0:0:0:
352,96,234413,1,8,0:0:0:0:
352,96,234484,1,8,0:0:0:0:
160,96,234556,1,0,0:0:0:0:
352,96,234627,1,8,0:0:0:0:
352,96,234699,1,8,0:0:0:0:
352,96,234770,1,8,0:0:0:0:
160,96,234842,1,0,0:0:0:0:
160,96,234913,1,0,0:0:0:0:
160,96,234984,1,0,0:0:0:0:
160,96,235056,1,0,0:0:0:0:
352,96,235127,1,8,0:0:0:0:
160,96,235199,1,0,0:0:0:0:
352,96,235270,1,8,0:0:0:0:
352,96,235342,1,8,0:0:0:0:
160,96,235413,1,0,0:0:0:0:
160,96,235484,1,0,0:0:0:0:
160,96,235556,1,0,0:0:0:0:
160,96,235627,1,0,0:0:0:0:
160,96,235699,1,0,0:0:0:0:
160,96,235770,1,0,0:0:0:0:
160,96,235842,1,0,0:0:0:0:
160,96,235913,1,0,0:0:0:0:
160,96,235984,1,0,0:0:0:0:
160,96,236056,1,0,0:0:0:0:
160,96,236127,1,0,0:0:0:0:
160,96,236199,1,0,0:0:0:0:
352,288,236270,1,12,0:0:0:0:
352,96,236556,1,8,0:0:0:0:
352,96,236842,1,8,0:0:0:0:
160,96,237127,1,0,0:0:0:0:
160,96,237270,1,0,0:0:0:0:
352,96,237413,1,8,0:0:0:0:
160,96,237556,1,0,0:0:0:0:
160,96,237842,1,0,0:0:0:0:
160,96,237913,1,0,0:0:0:0:
160,96,237984,1,0,0:0:0:0:
160,96,238127,1,0,0:0:0:0:
160,96,238413,1,0,0:0:0:0:
160,96,238699,1,0,0:0:0:0:
160,96,238842,1,0,0:0:0:0:
160,96,238913,1,0,0:0:0:0:
160,96,238984,1,0,0:0:0:0:
160,96,239056,1,0,0:0:0:0:
352,288,239127,1,12,0:0:0:0:
160,96,239413,1,0,0:0:0:0:
160,96,239556,1,0,0:0:0:0:
352,96,239699,1,8,0:0:0:0:
160,96,239770,1,0,0:0:0:0:
160,96,239842,1,0,0:0:0:0:
160,96,239913,1,0,0:0:0:0:
352,288,239984,1,12,0:0:0:0:
160,96,240270,1,0,0:0:0:0:
160,96,240413,1,0,0:0:0:0:
352,288,240556,1,12,0:0:0:0:
160,96,241127,1,0,0:0:0:0:
352,96,241413,1,8,0:0:0:0:
160,96,241556,1,0,0:0:0:0:
160,96,241699,1,0,0:0:0:0:
160,96,241842,1,0,0:0:0:0:
160,96,241984,1,0,0:0:0:0:
160,96,242127,1,0,0:0:0:0:
160,288,242270,1,4,0:0:0:0:
352,96,242556,1,8,0:0:0:0:
352,96,242842,1,8,0:0:0:0:
352,96,243127,1,8,0:0:0:0:
160,96,243199,1,0,0:0:0:0:
160,96,243270,1,0,0:0:0:0:
160,96,243342,1,0,0:0:0:0:
160,96,243413,1,0,0:0:0:0:
160,96,243484,1,0,0:0:0:0:
160,96,243556,1,0,0:0:0:0:
160,96,243627,1,0,0:0:0:0:
352,96,243699,1,8,0:0:0:0:
352,96,243770,1,8,0:0:0:0:
352,96,243842,1,8,0:0:0:0:
352,96,243913,1,8,0:0:0:0:
160,288,243984,1,4,0:0:0:0:
160,96,244270,1,0,0:0:0:0:
160,96,244556,1,0,0:0:0:0:
352,96,244842,1,8,0:0:0:0:
160,96,244984,1,0,0:0:0:0:
160,96,245127,1,0,0:0:0:0:
160,96,245270,1,0,0:0:0:0:
160,96,245413,1,0,0:0:0:0:
160,96,245556,1,0,0:0:0:0:
352,96,245699,1,8,0:0:0:0:
160,288,245842,1,4,0:0:0:0:
160,288,246127,1,4,0:0:0:0:
160,288,246413,1,4,0:0:0:0:
352,288,246556,1,12,0:0:0:0:
160,288,246699,1,4,0:0:0:0:
160,288,246984,1,4,0:0:0:0:
160,288,247270,1,4,0:0:0:0:
352,288,247413,1,12,0:0:0:0:
160,96,247699,1,0,0:0:0:0:
352,96,247984,1,8,0:0:0:0:
160,96,248127,1,0,0:0:0:0:
352,96,248270,1,8,0:0:0:0:
352,96,248342,1,8,0:0:0:0:
352,96,248413,1,8,0:0:0:0:
352,96,248484,1,8,0:0:0:0:
160,96,248556,1,0,0:0:0:0:
160,96,248627,1,0,0:0:0:0:
160,96,248699,1,0,0:0:0:0:
160,96,248770,1,0,0:0:0:0:
352,96,248842,1,8,0:0:0:0:
352,96,248913,1,8,0:0:0:0:
160,96,248984,1,0,0:0:0:0:
160,96,249056,1,0,0:0:0:0:
352,288,249127,1,12,0:0:0:0:
352,96,249413,1,8,0:0:0:0:
160,96,249484,1,0,0:0:0:0:
352,96,249556,1,8,0:0:0:0:
160,96,249627,1,0,0:0:0:0:
352,96,249699,1,8,0:0:0:0:
352,96,249770,1,8,0:0:0:0:
160,96,249842,1,0,0:0:0:0:
160,96,249913,1,0,0:0:0:0:
352,96,249984,1,8,0:0:0:0:
352,96,250056,1,8,0:0:0:0:
352,96,250127,1,8,0:0:0:0:
352,96,250199,1,8,0:0:0:0:
160,96,250270,1,0,0:0:0:0:
160,96,250342,1,0,0:0:0:0:
352,96,250413,1,8,0:0:0:0:
160,96,250484,1,0,0:0:0:0:
352,96,250556,1,8,0:0:0:0:
352,96,250627,1,8,0:0:0:0:
352,96,250699,1,8,0:0:0:0:
160,96,250770,1,0,0:0:0:0:
352,96,250842,1,8,0:0:0:0:
352,96,250913,1,8,0:0:0:0:
352,96,250984,1,8,0:0:0:0:
160,96,251056,1,0,0:0:0:0:
160,96,251127,1,0,0:0:0:0:
160,96,251199,1,0,0:0:0:0:
352,96,251270,1,8,0:0:0:0:
352,96,251342,1,8,0:0:0:0:
352,96,251413,1,8,0:0:0:0:
352,96,251484,1,8,0:0:0:0:
160,96,251556,1,0,0:0:0:0:
160,96,251627,1,0,0:0:0:0:
352,96,251699,1,8,0:0:0:0:
352,96,251770,1,8,0:0:0:0:
352,96,251842,1,8,0:0:0:0:
160,96,251913,1,0,0:0:0:0:
352,96,251984,1,8,0:0:0:0:
352,96,252056,1,8,0:0:0:0:
160,96,252127,1,0,0:0:0:0:
352,96,252199,1,8,0:0:0:0:
352,96,252270,1,8,0:0:0:0:
160,96,252342,1,0,0:0:0:0:
352,96,252413,1,8,0:0:0:0:
160,96,252484,1,0,0:0:0:0:
352,96,252556,1,8,0:0:0:0:
352,96,252627,1,8,0:0:0:0:
352,96,252699,1,8,0:0:0:0:
352,96,252770,1,8,0:0:0:0:
160,96,252842,1,0,0:0:0:0:
160,96,252913,1,0,0:0:0:0:
352,96,252984,1,8,0:0:0:0:
160,96,253056,1,0,0:0:0:0:
352,96,253127,1,8,0:0:0:0:
352,96,253199,1,8,0:0:0:0:
352,96,253270,1,8,0:0:0:0:
160,96,253342,1,0,0:0:0:0:
352,96,253413,1,8,0:0:0:0:
352,96,253484,1,8,0:0:0:0:
160,96,253556,1,0,0:0:0:0:
160,96,253627,1,0,0:0:0:0:
352,96,253699,1,8,0:0:0:0:
160,96,253770,1,0,0:0:0:0:
352,96,253842,1,8,0:0:0:0:
160,96,253913,1,0,0:0:0:0:
352,96,253984,1,8,0:0:0:0:
160,96,254056,1,0,0:0:0:0:
352,96,254127,1,8,0:0:0:0:
352,96,254199,1,8,0:0:0:0:
352,96,254270,1,8,0:0:0:0:
352,96,254342,1,8,0:0:0:0:
160,96,254413,1,0,0:0:0:0:
160,96,254484,1,0,0:0:0:0:
352,96,254556,1,8,0:0:0:0:
352,96,254627,1,8,0:0:0:0:
352,96,254699,1,8,0:0:0:0:
352,96,254770,1,8,0:0:0:0:
160,96,254842,1,0,0:0:0:0:
160,96,254913,1,0,0:0:0:0:
352,96,254984,1,8,0:0:0:0:
160,96,255056,1,0,0:0:0:0:
352,96,255127,1,8,0:0:0:0:
352,96,255199,1,8,0:0:0:0:
160,96,255270,1,0,0:0:0:0:
160,96,255342,1,0,0:0:0:0:
352,96,255413,1,8,0:0:0:0:
352,96,255484,1,8,0:0:0:0:
160,96,255556,1,0,0:0:0:0:
160,96,255627,1,0,0:0:0:0:
352,96,255699,1,8,0:0:0:0:
352,96,255770,1,8,0:0:0:0:
352,96,255842,1,8,0:0:0:0:
352,96,255913,1,8,0:0:0:0:
160,96,255984,1,0,0:0:0:0:
160,96,256056,1,0,0:0:0:0:
160,96,256127,1,0,0:0:0:0:
160,96,256199,1,0,0:0:0:0:
160,96,256270,1,0,0:0:0:0:
160,96,256342,1,0,0:0:0:0:
160,96,256413,1,0,0:0:0:0:
160,96,256484,1,0,0:0:0:0:
352,96,256556,1,8,0:0:0:0:
160,96,256627,1,0,0:0:0:0:
160,96,256699,1,0,0:0:0:0:
160,96,256770,1,0,0:0:0:0:
352,288,256842,1,12,0:0:0:0:
352,96,257127,1,8,0:0:0:0:
160,288,257413,1,4,0:0:0:0:
160,288,257699,1,4,0:0:0:0:
352,96,257984,1,8,0:0:0:0:
160,96,258270,1,0,0:0:0:0:
352,96,258556,1,8,0:0:0:0:
160,96,258842,1,0,0:0:0:0:
352,96,258913,1,8,0:0:0:0:
352,96,258984,1,8,0:0:0:0:
352,96,259056,1,8,0:0:0:0:
160,96,259127,1,0,0:0:0:0:
160,288,259413,1,4,0:0:0:0:
160,96,259556,1,0,0:0:0:0:
160,96,259699,1,0,0:0:0:0:
352,96,259842,1,8,0:0:0:0:
160,96,259984,1,0,0:0:0:0:
352,96,260270,1,8,0:0:0:0:
352,96,260556,1,8,0:0:0:0:
160,96,260842,1,0,0:0:0:0:
352,96,261127,1,8,0:0:0:0:
352,96,261199,1,8,0:0:0:0:
352,96,261270,1,8,0:0:0:0:
352,96,261342,1,8,0:0:0:0:
160,96,261413,1,0,0:0:0:0:
160,96,261484,1,0,0:0:0:0:
160,96,261556,1,0,0:0:0:0:
160,96,261627,1,0,0:0:0:0:
352,96,261699,1,8,0:0:0:0:
352,96,261770,1,8,0:0:0:0:
352,96,261842,1,8,0:0:0:0:
352,96,261913,1,8,0:0:0:0:
352,96,261984,1,8,0:0:0:0:
352,96,262056,1,8,0:0:0:0:
352,96,262127,1,8,0:0:0:0:
352,96,262199,1,8,0:0:0:0:
160,96,262270,1,0,0:0:0:0:
160,96,262342,1,0,0:0:0:0:
160,96,262413,1,0,0:0:0:0:
160,96,262484,1,0,0:0:0:0:
160,96,262556,1,0,0:0:0:0:
160,96,262627,1,0,0:0:0:0:
160,96,262699,1,0,0:0:0:0:
352,288,262842,1,12,0:0:0:0:
160,96,262984,1,0,0:0:0:0:
160,96,263056,1,0,0:0:0:0:
352,96,263127,1,8,0:0:0:0:
160,96,263199,1,0,0:0:0:0:
352,96,263270,1,8,0:0:0:0:
160,96,263342,1,0,0:0:0:0:
352,96,263413,1,8,0:0:0:0:
160,96,263484,1,0,0:0:0:0:
352,96,263556,1,8,0:0:0:0:
160,96,263627,1,0,0:0:0:0:
352,96,263699,1,8,0:0:0:0:
352,96,263770,1,8,0:0:0:0:
160,96,263842,1,0,0:0:0:0:
160,96,263913,1,0,0:0:0:0:
352,96,263984,1,8,0:0:0:0:
160,96,264056,1,0,0:0:0:0:
160,96,264127,1,0,0:0:0:0:
160,96,264199,1,0,0:0:0:0:
352,96,264270,1,8,0:0:0:0:
160,96,264342,1,0,0:0:0:0:
160,96,264413,1,0,0:0:0:0:
160,96,264484,1,0,0:0:0:0:
352,96,264556,1,8,0:0:0:0:
160,96,264627,1,0,0:0:0:0:
352,96,264699,1,8,0:0:0:0:
160,96,264770,1,0,0:0:0:0:
352,96,264842,1,8,0:0:0:0:
352,96,264913,1,8,0:0:0:0:
160,96,264984,1,0,0:0:0:0:
160,96,265056,1,0,0:0:0:0:
352,96,265127,1,8,0:0:0:0:
160,96,265199,1,0,0:0:0:0:
160,96,265270,1,0,0:0:0:0:
160,96,265342,1,0,0:0:0:0:
352,96,265413,1,8,0:0:0:0:
352,96,265484,1,8,0:0:0:0:
160,96,265556,1,0,0:0:0:0:
352,96,265627,1,8,0:0:0:0:
160,96,265699,1,0,0:0:0:0:
352,96,265770,1,8,0:0:0:0:
352,96,265842,1,8,0:0:0:0:
160,96,265913,1,0,0:0:0:0:
352,96,265984,1,8,0:0:0:0:
160,96,266056,1,0,0:0:0:0:
352,96,266127,1,8,0:0:0:0:
160,96,266199,1,0,0:0:0:0:
352,96,266270,1,8,0:0:0:0:
352,96,266342,1,8,0:0:0:0:
160,96,266413,1,0,0:0:0:0:
160,96,266484,1,0,0:0:0:0:
352,96,266556,1,8,0:0:0:0:
160,96,266627,1,0,0:0:0:0:
352,96,266699,1,8,0:0:0:0:
160,96,266770,1,0,0:0:0:0:
352,96,266842,1,8,0:0:0:0:
160,96,266913,1,0,0:0:0:0:
352,96,266984,1,8,0:0:0:0:
160,96,267056,1,0,0:0:0:0:
352,96,267127,1,8,0:0:0:0:
352,96,267199,1,8,0:0:0:0:
160,96,267270,1,0,0:0:0:0:
160,96,267342,1,0,0:0:0:0:
352,96,267413,1,8,0:0:0:0:
160,96,267484,1,0,0:0:0:0:
352,96,267556,1,8,0:0:0:0:
160,96,267627,1,0,0:0:0:0:
352,96,267699,1,8,0:0:0:0:
352,96,267770,1,8,0:0:0:0:
160,96,267842,1,0,0:0:0:0:
160,96,267913,1,0,0:0:0:0:
352,96,267984,1,8,0:0:0:0:
160,96,268056,1,0,0:0:0:0:
352,96,268127,1,8,0:0:0:0:
160,96,268199,1,0,0:0:0:0:
352,96,268270,1,8,0:0:0:0:
160,96,268342,1,0,0:0:0:0:
352,96,268413,1,8,0:0:0:0:
352,96,268484,1,8,0:0:0:0:
352,96,268556,1,8,0:0:0:0:
160,96,268627,1,0,0:0:0:0:
352,96,268699,1,8,0:0:0:0:
160,96,268770,1,0,0:0:0:0:
352,96,268842,1,8,0:0:0:0:
352,96,268913,1,8,0:0:0:0:
160,96,268984,1,0,0:0:0:0:
352,96,269056,1,8,0:0:0:0:
352,96,269127,1,8,0:0:0:0:
352,96,269199,1,8,0:0:0:0:
352,96,269270,1,8,0:0:0:0:
160,96,269342,1,0,0:0:0:0:
352,96,269413,1,8,0:0:0:0:
352,96,269484,1,8,0:0:0:0:
160,96,269556,1,0,0:0:0:0:
160,96,269627,1,0,0:0:0:0:
352,96,269699,1,8,0:0:0:0:
352,96,269770,1,8,0:0:0:0:
352,96,269842,1,8,0:0:0:0:
160,96,269913,1,0,0:0:0:0:
352,96,269984,1,8,0:0:0:0:
160,96,270056,1,0,0:0:0:0:
352,96,270127,1,8,0:0:0:0:
352,96,270199,1,8,0:0:0:0:
160,96,270270,1,0,0:0:0:0:
160,96,270342,1,0,0:0:0:0:
352,96,270413,1,8,0:0:0:0:
160,96,270484,1,0,0:0:0:0:
352,96,270556,1,8,0:0:0:0:
352,96,270627,1,8,0:0:0:0:
352,96,270699,1,8,0:0:0:0:
352,96,270770,1,8,0:0:0:0:
160,96,270842,1,0,0:0:0:0:
160,96,270913,1,0,0:0:0:0:
352,96,270984,1,8,0:0:0:0:
160,96,271056,1,0,0:0:0:0:
352,96,271127,1,8,0:0:0:0:
160,96,271199,1,0,0:0:0:0:
352,96,271270,1,8,0:0:0:0:
160,96,271342,1,0,0:0:0:0:
352,96,271413,1,8,0:0:0:0:
352,96,271484,1,8,0:0:0:0:
160,96,271556,1,0,0:0:0:0:
160,96,271627,1,0,0:0:0:0:
352,96,271699,1,8,0:0:0:0:
160,96,271770,1,0,0:0:0:0:
352,96,271842,1,8,0:0:0:0:
352,96,271913,1,8,0:0:0:0:
352,96,271984,1,8,0:0:0:0:
160,96,272056,1,0,0:0:0:0:
160,96,272127,1,0,0:0:0:0:
160,96,272199,1,0,0:0:0:0:
352,96,272270,1,8,0:0:0:0:
352,96,272342,1,8,0:0:0:0:
160,96,272413,1,0,0:0:0:0:
352,96,272484,1,8,0:0:0:0:
352,96,272556,1,8,0:0:0:0:
160,96,272627,1,0,0:0:0:0:
352,96,272699,1,8,0:0:0:0:
160,96,272770,1,0,0:0:0:0:
352,96,272842,1,8,0:0:0:0:
160,96,272913,1,0,0:0:0:0:
352,96,272984,1,8,0:0:0:0:
352,96,273056,1,8,0:0:0:0:
352,96,273127,1,8,0:0:0:0:
160,96,273199,1,0,0:0:0:0:
352,96,273270,1,8,0:0:0:0:
160,96,273342,1,0,0:0:0:0:
352,96,273413,1,8,0:0:0:0:
352,96,273484,1,8,0:0:0:0:
352,96,273556,1,8,0:0:0:0:
352,96,273627,1,8,0:0:0:0:
160,96,273699,1,0,0:0:0:0:
160,96,273770,1,0,0:0:0:0:
352,96,273842,1,8,0:0:0:0:
160,96,273913,1,0,0:0:0:0:
352,96,273984,1,8,0:0:0:0:
352,96,274056,1,8,0:0:0:0:
352,96,274127,1,8,0:0:0:0:
160,96,274199,1,0,0:0:0:0:
352,96,274270,1,8,0:0:0:0:
160,96,274342,1,0,0:0:0:0:
352,96,274413,1,8,0:0:0:0:
160,96,274484,1,0,0:0:0:0:
352,96,274556,1,8,0:0:0:0:
352,96,274627,1,8,0:0:0:0:
160,96,274699,1,0,0:0:0:0:
160,96,274770,1,0,0:0:0:0:
352,96,274842,1,8,0:0:0:0:
352,96,274913,1,8,0:0:0:0:
352,96,274984,1,8,0:0:0:0:
352,96,275056,1,8,0:0:0:0:
160,96,275127,1,0,0:0:0:0:
160,96,275199,1,0,0:0:0:0:
160,96,275270,1,0,0:0:0:0:
160,96,275342,1,0,0:0:0:0:
352,96,275413,1,8,0:0:0:0:
352,96,275484,1,8,0:0:0:0:
352,96,275556,1,8,0:0:0:0:
352,96,275627,1,8,0:0:0:0:
160,96,275699,1,0,0:0:0:0:
160,96,275770,1,0,0:0:0:0:
160,96,275842,1,0,0:0:0:0:
160,96,275913,1,0,0:0:0:0:
352,96,275984,1,8,0:0:0:0:
160,96,276056,1,0,0:0:0:0:
160,96,276127,1,0,0:0:0:0:
160,96,276199,1,0,0:0:0:0:
352,96,276270,1,8,0:0:0:0:
352,96,276342,1,8,0:0:0:0:
160,96,276413,1,0,0:0:0:0:
160,96,276484,1,0,0:0:0:0:
352,96,276556,1,8,0:0:0:0:
160,96,276651,1,0,0:0:0:0:
160,96,276746,1,0,0:0:0:0:
352,96,276842,1,8,0:0:0:0:
352,96,276937,1,8,0:0:0:0:
160,96,277032,1,0,0:0:0:0:
352,96,277127,1,8,0:0:0:0:
352,96,277222,1,8,0:0:0:0:
160,96,277318,1,0,0:0:0:0:
352,96,277413,1,8,0:0:0:0:
160,96,277508,1,0,0:0:0:0:
160,96,277603,1,0,0:0:0:0:
352,96,277699,1,8,0:0:0:0:
352,96,277794,1,8,0:0:0:0:
352,96,277889,1,8,0:0:0:0:
160,96,277984,1,0,0:0:0:0:
160,96,278080,1,0,0:0:0:0:
160,96,278175,1,0,0:0:0:0:
352,96,278270,1,8,0:0:0:0:
352,96,278365,1,8,0:0:0:0:
352,96,278461,1,8,0:0:0:0:
352,96,278556,1,8,0:0:0:0:
160,96,278651,1,0,0:0:0:0:
160,96,278746,1,0,0:0:0:0:
352,96,278842,1,8,0:0:0:0:
352,96,278937,1,8,0:0:0:0:
160,96,279032,1,0,0:0:0:0:
352,96,279127,1,8,0:0:0:0:
160,96,279222,1,0,0:0:0:0:
160,96,279318,1,0,0:0:0:0:
160,96,279413,1,0,0:0:0:0:
160,96,279508,1,0,0:0:0:0:
160,96,279603,1,0,0:0:0:0:
352,96,279699,1,8,0:0:0:0:
352,96,279794,1,8,0:0:0:0:
160,96,279889,1,0,0:0:0:0:
352,96,279984,1,8,0:0:0:0:
160,96,280080,1,0,0:0:0:0:
160,96,280175,1,0,0:0:0:0:
352,96,280270,1,8,0:0:0:0:
160,96,280365,1,0,0:0:0:0:
160,96,280461,1,0,0:0:0:0:
352,96,280556,1,8,0:0:0:0:
352,96,280651,1,8,0:0:0:0:
160,96,280746,1,0,0:0:0:0:
352,96,280842,1,8,0:0:0:0:
352,96,280937,1,8,0:0:0:0:
160,96,281032,1,0,0:0:0:0:
352,96,281127,1,8,0:0:0:0:
160,96,281222,1,0,0:0:0:0:
160,96,281318,1,0,0:0:0:0:
352,96,281413,1,8,0:0:0:0:
352,96,281508,1,8,0:0:0:0:
160,96,281603,1,0,0:0:0:0:
352,96,281699,1,8,0:0:0:0:
160,96,281794,1,0,0:0:0:0:
160,96,281889,1,0,0:0:0:0:
352,96,281984,1,8,0:0:0:0:
160,96,282080,1,0,0:0:0:0:
352,96,282175,1,8,0:0:0:0:
352,96,282270,1,8,0:0:0:0:
352,96,282365,1,8,0:0:0:0:
160,96,282461,1,0,0:0:0:0:
352,96,282556,1,8,0:0:0:0:
160,96,282651,1,0,0:0:0:0:
352,96,282746,1,8,0:0:0:0:
160,96,282842,1,0,0:0:0:0:
352,96,282937,1,8,0:0:0:0:
352,96,283032,1,8,0:0:0:0:
160,96,283127,1,0,0:0:0:0:
352,96,283222,1,8,0:0:0:0:
352,96,283318,1,8,0:0:0:0:
352,96,283413,1,8,0:0:0:0:
160,96,283508,1,0,0:0:0:0:
160,96,283603,1,0,0:0:0:0:
160,96,283699,1,0,0:0:0:0:
160,96,283794,1,0,0:0:0:0:
160,96,283889,1,0,0:0:0:0:
352,96,283984,1,8,0:0:0:0:
160,96,284080,1,0,0:0:0:0:
160,96,284175,1,0,0:0:0:0:
352,96,284270,1,8,0:0:0:0:
160,96,284365,1,0,0:0:0:0:
160,96,284461,1,0,0:0:0:0:
352,96,284556,1,8,0:0:0:0:
160,96,284651,1,0,0:0:0:0:
352,96,284746,1,8,0:0:0:0:
352,96,284842,1,8,0:0:0:0:
160,96,284937,1,0,0:0:0:0:
160,96,285032,1,0,0:0:0:0:
352,96,285127,1,8,0:0:0:0:
352,96,285222,1,8,0:0:0:0:
160,96,285318,1,0,0:0:0:0:
352,96,285413,1,8,0:0:0:0:
352,96,285508,1,8,0:0:0:0:
160,96,285603,1,0,0:0:0:0:
352,96,285699,1,8,0:0:0:0:
160,96,285794,1,0,0:0:0:0:
160,96,285889,1,0,0:0:0:0:
352,96,285984,1,8,0:0:0:0:
352,96,286080,1,8,0:0:0:0:
352,96,286175,1,8,0:0:0:0:
160,96,286270,1,0,0:0:0:0:
160,96,286365,1,0,0:0:0:0:
160,96,286461,1,0,0:0:0:0:
352,96,286556,1,8,0:0:0:0:
352,96,286651,1,8,0:0:0:0:
160,96,286746,1,0,0:0:0:0:
352,96,286842,1,8,0:0:0:0:
160,96,286937,1,0,0:0:0:0:
160,96,287032,1,0,0:0:0:0:
160,96,287127,1,0,0:0:0:0:
160,96,287222,1,0,0:0:0:0:
160,96,287318,1,0,0:0:0:0:
352,96,287413,1,8,0:0:0:0:
160,96,287508,1,0,0:0:0:0:
160,96,287603,1,0,0:0:0:0:
352,96,287699,1,8,0:0:0:0:
352,96,287794,1,8,0:0:0:0:
352,96,287889,1,8,0:0:0:0:
352,96,287984,1,8,0:0:0:0:
160,96,288080,1,0,0:0:0:0:
160,96,288175,1,0,0:0:0:0:
352,96,288270,1,8,0:0:0:0:
160,96,288365,1,0,0:0:0:0:
160,96,288461,1,0,0:0:0:0:
352,96,288556,1,8,0:0:0:0:
160,96,288651,1,0,0:0:0:0:
160,96,288746,1,0,0:0:0:0:
352,96,288842,1,8,0:0:0:0:
160,96,288937,1,0,0:0:0:0:
160,96,289032,1,0,0:0:0:0:
352,96,289127,1,8,0:0:0:0:
352,96,289222,1,8,0:0:0:0:
160,96,289318,1,0,0:0:0:0:
352,96,289413,1,8,0:0:0:0:
352,96,289461,1,8,0:0:0:0:
160,96,289508,1,0,0:0:0:0:
160,96,289603,1,0,0:0:0:0:
352,96,289699,1,8,0:0:0:0:
160,96,289794,1,0,0:0:0:0:
160,96,289889,1,0,0:0:0:0:
352,96,289984,1,8,0:0:0:0:
352,96,290080,1,8,0:0:0:0:
352,96,290175,1,8,0:0:0:0:
160,288,290270,1,4,0:0:0:0:
352,96,291127,1,8,0:0:0:0:
160,96,291842,1,0,0:0:0:0:
160,96,291913,1,0,0:0:0:0:
352,96,291984,1,8,0:0:0:0:
352,96,292020,1,8,0:0:0:0:
160,96,292127,1,0,0:0:0:0:
160,96,292413,1,0,0:0:0:0:
160,96,292699,1,0,0:0:0:0:
160,96,292770,1,0,0:0:0:0:
352,96,292842,1,8,0:0:0:0:
352,96,292913,1,8,0:0:0:0:
352,96,292984,1,8,0:0:0:0:
352,96,293056,1,8,0:0:0:0:
160,96,293127,1,0,0:0:0:0:
160,96,293270,1,0,0:0:0:0:
160,96,293413,1,0,0:0:0:0:
160,96,293556,1,0,0:0:0:0:
160,288,293699,1,4,0:0:0:0:
160,96,317699,5,0,0:0:0:0:
160,96,317984,1,0,0:0:0:0:
160,96,318270,1,0,0:0:0:0:
352,96,318556,1,8,0:0:0:0:
160,96,318842,1,0,0:0:0:0:
160,96,319127,1,0,0:0:0:0:
352,96,319413,1,8,0:0:0:0:
160,96,319699,1,0,0:0:0:0:
160,96,319984,1,0,0:0:0:0:
160,288,320270,1,4,0:0:0:0:
352,288,321127,1,12,0:0:0:0:
160,96,321699,1,0,0:0:0:0:
352,96,321984,1,8,0:0:0:0:
352,96,322270,1,8,0:0:0:0:
160,96,322556,1,0,0:0:0:0:
160,288,322842,1,4,0:0:0:0:
160,96,323127,1,0,0:0:0:0:
160,96,323413,1,0,0:0:0:0:
352,96,323699,1,8,0:0:0:0:
160,96,323984,1,0,0:0:0:0:
160,96,324270,1,0,0:0:0:0:
352,288,324556,1,12,0:0:0:0:
160,96,324842,1,0,0:0:0:0:
160,96,325127,1,0,0:0:0:0:
160,96,325199,1,0,0:0:0:0:
160,96,325270,1,0,0:0:0:0:
160,96,325342,1,0,0:0:0:0:
352,96,325413,1,8,0:0:0:0:
160,96,325699,1,0,0:0:0:0:
160,96,325984,1,0,0:0:0:0:
160,96,326127,1,0,0:0:0:0:
160,96,326199,1,0,0:0:0:0:
160,288,326270,1,4,0:0:0:0:
160,288,327984,1,4,0:0:0:0:
160,96,328413,1,0,0:0:0:0:
160,96,328699,1,0,0:0:0:0:
352,96,328842,1,8,0:0:0:0:
352,96,329127,1,8,0:0:0:0:
160,96,329413,1,0,0:0:0:0:
160,96,329699,1,0,0:0:0:0:
160,96,329842,1,0,0:0:0:0:
160,96,330127,1,0,0:0:0:0:
160,96,330413,1,0,0:0:0:0:
352,288,330556,1,12,0:0:0:0:
160,96,330842,1,0,0:0:0:0:
160,96,330984,1,0,0:0:0:0:
160,96,331127,1,0,0:0:0:0:
160,288,331413,1,4,0:0:0:0:
352,96,331699,1,8,0:0:0:0:
160,96,331984,1,0,0:0:0:0:
352,96,332270,1,8,0:0:0:0:
160,96,332556,1,0,0:0:0:0:
160,96,332842,1,0,0:0:0:0:
160,288,333127,1,4,0:0:0:0:
160,96,333270,1,0,0:0:0:0:
352,96,333413,1,8,0:0:0:0:
160,96,333556,1,0,0:0:0:0:
352,96,333699,1,8,0:0:0:0:
352,96,333770,1,8,0:0:0:0:
160,96,333842,1,0,0:0:0:0:
352,96,333984,1,8,0:0:0:0:
352,96,334270,1,8,0:0:0:0:
160,96,334556,1,0,0:0:0:0:
160,288,334842,1,4,0:0:0:0:
352,96,335127,1,8,0:0:0:0:
352,96,335413,1,8,0:0:0:0:
160,96,335556,1,0,0:0:0:0:
160,96,335627,1,0,0:0:0:0:
352,96,335699,1,8,0:0:0:0:
160,96,335984,1,0,0:0:0:0:
160,96,336270,1,0,0:0:0:0:
160,288,336556,1,4,0:0:0:0:
160,96,336842,1,0,0:0:0:0:
352,96,336984,1,8,0:0:0:0:
160,96,337127,1,0,0:0:0:0:
160,96,337199,1,0,0:0:0:0:
160,96,337270,1,0,0:0:0:0:
160,96,337342,1,0,0:0:0:0:
352,96,337413,1,8,0:0:0:0:
352,96,337699,1,8,0:0:0:0:
352,96,337984,1,8,0:0:0:0:
160,288,338270,1,4,0:0:0:0:
352,96,338556,1,8,0:0:0:0:
160,96,338842,1,0,0:0:0:0:
160,96,338984,1,0,0:0:0:0:
160,96,339056,1,0,0:0:0:0:
352,96,339127,1,8,0:0:0:0:
160,96,339413,1,0,0:0:0:0:
352,96,339699,1,8,0:0:0:0:
160,288,339984,1,4,0:0:0:0:
160,96,340270,1,0,0:0:0:0:
160,96,340413,1,0,0:0:0:0:
160,96,340484,1,0,0:0:0:0:
160,96,340556,1,0,0:0:0:0:
160,96,340699,1,0,0:0:0:0:
352,96,340842,1,8,0:0:0:0:
160,96,340984,1,0,0:0:0:0:
160,96,341127,1,0,0:0:0:0:
160,96,341270,1,0,0:0:0:0:
352,288,341413,1,12,0:0:0:0:
160,96,341556,1,0,0:0:0:0:
160,288,341699,1,4,0:0:0:0:
160,96,342127,1,0,0:0:0:0:
352,96,342270,1,8,0:0:0:0:
160,96,342413,1,0,0:0:0:0:
160,96,342484,1,0,0:0:0:0:
352,96,342556,1,8,0:0:0:0:
352,96,342842,1,8,0:0:0:0:
160,96,343127,1,0,0:0:0:0:
352,96,343270,1,8,0:0:0:0:
160,288,343413,1,4,0:0:0:0:
352,96,343699,1,8,0:0:0:0:
160,96,343842,1,0,0:0:0:0:
160,96,343913,1,0,0:0:0:0:
160,96,343984,1,0,0:0:0:0:
160,96,344056,1,0,0:0:0:0:
160,96,344127,1,0,0:0:0:0:
160,96,344199,1,0,0:0:0:0:
352,96,344270,1,8,0:0:0:0:
160,288,344556,1,4,0:0:0:0:
352,96,344842,1,8,0:0:0:0:
352,288,345127,1,12,0:0:0:0:
352,96,345413,1,8,0:0:0:0:
160,96,345842,1,0,0:0:0:0:
160,96,345913,1,0,0:0:0:0:
352,96,345984,1,8,0:0:0:0:
160,96,346270,1,0,0:0:0:0:
160,96,346556,1,0,0:0:0:0:
160,288,346842,1,4,0:0:0:0:
352,96,347127,1,8,0:0:0:0:
160,96,347270,1,0,0:0:0:0:
160,96,347342,1,0,0:0:0:0:
352,96,347413,1,8,0:0:0:0:
160,96,347484,1,0,0:0:0:0:
160,96,347556,1,0,0:0:0:0:
160,96,347627,1,0,0:0:0:0:
352,96,347699,1,8,0:0:0:0:
160,96,347842,1,0,0:0:0:0:
160,96,347984,1,0,0:0:0:0:
160,96,348127,1,0,0:0:0:0:
352,96,348270,1,8,0:0:0:0:
352,96,348413,1,8,0:0:0:0:
160,288,348556,1,4,0:0:0:0:
352,96,348842,1,8,0:0:0:0:
160,96,348984,1,0,0:0:0:0:
352,96,349127,1,8,0:0:0:0:
160,96,349270,1,0,0:0:0:0:
160,96,349342,1,0,0:0:0:0:
352,96,349413,1,8,0:0:0:0:
352,96,349699,1,8,0:0:0:0:
352,96,349984,1,8,0:0:0:0:
352,96,350127,1,8,0:0:0:0:
160,288,350270,1,4,0:0:0:0:
352,96,350556,1,8,0:0:0:0:
352,96,350627,1,8,0:0:0:0:
160,96,350699,1,0,0:0:0:0:
160,96,350770,1,0,0:0:0:0:
352,96,350842,1,8,0:0:0:0:
160,96,350913,1,0,0:0:0:0:
160,96,350984,1,0,0:0:0:0:
160,96,351056,1,0,0:0:0:0:
352,96,351127,1,8,0:0:0:0:
160,288,351413,1,4,0:0:0:0:
352,96,351699,1,8,0:0:0:0:
160,288,351984,1,4,0:0:0:0:
160,96,352413,1,0,0:0:0:0:
352,96,352699,1,8,0:0:0:0:
160,96,352770,1,0,0:0:0:0:
352,96,352842,1,8,0:0:0:0:
160,96,353127,1,0,0:0:0:0:
352,96,353270,1,8,0:0:0:0:
160,96,353413,1,0,0:0:0:0:
160,288,353699,1,4,0:0:0:0:
160,96,353842,1,0,0:0:0:0:
160,96,353984,1,0,0:0:0:0:
160,96,354127,1,0,0:0:0:0:
160,96,354270,1,0,0:0:0:0:
160,96,354413,1,0,0:0:0:0:
352,96,354556,1,8,0:0:0:0:
160,96,354699,1,0,0:0:0:0:
352,96,354842,1,8,0:0:0:0:
352,96,354984,1,8,0:0:0:0:
352,96,355127,1,8,0:0:0:0:
160,96,355270,1,0,0:0:0:0:
160,288,355413,1,4,0:0:0:0:
160,96,355556,1,0,0:0:0:0:
352,96,355699,1,8,0:0:0:0:
160,96,355842,1,0,0:0:0:0:
352,96,355984,1,8,0:0:0:0:
160,96,356127,1,0,0:0:0:0:
160,96,356199,1,0,0:0:0:0:
352,96,356270,1,8,0:0:0:0:
160,96,356556,1,0,0:0:0:0:
352,96,356842,1,8,0:0:0:0:
160,288,357127,1,4,0:0:0:0:
352,96,357699,1,8,0:0:0:0:
352,96,357842,1,8,0:0:0:0:
160,96,357913,1,0,0:0:0:0:
352,96,357984,1,8,0:0:0:0:
160,96,358127,1,0,0:0:0:0:
352,96,358270,1,8,0:0:0:0:
352,96,358413,1,8,0:0:0:0:
160,96,358556,1,0,0:0:0:0:
160,96,358699,1,0,0:0:0:0:
160,288,358842,1,4,0:0:0:0:
160,96,358984,1,0,0:0:0:0:
352,96,359127,1,8,0:0:0:0:
160,96,359556,1,0,0:0:0:0:
160,96,359627,1,0,0:0:0:0:
352,96,359699,1,8,0:0:0:0:
352,288,359984,1,12,0:0:0:0:
352,288,360270,1,12,0:0:0:0:
352,288,360556,1,12,0:0:0:0:
160,96,360842,1,0,0:0:0:0:
160,96,361127,1,0,0:0:0:0:
160,96,361270,1,0,0:0:0:0:
160,96,361342,1,0,0:0:0:0:
352,96,361413,1,8,0:0:0:0:
160,96,361699,1,0,0:0:0:0:
160,96,361734,1,0,0:0:0:0:
160,96,361984,5,0,0:0:0:0:
160,96,362020,1,0,0:0:0:0:
352,288,362270,5,12,0:0:0:0:
160,96,362842,1,0,0:0:0:0:
160,96,363127,1,0,0:0:0:0:
352,96,363413,1,8,0:0:0:0:
160,96,363699,1,0,0:0:0:0:
352,288,363984,1,12,0:0:0:0:
160,288,365699,1,4,0:0:0:0:
160,96,366270,1,0,0:0:0:0:
160,96,366556,1,0,0:0:0:0:
352,96,366842,1,8,0:0:0:0:
160,96,367127,1,0,0:0:0:0:
352,288,367413,1,12,0:0:0:0:
352,96,368270,1,8,0:0:0:0:
352,96,368556,1,8,0:0:0:0:
352,288,369127,1,12,0:0:0:0:
160,96,369699,1,0,0:0:0:0:
160,96,369984,1,0,0:0:0:0:
352,96,370270,1,8,0:0:0:0:
160,96,370556,1,0,0:0:0:0:
352,288,370842,1,12,0:0:0:0:
160,96,371699,1,0,0:0:0:0:
160,96,372413,1,0,0:0:0:0:
160,96,372484,1,0,0:0:0:0:
352,288,372556,1,12,0:0:0:0:
160,96,372842,1,0,0:0:0:0:
160,96,373127,1,0,0:0:0:0:
352,96,373413,1,8,0:0:0:0:
160,96,373699,1,0,0:0:0:0:
160,96,373984,1,0,0:0:0:0:
352,288,374270,1,12,0:0:0:0:
160,96,374556,1,0,0:0:0:0:
160,96,374842,1,0,0:0:0:0:
160,96,374984,1,0,0:0:0:0:
160,96,375056,1,0,0:0:0:0:
160,288,375127,1,4,0:0:0:0:
352,288,375984,1,12,0:0:0:0:
160,96,376270,1,0,0:0:0:0:
352,96,376556,1,8,0:0:0:0:
160,96,376699,1,0,0:0:0:0:
160,96,376770,1,0,0:0:0:0:
352,96,376842,1,8,0:0:0:0:
160,96,377127,1,0,0:0:0:0:
160,96,377270,1,0,0:0:0:0:
160,96,377413,1,0,0:0:0:0:
352,288,377699,1,12,0:0:0:0:
352,96,377984,1,8,0:0:0:0:
160,96,378127,1,0,0:0:0:0:
160,96,378199,1,0,0:0:0:0:
160,96,378270,1,0,0:0:0:0:
160,96,378342,1,0,0:0:0:0:
160,96,378413,1,0,0:0:0:0:
160,96,378484,1,0,0:0:0:0:
352,96,378556,1,8,0:0:0:0:
160,96,378699,1,0,0:0:0:0:
352,96,378842,1,8,0:0:0:0:
352,96,378937,1,8,0:0:0:0:
352,96,379032,1,8,0:0:0:0:
160,96,379127,1,0,0:0:0:0:
160,96,379270,1,0,0:0:0:0:
352,288,379413,1,12,0:0:0:0:
352,96,379699,1,8,0:0:0:0:
160,96,379984,1,0,0:0:0:0:
160,96,380056,1,0,0:0:0:0:
160,96,380127,1,0,0:0:0:0:
160,96,380199,1,0,0:0:0:0:
352,96,380270,1,8,0:0:0:0:
160,96,380556,1,0,0:0:0:0:
160,96,380842,1,0,0:0:0:0:
160,96,380984,1,0,0:0:0:0:
352,288,381127,1,12,0:0:0:0:
160,96,381413,1,0,0:0:0:0:
352,96,381699,1,8,0:0:0:0:
160,96,381842,1,0,0:0:0:0:
160,96,381913,1,0,0:0:0:0:
352,96,381984,1,8,0:0:0:0:
352,96,382127,1,8,0:0:0:0:
352,96,382270,1,8,0:0:0:0:
160,96,382413,1,0,0:0:0:0:
352,96,382556,1,8,0:0:0:0:
352,96,382651,1,8,0:0:0:0:
352,96,382746,1,8,0:0:0:0:
160,288,382842,1,4,0:0:0:0:
352,96,383413,1,8,0:0:0:0:
160,96,383556,1,0,0:0:0:0:
160,96,383627,1,0,0:0:0:0:
352,96,383699,1,8,0:0:0:0:
160,96,383984,1,0,0:0:0:0:
160,96,384270,1,0,0:0:0:0:
352,288,384556,1,12,0:0:0:0:
160,96,384842,1,0,0:0:0:0:
160,96,384913,1,0,0:0:0:0:
160,96,384984,1,0,0:0:0:0:
160,96,385056,1,0,0:0:0:0:
160,96,385127,1,0,0:0:0:0:
160,96,385199,1,0,0:0:0:0:
160,96,385270,1,0,0:0:0:0:
160,96,385342,1,0,0:0:0:0:
352,96,385413,1,8,0:0:0:0:
160,96,385556,1,0,0:0:0:0:
352,96,385699,1,8,0:0:0:0:
352,96,385842,1,8,0:0:0:0:
160,96,385984,1,0,0:0:0:0:
160,96,386127,1,0,0:0:0:0:
352,288,386270,1,12,0:0:0:0:
352,96,386842,1,8,0:0:0:0:
160,96,386984,1,0,0:0:0:0:
160,96,387056,1,0,0:0:0:0:
352,96,387127,1,8,0:0:0:0:
160,96,387270,1,0,0:0:0:0:
352,96,387413,1,8,0:0:0:0:
160,96,387699,1,0,0:0:0:0:
352,288,387984,1,12,0:0:0:0:
160,96,388127,1,0,0:0:0:0:
160,96,388199,1,0,0:0:0:0:
352,96,388270,1,8,0:0:0:0:
352,96,388413,1,8,0:0:0:0:
160,96,388556,1,0,0:0:0:0:
160,96,388627,1,0,0:0:0:0:
160,96,388699,1,0,0:0:0:0:
160,96,388770,1,0,0:0:0:0:
352,96,388842,1,8,0:0:0:0:
352,96,388984,1,8,0:0:0:0:
352,96,389127,1,8,0:0:0:0:
352,96,389270,1,8,0:0:0:0:
160,96,389413,1,0,0:0:0:0:
160,96,389484,1,0,0:0:0:0:
160,96,389556,1,0,0:0:0:0:
352,288,389699,1,12,0:0:0:0:
160,96,390413,1,0,0:0:0:0:
160,96,390484,1,0,0:0:0:0:
352,96,390556,1,8,0:0:0:0:
160,96,390699,1,0,0:0:0:0:
352,96,390842,1,8,0:0:0:0:
160,96,390913,1,0,0:0:0:0:
352,96,390984,1,8,0:0:0:0:
160,96,391127,1,0,0:0:0:0:
160,96,391270,1,0,0:0:0:0:
352,96,391413,1,8,0:0:0:0:
160,96,391484,1,0,0:0:0:0:
352,96,391556,1,8,0:0:0:0:
352,96,391699,1,8,0:0:0:0:
160,96,391842,1,0,0:0:0:0:
160,96,391913,1,0,0:0:0:0:
352,96,391984,1,8,0:0:0:0:
352,96,392056,1,8,0:0:0:0:
160,96,392127,1,0,0:0:0:0:
160,96,392199,1,0,0:0:0:0:
352,96,392270,1,8,0:0:0:0:
352,96,392413,1,8,0:0:0:0:
160,96,392556,1,0,0:0:0:0:
352,96,392627,1,8,0:0:0:0:
160,96,392699,1,0,0:0:0:0:
352,96,392842,1,8,0:0:0:0:
160,96,392984,1,0,0:0:0:0:
352,288,393127,1,12,0:0:0:0:
160,96,393413,1,0,0:0:0:0:
160,96,393770,1,0,0:0:0:0:
160,96,393842,1,0,0:0:0:0:
160,96,393913,1,0,0:0:0:0:
352,96,393984,1,8,0:0:0:0:
160,96,394127,1,0,0:0:0:0:
352,96,394270,1,8,0:0:0:0:
352,96,394413,1,8,0:0:0:0:
352,96,394556,1,8,0:0:0:0:
160,96,394699,1,0,0:0:0:0:
352,96,394842,1,8,0:0:0:0:
352,96,394984,1,8,0:0:0:0:
352,96,395127,1,8,0:0:0:0:
352,96,395270,1,8,0:0:0:0:
160,96,395413,1,0,0:0:0:0:
160,96,395556,1,0,0:0:0:0:
352,96,395699,1,8,0:0:0:0:
160,96,395842,1,0,0:0:0:0:
352,96,395984,1,8,0:0:0:0:
352,96,396127,1,8,0:0:0:0:
160,96,396270,1,0,0:0:0:0:
160,96,396413,1,0,0:0:0:0:
352,288,396556,1,12,0:0:0:0:
160,96,397270,1,0,0:0:0:0:
160,96,397342,1,0,0:0:0:0:
352,96,397413,1,8,0:0:0:0:
352,96,397508,1,8,0:0:0:0:
160,96,397603,1,0,0:0:0:0:
352,96,397699,1,8,0:0:0:0:
160,96,397984,1,0,0:0:0:0:
352,96,398270,1,8,0:0:0:0:
352,96,398413,1,8,0:0:0:0:
352,96,398556,1,8,0:0:0:0:
160,96,398699,1,0,0:0:0:0:
160,96,398842,1,0,0:0:0:0:
160,96,398984,1,0,0:0:0:0:
352,96,399127,1,8,0:0:0:0:
160,96,399413,1,0,0:0:0:0:
352,96,399556,1,8,0:0:0:0:
352,96,399627,1,8,0:0:0:0:
160,96,399699,1,0,0:0:0:0:
352,288,399984,1,12,0:0:0:0:
160,96,400270,1,0,0:0:0:0:
160,96,400556,1,0,0:0:0:0:
352,288,400842,1,12,0:0:0:0:
160,96,401413,1,0,0:0:0:0:
160,96,401556,1,0,0:0:0:0:
352,288,401699,1,12,0:0:0:0:
160,96,401984,1,0,0:0:0:0:
352,96,402080,1,8,0:0:0:0:
352,96,402175,1,8,0:0:0:0:
160,96,402270,1,0,0:0:0:0:
352,288,402556,1,12,0:0:0:0:
160,96,402842,1,0,0:0:0:0:
352,96,402913,1,8,0:0:0:0:
160,96,402984,1,0,0:0:0:0:
160,96,403127,1,0,0:0:0:0:
151,210,403413,5,12,0:0:0:0:
252,184,404127,1,0,0:0:0:0:
252,184,404199,1,0,0:0:0:0:
252,184,404270,1,8,0:0:0:0:
252,184,404556,1,0,0:0:0:0:
252,184,404842,1,0,0:0:0:0:
252,184,405127,1,8,0:0:0:0:
270,168,405270,1,0,0:0:0:0:
165,181,405556,1,0,0:0:0:0:
292,228,405699,1,0,0:0:0:0:
292,228,405842,1,0,0:0:0:0:
165,181,405913,1,0,0:0:0:0:
292,228,405984,1,8,0:0:0:0:
282,193,406127,1,0,0:0:0:0:
282,193,406270,1,8,0:0:0:0:
286,196,406413,1,8,0:0:0:0:
286,196,406556,1,0,0:0:0:0:
286,196,406699,1,0,0:0:0:0:
286,197,406842,1,8,0:0:0:0:
313,242,407127,1,0,0:0:0:0:
313,242,407413,1,8,0:0:0:0:
142,313,407556,1,0,0:0:0:0:
142,313,407627,1,0,0:0:0:0:
142,313,407699,1,8,0:0:0:0:
142,313,407984,1,0,0:0:0:0:
142,313,408270,1,0,0:0:0:0:
142,313,408556,1,8,0:0:0:0:
225,197,408842,1,8,0:0:0:0:
142,313,409127,1,0,0:0:0:0:
142,313,409199,1,0,0:0:0:0:
142,313,409270,1,0,0:0:0:0:
142,313,409342,1,0,0:0:0:0:
142,313,409413,1,8,0:0:0:0:
142,313,409556,1,0,0:0:0:0:
142,313,409699,1,8,0:0:0:0:
142,313,409842,1,8,0:0:0:0:
142,313,409984,1,8,0:0:0:0:
136,292,410127,1,8,0:0:0:0:
151,210,410270,5,4,0:0:0:0:
255,248,410842,1,0,0:0:0:0:
255,248,410984,1,0,0:0:0:0:
255,248,411127,1,8,0:0:0:0:
255,248,411413,1,0,0:0:0:0:
255,248,411699,1,0,0:0:0:0:
265,253,411984,1,8,0:0:0:0:
270,263,412270,1,0,0:0:0:0:
270,263,412413,1,0,0:0:0:0:
270,263,412556,1,0,0:0:0:0:
274,268,412699,1,0,0:0:0:0:
274,268,412842,1,8,0:0:0:0:
475,348,413127,1,0,0:0:0:0:
475,348,413413,1,0,0:0:0:0:
148,207,413699,1,12,0:0:0:0:
93,201,413984,1,0,0:0:0:0:
93,201,414270,1,0,0:0:0:0:
148,207,414556,1,12,0:0:0:0:
93,201,414842,1,0,0:0:0:0:
93,201,415127,1,0,0:0:0:0:
148,207,415413,1,12,0:0:0:0:
354,326,415556,1,0,0:0:0:0:
354,326,415842,1,0,0:0:0:0:
69,176,416127,1,0,0:0:0:0:
69,176,416199,1,0,0:0:0:0:
69,176,416270,1,8,0:0:0:0:
69,176,416413,1,0,0:0:0:0:
69,176,416556,1,8,0:0:0:0:
69,176,416699,1,8,0:0:0:0:
69,176,416842,1,0,0:0:0:0:
69,176,416984,1,0,0:0:0:0:
151,212,417127,1,12,0:0:0:0:
262,242,417413,1,0,0:0:0:0:
262,242,417508,1,0,0:0:0:0:
262,242,417603,1,0,0:0:0:0:
262,242,417699,1,8,0:0:0:0:
419,344,417842,1,0,0:0:0:0:
419,344,417913,1,0,0:0:0:0:
419,344,417984,1,8,0:0:0:0:
376,314,418270,1,8,0:0:0:0:
376,314,418413,1,8,0:0:0:0:
376,314,418556,1,0,0:0:0:0:
376,314,418699,1,0,0:0:0:0:
352,255,418842,1,12,0:0:0:0:
202,169,419413,1,0,0:0:0:0:
202,169,419484,1,0,0:0:0:0:
202,169,419556,1,0,0:0:0:0:
202,169,419627,1,0,0:0:0:0:
202,169,419699,1,12,0:0:0:0:
99,201,420270,1,0,0:0:0:0:
111,210,420556,1,12,0:0:0:0:
66,183,421270,1,0,0:0:0:0:
66,183,421413,1,8,0:0:0:0:
66,183,421699,1,0,0:0:0:0:
66,183,421984,1,0,0:0:0:0:
66,183,422270,1,8,0:0:0:0:
55,187,422556,1,8,0:0:0:0:
55,187,422651,1,8,0:0:0:0:
55,187,422746,1,8,0:0:0:0:
340,303,422842,5,0,0:0:0:0:
340,303,422913,1,0,0:0:0:0:
340,303,422984,1,0,0:0:0:0:
340,303,423056,1,0,0:0:0:0:
158,160,423127,5,8,0:0:0:0:
340,303,423270,1,0,0:0:0:0:
340,303,423413,1,8,0:0:0:0:
340,303,423556,1,8,0:0:0:0:
340,303,423699,1,0,0:0:0:0:
340,303,423842,1,0,0:0:0:0:
158,166,423984,1,8,0:0:0:0:
340,303,424127,1,8,0:0:0:0:
340,303,424270,1,8,0:0:0:0:
340,303,424413,1,8,0:0:0:0:
340,303,424556,1,8,0:0:0:0:
340,303,424699,1,0,0:0:0:0:
254,247,424842,1,8,0:0:0:0:
340,303,424984,1,0,0:0:0:0:
340,303,425127,1,0,0:0:0:0:
340,303,425270,1,0,0:0:0:0:
340,303,425413,1,8,0:0:0:0:
340,303,425556,1,0,0:0:0:0:
164,158,425699,1,8,0:0:0:0:
164,158,425842,1,0,0:0:0:0:
164,158,425913,1,0,0:0:0:0:
164,158,425984,1,8,0:0:0:0:
164,158,426127,1,8,0:0:0:0:
164,158,426270,1,8,0:0:0:0:
164,158,426413,1,0,0:0:0:0:
247,252,426556,1,8,0:0:0:0:
164,158,426699,1,0,0:0:0:0:
164,158,426842,1,8,0:0:0:0:
164,158,426984,1,8,0:0:0:0:
164,158,427127,1,8,0:0:0:0:
164,158,427270,1,0,0:0:0:0:
153,177,427413,5,8,0:0:0:0:
153,177,427484,1,8,0:0:0:0:
141,99,427556,1,0,0:0:0:0:
141,99,427627,1,0,0:0:0:0:
153,177,427699,1,8,0:0:0:0:
141,99,427770,1,0,0:0:0:0:
141,99,427842,1,0,0:0:0:0:
151,116,427913,1,0,0:0:0:0:
151,116,427984,1,0,0:0:0:0:
151,116,428056,1,0,0:0:0:0:
151,116,428127,1,0,0:0:0:0:
151,116,428199,1,0,0:0:0:0:
179,162,428270,1,8,0:0:0:0:
179,162,428342,1,8,0:0:0:0:
151,116,428413,1,0,0:0:0:0:
151,116,428484,1,0,0:0:0:0:
179,162,428556,1,8,0:0:0:0:
143,127,428699,1,0,0:0:0:0:
82,164,428842,1,8,0:0:0:0:
160,192,428984,1,0,0:0:0:0:
169,199,429127,5,12,0:0:0:0:
129,144,430842,5,8,0:0:0:0:
247,210,430913,1,8,0:0:0:0:
247,210,430984,1,8,0:0:0:0:
247,210,431056,1,8,0:0:0:0:
247,210,431127,1,8,0:0:0:0:
247,210,431199,1,8,0:0:0:0:
247,210,431270,1,8,0:0:0:0:
247,210,431342,1,8,0:0:0:0:
129,144,431413,1,0,0:0:0:0:
254,212,431484,1,0,0:0:0:0:
254,212,431556,1,0,0:0:0:0:
254,212,431627,1,0,0:0:0:0:
129,144,431699,1,8,0:0:0:0:
247,210,431770,1,8,0:0:0:0:
247,210,431842,1,8,0:0:0:0:
247,210,431913,1,8,0:0:0:0:
247,210,431984,1,8,0:0:0:0:
247,210,432056,1,8,0:0:0:0:
247,210,432127,1,8,0:0:0:0:
247,210,432199,1,8,0:0:0:0:
129,144,432270,1,0,0:0:0:0:
254,212,432342,1,0,0:0:0:0:
254,212,432413,1,0,0:0:0:0:
254,212,432484,1,0,0:0:0:0:
129,144,432556,1,8,0:0:0:0:
247,210,432627,1,8,0:0:0:0:
247,210,432699,1,8,0:0:0:0:
247,210,432770,1,8,0:0:0:0:
247,210,432842,1,8,0:0:0:0:
247,210,432913,1,8,0:0:0:0:
247,210,432984,1,8,0:0:0:0:
247,210,433056,1,8,0:0:0:0:
247,210,433127,1,8,0:0:0:0:
247,210,433199,1,8,0:0:0:0:
247,210,433270,1,8,0:0:0:0:
247,210,433342,1,8,0:0:0:0:
247,210,433413,1,8,0:0:0:0:
247,210,433484,1,8,0:0:0:0:
247,210,433556,1,8,0:0:0:0:
247,210,433627,1,8,0:0:0:0:
247,210,433699,1,8,0:0:0:0:
247,210,433770,1,8,0:0:0:0:
247,210,433842,1,8,0:0:0:0:
247,210,433913,1,8,0:0:0:0:
247,210,433984,1,8,0:0:0:0:
247,210,434056,1,8,0:0:0:0:
247,210,434127,1,8,0:0:0:0:
247,210,434199,1,8,0:0:0:0:
306,160,434270,1,0,0:0:0:0:
254,212,434342,1,0,0:0:0:0:
254,212,434413,1,0,0:0:0:0:
254,212,434484,1,0,0:0:0:0:
254,212,434556,1,0,0:0:0:0:
254,212,434627,1,0,0:0:0:0:
254,212,434699,1,0,0:0:0:0:
254,212,434770,1,0,0:0:0:0:
254,212,434842,1,0,0:0:0:0:
254,212,434913,1,0,0:0:0:0:
254,212,434984,1,0,0:0:0:0:
254,212,435056,1,0,0:0:0:0:
247,210,435127,1,8,0:0:0:0:
247,210,435199,1,8,0:0:0:0:
247,210,435270,1,8,0:0:0:0:
247,210,435342,1,8,0:0:0:0:
247,210,435413,1,8,0:0:0:0:
247,210,435484,1,8,0:0:0:0:
247,210,435556,1,8,0:0:0:0:
247,210,435627,1,8,0:0:0:0:
247,210,435699,1,8,0:0:0:0:
247,210,435770,1,8,0:0:0:0:
247,210,435842,1,8,0:0:0:0:
247,210,435913,1,8,0:0:0:0:
313,158,435984,1,0,0:0:0:0:
254,212,436056,1,0,0:0:0:0:
254,212,436127,1,0,0:0:0:0:
254,212,436199,1,0,0:0:0:0:
254,212,436270,1,0,0:0:0:0:
254,212,436342,1,0,0:0:0:0:
254,212,436413,1,0,0:0:0:0:
254,212,436484,1,0,0:0:0:0:
254,212,436556,1,0,0:0:0:0:
254,212,436627,1,0,0:0:0:0:
254,212,436699,1,0,0:0:0:0:
254,212,436770,1,0,0:0:0:0:
254,212,436842,1,0,0:0:0:0:
254,212,436913,1,0,0:0:0:0:
254,212,436984,1,0,0:0:0:0:
254,212,437056,1,0,0:0:0:0:
254,212,437127,1,0,0:0:0:0:
254,212,437199,1,0,0:0:0:0:
254,212,437270,1,0,0:0:0:0:
254,212,437342,1,0,0:0:0:0:
320,157,437413,1,8,0:0:0:0:
247,210,437484,1,0,0:0:0:0:
320,157,437556,1,0,0:0:0:0:
254,212,437627,1,0,0:0:0:0:
320,157,437699,1,8,0:0:0:0:
247,210,437770,1,8,0:0:0:0:
247,210,437842,1,8,0:0:0:0:
247,210,437913,1,8,0:0:0:0:
247,210,437984,1,8,0:0:0:0:
247,210,438056,1,8,0:0:0:0:
247,210,438127,1,8,0:0:0:0:
247,210,438199,1,8,0:0:0:0:
320,157,438270,1,0,0:0:0:0:
254,212,438342,1,0,0:0:0:0:
254,212,438413,1,0,0:0:0:0:
254,212,438484,1,0,0:0:0:0:
320,157,438556,1,8,0:0:0:0:
247,210,438627,1,8,0:0:0:0:
247,210,438699,1,8,0:0:0:0:
247,210,438770,1,8,0:0:0:0:
247,210,438842,1,8,0:0:0:0:
247,210,438913,1,8,0:0:0:0:
247,210,438984,1,8,0:0:0:0:
247,210,439056,1,8,0:0:0:0:
329,158,439127,1,0,0:0:0:0:
254,212,439199,1,0,0:0:0:0:
254,212,439270,1,0,0:0:0:0:
254,212,439342,1,0,0:0:0:0:
329,158,439413,1,8,0:0:0:0:
247,210,439484,1,8,0:0:0:0:
247,210,439556,1,8,0:0:0:0:
247,210,439627,1,8,0:0:0:0:
247,210,439699,1,8,0:0:0:0:
247,210,439770,1,8,0:0:0:0:
247,210,439842,1,8,0:0:0:0:
247,210,439913,1,8,0:0:0:0:
247,210,439984,1,8,0:0:0:0:
247,210,440056,1,8,0:0:0:0:
247,210,440127,1,8,0:0:0:0:
247,210,440199,1,8,0:0:0:0:
247,210,440270,1,8,0:0:0:0:
247,210,440342,1,8,0:0:0:0:
247,210,440413,1,8,0:0:0:0:
247,210,440484,1,8,0:0:0:0:
247,210,440556,1,8,0:0:0:0:
247,210,440627,1,8,0:0:0:0:
247,210,440699,1,8,0:0:0:0:
247,210,440770,1,8,0:0:0:0:
324,153,440842,1,0,0:0:0:0:
254,212,440913,1,0,0:0:0:0:
254,212,440984,1,0,0:0:0:0:
254,212,441056,1,0,0:0:0:0:
324,153,441127,1,8,0:0:0:0:
247,210,441199,1,8,0:0:0:0:
247,210,441270,1,8,0:0:0:0:
247,210,441342,1,8,0:0:0:0:
247,210,441413,1,8,0:0:0:0:
247,210,441484,1,8,0:0:0:0:
247,210,441556,1,8,0:0:0:0:
247,210,441627,1,8,0:0:0:0:
247,210,441699,1,8,0:0:0:0:
247,210,441770,1,8,0:0:0:0:
247,210,441842,1,8,0:0:0:0:
247,210,441913,1,8,0:0:0:0:
247,210,441984,1,8,0:0:0:0:
247,210,442056,1,8,0:0:0:0:
247,210,442127,1,8,0:0:0:0:
247,210,442199,1,8,0:0:0:0:
247,210,442270,1,8,0:0:0:0:
247,210,442342,1,8,0:0:0:0:
247,210,442413,1,8,0:0:0:0:
247,210,442484,1,8,0:0:0:0:
247,210,442556,1,8,0:0:0:0:
247,210,442627,1,8,0:0:0:0:
247,210,442699,1,8,0:0:0:0:
247,210,442770,1,8,0:0:0:0:
324,153,442842,1,0,0:0:0:0:
377,262,442913,1,0,0:0:0:0:
377,262,442984,1,0,0:0:0:0:
377,262,443056,1,0,0:0:0:0:
129,130,443127,1,8,0:0:0:0:
129,130,443199,1,0,0:0:0:0:
129,130,443270,1,0,0:0:0:0:
129,130,443342,1,0,0:0:0:0:
324,153,443413,1,8,0:0:0:0:
135,130,443484,1,8,0:0:0:0:
324,153,443556,1,0,0:0:0:0:
136,130,443627,1,0,0:0:0:0:
324,153,443699,1,8,0:0:0:0:
136,130,443770,1,0,0:0:0:0:
136,130,443842,1,0,0:0:0:0:
136,130,443913,1,0,0:0:0:0:
136,130,443984,1,8,0:0:0:0:
136,130,444056,1,8,0:0:0:0:
136,130,444127,1,8,0:0:0:0:
135,130,444199,1,0,0:0:0:0:
135,130,444270,1,0,0:0:0:0:
136,130,444342,1,0,0:0:0:0:
136,130,444413,1,8,0:0:0:0:
136,130,444484,1,0,0:0:0:0:
129,145,444556,5,8,0:0:0:0:
247,211,444627,1,8,0:0:0:0:
247,211,444699,1,0,0:0:0:0:
247,211,444770,1,0,0:0:0:0:
247,211,444842,1,8,0:0:0:0:
247,211,444913,1,8,0:0:0:0:
247,211,444984,1,0,0:0:0:0:
247,211,445056,1,0,0:0:0:0:
129,145,445127,1,8,0:0:0:0:
254,213,445199,1,8,0:0:0:0:
254,213,445270,1,0,0:0:0:0:
254,213,445342,1,0,0:0:0:0:
129,145,445413,1,8,0:0:0:0:
247,211,445484,1,8,0:0:0:0:
247,211,445556,1,8,0:0:0:0:
247,211,445627,1,8,0:0:0:0:
247,211,445699,1,8,0:0:0:0:
247,211,445770,1,8,0:0:0:0:
247,211,445842,1,8,0:0:0:0:
247,211,445913,1,8,0:0:0:0:
129,145,445984,1,0,0:0:0:0:
254,213,446056,1,0,0:0:0:0:
254,213,446127,1,8,0:0:0:0:
254,213,446199,1,0,0:0:0:0:
129,145,446270,1,8,0:0:0:0:
247,211,446342,1,8,0:0:0:0:
247,211,446413,1,0,0:0:0:0:
247,211,446484,1,0,0:0:0:0:
247,211,446556,1,8,0:0:0:0:
247,211,446627,1,8,0:0:0:0:
247,211,446699,1,0,0:0:0:0:
247,211,446770,1,0,0:0:0:0:
247,211,446842,1,8,0:0:0:0:
247,211,446913,1,8,0:0:0:0:
247,211,446984,1,0,0:0:0:0:
247,211,447056,1,0,0:0:0:0:
247,211,447127,1,8,0:0:0:0:
247,211,447199,1,8,0:0:0:0:
247,211,447270,1,0,0:0:0:0:
247,211,447342,1,0,0:0:0:0:
247,211,447413,1,8,0:0:0:0:
247,211,447484,1,0,0:0:0:0:
247,211,447556,1,8,0:0:0:0:
247,211,447627,1,0,0:0:0:0:
247,211,447699,1,8,0:0:0:0:
247,211,447770,1,8,0:0:0:0:
247,211,447842,1,0,0:0:0:0:
247,211,447913,1,0,0:0:0:0:
306,161,447984,1,8,0:0:0:0:
254,213,448056,1,0,0:0:0:0:
254,213,448127,1,8,0:0:0:0:
254,213,448199,1,8,0:0:0:0:
254,213,448270,1,0,0:0:0:0:
254,213,448342,1,0,0:0:0:0:
254,213,448413,1,8,0:0:0:0:
254,213,448484,1,8,0:0:0:0:
254,213,448556,1,0,0:0:0:0:
254,213,448627,1,0,0:0:0:0:
254,213,448699,1,8,0:0:0:0:
254,213,448770,1,0,0:0:0:0:
247,211,448842,1,8,0:0:0:0:
247,211,448913,1,8,0:0:0:0:
247,211,448984,1,8,0:0:0:0:
247,211,449056,1,8,0:0:0:0:
247,211,449127,1,8,0:0:0:0:
247,211,449199,1,8,0:0:0:0:
247,211,449270,1,8,0:0:0:0:
247,211,449342,1,8,0:0:0:0:
247,211,449413,1,8,0:0:0:0:
247,211,449484,1,8,0:0:0:0:
247,211,449556,1,8,0:0:0:0:
247,211,449627,1,8,0:0:0:0:
313,159,449699,1,0,0:0:0:0:
254,213,449770,1,0,0:0:0:0:
254,213,449842,1,0,0:0:0:0:
254,213,449913,1,0,0:0:0:0:
254,213,449984,1,8,0:0:0:0:
254,213,450056,1,8,0:0:0:0:
254,213,450127,1,0,0:0:0:0:
254,213,450199,1,0,0:0:0:0:
254,213,450270,1,8,0:0:0:0:
254,213,450342,1,0,0:0:0:0:
254,213,450413,1,8,0:0:0:0:
254,213,450484,1,0,0:0:0:0:
254,213,450556,1,8,0:0:0:0:
254,213,450627,1,8,0:0:0:0:
254,213,450699,1,0,0:0:0:0:
254,213,450770,1,0,0:0:0:0:
254,213,450842,1,8,0:0:0:0:
254,213,450913,1,0,0:0:0:0:
254,213,450984,1,8,0:0:0:0:
254,213,451056,1,0,0:0:0:0:
320,158,451127,1,8,0:0:0:0:
247,211,451199,1,8,0:0:0:0:
320,158,451270,1,0,0:0:0:0:
254,213,451342,1,0,0:0:0:0:
320,158,451413,1,8,0:0:0:0:
247,211,451484,1,8,0:0:0:0:
247,211,451556,1,8,0:0:0:0:
247,211,451627,1,8,0:0:0:0:
247,211,451699,1,8,0:0:0:0:
247,211,451770,1,8,0:0:0:0:
247,211,451842,1,8,0:0:0:0:
247,211,451913,1,8,0:0:0:0:
320,158,451984,1,0,0:0:0:0:
254,213,452056,1,0,0:0:0:0:
254,213,452127,1,0,0:0:0:0:
254,213,452199,1,0,0:0:0:0:
320,158,452270,1,8,0:0:0:0:
247,211,452342,1,8,0:0:0:0:
247,211,452413,1,8,0:0:0:0:
247,211,452484,1,8,0:0:0:0:
247,211,452556,1,8,0:0:0:0:
247,211,452627,1,8,0:0:0:0:
247,211,452699,1,8,0:0:0:0:
247,211,452770,1,8,0:0:0:0:
329,159,452842,1,0,0:0:0:0:
254,213,452913,1,0,0:0:0:0:
254,213,452984,1,0,0:0:0:0:
254,213,453056,1,0,0:0:0:0:
329,159,453127,1,8,0:0:0:0:
247,211,453199,1,8,0:0:0:0:
247,211,453270,1,8,0:0:0:0:
247,211,453342,1,8,0:0:0:0:
247,211,453413,1,8,0:0:0:0:
247,211,453484,1,8,0:0:0:0:
247,211,453556,1,8,0:0:0:0:
247,211,453627,1,8,0:0:0:0:
247,211,453699,1,8,0:0:0:0:
247,211,453770,1,8,0:0:0:0:
247,211,453842,1,8,0:0:0:0:
247,211,453913,1,8,0:0:0:0:
247,211,453984,1,8,0:0:0:0:
247,211,454056,1,8,0:0:0:0:
247,211,454127,1,8,0:0:0:0:
247,211,454199,1,8,0:0:0:0:
247,211,454270,1,8,0:0:0:0:
247,211,454342,1,8,0:0:0:0:
247,211,454413,1,8,0:0:0:0:
247,211,454484,1,8,0:0:0:0:
324,154,454556,1,0,0:0:0:0:
254,213,454627,1,0,0:0:0:0:
254,213,454699,1,0,0:0:0:0:
254,213,454770,1,0,0:0:0:0:
324,154,454842,1,8,0:0:0:0:
247,211,454913,1,8,0:0:0:0:
247,211,454984,1,8,0:0:0:0:
247,211,455056,1,8,0:0:0:0:
247,211,455127,1,8,0:0:0:0:
247,211,455199,1,8,0:0:0:0:
247,211,455270,1,8,0:0:0:0:
247,211,455342,1,8,0:0:0:0:
247,211,455413,1,8,0:0:0:0:
247,211,455484,1,8,0:0:0:0:
247,211,455556,1,8,0:0:0:0:
247,211,455627,1,8,0:0:0:0:
247,211,455699,1,8,0:0:0:0:
247,211,455770,1,8,0:0:0:0:
247,211,455842,1,8,0:0:0:0:
247,211,455913,1,8,0:0:0:0:
247,211,455984,1,8,0:0:0:0:
247,211,456056,1,8,0:0:0:0:
247,211,456127,1,8,0:0:0:0:
247,211,456199,1,8,0:0:0:0:
247,211,456270,1,8,0:0:0:0:
247,211,456342,1,8,0:0:0:0:
247,211,456413,1,8,0:0:0:0:
247,211,456484,1,8,0:0:0:0:
324,154,456556,1,0,0:0:0:0:
377,263,456627,1,0,0:0:0:0:
377,263,456699,1,0,0:0:0:0:
377,263,456770,1,0,0:0:0:0:
129,131,456842,1,8,0:0:0:0:
129,131,456913,1,0,0:0:0:0:
129,131,456984,1,0,0:0:0:0:
129,131,457056,1,0,0:0:0:0:
324,154,457127,1,8,0:0:0:0:
135,131,457199,1,8,0:0:0:0:
324,154,457270,1,0,0:0:0:0:
136,131,457342,1,0,0:0:0:0:
324,154,457413,1,8,0:0:0:0:
136,131,457484,1,0,0:0:0:0:
136,131,457556,1,0,0:0:0:0:
136,131,457627,1,0,0:0:0:0:
136,131,457699,1,8,0:0:0:0:
136,131,457770,1,8,0:0:0:0:
136,131,457842,1,8,0:0:0:0:
135,131,457913,1,0,0:0:0:0:
135,131,457984,1,0,0:0:0:0:
136,131,458056,1,0,0:0:0:0:
136,131,458127,1,8,0:0:0:0:
136,131,458199,1,0,0:0:0:0:
324,154,458270,1,8,0:0:0:0:
231,145,458413,1,0,0:0:0:0:
231,145,458699,1,0,0:0:0:0:
231,145,458984,1,0,0:0:0:0:
231,145,459127,1,8,0:0:0:0:
231,121,459413,1,0,0:0:0:0:
231,121,459484,1,0,0:0:0:0:
231,121,459556,1,0,0:0:0:0:
231,121,459627,1,0,0:0:0:0:
231,121,459699,1,0,0:0:0:0:
231,121,459770,1,0,0:0:0:0:
231,121,459842,1,0,0:0:0:0:
230,121,459913,1,0,0:0:0:0:
231,145,459984,1,8,0:0:0:0:
230,121,460127,1,0,0:0:0:0:
231,121,460413,1,0,0:0:0:0:
231,121,460699,1,0,0:0:0:0:
231,121,460842,1,8,0:0:0:0:
42,147,461127,1,8,0:0:0:0:
42,147,461413,1,8,0:0:0:0:
42,147,461699,1,4,0:0:0:0:
149,156,462413,1,0,0:0:0:0:
149,156,462484,1,0,0:0:0:0:
149,156,462556,1,8,0:0:0:0:
52,144,462842,1,8,0:0:0:0:
52,144,463127,1,8,0:0:0:0:
52,144,463413,1,4,0:0:0:0:
99,151,463699,1,8,0:0:0:0:
99,151,463984,1,0,0:0:0:0:
99,151,464056,1,0,0:0:0:0:
99,151,464127,1,0,0:0:0:0:
99,151,464199,1,0,0:0:0:0:
99,151,464270,1,8,0:0:0:0:
94,162,464413,1,8,0:0:0:0:
71,170,464556,1,0,0:0:0:0:
6,157,464699,1,0,0:0:0:0:
6,157,464842,1,8,0:0:0:0:
6,157,464984,1,0,0:0:0:0:
92,165,465127,1,8,0:0:0:0:
97,208,465842,1,0,0:0:0:0:
97,208,465984,1,8,0:0:0:0:
113,160,466270,1,0,0:0:0:0:
113,160,466342,1,0,0:0:0:0:
113,160,466413,1,0,0:0:0:0:
113,160,466484,1,0,0:0:0:0:
113,160,466556,1,0,0:0:0:0:
103,154,466699,1,0,0:0:0:0:
103,154,466842,1,8,0:0:0:0:
149,220,467556,1,0,0:0:0:0:
149,220,467627,1,0,0:0:0:0:
149,220,467699,1,8,0:0:0:0:
156,227,467842,1,8,0:0:0:0:
156,227,467984,1,0,0:0:0:0:
154,231,468127,1,8,0:0:0:0:
335,272,468270,1,0,0:0:0:0:
335,272,468413,1,0,0:0:0:0:
335,272,468556,1,8,0:0:0:0:
278,262,469270,1,0,0:0:0:0:
278,262,469342,1,0,0:0:0:0:
278,262,469413,1,8,0:0:0:0:
273,248,469484,1,8,0:0:0:0:
268,234,469556,1,8,0:0:0:0:
263,220,469627,1,8,0:0:0:0:
259,206,469699,1,8,0:0:0:0:
254,192,469770,1,8,0:0:0:0:
356,150,469842,1,8,0:0:0:0:
356,150,469913,1,8,0:0:0:0:
278,262,469984,1,0,0:0:0:0:
278,262,470270,1,8,0:0:0:0:
153,152,471127,1,8,0:0:0:0:
153,152,471270,1,8,0:0:0:0:
326,305,471413,1,0,0:0:0:0:
326,305,471556,1,0,0:0:0:0:
326,305,471699,1,0,0:0:0:0:
326,305,471842,1,0,0:0:0:0:
334,307,471984,1,8,0:0:0:0:
242,201,472127,1,0,0:0:0:0:
242,201,472413,1,0,0:0:0:0:
242,201,472699,1,0,0:0:0:0:
242,201,472770,1,0,0:0:0:0:
242,201,472842,1,8,0:0:0:0:
317,267,473127,1,0,0:0:0:0:
317,267,473199,1,0,0:0:0:0:
317,267,473270,1,0,0:0:0:0:
317,267,473342,1,0,0:0:0:0:
317,267,473413,1,8,0:0:0:0:
317,267,473484,1,0,0:0:0:0:
317,267,473556,1,0,0:0:0:0:
317,267,473627,1,0,0:0:0:0:
324,265,473699,1,8,0:0:0:0:
354,313,473842,1,0,0:0:0:0:
336,326,474127,1,0,0:0:0:0:
334,328,474413,1,0,0:0:0:0:
334,328,474556,1,8,0:0:0:0:
385,310,474842,1,0,0:0:0:0:
84,151,475127,1,0,0:0:0:0:
84,151,475413,1,8,0:0:0:0:
362,300,475842,1,0,0:0:0:0:
362,300,476270,1,8,0:0:0:0:
362,300,476556,1,0,0:0:0:0:
358,292,476699,1,8,0:0:0:0:
350,279,476842,1,0,0:0:0:0:
350,279,477127,1,8,0:0:0:0:
334,298,477556,1,0,0:0:0:0:
332,298,477984,1,8,0:0:0:0:
334,298,478270,1,0,0:0:0:0:
331,308,478556,1,8,0:0:0:0:
254,216,478699,1,8,0:0:0:0:
254,216,478842,1,0,0:0:0:0:
254,216,478984,1,0,0:0:0:0:
237,211,479699,1,8,0:0:0:0:
229,223,479984,1,0,0:0:0:0:
229,223,480056,1,0,0:0:0:0:
229,223,480127,1,0,0:0:0:0:
229,223,480199,1,0,0:0:0:0:
229,223,480270,1,0,0:0:0:0:
229,223,480413,1,0,0:0:0:0:
229,223,480556,1,8,0:0:0:0:
220,235,481127,1,0,0:0:0:0:
220,235,481413,1,8,0:0:0:0:
220,235,481556,1,8,0:0:0:0:
220,235,481699,1,0,0:0:0:0:
220,235,481842,1,8,0:0:0:0:
220,235,481984,1,0,0:0:0:0:
220,235,482127,1,0,0:0:0:0:
220,235,482270,1,8,0:0:0:0:
231,175,482413,1,8,0:0:0:0:
232,252,482699,1,0,0:0:0:0:
207,253,482842,1,8,0:0:0:0:
149,153,482984,1,0,0:0:0:0:
207,253,483127,1,8,0:0:0:0:
84,230,483413,1,8,0:0:0:0:
84,230,483699,1,0,0:0:0:0:
84,230,483984,1,8,0:0:0:0:
84,230,484127,1,8,0:0:0:0:
80,236,484842,1,8,0:0:0:0:
79,236,484984,1,0,0:0:0:0:
72,235,485270,1,0,0:0:0:0:
71,235,485413,1,8,0:0:0:0:
80,236,485556,1,8,0:0:0:0:
80,236,485699,1,0,0:0:0:0:
123,146,485842,1,0,0:0:0:0:
68,244,485984,1,8,0:0:0:0:
68,244,486127,1,0,0:0:0:0:
156,146,486270,1,8,0:0:0:0:
156,146,486413,1,0,0:0:0:0:
68,242,486556,1,8,0:0:0:0:
133,149,486699,1,8,0:0:0:0:
133,149,486842,1,0,0:0:0:0:
133,147,486984,1,8,0:0:0:0:
133,147,487127,1,8,0:0:0:0:
135,145,487270,1,0,0:0:0:0:
133,149,487413,1,8,0:0:0:0:
181,221,487556,1,0,0:0:0:0:
181,221,487699,1,8,0:0:0:0:
181,221,487842,1,0,0:0:0:0:
181,221,487984,1,8,0:0:0:0:
181,221,488127,1,0,0:0:0:0:
177,158,488270,1,8,0:0:0:0:
177,158,488413,1,8,0:0:0:0:
170,190,488556,1,0,0:0:0:0:
170,190,488699,1,0,0:0:0:0:
166,162,488842,1,8,0:0:0:0:
170,190,488984,1,0,0:0:0:0:
168,165,489127,1,8,0:0:0:0:
168,189,489270,1,8,0:0:0:0:
168,189,489413,1,0,0:0:0:0:
179,199,489556,1,0,0:0:0:0:
185,202,489699,1,8,0:0:0:0:
179,199,489842,1,0,0:0:0:0:
185,202,489984,1,8,0:0:0:0:
179,199,490127,1,0,0:0:0:0:
185,202,490270,1,8,0:0:0:0:
180,223,490413,1,8,0:0:0:0:
182,220,490556,1,0,0:0:0:0:
182,220,490699,1,0,0:0:0:0:
182,220,490842,1,8,0:0:0:0:
182,220,490984,1,8,0:0:0:0:
183,225,491127,1,0,0:0:0:0:
183,225,491270,1,8,0:0:0:0:
180,223,491413,1,8,0:0:0:0:
182,220,491556,1,0,0:0:0:0:
155,231,491699,1,8,0:0:0:0:
155,231,491842,1,8,0:0:0:0:
267,203,491984,1,8,0:0:0:0:
261,208,492127,1,8,0:0:0:0:
261,208,492270,1,0,0:0:0:0:
262,223,492413,1,0,0:0:0:0:
262,223,492556,1,8,0:0:0:0:
184,165,492699,1,8,0:0:0:0:
177,173,492842,1,0,0:0:0:0:
184,165,492984,1,8,0:0:0:0:
177,172,493127,1,0,0:0:0:0:
177,172,493270,1,0,0:0:0:0:
177,172,493413,1,8,0:0:0:0:
178,176,493556,1,0,0:0:0:0:
177,176,493699,1,8,0:0:0:0:
172,179,493842,1,0,0:0:0:0:
172,179,493984,1,0,0:0:0:0:
177,172,494127,1,8,0:0:0:0:
177,172,494270,1,8,0:0:0:0:
170,186,494413,1,0,0:0:0:0:
170,186,494556,1,8,0:0:0:0:
166,182,494699,1,0,0:0:0:0:
166,182,494842,1,8,0:0:0:0:
166,182,494984,1,0,0:0:0:0:
166,182,495127,1,8,0:0:0:0:
166,182,495270,1,8,0:0:0:0:
152,201,495413,1,0,0:0:0:0:
151,199,495556,1,8,0:0:0:0:
151,199,495699,1,0,0:0:0:0:
151,199,495842,1,0,0:0:0:0:
151,199,495984,1,8,0:0:0:0:
147,201,496127,1,0,0:0:0:0:
149,202,496270,1,8,0:0:0:0:
152,201,496413,1,8,0:0:0:0:
151,199,496556,1,8,0:0:0:0:
151,199,496699,1,0,0:0:0:0:
151,199,496842,1,8,0:0:0:0:
142,203,496984,1,8,0:0:0:0:
147,201,497127,1,0,0:0:0:0:
142,203,497270,1,8,0:0:0:0:
140,204,497413,1,8,0:0:0:0:
130,208,497556,1,8,0:0:0:0:
130,208,497699,1,0,0:0:0:0:
181,186,497842,1,0,0:0:0:0:
181,186,497984,1,8,0:0:0:0:
90,173,498127,1,0,0:0:0:0:
90,173,498270,1,8,0:0:0:0:
185,199,498413,1,0,0:0:0:0:
185,199,498484,1,0,0:0:0:0:
185,199,498556,1,8,0:0:0:0:
222,216,498699,1,8,0:0:0:0:
222,216,498984,1,8,0:0:0:0:
222,216,499270,1,0,0:0:0:0:
222,216,499413,1,8,0:0:0:0:
160,224,499556,1,8,0:0:0:0:
160,224,499699,1,0,0:0:0:0:
160,224,499842,1,0,0:0:0:0:
160,224,499984,1,8,0:0:0:0:
128,160,500127,1,0,0:0:0:0:
128,160,500270,1,8,0:0:0:0:
128,160,500413,1,8,0:0:0:0:
128,160,500556,1,0,0:0:0:0:
128,160,500699,1,0,0:0:0:0:
128,160,500842,1,8,0:0:0:0:
128,160,500984,1,0,0:0:0:0:
128,160,501127,1,8,0:0:0:0:
128,160,501270,1,0,0:0:0:0:
128,160,501413,1,8,0:0:0:0:
128,160,501556,1,8,0:0:0:0:
160,192,501699,1,0,0:0:0:0:
160,192,501842,1,0,0:0:0:0:
128,160,501984,1,8,0:0:0:0:
128,160,502127,1,8,0:0:0:0:
128,160,502270,1,0,0:0:0:0:
128,160,502413,1,0,0:0:0:0:
128,160,502556,1,0,0:0:0:0:
128,160,502699,1,0,0:0:0:0:
128,160,502842,1,8,0:0:0:0:
96,192,502984,1,8,0:0:0:0:
96,192,503127,1,0,0:0:0:0:
96,192,503270,1,8,0:0:0:0:
96,192,503413,1,0,0:0:0:0:
96,192,503556,1,0,0:0:0:0:
160,192,503699,1,8,0:0:0:0:
128,192,503842,1,0,0:0:0:0:
128,192,503984,1,8,0:0:0:0:
128,192,504127,1,8,0:0:0:0:
128,192,504270,1,0,0:0:0:0:
128,192,504413,1,0,0:0:0:0:
160,192,504556,1,8,0:0:0:0:
128,192,504699,1,0,0:0:0:0:
128,192,504842,1,8,0:0:0:0:
128,192,504984,1,0,0:0:0:0:
128,192,505127,1,8,0:0:0:0:
128,192,505270,1,0,0:0:0:0:
128,160,505413,1,8,0:0:0:0:
128,160,505556,1,8,0:0:0:0:
96,160,505699,1,0,0:0:0:0:
96,160,505842,1,8,0:0:0:0:
96,160,505984,1,0,0:0:0:0:
96,160,506127,1,0,0:0:0:0:
96,160,506270,1,8,0:0:0:0:
160,192,506413,1,8,0:0:0:0:
160,192,506556,1,0,0:0:0:0:
160,192,506699,1,8,0:0:0:0:
160,192,506842,1,0,0:0:0:0:
160,192,506984,1,0,0:0:0:0:
96,192,507127,1,8,0:0:0:0:
96,192,507270,1,8,0:0:0:0:
96,192,507413,1,0,0:0:0:0:
96,192,507556,1,0,0:0:0:0:
96,192,507699,1,0,0:0:0:0:
96,192,507842,1,8,0:0:0:0:
96,192,507984,1,8,0:0:0:0:
170,186,508127,1,0,0:0:0:0:
170,186,508270,1,8,0:0:0:0:
166,182,508413,1,0,0:0:0:0:
166,182,508556,1,8,0:0:0:0:
166,182,508699,1,0,0:0:0:0:
166,182,508842,1,8,0:0:0:0:
166,182,508984,1,8,0:0:0:0:
152,201,509127,1,0,0:0:0:0:
151,199,509270,1,8,0:0:0:0:
151,199,509413,1,0,0:0:0:0:
151,199,509556,1,0,0:0:0:0:
151,199,509699,1,8,0:0:0:0:
147,201,509842,1,0,0:0:0:0:
149,202,509984,1,8,0:0:0:0:
152,201,510127,1,8,0:0:0:0:
151,199,510270,1,8,0:0:0:0:
151,199,510413,1,0,0:0:0:0:
151,199,510556,1,8,0:0:0:0:
142,203,510699,1,8,0:0:0:0:
147,201,510842,1,0,0:0:0:0:
142,203,510984,1,8,0:0:0:0:
140,204,511127,1,8,0:0:0:0:
130,208,511270,1,8,0:0:0:0:
130,208,511413,1,0,0:0:0:0:
181,186,511556,1,0,0:0:0:0:
181,186,511699,1,8,0:0:0:0:
90,173,511842,1,0,0:0:0:0:
90,173,511984,1,8,0:0:0:0:
185,199,512127,1,0,0:0:0:0:
185,199,512199,1,0,0:0:0:0:
185,199,512270,1,8,0:0:0:0:
222,216,512413,1,8,0:0:0:0:
222,216,512699,5,8,0:0:0:0:
64,128,512984,1,0,0:0:0:0:
157,195,513127,5,8,0:0:0:0:
155,188,513199,1,0,0:0:0:0:
155,188,513270,1,0,0:0:0:0:
155,188,513342,1,0,0:0:0:0:
155,188,513413,1,8,0:0:0:0:
145,183,513484,1,0,0:0:0:0:
135,178,513556,1,0,0:0:0:0:
125,173,513627,1,0,0:0:0:0:
115,169,513699,1,8,0:0:0:0:
105,165,513770,1,0,0:0:0:0:
95,161,513842,1,0,0:0:0:0:
95,161,513913,1,0,0:0:0:0:
95,161,513984,1,8,0:0:0:0:
95,161,514056,1,8,0:0:0:0:
95,161,514127,1,8,0:0:0:0:
95,161,514199,1,0,0:0:0:0:
95,161,514270,1,8,0:0:0:0:
95,161,514342,1,8,0:0:0:0:
95,161,514413,1,0,0:0:0:0:
95,161,514484,1,0,0:0:0:0:
95,161,514556,1,8,0:0:0:0:
95,161,514627,1,0,0:0:0:0:
95,161,514699,1,8,0:0:0:0:
95,161,514770,1,8,0:0:0:0:
155,188,514842,1,0,0:0:0:0:
145,183,514913,1,8,0:0:0:0:
135,178,514984,1,0,0:0:0:0:
125,174,515056,1,0,0:0:0:0:
115,169,515127,1,8,0:0:0:0:
105,165,515199,1,8,0:0:0:0:
95,161,515270,1,0,0:0:0:0:
95,161,515342,1,0,0:0:0:0:
95,161,515413,1,8,0:0:0:0:
95,161,515484,1,8,0:0:0:0:
95,161,515556,1,8,0:0:0:0:
95,161,515627,1,0,0:0:0:0:
155,188,515699,1,8,0:0:0:0:
145,183,515770,1,0,0:0:0:0:
135,178,515842,1,8,0:0:0:0:
125,174,515913,1,8,0:0:0:0:
115,169,515984,1,0,0:0:0:0:
105,165,516056,1,0,0:0:0:0:
95,161,516127,1,0,0:0:0:0:
95,161,516199,1,0,0:0:0:0:
95,161,516270,1,8,0:0:0:0:
95,161,516342,1,8,0:0:0:0:
95,161,516413,1,0,0:0:0:0:
95,161,516484,1,0,0:0:0:0:
155,188,516556,1,8,0:0:0:0:
145,183,516627,1,8,0:0:0:0:
135,178,516699,1,8,0:0:0:0:
125,174,516770,1,8,0:0:0:0:
115,169,516842,1,8,0:0:0:0:
105,165,516913,1,8,0:0:0:0:
95,161,516984,1,8,0:0:0:0:
95,161,517056,1,8,0:0:0:0:
95,161,517127,1,0,0:0:0:0:
95,161,517199,1,0,0:0:0:0:
95,161,517270,1,8,0:0:0:0:
155,188,517342,1,0,0:0:0:0:
155,188,517413,1,8,0:0:0:0:
155,188,517484,1,8,0:0:0:0:
145,183,517556,1,0,0:0:0:0:
135,178,517627,1,0,0:0:0:0:
160,192,517699,1,8,0:0:0:0:
160,192,517770,1,8,0:0:0:0:
160,192,517842,1,8,0:0:0:0:
160,192,517913,1,0,0:0:0:0:
95,161,517984,1,8,0:0:0:0:
95,161,518056,1,8,0:0:0:0:
95,161,518127,1,0,0:0:0:0:
95,161,518199,1,8,0:0:0:0:
95,161,518270,1,0,0:0:0:0:
95,161,518342,1,8,0:0:0:0:
95,161,518413,1,8,0:0:0:0:
95,161,518484,1,0,0:0:0:0:
95,161,518556,1,8,0:0:0:0:
95,161,518627,1,0,0:0:0:0:
95,161,518699,1,8,0:0:0:0:
95,161,518770,1,0,0:0:0:0:
155,188,518842,1,8,0:0:0:0:
145,183,518913,1,8,0:0:0:0:
135,178,518984,1,8,0:0:0:0:
125,174,519056,1,0,0:0:0:0:
115,169,519127,1,8,0:0:0:0:
105,165,519199,1,8,0:0:0:0:
95,161,519270,1,0,0:0:0:0:
95,161,519342,1,0,0:0:0:0:
95,161,519413,1,8,0:0:0:0:
95,161,519484,1,0,0:0:0:0:
95,161,519556,1,8,0:0:0:0:
95,161,519627,1,0,0:0:0:0:
155,188,519699,1,8,0:0:0:0:
145,183,519770,1,8,0:0:0:0:
135,178,519842,1,0,0:0:0:0:
125,174,519913,1,0,0:0:0:0:
115,169,519984,1,8,0:0:0:0:
196,118,520056,1,8,0:0:0:0:
196,118,520127,1,8,0:0:0:0:
196,118,520199,1,8,0:0:0:0:
196,118,520270,1,8,0:0:0:0:
196,118,520342,1,8,0:0:0:0:
196,118,520413,1,8,0:0:0:0:
196,118,520484,1,8,0:0:0:0:
196,118,520556,1,8,0:0:0:0:
196,118,520627,1,8,0:0:0:0:
196,118,520699,1,8,0:0:0:0:
196,118,520770,1,8,0:0:0:0:
196,118,520842,1,8,0:0:0:0:
196,118,520913,1,8,0:0:0:0:
196,118,520984,1,8,0:0:0:0:
196,118,521056,1,8,0:0:0:0:
196,118,521127,1,8,0:0:0:0:
196,118,521199,1,8,0:0:0:0:
196,118,521270,1,8,0:0:0:0:
196,118,521342,1,8,0:0:0:0:
196,118,521413,1,8,0:0:0:0:
196,118,521484,1,8,0:0:0:0:
196,118,521556,1,8,0:0:0:0:
196,118,521627,1,8,0:0:0:0:
196,118,521699,1,0,0:0:0:0:
196,118,521770,1,0,0:0:0:0:
196,118,521842,1,0,0:0:0:0:
196,118,521913,1,0,0:0:0:0:
196,118,521984,1,8,0:0:0:0:
196,118,522056,1,8,0:0:0:0:
196,118,522127,1,8,0:0:0:0:
196,118,522199,1,8,0:0:0:0:
196,118,522270,1,0,0:0:0:0:
196,118,522342,1,0,0:0:0:0:
196,118,522413,1,0,0:0:0:0:
196,118,522484,1,0,0:0:0:0:
196,118,522556,1,8,0:0:0:0:
196,118,522627,1,8,0:0:0:0:
196,118,522699,1,8,0:0:0:0:
196,118,522770,1,8,0:0:0:0:
196,118,522842,1,8,0:0:0:0:
196,118,522913,1,8,0:0:0:0:
196,118,522984,1,8,0:0:0:0:
196,118,523056,1,8,0:0:0:0:
196,118,523127,1,0,0:0:0:0:
196,118,523199,1,0,0:0:0:0:
196,118,523270,1,0,0:0:0:0:
196,118,523342,1,0,0:0:0:0:
196,118,523413,1,8,0:0:0:0:
196,118,523484,1,8,0:0:0:0:
196,118,523556,1,8,0:0:0:0:
196,118,523627,1,8,0:0:0:0:
196,118,523699,1,8,0:0:0:0:
196,118,523770,1,8,0:0:0:0:
196,118,523842,1,8,0:0:0:0:
196,118,523913,1,8,0:0:0:0:
196,118,523984,1,8,0:0:0:0:
196,118,524056,1,8,0:0:0:0:
196,118,524127,1,8,0:0:0:0:
196,118,524199,1,8,0:0:0:0:
196,118,524270,1,0,0:0:0:0:
196,118,524342,1,0,0:0:0:0:
196,118,524413,1,0,0:0:0:0:
196,118,524484,1,0,0:0:0:0:
196,118,524556,1,8,0:0:0:0:
196,118,524627,1,8,0:0:0:0:
196,118,524699,1,0,0:0:0:0:
196,118,524770,1,0,0:0:0:0:
196,118,524842,1,8,0:0:0:0:
196,118,524913,1,8,0:0:0:0:
196,118,524984,1,0,0:0:0:0:
196,118,525056,1,0,0:0:0:0:
196,118,525127,1,8,0:0:0:0:
196,118,525199,1,8,0:0:0:0:
196,118,525270,1,8,0:0:0:0:
196,118,525342,1,8,0:0:0:0:
196,118,525413,1,0,0:0:0:0:
196,118,525484,1,0,0:0:0:0:
196,118,525556,1,8,0:0:0:0:
196,118,525627,1,0,0:0:0:0:
196,118,525699,1,8,0:0:0:0:
196,118,525770,1,8,0:0:0:0:
196,118,525842,1,0,0:0:0:0:
196,118,525913,1,0,0:0:0:0:
196,118,525984,1,8,0:0:0:0:
196,118,526056,1,8,0:0:0:0:
196,118,526127,1,8,0:0:0:0:
196,118,526199,1,8,0:0:0:0:
196,118,526270,1,8,0:0:0:0:
196,118,526342,1,8,0:0:0:0:
196,118,526413,1,8,0:0:0:0:
196,118,526484,1,8,0:0:0:0:
196,118,526556,1,0,0:0:0:0:
196,118,526627,1,8,0:0:0:0:
196,118,526699,1,0,0:0:0:0:
196,118,526770,1,0,0:0:0:0:
196,118,526842,1,8,0:0:0:0:
196,118,526913,1,8,0:0:0:0:
196,118,526984,1,8,0:0:0:0:
196,118,527056,1,8,0:0:0:0:
196,118,527127,1,8,0:0:0:0:
196,118,527199,1,8,0:0:0:0:
196,118,527270,1,8,0:0:0:0:
196,118,527342,1,8,0:0:0:0:
196,118,527413,1,8,0:0:0:0:
196,118,527484,1,8,0:0:0:0:
196,118,527556,1,8,0:0:0:0:
196,118,527627,1,8,0:0:0:0:
196,118,527699,1,8,0:0:0:0:
196,118,527770,1,8,0:0:0:0:
196,118,527842,1,8,0:0:0:0:
196,118,527913,1,8,0:0:0:0:
196,118,527984,1,8,0:0:0:0:
196,118,528056,1,8,0:0:0:0:
196,118,528127,1,8,0:0:0:0:
196,118,528199,1,8,0:0:0:0:
196,118,528270,1,8,0:0:0:0:
196,118,528342,1,8,0:0:0:0:
196,118,528413,1,8,0:0:0:0:
196,118,528484,1,8,0:0:0:0:
196,118,528556,1,0,0:0:0:0:
196,118,528627,1,0,0:0:0:0:
196,118,528699,1,0,0:0:0:0:
196,118,528770,1,0,0:0:0:0:
196,118,528842,1,8,0:0:0:0:
196,118,528913,1,8,0:0:0:0:
196,118,528984,1,8,0:0:0:0:
196,118,529056,1,8,0:0:0:0:
196,118,529127,1,8,0:0:0:0:
196,118,529199,1,8,0:0:0:0:
196,118,529270,1,0,0:0:0:0:
196,118,529342,1,0,0:0:0:0:
196,118,529413,1,8,0:0:0:0:
196,118,529484,1,8,0:0:0:0:
196,118,529556,1,8,0:0:0:0:
196,118,529627,1,8,0:0:0:0:
196,118,529699,1,8,0:0:0:0:
196,118,529770,1,8,0:0:0:0:
196,118,529842,1,8,0:0:0:0:
196,118,529913,1,8,0:0:0:0:
196,118,529984,1,0,0:0:0:0:
196,118,530056,1,0,0:0:0:0:
196,118,530127,1,0,0:0:0:0:
196,118,530199,1,0,0:0:0:0:
196,118,530270,1,8,0:0:0:0:
196,118,530342,1,8,0:0:0:0:
196,118,530413,1,8,0:0:0:0:
196,118,530484,1,8,0:0:0:0:
196,118,530556,1,8,0:0:0:0:
196,118,530627,1,8,0:0:0:0:
196,118,530699,1,0,0:0:0:0:
196,118,530770,1,0,0:0:0:0:
196,118,530842,1,8,0:0:0:0:
196,118,530913,1,0,0:0:0:0:
196,118,530984,1,0,0:0:0:0:
196,118,531056,1,0,0:0:0:0:
196,118,531127,1,8,0:0:0:0:
196,118,531199,1,8,0:0:0:0:
196,118,531270,1,0,0:0:0:0:
196,118,531342,1,0,0:0:0:0:
196,118,531413,1,8,0:0:0:0:
196,118,531484,1,0,0:0:0:0:
196,118,531556,1,0,0:0:0:0:
196,118,531627,1,0,0:0:0:0:
196,118,531699,1,8,0:0:0:0:
196,118,531770,1,8,0:0:0:0:
196,118,531842,1,0,0:0:0:0:
196,118,531913,1,0,0:0:0:0:
196,118,531984,1,8,0:0:0:0:
196,118,532056,1,8,0:0:0:0:
196,118,532127,1,8,0:0:0:0:
196,118,532199,1,8,0:0:0:0:
196,118,532270,1,8,0:0:0:0:
196,118,532342,1,8,0:0:0:0:
196,118,532413,1,8,0:0:0:0:
196,118,532484,1,8,0:0:0:0:
196,118,532556,1,8,0:0:0:0:
196,118,532627,1,8,0:0:0:0:
196,118,532699,1,8,0:0:0:0:
196,118,532770,1,8,0:0:0:0:
196,118,532842,1,0,0:0:0:0:
196,118,532913,1,0,0:0:0:0:
196,118,532984,1,0,0:0:0:0:
196,118,533056,1,0,0:0:0:0:
196,118,533127,1,8,0:0:0:0:
196,118,533199,1,8,0:0:0:0:
196,118,533270,1,8,0:0:0:0:
196,118,533342,1,8,0:0:0:0:
196,118,533413,1,0,0:0:0:0:
196,118,533484,1,0,0:0:0:0:
196,118,533556,1,0,0:0:0:0:
196,118,533627,1,0,0:0:0:0:
196,118,533699,1,8,0:0:0:0:
196,118,533770,1,8,0:0:0:0:
196,118,533842,1,8,0:0:0:0:
196,118,533913,1,8,0:0:0:0:
196,118,533984,1,8,0:0:0:0:
196,118,534056,1,8,0:0:0:0:
196,118,534127,1,8,0:0:0:0:
196,118,534199,1,8,0:0:0:0:
196,118,534270,1,8,0:0:0:0:
196,118,534342,1,8,0:0:0:0:
196,118,534413,1,8,0:0:0:0:
196,118,534484,1,8,0:0:0:0:
196,118,534556,1,8,0:0:0:0:
196,118,534627,1,8,0:0:0:0:
196,118,534699,1,8,0:0:0:0:
196,118,534770,1,8,0:0:0:0:
196,118,534842,1,8,0:0:0:0:
196,118,534913,1,8,0:0:0:0:
196,118,534984,1,8,0:0:0:0:
196,118,535056,1,8,0:0:0:0:
196,118,535127,1,0,0:0:0:0:
196,118,535199,1,0,0:0:0:0:
196,118,535270,1,0,0:0:0:0:
196,118,535342,1,0,0:0:0:0:
196,118,535413,1,8,0:0:0:0:
196,118,535484,1,8,0:0:0:0:
196,118,535556,1,8,0:0:0:0:
196,118,535627,1,8,0:0:0:0:
196,118,535699,1,8,0:0:0:0:
196,118,535770,1,8,0:0:0:0:
196,118,535842,1,8,0:0:0:0:
196,118,535913,1,8,0:0:0:0:
196,118,535984,1,8,0:0:0:0:
196,118,536056,1,8,0:0:0:0:
196,118,536127,1,8,0:0:0:0:
196,118,536199,1,8,0:0:0:0:
196,118,536270,1,8,0:0:0:0:
196,118,536342,1,8,0:0:0:0:
196,118,536413,1,8,0:0:0:0:
196,118,536484,1,8,0:0:0:0:
196,118,536556,1,8,0:0:0:0:
196,118,536627,1,8,0:0:0:0:
196,118,536699,1,8,0:0:0:0:
196,118,536770,1,8,0:0:0:0:
196,118,536842,1,0,0:0:0:0:
196,118,536913,1,0,0:0:0:0:
196,118,536984,1,0,0:0:0:0:
196,118,537056,1,0,0:0:0:0:
196,118,537127,1,8,0:0:0:0:
196,118,537199,1,8,0:0:0:0:
196,118,537270,1,8,0:0:0:0:
196,118,537342,1,8,0:0:0:0:
196,118,537413,1,0,0:0:0:0:
196,118,537484,1,0,0:0:0:0:
196,118,537556,1,0,0:0:0:0:
196,118,537627,1,0,0:0:0:0:
196,118,537699,1,8,0:0:0:0:
196,118,537770,1,8,0:0:0:0:
196,118,537842,1,0,0:0:0:0:
196,118,537913,1,0,0:0:0:0:
196,118,537984,1,8,0:0:0:0:
196,118,538056,1,8,0:0:0:0:
196,118,538127,1,8,0:0:0:0:
196,118,538199,1,8,0:0:0:0:
196,118,538270,1,8,0:0:0:0:
196,118,538342,1,8,0:0:0:0:
196,118,538413,1,0,0:0:0:0:
196,118,538484,1,0,0:0:0:0:
196,118,538556,1,8,0:0:0:0:
196,118,538627,1,8,0:0:0:0:
196,118,538699,1,8,0:0:0:0:
196,118,538770,1,0,0:0:0:0:
196,118,538842,1,8,0:0:0:0:
196,118,538913,1,8,0:0:0:0:
196,118,538984,1,0,0:0:0:0:
196,118,539056,1,0,0:0:0:0:
196,118,539127,1,8,0:0:0:0:
196,118,539199,1,8,0:0:0:0:
196,118,539270,1,0,0:0:0:0:
196,118,539342,1,0,0:0:0:0:
196,118,539413,1,8,0:0:0:0:
112,124,539484,1,0,0:0:0:0:
112,124,539556,1,8,0:0:0:0:
112,124,539627,1,0,0:0:0:0:
112,124,539699,1,8,0:0:0:0:
112,124,539770,1,8,0:0:0:0:
112,124,539842,1,0,0:0:0:0:
112,124,539913,1,8,0:0:0:0:
112,124,539984,1,8,0:0:0:0:
112,124,540056,1,0,0:0:0:0:
112,124,540127,1,8,0:0:0:0:
112,124,540199,1,0,0:0:0:0:
112,124,540270,1,8,0:0:0:0:
112,124,540342,1,0,0:0:0:0:
112,124,540413,1,8,0:0:0:0:
112,124,540484,1,8,0:0:0:0:
38,181,540556,1,0,0:0:0:0:
38,181,540627,1,0,0:0:0:0:
38,181,540699,1,0,0:0:0:0:
38,181,540770,1,0,0:0:0:0:
38,181,540842,1,0,0:0:0:0:
38,181,540913,1,0,0:0:0:0:
38,181,540984,1,0,0:0:0:0:
38,181,541056,1,0,0:0:0:0:
38,181,541127,1,0,0:0:0:0:
38,181,541199,1,0,0:0:0:0:
38,181,541270,1,0,0:0:0:0:
38,181,541342,1,0,0:0:0:0:
55,163,541413,1,12,0:0:0:0:
75,287,542270,1,8,0:0:0:0:
160,160,543127,5,0,0:0:0:0:
160,160,543199,1,0,0:0:0:0:
160,160,543270,1,0,0:0:0:0:
160,160,543342,1,0,0:0:0:0:
160,160,543413,1,0,0:0:0:0:
160,160,543484,1,0,0:0:0:0:
160,160,543556,1,0,0:0:0:0:
160,160,543627,1,0,0:0:0:0:
160,160,543699,1,0,0:0:0:0:
160,160,543770,1,0,0:0:0:0:
160,160,543842,1,0,0:0:0:0:
160,160,543913,1,0,0:0:0:0:
160,160,543984,5,12,0:0:0:0:
51,223,544842,1,8,0:0:0:0:
160,160,545699,1,0,0:0:0:0:
160,160,545770,1,0,0:0:0:0:
160,160,545842,1,0,0:0:0:0:
160,160,545913,1,0,0:0:0:0:
160,160,545984,1,0,0:0:0:0:
160,160,546056,1,0,0:0:0:0:
160,160,546127,1,0,0:0:0:0:
160,160,546199,1,0,0:0:0:0:
160,160,546270,1,0,0:0:0:0:
160,160,546342,1,0,0:0:0:0:
160,160,546413,1,0,0:0:0:0:
160,160,546484,1,0,0:0:0:0:
160,160,546556,1,12,0:0:0:0:
288,256,546842,1,12,0:0:0:0:
288,256,547127,1,12,0:0:0:0:
288,256,547413,1,0,0:0:0:0:
288,224,547484,1,0,0:0:0:0:
160,256,547556,1,0,0:0:0:0:
160,256,547627,1,0,0:0:0:0:
160,256,547699,1,0,0:0:0:0:
160,256,547770,1,0,0:0:0:0:
160,256,547842,1,0,0:0:0:0:
160,256,547913,1,0,0:0:0:0:
160,256,547984,1,0,0:0:0:0:
160,256,548056,1,0,0:0:0:0:
160,256,548127,1,0,0:0:0:0:
160,256,548199,1,0,0:0:0:0:
288,224,548270,1,12,0:0:0:0:
192,96,548556,1,4,0:0:0:0:
192,128,549127,1,8,0:0:0:0:
189,114,549984,1,0,0:0:0:0:
189,114,550056,1,0,0:0:0:0:
189,114,550127,1,0,0:0:0:0:
189,114,550199,1,0,0:0:0:0:
189,114,550270,1,0,0:0:0:0:
189,114,550342,1,0,0:0:0:0:
189,114,550413,1,0,0:0:0:0:
189,114,550484,1,0,0:0:0:0:
189,114,550556,1,0,0:0:0:0:
189,114,550627,1,0,0:0:0:0:
189,114,550699,1,0,0:0:0:0:
189,114,550770,1,0,0:0:0:0:
189,114,550842,1,12,0:0:0:0:
200,125,551127,1,0,0:0:0:0:
200,126,551413,1,0,0:0:0:0:
198,121,551699,1,8,0:0:0:0:
205,134,552556,1,8,0:0:0:0:
205,134,552627,1,8,0:0:0:0:
205,134,552699,1,8,0:0:0:0:
205,134,552770,1,8,0:0:0:0:
205,134,552842,1,0,0:0:0:0:
205,134,552913,1,0,0:0:0:0:
205,134,552984,1,0,0:0:0:0:
205,134,553056,1,0,0:0:0:0:
205,134,553127,1,8,0:0:0:0:
205,134,553199,1,8,0:0:0:0:
205,134,553270,1,0,0:0:0:0:
205,134,553342,1,0,0:0:0:0:
205,134,553413,1,12,0:0:0:0:
149,143,553699,1,0,0:0:0:0:
149,143,553842,1,0,0:0:0:0:
149,143,553984,1,0,0:0:0:0:
149,143,554127,1,0,0:0:0:0:
131,141,554270,1,12,0:0:0:0:
300,270,555127,1,0,0:0:0:0:
300,270,555199,1,0,0:0:0:0:
300,270,555270,1,0,0:0:0:0:
300,270,555342,1,0,0:0:0:0:
300,270,555413,1,0,0:0:0:0:
300,270,555484,1,0,0:0:0:0:
300,270,555556,1,0,0:0:0:0:
300,270,555627,1,0,0:0:0:0:
300,270,555699,1,0,0:0:0:0:
300,270,555770,1,0,0:0:0:0:
300,270,555842,1,0,0:0:0:0:
300,270,555913,1,0,0:0:0:0:
135,138,555984,1,12,0:0:0:0:
45,227,556842,1,0,0:0:0:0:
45,227,556984,1,0,0:0:0:0:
45,227,557127,1,0,0:0:0:0:
45,227,557270,1,0,0:0:0:0:
45,227,557413,1,0,0:0:0:0:
45,227,557556,1,0,0:0:0:0:
148,153,557699,1,12,0:0:0:0:
148,153,558556,1,8,0:0:0:0:
148,153,558627,1,0,0:0:0:0:
148,153,558699,1,0,0:0:0:0:
148,153,558770,1,0,0:0:0:0:
148,153,558842,1,8,0:0:0:0:
148,153,558913,1,0,0:0:0:0:
148,153,558984,1,0,0:0:0:0:
148,153,559056,1,0,0:0:0:0:
148,153,559127,1,8,0:0:0:0:
148,153,559199,1,0,0:0:0:0:
131,127,559270,1,0,0:0:0:0:
131,127,559342,1,0,0:0:0:0:
131,127,559413,1,8,0:0:0:0:
121,130,559484,1,0,0:0:0:0:
111,135,559556,1,8,0:0:0:0:
100,134,559627,1,8,0:0:0:0:
100,134,559699,1,0,0:0:0:0:
100,134,559770,1,0,0:0:0:0:
100,134,559842,1,8,0:0:0:0:
100,134,559913,1,8,0:0:0:0:
47,129,559984,1,8,0:0:0:0:
47,129,560056,1,0,0:0:0:0:
47,129,560127,1,0,0:0:0:0:
47,129,560199,1,0,0:0:0:0:
47,129,560270,1,12,0:0:0:0:
47,129,560556,1,0,0:0:0:0:
47,129,560627,1,0,0:0:0:0:
47,129,560699,1,8,0:0:0:0:
47,129,560770,1,8,0:0:0:0:
47,129,560842,1,0,0:0:0:0:
47,129,560913,1,0,0:0:0:0:
47,129,560984,1,0,0:0:0:0:
47,129,561056,1,0,0:0:0:0:
11,232,561127,1,12,0:0:0:0:
11,232,561413,1,4,0:0:0:0:
34,196,561699,1,8,0:0:0:0:
40,187,561770,1,0,0:0:0:0:
47,179,561842,1,0,0:0:0:0:
11,232,561984,1,12,0:0:0:0:
160,192,562127,1,0,0:0:0:0:
160,192,562270,1,8,0:0:0:0:
160,192,562413,1,0,0:0:0:0:
160,192,562556,1,8,0:0:0:0:
160,192,562699,1,0,0:0:0:0:
160,192,562842,1,8,0:0:0:0:
96,256,562984,1,8,0:0:0:0:
96,256,563127,1,0,0:0:0:0:
96,256,563270,1,8,0:0:0:0:
160,192,563413,1,0,0:0:0:0:
160,192,563484,1,8,0:0:0:0:
160,192,563556,1,0,0:0:0:0:
160,192,563627,1,0,0:0:0:0:
160,192,563699,1,8,0:0:0:0:
96,256,563842,1,0,0:0:0:0:
96,256,563984,1,8,0:0:0:0:
96,256,564127,1,8,0:0:0:0:
224,288,564270,1,0,0:0:0:0:
224,288,564413,1,0,0:0:0:0:
224,288,564556,1,8,0:0:0:0:
224,288,564699,1,0,0:0:0:0:
224,288,564770,1,0,0:0:0:0:
224,288,564842,1,0,0:0:0:0:
352,352,564984,1,8,0:0:0:0:
352,352,565127,1,8,0:0:0:0:
352,352,565270,1,0,0:0:0:0:
160,192,565413,1,8,0:0:0:0:
384,320,565556,1,0,0:0:0:0:
384,320,565699,1,8,0:0:0:0:
384,320,565842,1,8,0:0:0:0:
384,320,565984,1,0,0:0:0:0:
384,320,566127,1,0,0:0:0:0:
194,152,566270,1,8,0:0:0:0:
194,152,566365,1,0,0:0:0:0:
194,152,566461,1,8,0:0:0:0:
194,152,566556,1,8,0:0:0:0:
194,152,566651,1,0,0:0:0:0:
194,152,566746,1,0,0:0:0:0:
194,152,566842,1,8,0:0:0:0:
194,152,566937,1,0,0:0:0:0:
194,152,567032,1,0,0:0:0:0:
194,152,567127,1,8,0:0:0:0:
194,152,567222,1,8,0:0:0:0:
194,152,567318,1,8,0:0:0:0:
194,152,567413,1,8,0:0:0:0:
194,152,567508,1,8,0:0:0:0:
194,152,567603,1,8,0:0:0:0:
194,152,567699,1,8,0:0:0:0:
194,152,567794,1,0,0:0:0:0:
194,152,567889,1,0,0:0:0:0:
194,152,567984,1,8,0:0:0:0:
185,344,568270,1,0,0:0:0:0:
185,344,568556,1,0,0:0:0:0:
288,256,568842,1,8,0:0:0:0:
185,344,569127,1,0,0:0:0:0:
288,256,569413,1,8,0:0:0:0:
185,344,569699,1,0,0:0:0:0:
288,256,569984,1,8,0:0:0:0:
185,344,570270,1,0,0:0:0:0:
288,256,570556,1,8,0:0:0:0:
185,344,570842,1,0,0:0:0:0:
288,256,571127,1,8,0:0:0:0:
186,344,571413,1,0,0:0:0:0:
288,256,571699,1,8,0:0:0:0:
186,344,571984,1,0,0:0:0:0:
288,256,572270,1,8,0:0:0:0:
188,345,572556,1,0,0:0:0:0:
188,345,572842,1,8,0:0:0:0:
188,345,573127,1,8,0:0:0:0:
188,345,573413,1,8,0:0:0:0:
188,345,573699,1,0,0:0:0:0:
352,320,573984,1,8,0:0:0:0:
352,320,574270,1,8,0:0:0:0:
256,256,574556,1,0,0:0:0:0:
256,256,574842,1,8,0:0:0:0:
161,285,575127,1,0,0:0:0:0:
288,288,575413,1,8,0:0:0:0:
161,285,575699,1,0,0:0:0:0:
75,150,575984,1,8,0:0:0:0:
161,285,576270,1,0,0:0:0:0:
109,149,576556,1,8,0:0:0:0:
161,285,576842,1,0,0:0:0:0:
288,288,577127,1,8,0:0:0:0:
288,288,577413,1,8,0:0:0:0:
288,288,577699,1,8,0:0:0:0:
161,284,577984,1,0,0:0:0:0:
288,288,578270,1,8,0:0:0:0:
161,284,578556,1,0,0:0:0:0:
288,288,578842,1,8,0:0:0:0:
161,284,579127,1,0,0:0:0:0:
288,288,579413,1,8,0:0:0:0:
161,284,579699,1,0,0:0:0:0:
288,288,579984,1,8,0:0:0:0:
161,284,580270,1,0,0:0:0:0:
104,150,580556,1,8,0:0:0:0:
153,270,580842,1,8,0:0:0:0:
288,288,581127,1,8,0:0:0:0:
288,288,581413,1,8,0:0:0:0:
288,288,581699,1,8,0:0:0:0:
148,265,581984,1,0,0:0:0:0:
320,288,582270,1,8,0:0:0:0:
320,288,582556,1,8,0:0:0:0:
148,265,582842,1,0,0:0:0:0:
320,288,583127,1,8,0:0:0:0:
148,265,583413,1,0,0:0:0:0:
288,288,583699,1,8,0:0:0:0:
148,265,583984,1,0,0:0:0:0:
100,151,584270,1,8,0:0:0:0:
148,265,584556,1,0,0:0:0:0:
100,151,584842,1,8,0:0:0:0:
148,265,585127,1,0,0:0:0:0:
288,288,585413,1,8,0:0:0:0:
288,288,585699,1,8,0:0:0:0:
288,288,585984,1,8,0:0:0:0:
96,149,586270,1,0,0:0:0:0:
288,320,586556,1,8,0:0:0:0:
288,320,586842,1,8,0:0:0:0:
96,149,587127,1,0,0:0:0:0:
96,149,587413,1,0,0:0:0:0:
288,320,587699,1,8,0:0:0:0:
96,149,587984,1,0,0:0:0:0:
288,320,588270,1,8,0:0:0:0:
288,320,588556,1,8,0:0:0:0:
96,149,588842,1,0,0:0:0:0:
288,320,589127,1,8,0:0:0:0:
96,149,589413,1,0,0:0:0:0:
288,320,589699,1,8,0:0:0:0:
96,149,589984,1,0,0:0:0:0:
288,320,590270,1,8,0:0:0:0:
96,149,590556,1,0,0:0:0:0:
288,320,590842,1,8,0:0:0:0:
96,149,591127,1,0,0:0:0:0:
288,320,591413,1,8,0:0:0:0:
288,352,591699,1,8,0:0:0:0:
288,352,591984,1,8,0:0:0:0:
93,145,592270,1,0,0:0:0:0:
288,352,592556,1,8,0:0:0:0:
93,145,592842,1,0,0:0:0:0:
288,352,593127,1,8,0:0:0:0:
93,145,593413,1,0,0:0:0:0:
288,352,593699,1,8,0:0:0:0:
93,145,593984,1,0,0:0:0:0:
288,352,594270,1,8,0:0:0:0:
93,145,594556,1,0,0:0:0:0:
288,352,594842,1,8,0:0:0:0:
288,352,595127,1,8,0:0:0:0:
288,352,595413,1,4,0:0:0:0:
151,134,596556,1,12,0:0:0:0:
151,134,597127,1,12,0:0:0:0:
151,134,598842,1,12,0:0:0:0:
151,134,600842,1,12,0:0:0:0:
151,134,601413,1,12,0:0:0:0:
151,134,601984,1,4,0:0:0:0:
151,134,602270,1,4,0:0:0:0:
151,134,602556,1,4,0:0:0:0:
155,137,604270,1,12,0:0:0:0:
155,137,604842,1,4,0:0:0:0:
155,137,605699,1,12,0:0:0:0:
130,169,605984,1,0,0:0:0:0:
137,162,606056,1,0,0:0:0:0:
145,155,606127,1,0,0:0:0:0:
152,148,606199,1,0,0:0:0:0:
160,141,606270,1,8,0:0:0:0:
168,134,606342,1,8,0:0:0:0:
175,127,606413,1,0,0:0:0:0:
183,120,606484,1,0,0:0:0:0:
183,120,606556,1,8,0:0:0:0:
183,120,606627,1,8,0:0:0:0:
183,120,606699,1,0,0:0:0:0:
183,120,606770,1,0,0:0:0:0:
183,120,606842,1,8,0:0:0:0:
183,120,606913,1,8,0:0:0:0:
183,120,606984,1,8,0:0:0:0:
183,120,607056,1,8,0:0:0:0:
183,120,607127,1,8,0:0:0:0:
183,120,607199,1,8,0:0:0:0:
183,120,607270,1,0,0:0:0:0:
183,120,607342,1,0,0:0:0:0:
310,61,607413,1,8,0:0:0:0:
300,64,607484,1,8,0:0:0:0:
290,67,607556,1,8,0:0:0:0:
280,70,607627,1,8,0:0:0:0:
270,73,607699,1,8,0:0:0:0:
260,76,607770,1,8,0:0:0:0:
200,123,607842,1,8,0:0:0:0:
200,123,607913,1,8,0:0:0:0:
200,123,607984,1,0,0:0:0:0:
200,123,608056,1,0,0:0:0:0:
200,123,608127,1,0,0:0:0:0:
200,123,608199,1,0,0:0:0:0:
200,123,608270,1,8,0:0:0:0:
200,123,608342,1,8,0:0:0:0:
200,123,608413,1,8,0:0:0:0:
200,123,608484,1,8,0:0:0:0:
200,123,608556,1,8,0:0:0:0:
200,123,608627,1,8,0:0:0:0:
200,123,608699,1,0,0:0:0:0:
200,123,608770,1,0,0:0:0:0:
200,123,608842,1,8,0:0:0:0:
200,123,608913,1,0,0:0:0:0:
200,123,608984,1,0,0:0:0:0:
200,123,609056,1,0,0:0:0:0:
200,123,609127,1,8,0:0:0:0:
190,118,609199,1,8,0:0:0:0:
190,118,609270,1,8,0:0:0:0:
190,118,609342,1,8,0:0:0:0:
190,118,609413,1,8,0:0:0:0:
190,118,609484,1,8,0:0:0:0:
190,118,609556,1,0,0:0:0:0:
190,118,609627,1,0,0:0:0:0:
200,123,609699,1,8,0:0:0:0:
200,123,609770,1,8,0:0:0:0:
200,123,609842,1,8,0:0:0:0:
189,120,609913,1,0,0:0:0:0:
200,123,609984,1,8,0:0:0:0:
200,123,610056,1,8,0:0:0:0:
189,120,610127,1,8,0:0:0:0:
189,120,610199,1,8,0:0:0:0:
189,120,610270,1,8,0:0:0:0:
189,120,610342,1,8,0:0:0:0:
189,120,610413,1,8,0:0:0:0:
189,120,610484,1,8,0:0:0:0:
189,120,610556,1,0,0:0:0:0:
189,120,610627,1,0,0:0:0:0:
189,120,610699,1,8,0:0:0:0:
189,120,610770,1,0,0:0:0:0:
205,194,610842,1,8,0:0:0:0:
205,194,610913,1,8,0:0:0:0:
205,194,610984,1,8,0:0:0:0:
205,194,611056,1,8,0:0:0:0:
205,194,611127,1,0,0:0:0:0:
205,194,611199,1,8,0:0:0:0:
205,194,611270,1,0,0:0:0:0:
205,194,611342,1,0,0:0:0:0:
205,194,611413,1,8,0:0:0:0:
205,194,611484,1,8,0:0:0:0:
205,194,611556,1,8,0:0:0:0:
205,194,611627,1,0,0:0:0:0:
205,194,611699,1,8,0:0:0:0:
205,194,611770,1,8,0:0:0:0:
205,194,611842,1,8,0:0:0:0:
205,194,611913,1,8,0:0:0:0:
205,194,611984,1,8,0:0:0:0:
205,194,612056,1,8,0:0:0:0:
205,194,612127,1,8,0:0:0:0:
205,194,612199,1,8,0:0:0:0:
205,194,612270,1,0,0:0:0:0:
205,194,612342,1,0,0:0:0:0:
205,194,612413,1,0,0:0:0:0:
205,194,612484,1,0,0:0:0:0:
205,194,612556,1,8,0:0:0:0:
205,194,612842,1,0,0:0:0:0:
205,194,612913,1,0,0:0:0:0:
205,194,612984,1,0,0:0:0:0:
205,194,613056,1,0,0:0:0:0:
205,194,613127,1,8,0:0:0:0:
205,194,613199,1,8,0:0:0:0:
205,194,613270,1,0,0:0:0:0:
205,194,613342,1,0,0:0:0:0:
205,194,613413,1,8,0:0:0:0:
205,194,613484,1,8,0:0:0:0:
205,194,613556,1,8,0:0:0:0:
205,194,613627,1,8,0:0:0:0:
205,194,613699,1,8,0:0:0:0:
195,189,613770,1,8,0:0:0:0:
186,184,613842,1,8,0:0:0:0:
177,179,613913,1,8,0:0:0:0:
167,174,613984,1,0,0:0:0:0:
157,170,614056,1,0,0:0:0:0:
149,164,614127,1,0,0:0:0:0:
139,158,614199,1,0,0:0:0:0:
129,152,614270,1,8,0:0:0:0:
118,148,614342,1,8,0:0:0:0:
118,148,614413,1,8,0:0:0:0:
97,140,614484,1,8,0:0:0:0:
87,136,614556,1,8,0:0:0:0:
76,133,614627,1,8,0:0:0:0:
65,130,614699,1,8,0:0:0:0:
65,130,614770,1,8,0:0:0:0:
65,130,614842,1,8,0:0:0:0:
65,130,614913,1,8,0:0:0:0:
65,130,614984,1,0,0:0:0:0:
65,130,615056,1,0,0:0:0:0:
65,130,615127,1,8,0:0:0:0:
74,133,615199,1,8,0:0:0:0:
83,136,615270,1,8,0:0:0:0:
93,138,615342,1,8,0:0:0:0:
103,140,615413,1,8,0:0:0:0:
113,142,615484,1,8,0:0:0:0:
13,121,615556,1,8,0:0:0:0:
13,121,615627,1,8,0:0:0:0:
13,121,615699,1,0,0:0:0:0:
13,121,615770,1,0,0:0:0:0:
13,121,615842,1,0,0:0:0:0:
13,121,615913,1,0,0:0:0:0:
65,130,615984,1,8,0:0:0:0:
65,130,616056,1,8,0:0:0:0:
65,130,616127,1,8,0:0:0:0:
13,121,616199,1,0,0:0:0:0:
65,130,616270,1,8,0:0:0:0:
65,130,616342,1,8,0:0:0:0:
65,130,616413,1,8,0:0:0:0:
65,130,616484,1,8,0:0:0:0:
13,121,616556,1,8,0:0:0:0:
13,121,616627,1,8,0:0:0:0:
13,121,616699,1,8,0:0:0:0:
13,121,616770,1,8,0:0:0:0:
13,121,616842,1,0,0:0:0:0:
13,121,616913,1,0,0:0:0:0:
13,121,616984,1,0,0:0:0:0:
13,121,617056,1,0,0:0:0:0:
209,133,617127,1,8,0:0:0:0:
209,133,617199,1,8,0:0:0:0:
209,133,617270,1,8,0:0:0:0:
209,133,617342,1,0,0:0:0:0:
209,133,617413,1,8,0:0:0:0:
209,133,617484,1,8,0:0:0:0:
209,133,617556,1,0,0:0:0:0:
209,133,617627,1,0,0:0:0:0:
84,151,617699,1,8,0:0:0:0:
84,151,617770,1,8,0:0:0:0:
84,151,617842,1,8,0:0:0:0:
84,151,617913,1,8,0:0:0:0:
209,133,617984,1,8,0:0:0:0:
209,133,618056,1,8,0:0:0:0:
97,154,618127,1,0,0:0:0:0:
97,154,618199,1,0,0:0:0:0:
97,154,618270,1,8,0:0:0:0:
97,154,618342,1,8,0:0:0:0:
97,154,618413,1,0,0:0:0:0:
97,154,618484,1,0,0:0:0:0:
93,150,618556,1,8,0:0:0:0:
272,73,618592,1,8,0:0:0:0:
272,73,618699,1,8,0:0:0:0:
272,73,618734,1,8,0:0:0:0:
272,73,618842,1,8,0:0:0:0:
272,73,618877,1,8,0:0:0:0:
272,73,618984,1,0,0:0:0:0:
272,73,619020,1,0,0:0:0:0:
272,73,619127,1,0,0:0:0:0:
272,73,619163,1,0,0:0:0:0:
272,73,619270,1,0,0:0:0:0:
272,73,619306,1,0,0:0:0:0:
97,154,619413,1,12,0:0:0:0:
81,140,619556,1,0,0:0:0:0:
81,140,619699,1,8,0:0:0:0:
81,140,619770,1,8,0:0:0:0:
96,128,619842,1,0,0:0:0:0:
96,128,619913,1,0,0:0:0:0:
96,128,619984,1,8,0:0:0:0:
96,128,620056,1,8,0:0:0:0:
96,128,620127,1,8,0:0:0:0:
96,128,620199,1,8,0:0:0:0:
160,128,620270,1,0,0:0:0:0:
160,128,620342,1,0,0:0:0:0:
160,128,620413,1,0,0:0:0:0:
160,128,620484,1,0,0:0:0:0:
160,128,620556,1,8,0:0:0:0:
160,128,620627,1,0,0:0:0:0:
160,128,620699,1,8,0:0:0:0:
160,128,620770,1,0,0:0:0:0:
160,128,620842,1,8,0:0:0:0:
160,128,620913,1,8,0:0:0:0:
160,128,620984,1,8,0:0:0:0:
160,128,621056,1,8,0:0:0:0:
160,128,621127,1,0,0:0:0:0:
160,128,621199,1,0,0:0:0:0:
160,128,621270,1,8,0:0:0:0:
160,128,621342,1,0,0:0:0:0:
160,128,621413,1,8,0:0:0:0:
160,128,621484,1,8,0:0:0:0:
160,128,621556,1,0,0:0:0:0:
160,128,621627,1,0,0:0:0:0:
160,128,621699,1,8,0:0:0:0:
160,128,621770,1,8,0:0:0:0:
160,128,621842,1,8,0:0:0:0:
160,128,621913,1,0,0:0:0:0:
81,140,621984,1,8,0:0:0:0:
160,128,622056,1,0,0:0:0:0:
81,140,622127,1,8,0:0:0:0:
160,128,622199,1,0,0:0:0:0:
81,140,622270,1,8,0:0:0:0:
81,140,622342,1,8,0:0:0:0:
81,140,622413,1,0,0:0:0:0:
81,140,622484,1,8,0:0:0:0:
81,140,622556,1,0,0:0:0:0:
81,140,622627,1,8,0:0:0:0:
81,140,622699,1,8,0:0:0:0:
81,140,622770,1,8,0:0:0:0:
81,140,622842,1,0,0:0:0:0:
96,128,622913,1,0,0:0:0:0:
128,128,622984,1,0,0:0:0:0:
128,128,623056,1,0,0:0:0:0:
81,140,623127,1,8,0:0:0:0:
81,140,623199,1,8,0:0:0:0:
96,128,623270,1,0,0:0:0:0:
96,128,623342,1,0,0:0:0:0:
96,128,623413,1,8,0:0:0:0:
96,128,623484,1,8,0:0:0:0:
96,128,623556,1,8,0:0:0:0:
96,128,623627,1,8,0:0:0:0:
160,128,623699,1,0,0:0:0:0:
160,128,623770,1,0,0:0:0:0:
160,128,623842,1,0,0:0:0:0:
160,128,623913,1,0,0:0:0:0:
160,128,623984,1,8,0:0:0:0:
160,128,624056,1,0,0:0:0:0:
160,128,624127,1,8,0:0:0:0:
160,128,624199,1,0,0:0:0:0:
160,128,624270,1,8,0:0:0:0:
160,128,624342,1,8,0:0:0:0:
160,128,624413,1,8,0:0:0:0:
160,128,624484,1,0,0:0:0:0:
160,128,624556,1,8,0:0:0:0:
160,128,624627,1,8,0:0:0:0:
160,128,624699,1,8,0:0:0:0:
160,128,624770,1,8,0:0:0:0:
160,128,624842,1,0,0:0:0:0:
160,128,624913,1,8,0:0:0:0:
160,128,624984,1,8,0:0:0:0:
160,128,625056,1,0,0:0:0:0:
160,128,625127,1,8,0:0:0:0:
160,128,625199,1,8,0:0:0:0:
160,128,625270,1,8,0:0:0:0:
160,128,625342,1,0,0:0:0:0:
81,140,625413,1,8,0:0:0:0:
160,128,625484,1,8,0:0:0:0:
81,140,625556,1,8,0:0:0:0:
160,128,625627,1,8,0:0:0:0:
81,140,625699,1,8,0:0:0:0:
81,140,625770,1,8,0:0:0:0:
160,160,625842,1,8,0:0:0:0:
160,160,625913,1,8,0:0:0:0:
160,160,625984,1,0,0:0:0:0:
160,160,626056,1,0,0:0:0:0:
160,160,626127,1,0,0:0:0:0:
160,160,626199,1,0,0:0:0:0:
81,140,626270,1,8,0:0:0:0:
81,140,626342,1,8,0:0:0:0:
96,128,626413,1,0,0:0:0:0:
96,128,626484,1,0,0:0:0:0:
96,128,626556,1,8,0:0:0:0:
96,128,626627,1,8,0:0:0:0:
96,128,626699,1,8,0:0:0:0:
96,128,626770,1,8,0:0:0:0:
160,128,626842,1,0,0:0:0:0:
160,128,626913,1,0,0:0:0:0:
160,128,626984,1,0,0:0:0:0:
160,128,627056,1,0,0:0:0:0:
160,128,627127,1,8,0:0:0:0:
160,128,627199,1,0,0:0:0:0:
160,128,627270,1,8,0:0:0:0:
160,128,627342,1,0,0:0:0:0:
160,128,627413,1,8,0:0:0:0:
160,128,627484,1,8,0:0:0:0:
160,128,627556,1,8,0:0:0:0:
160,128,627627,1,8,0:0:0:0:
160,128,627699,1,0,0:0:0:0:
160,128,627770,1,0,0:0:0:0:
160,128,627842,1,8,0:0:0:0:
160,128,627913,1,0,0:0:0:0:
160,128,627984,1,8,0:0:0:0:
160,128,628056,1,8,0:0:0:0:
160,128,628127,1,0,0:0:0:0:
160,128,628199,1,0,0:0:0:0:
160,128,628270,1,8,0:0:0:0:
160,128,628342,1,8,0:0:0:0:
160,128,628413,1,8,0:0:0:0:
160,128,628484,1,0,0:0:0:0:
81,140,628556,1,8,0:0:0:0:
160,128,628627,1,0,0:0:0:0:
81,140,628699,1,8,0:0:0:0:
160,128,628770,1,0,0:0:0:0:
81,140,628842,1,8,0:0:0:0:
81,140,628913,1,8,0:0:0:0:
81,140,628984,1,0,0:0:0:0:
81,140,629056,1,8,0:0:0:0:
81,140,629127,1,0,0:0:0:0:
81,140,629199,1,8,0:0:0:0:
81,140,629270,1,8,0:0:0:0:
81,140,629342,1,8,0:0:0:0:
81,140,629413,1,0,0:0:0:0:
96,128,629484,1,0,0:0:0:0:
105,124,629556,1,8,0:0:0:0:
128,128,629627,1,0,0:0:0:0:
81,140,629699,1,8,0:0:0:0:
81,140,629770,1,8,0:0:0:0:
96,128,629842,1,0,0:0:0:0:
96,128,629913,1,0,0:0:0:0:
106,128,629984,1,8,0:0:0:0:
116,128,630056,1,8,0:0:0:0:
126,128,630127,1,8,0:0:0:0:
136,128,630199,1,8,0:0:0:0:
123,110,630270,1,0,0:0:0:0:
123,110,630342,1,0,0:0:0:0:
136,128,630413,1,8,0:0:0:0:
123,110,630484,1,0,0:0:0:0:
136,128,630556,1,8,0:0:0:0:
136,128,630627,1,8,0:0:0:0:
123,110,630699,1,0,0:0:0:0:
123,110,630770,1,0,0:0:0:0:
136,128,630842,1,8,0:0:0:0:
136,128,630913,1,8,0:0:0:0:
136,128,630984,1,8,0:0:0:0:
123,110,631056,1,0,0:0:0:0:
123,110,631127,1,8,0:0:0:0:
123,110,631199,1,0,0:0:0:0:
123,110,631270,1,8,0:0:0:0:
123,110,631342,1,0,0:0:0:0:
160,128,631413,5,8,0:0:0:0:
160,128,631484,1,8,0:0:0:0:
160,128,631556,1,8,0:0:0:0:
160,128,631627,1,8,0:0:0:0:
160,128,631699,1,8,0:0:0:0:
160,128,631770,1,8,0:0:0:0:
160,128,631842,1,0,0:0:0:0:
160,128,631913,1,0,0:0:0:0:
160,128,631984,1,8,0:0:0:0:
160,128,632056,1,8,0:0:0:0:
160,128,632127,1,8,0:0:0:0:
160,128,632199,1,0,0:0:0:0:
160,128,632270,1,8,0:0:0:0:
160,128,632342,1,8,0:0:0:0:
160,128,632413,1,8,0:0:0:0:
160,128,632484,1,8,0:0:0:0:
160,128,632556,1,0,0:0:0:0:
160,128,632627,1,0,0:0:0:0:
160,128,632699,1,8,0:0:0:0:
160,128,632770,1,0,0:0:0:0:
160,128,632842,1,8,0:0:0:0:
160,128,632913,1,8,0:0:0:0:
160,128,632984,1,8,0:0:0:0:
160,128,633056,1,8,0:0:0:0:
160,128,633127,1,4,0:0:0:0:
160,128,635127,1,12,0:0:0:0:
128,64,635699,1,12,0:0:0:0:
192,192,636556,1,4,0:0:0:0:
128,96,638556,1,12,0:0:0:0:
128,96,639127,1,12,0:0:0:0:
128,96,639984,1,4,0:0:0:0:
128,96,641984,1,12,0:0:0:0:
128,96,642556,1,12,0:0:0:0:
128,96,642842,1,4,0:0:0:0:
128,96,643127,1,4,0:0:0:0:
128,96,644270,1,12,0:0:0:0:
256,192,644556,12,0,647699,0:0:0:0:
170,121,648235,5,8,0:0:0:0:
243,229,661985,5,0,0:0:0:0:
242,211,662141,1,0,0:0:0:0:
169,106,662219,1,0,0:0:0:0:
169,106,662297,1,0,0:0:0:0:
70,154,662453,1,0,0:0:0:0:
259,255,662610,1,8,0:0:0:0:
178,110,662922,1,0,0:0:0:0:
178,110,663235,1,0,0:0:0:0:
178,110,663547,1,0,0:0:0:0:
182,117,663703,1,0,0:0:0:0:
259,257,663860,1,8,0:0:0:0:
151,192,664172,1,0,0:0:0:0:
161,168,664485,1,0,0:0:0:0:
161,168,664641,1,0,0:0:0:0:
161,168,664719,1,0,0:0:0:0:
161,168,664797,1,0,0:0:0:0:
161,168,664953,1,0,0:0:0:0:
257,257,665110,1,8,0:0:0:0:
288,256,665266,1,0,0:0:0:0:
153,167,665422,1,0,0:0:0:0:
153,167,665500,1,0,0:0:0:0:
153,167,665578,1,0,0:0:0:0:
149,165,665735,1,0,0:0:0:0:
161,168,665891,1,0,0:0:0:0:
153,167,665969,1,0,0:0:0:0:
153,167,666047,1,0,0:0:0:0:
153,167,666203,1,0,0:0:0:0:
255,259,666360,1,8,0:0:0:0:
224,192,666516,1,0,0:0:0:0:
158,173,666672,1,0,0:0:0:0:
224,192,666828,1,0,0:0:0:0:
158,173,666985,1,8,0:0:0:0:
158,113,667141,1,0,0:0:0:0:
169,112,667219,1,0,0:0:0:0:
158,113,667297,1,0,0:0:0:0:
167,110,667453,1,0,0:0:0:0:
263,262,667610,1,8,0:0:0:0:
256,256,667766,1,0,0:0:0:0:
256,256,667922,1,0,0:0:0:0:
256,256,668000,1,0,0:0:0:0:
256,256,668078,1,0,0:0:0:0:
224,192,668235,1,0,0:0:0:0:
224,192,668391,1,0,0:0:0:0:
224,192,668469,1,0,0:0:0:0:
224,192,668547,1,0,0:0:0:0:
224,192,668703,1,0,0:0:0:0:
263,262,668860,1,8,0:0:0:0:
224,192,669016,1,0,0:0:0:0:
224,192,669094,1,0,0:0:0:0:
224,192,669172,1,0,0:0:0:0:
224,192,669250,1,0,0:0:0:0:
224,192,669328,1,0,0:0:0:0:
224,192,669406,1,0,0:0:0:0:
128,128,669485,1,8,0:0:0:0:
224,192,669641,1,0,0:0:0:0:
224,192,669797,1,0,0:0:0:0:
224,192,669953,1,0,0:0:0:0:
263,262,670110,1,8,0:0:0:0:
256,192,670266,1,0,0:0:0:0:
192,160,670422,1,0,0:0:0:0:
192,160,670578,1,8,0:0:0:0:
145,185,670735,1,0,0:0:0:0:
145,185,670891,1,8,0:0:0:0:
357,337,671047,1,0,0:0:0:0:
357,337,671125,1,0,0:0:0:0:
145,185,671203,1,0,0:0:0:0:
145,185,671360,1,8,0:0:0:0:
357,337,671516,1,0,0:0:0:0:
357,337,671594,1,0,0:0:0:0:
357,337,671672,1,8,0:0:0:0:
357,337,671828,1,0,0:0:0:0:
419,359,671985,1,12,0:0:0:0:
84,184,672141,1,0,0:0:0:0:
90,192,672219,1,0,0:0:0:0:
90,192,672297,1,0,0:0:0:0:
90,192,672453,1,0,0:0:0:0:
82,190,672610,1,8,0:0:0:0:
291,305,672766,1,0,0:0:0:0:
291,305,672922,1,8,0:0:0:0:
224,160,673078,1,8,0:0:0:0:
224,160,673235,1,8,0:0:0:0:
224,160,673391,1,0,0:0:0:0:
224,160,673469,1,0,0:0:0:0:
291,305,673547,1,0,0:0:0:0:
291,305,673703,1,0,0:0:0:0:
291,305,673860,1,8,0:0:0:0:
160,192,674016,1,0,0:0:0:0:
160,192,674094,1,8,0:0:0:0:
160,192,674172,1,0,0:0:0:0:
224,256,674250,1,0,0:0:0:0:
160,192,674328,1,8,0:0:0:0:
123,199,674485,1,0,0:0:0:0:
123,199,674563,1,0,0:0:0:0:
123,199,674641,1,8,0:0:0:0:
123,199,674719,1,0,0:0:0:0:
123,199,674797,1,8,0:0:0:0:
123,199,674875,1,0,0:0:0:0:
123,199,674953,1,0,0:0:0:0:
123,199,675031,1,0,0:0:0:0:
122,199,675110,1,8,0:0:0:0:
132,207,675266,1,0,0:0:0:0:
132,208,675422,1,8,0:0:0:0:
256,224,675735,1,0,0:0:0:0:
256,224,675891,1,0,0:0:0:0:
256,224,676047,1,8,0:0:0:0:
256,224,676203,1,0,0:0:0:0:
256,224,676281,1,0,0:0:0:0:
256,224,676360,1,8,0:0:0:0:
256,224,676516,1,8,0:0:0:0:
256,224,676672,1,0,0:0:0:0:
256,224,676828,1,0,0:0:0:0:
256,192,676985,1,8,0:0:0:0:
224,192,677141,1,0,0:0:0:0:
224,192,677219,1,0,0:0:0:0:
224,192,677297,1,0,0:0:0:0:
224,192,677453,1,0,0:0:0:0:
224,192,677610,1,8,0:0:0:0:
224,224,677766,1,0,0:0:0:0:
224,224,677922,1,8,0:0:0:0:
224,224,678078,1,8,0:0:0:0:
224,224,678235,1,8,0:0:0:0:
224,224,678391,1,0,0:0:0:0:
224,224,678469,1,0,0:0:0:0:
224,224,678547,1,0,0:0:0:0:
224,160,678703,1,0,0:0:0:0:
192,192,678860,1,8,0:0:0:0:
224,128,679016,1,0,0:0:0:0:
224,128,679094,1,8,0:0:0:0:
224,128,679172,1,0,0:0:0:0:
125,147,679250,1,0,0:0:0:0:
125,147,679328,1,8,0:0:0:0:
134,214,679485,1,8,0:0:0:0:
134,214,679589,1,8,0:0:0:0:
134,214,679693,1,8,0:0:0:0:
134,214,679797,1,0,0:0:0:0:
125,147,679953,1,0,0:0:0:0:
134,214,680110,1,8,0:0:0:0:
125,147,680266,1,0,0:0:0:0:
125,147,680422,1,8,0:0:0:0:
140,221,680526,1,0,0:0:0:0:
140,221,680630,1,0,0:0:0:0:
140,221,680735,1,8,0:0:0:0:
320,288,680891,1,0,0:0:0:0:
320,288,681047,1,0,0:0:0:0:
352,288,681203,1,8,0:0:0:0:
320,288,681360,1,0,0:0:0:0:
320,288,681516,1,0,0:0:0:0:
320,288,681672,1,8,0:0:0:0:
320,288,681828,1,0,0:0:0:0:
134,232,681985,1,8,0:0:0:0:
134,232,682063,1,0,0:0:0:0:
133,238,682141,1,8,0:0:0:0:
133,238,682219,1,8,0:0:0:0:
133,238,682297,1,0,0:0:0:0:
133,238,682375,1,0,0:0:0:0:
133,238,682453,1,0,0:0:0:0:
133,238,682531,1,0,0:0:0:0:
134,245,682610,1,8,0:0:0:0:
134,245,682688,1,0,0:0:0:0:
134,245,682766,1,8,0:0:0:0:
134,245,682844,1,0,0:0:0:0:
134,245,682922,1,8,0:0:0:0:
132,249,683000,1,8,0:0:0:0:
132,249,683078,1,8,0:0:0:0:
132,249,683156,1,8,0:0:0:0:
131,249,683235,1,0,0:0:0:0:
132,249,683313,1,0,0:0:0:0:
168,283,683391,1,0,0:0:0:0:
168,283,683469,1,0,0:0:0:0:
160,288,683547,1,8,0:0:0:0:
288,288,683625,1,0,0:0:0:0:
288,288,683703,1,0,0:0:0:0:
288,288,683781,1,0,0:0:0:0:
192,288,683860,1,8,0:0:0:0:
192,288,683938,1,8,0:0:0:0:
192,288,684016,1,0,0:0:0:0:
192,288,684094,1,0,0:0:0:0:
192,288,684172,1,8,0:0:0:0:
192,288,684250,1,8,0:0:0:0:
192,288,684328,1,0,0:0:0:0:
192,288,684406,1,0,0:0:0:0:
192,288,684485,1,8,0:0:0:0:
192,288,684563,1,0,0:0:0:0:
192,288,684641,1,0,0:0:0:0:
192,288,684719,1,0,0:0:0:0:
192,288,684797,1,8,0:0:0:0:
288,288,684875,1,0,0:0:0:0:
288,288,684953,1,8,0:0:0:0:
288,288,685031,1,8,0:0:0:0:
352,288,685110,1,0,0:0:0:0:
352,288,685188,1,8,0:0:0:0:
352,288,685266,1,0,0:0:0:0:
352,288,685344,1,0,0:0:0:0:
352,288,685422,1,8,0:0:0:0:
352,320,685500,1,8,0:0:0:0:
352,320,685578,1,8,0:0:0:0:
352,320,685656,1,8,0:0:0:0:
352,320,685735,1,0,0:0:0:0:
352,320,685813,1,0,0:0:0:0:
352,320,685891,1,0,0:0:0:0:
352,320,685969,1,0,0:0:0:0:
352,320,686047,1,8,0:0:0:0:
352,320,686125,1,0,0:0:0:0:
352,320,686203,1,8,0:0:0:0:
352,320,686281,1,0,0:0:0:0:
352,320,686360,1,8,0:0:0:0:
352,320,686438,1,8,0:0:0:0:
352,320,686516,1,0,0:0:0:0:
352,320,686594,1,0,0:0:0:0:
352,320,686672,1,8,0:0:0:0:
352,320,686750,1,0,0:0:0:0:
352,320,686828,1,0,0:0:0:0:
352,320,686906,1,0,0:0:0:0:
71,151,686985,1,8,0:0:0:0:
93,146,687063,1,0,0:0:0:0:
86,154,687141,1,8,0:0:0:0:
96,148,687219,1,8,0:0:0:0:
96,148,687297,1,0,0:0:0:0:
99,148,687375,1,0,0:0:0:0:
99,148,687453,1,0,0:0:0:0:
99,148,687531,1,0,0:0:0:0:
99,148,687610,1,8,0:0:0:0:
343,301,687766,1,0,0:0:0:0:
343,301,687922,1,0,0:0:0:0:
343,301,688235,1,8,0:0:0:0:
256,192,688391,1,0,0:0:0:0:
256,192,688469,1,0,0:0:0:0:
128,192,688547,1,0,0:0:0:0:
128,224,688703,1,0,0:0:0:0:
128,224,688860,1,8,0:0:0:0:
128,224,688938,1,8,0:0:0:0:
128,224,689016,1,8,0:0:0:0:
128,224,689094,1,8,0:0:0:0:
128,224,689172,1,0,0:0:0:0:
128,224,689250,1,0,0:0:0:0:
128,224,689328,1,0,0:0:0:0:
128,224,689406,1,0,0:0:0:0:
128,224,689485,1,8,0:0:0:0:
128,256,689563,1,8,0:0:0:0:
128,256,689641,1,0,0:0:0:0:
128,256,689719,1,0,0:0:0:0:
128,256,689797,1,8,0:0:0:0:
128,256,689875,1,0,0:0:0:0:
128,288,689953,1,8,0:0:0:0:
128,288,690031,1,0,0:0:0:0:
128,288,690110,1,8,0:0:0:0:
128,288,690188,1,8,0:0:0:0:
320,320,690266,1,8,0:0:0:0:
320,320,690344,1,8,0:0:0:0:
320,320,690422,1,0,0:0:0:0:
352,320,690578,1,0,0:0:0:0:
352,320,690735,1,8,0:0:0:0:
96,160,690891,1,0,0:0:0:0:
96,192,691047,1,8,0:0:0:0:
192,256,691203,1,0,0:0:0:0:
134,170,691360,1,8,0:0:0:0:
134,170,691438,1,8,0:0:0:0:
142,163,691516,1,0,0:0:0:0:
142,163,691594,1,0,0:0:0:0:
142,163,691672,1,8,0:0:0:0:
142,163,691750,1,8,0:0:0:0:
143,163,691828,1,0,0:0:0:0:
143,163,691906,1,0,0:0:0:0:
128,192,691985,1,8,0:0:0:0:
160,160,692063,1,0,0:0:0:0:
160,160,692141,1,0,0:0:0:0:
160,160,692219,1,0,0:0:0:0:
160,160,692297,1,8,0:0:0:0:
160,160,692375,1,0,0:0:0:0:
160,160,692453,1,8,0:0:0:0:
160,160,692531,1,8,0:0:0:0:
160,160,692610,1,0,0:0:0:0:
160,160,692688,1,0,0:0:0:0:
160,160,692766,1,8,0:0:0:0:
160,160,692844,1,0,0:0:0:0:
160,160,692922,1,8,0:0:0:0:
160,160,693000,1,8,0:0:0:0:
160,160,693078,1,8,0:0:0:0:
160,160,693156,1,8,0:0:0:0:
160,160,693235,1,8,0:0:0:0:
160,160,693313,1,8,0:0:0:0:
160,160,693391,1,0,0:0:0:0:
160,160,693469,1,0,0:0:0:0:
160,160,693547,1,8,0:0:0:0:
160,160,693625,1,8,0:0:0:0:
160,160,693703,1,0,0:0:0:0:
160,160,693781,1,0,0:0:0:0:
160,160,693860,1,8,0:0:0:0:
160,160,693938,1,0,0:0:0:0:
160,160,694016,1,8,0:0:0:0:
160,160,694094,1,0,0:0:0:0:
160,160,694172,1,8,0:0:0:0:
160,160,694250,1,8,0:0:0:0:
160,160,694328,1,0,0:0:0:0:
160,160,694406,1,0,0:0:0:0:
160,160,694485,1,8,0:0:0:0:
160,160,694563,1,8,0:0:0:0:
160,160,694641,1,8,0:0:0:0:
160,160,694719,1,8,0:0:0:0:
160,160,694797,1,0,0:0:0:0:
512,192,694875,1,0,0:0:0:0:
0,160,694953,1,8,0:0:0:0:
480,160,695031,1,0,0:0:0:0:
0,160,695110,1,0,0:0:0:0:
0,160,695188,1,0,0:0:0:0:
448,96,695266,1,8,0:0:0:0:
32,192,695344,1,0,0:0:0:0:
448,64,695422,1,8,0:0:0:0:
0,256,695500,1,8,0:0:0:0:
448,64,695578,1,8,0:0:0:0:
96,224,695656,1,8,0:0:0:0:
384,192,695735,1,0,0:0:0:0:
384,192,695813,1,0,0:0:0:0:
0,256,695891,1,8,0:0:0:0:
416,224,695969,1,0,0:0:0:0:
0,256,696047,1,8,0:0:0:0:
448,256,696125,1,0,0:0:0:0:
288,288,696203,1,0,0:0:0:0:
64,160,696281,1,0,0:0:0:0:
96,160,696360,1,8,0:0:0:0:
96,160,696438,1,8,0:0:0:0:
96,160,696516,1,8,0:0:0:0:
96,160,696594,1,8,0:0:0:0:
96,160,696672,1,0,0:0:0:0:
96,160,696750,1,0,0:0:0:0:
96,160,696828,1,8,0:0:0:0:
96,160,696906,1,8,0:0:0:0:
128,192,696985,1,8,0:0:0:0:
160,160,697063,1,0,0:0:0:0:
160,160,697141,1,0,0:0:0:0:
160,160,697219,1,0,0:0:0:0:
160,160,697297,1,8,0:0:0:0:
160,160,697375,1,0,0:0:0:0:
160,160,697453,1,8,0:0:0:0:
160,160,697531,1,8,0:0:0:0:
160,160,697610,1,0,0:0:0:0:
160,160,697688,1,0,0:0:0:0:
160,160,697766,1,8,0:0:0:0:
160,160,697844,1,0,0:0:0:0:
160,160,697922,1,8,0:0:0:0:
160,160,698000,1,8,0:0:0:0:
160,160,698078,1,8,0:0:0:0:
160,160,698156,1,8,0:0:0:0:
160,160,698235,1,8,0:0:0:0:
160,160,698313,1,8,0:0:0:0:
160,160,698391,1,0,0:0:0:0:
160,160,698469,1,0,0:0:0:0:
160,160,698547,1,8,0:0:0:0:
160,160,698625,1,8,0:0:0:0:
160,160,698703,1,0,0:0:0:0:
160,160,698781,1,0,0:0:0:0:
160,160,698860,1,8,0:0:0:0:
160,160,698938,1,0,0:0:0:0:
160,160,699016,1,8,0:0:0:0:
160,160,699094,1,0,0:0:0:0:
160,160,699172,1,8,0:0:0:0:
160,160,699250,1,8,0:0:0:0:
160,160,699328,1,0,0:0:0:0:
160,160,699406,1,0,0:0:0:0:
160,160,699485,1,8,0:0:0:0:
160,160,699563,1,8,0:0:0:0:
160,160,699641,1,8,0:0:0:0:
160,160,699719,1,8,0:0:0:0:
160,160,699797,1,0,0:0:0:0:
512,192,699875,1,0,0:0:0:0:
0,160,699953,1,8,0:0:0:0:
480,160,700031,1,0,0:0:0:0:
0,160,700110,1,8,0:0:0:0:
0,160,700188,1,8,0:0:0:0:
448,96,700266,1,0,0:0:0:0:
32,192,700344,1,0,0:0:0:0:
448,64,700422,1,8,0:0:0:0:
0,256,700500,1,8,0:0:0:0:
448,64,700578,1,8,0:0:0:0:
96,224,700656,1,0,0:0:0:0:
384,192,700735,1,8,0:0:0:0:
384,192,700813,1,8,0:0:0:0:
0,256,700891,1,0,0:0:0:0:
416,224,700969,1,0,0:0:0:0:
0,256,701047,1,8,0:0:0:0:
448,256,701125,1,8,0:0:0:0:
288,288,701203,1,8,0:0:0:0:
64,160,701281,1,8,0:0:0:0:
160,256,701360,1,0,0:0:0:0:
160,256,701464,1,0,0:0:0:0:
160,256,701568,1,0,0:0:0:0:
160,256,701672,1,0,0:0:0:0:
160,256,701776,1,0,0:0:0:0:
160,256,701880,1,0,0:0:0:0:
160,256,701985,1,12,0:0:0:0:
96,160,702453,1,0,0:0:0:0:
96,160,702531,1,0,0:0:0:0:
96,160,702610,1,8,0:0:0:0:
96,160,702766,1,0,0:0:0:0:
96,160,702922,1,8,0:0:0:0:
128,160,703391,1,0,0:0:0:0:
128,192,703547,1,0,0:0:0:0:
128,192,703703,1,0,0:0:0:0:
128,192,703860,1,8,0:0:0:0:
448,352,704016,1,0,0:0:0:0:
448,352,704172,1,8,0:0:0:0:
448,352,704328,1,0,0:0:0:0:
448,352,704485,1,8,0:0:0:0:
416,352,704797,1,8,0:0:0:0:
416,352,704953,1,0,0:0:0:0:
416,352,705031,1,0,0:0:0:0:
416,352,705110,1,8,0:0:0:0:
416,352,705266,1,0,0:0:0:0:
416,352,705422,1,8,0:0:0:0:
416,352,705891,1,0,0:0:0:0:
416,352,706047,1,0,0:0:0:0:
416,352,706203,1,0,0:0:0:0:
416,352,706281,1,0,0:0:0:0:
416,352,706360,1,8,0:0:0:0:
416,320,706516,1,0,0:0:0:0:
416,320,706672,1,8,0:0:0:0:
416,320,706828,1,0,0:0:0:0:
416,320,706985,1,8,0:0:0:0:
416,320,707089,1,0,0:0:0:0:
416,320,707193,1,0,0:0:0:0:
416,320,707297,1,8,0:0:0:0:
181,214,707453,1,0,0:0:0:0:
181,214,707531,1,0,0:0:0:0:
181,214,707610,1,8,0:0:0:0:
224,160,707766,1,0,0:0:0:0:
224,160,707844,1,8,0:0:0:0:
224,160,707922,1,8,0:0:0:0:
128,160,708547,1,0,0:0:0:0:
224,224,708703,1,0,0:0:0:0:
224,224,708781,1,0,0:0:0:0:
224,224,708860,1,8,0:0:0:0:
96,160,709016,1,0,0:0:0:0:
96,160,709172,1,8,0:0:0:0:
96,160,709328,1,8,0:0:0:0:
96,160,709485,1,0,0:0:0:0:
96,160,709641,1,0,0:0:0:0:
96,160,709797,1,8,0:0:0:0:
96,160,709953,1,0,0:0:0:0:
96,160,710266,1,0,0:0:0:0:
96,192,710422,1,8,0:0:0:0:
96,192,710578,1,0,0:0:0:0:
96,192,710656,1,0,0:0:0:0:
96,192,710735,1,8,0:0:0:0:
320,288,710891,1,0,0:0:0:0:
320,288,711047,1,0,0:0:0:0:
224,256,711203,1,8,0:0:0:0:
320,288,711360,1,0,0:0:0:0:
224,256,711516,1,8,0:0:0:0:
320,288,711672,1,0,0:0:0:0:
320,288,711828,1,0,0:0:0:0:
224,256,711985,1,8,0:0:0:0:
224,256,712141,1,8,0:0:0:0:
224,256,712297,1,8,0:0:0:0:
320,288,712453,1,0,0:0:0:0:
320,288,712531,1,0,0:0:0:0:
320,288,712610,1,8,0:0:0:0:
448,288,712766,1,0,0:0:0:0:
448,288,712922,1,8,0:0:0:0:
448,288,713391,1,0,0:0:0:0:
448,288,713547,1,0,0:0:0:0:
416,288,713860,1,8,0:0:0:0:
448,288,714016,1,0,0:0:0:0:
448,288,714172,1,0,0:0:0:0:
448,288,714328,1,0,0:0:0:0:
448,288,714485,1,8,0:0:0:0:
128,288,714797,1,0,0:0:0:0:
128,288,714875,1,0,0:0:0:0:
128,288,714953,1,0,0:0:0:0:
128,288,715031,1,0,0:0:0:0:
128,288,715110,1,8,0:0:0:0:
128,288,715266,1,0,0:0:0:0:
128,288,715422,1,8,0:0:0:0:
128,256,715578,1,8,0:0:0:0:
128,224,715735,1,8,0:0:0:0:
128,288,715891,1,0,0:0:0:0:
128,288,716047,1,0,0:0:0:0:
128,288,716203,1,0,0:0:0:0:
128,288,716360,1,8,0:0:0:0:
128,288,716516,1,0,0:0:0:0:
128,288,716594,1,0,0:0:0:0:
128,288,716672,1,0,0:0:0:0:
128,288,716828,1,0,0:0:0:0:
128,288,716985,1,8,0:0:0:0:
128,288,717089,1,0,0:0:0:0:
128,288,717193,1,0,0:0:0:0:
128,288,717297,1,8,0:0:0:0:
128,288,717610,1,0,0:0:0:0:
128,224,717922,1,8,0:0:0:0:
96,128,718391,1,0,0:0:0:0:
96,128,718547,1,0,0:0:0:0:
256,256,718703,1,0,0:0:0:0:
96,128,718860,1,8,0:0:0:0:
256,256,718938,1,0,0:0:0:0:
256,256,719016,1,0,0:0:0:0:
256,256,719172,1,8,0:0:0:0:
256,256,719328,1,0,0:0:0:0:
256,256,719485,1,8,0:0:0:0:
256,256,719797,1,8,0:0:0:0:
256,256,719953,1,0,0:0:0:0:
256,256,720031,1,0,0:0:0:0:
256,256,720110,1,8,0:0:0:0:
320,256,720266,1,0,0:0:0:0:
320,256,720422,1,8,0:0:0:0:
320,256,720578,1,0,0:0:0:0:
320,256,720735,1,8,0:0:0:0:
320,256,720891,1,8,0:0:0:0:
320,256,721047,1,0,0:0:0:0:
320,256,721203,1,8,0:0:0:0:
320,288,721281,1,8,0:0:0:0:
320,288,721360,1,0,0:0:0:0:
320,288,721438,1,0,0:0:0:0:
320,288,721516,1,8,0:0:0:0:
320,288,721594,1,0,0:0:0:0:
320,288,721672,1,8,0:0:0:0:
320,288,721750,1,8,0:0:0:0:
320,288,721828,1,8,0:0:0:0:
320,288,721906,1,8,0:0:0:0:
256,192,721985,5,0,0:0:0:0:
256,192,722297,5,0,0:0:0:0:
256,192,722453,5,0,0:0:0:0:
256,192,722610,5,8,0:0:0:0:
256,192,722766,5,8,0:0:0:0:
256,192,722922,5,8,0:0:0:0:
256,192,723078,5,8,0:0:0:0:
256,192,723156,5,0,0:0:0:0:
256,192,723235,5,0,0:0:0:0:
256,192,723391,5,8,0:0:0:0:
256,192,723547,5,0,0:0:0:0:
256,192,723703,5,0,0:0:0:0:
256,192,723860,5,8,0:0:0:0:
256,192,724016,5,0,0:0:0:0:
256,192,724172,5,0,0:0:0:0:
256,192,724250,5,0,0:0:0:0:
256,192,724328,5,8,0:0:0:0:
256,192,724406,5,0,0:0:0:0:
256,192,724485,5,8,0:0:0:0:
256,192,724641,5,0,0:0:0:0:
256,192,724719,5,0,0:0:0:0:
256,192,724797,5,8,0:0:0:0:
256,192,724953,5,0,0:0:0:0:
256,192,725110,5,8,0:0:0:0:
256,192,725188,5,0,0:0:0:0:
256,192,725266,5,8,0:0:0:0:
256,192,725344,5,8,0:0:0:0:
256,192,725422,5,0,0:0:0:0:
256,192,725578,5,8,0:0:0:0:
256,192,725735,5,0,0:0:0:0:
256,192,725813,5,0,0:0:0:0:
256,192,725891,5,8,0:0:0:0:
256,192,725969,5,8,0:0:0:0:
256,192,726047,5,0,0:0:0:0:
256,192,726125,5,0,0:0:0:0:
256,192,726203,5,8,0:0:0:0:
256,192,726281,5,8,0:0:0:0:
256,192,726360,5,0,0:0:0:0:
256,192,726438,5,8,0:0:0:0:
256,192,726516,5,8,0:0:0:0:
256,192,726594,5,0,0:0:0:0:
256,192,726672,5,8,0:0:0:0:
256,192,726750,5,8,0:0:0:0:
256,192,726828,5,0,0:0:0:0:
256,192,726906,5,0,0:0:0:0:
256,192,726985,5,8,0:0:0:0:
256,192,727141,5,8,0:0:0:0:
256,192,727297,5,0,0:0:0:0:
256,192,727453,5,8,0:0:0:0:
256,192,727610,5,0,0:0:0:0:
256,192,727688,5,8,0:0:0:0:
256,192,727766,5,8,0:0:0:0:
256,192,727844,5,0,0:0:0:0:
256,192,727922,5,8,0:0:0:0:
256,192,728078,5,0,0:0:0:0:
256,192,728156,5,0,0:0:0:0:
256,192,728235,5,0,0:0:0:0:
256,192,728391,5,8,0:0:0:0:
256,192,728547,5,0,0:0:0:0:
256,192,728703,5,0,0:0:0:0:
256,192,728860,5,8,0:0:0:0:
256,192,728938,5,0,0:0:0:0:
256,192,729016,5,0,0:0:0:0:
256,192,729172,5,8,0:0:0:0:
256,192,729250,5,8,0:0:0:0:
256,192,729328,5,0,0:0:0:0:
256,192,729406,5,0,0:0:0:0:
256,192,729485,5,8,0:0:0:0:
256,192,729563,5,0,0:0:0:0:
256,192,729641,5,0,0:0:0:0:
256,192,729719,5,0,0:0:0:0:
256,192,729797,5,8,0:0:0:0:
256,192,729875,5,8,0:0:0:0:
256,192,729953,5,8,0:0:0:0:
256,192,730031,5,0,0:0:0:0:
256,192,730110,5,8,0:0:0:0:
256,192,730188,5,8,0:0:0:0:
256,192,730266,5,0,0:0:0:0:
256,192,730344,5,0,0:0:0:0:
256,192,730422,5,8,0:0:0:0:
256,192,730500,5,0,0:0:0:0:
256,192,730578,5,0,0:0:0:0:
256,192,730656,5,0,0:0:0:0:
256,192,730735,5,8,0:0:0:0:
256,192,730813,5,8,0:0:0:0:
256,192,730891,5,8,0:0:0:0:
256,192,730969,5,0,0:0:0:0:
256,192,731047,5,8,0:0:0:0:
256,192,731125,5,8,0:0:0:0:
256,192,731203,5,0,0:0:0:0:
256,192,731281,5,0,0:0:0:0:
256,192,731360,5,8,0:0:0:0:
256,192,731438,5,8,0:0:0:0:
256,192,731516,5,8,0:0:0:0:
256,192,731594,5,0,0:0:0:0:
256,192,731672,5,8,0:0:0:0:
256,192,731750,5,0,0:0:0:0:
256,192,731828,5,8,0:0:0:0:
256,192,731906,5,0,0:0:0:0:
256,192,731985,5,8,0:0:0:0:
256,192,732141,5,0,0:0:0:0:
256,192,732219,5,0,0:0:0:0:
256,192,732297,5,0,0:0:0:0:
256,192,732453,5,8,0:0:0:0:
256,192,732610,5,0,0:0:0:0:
256,192,732688,5,0,0:0:0:0:
256,192,732766,5,8,0:0:0:0:
256,192,732844,5,0,0:0:0:0:
256,192,732922,5,8,0:0:0:0:
256,192,733078,5,8,0:0:0:0:
256,192,733156,5,8,0:0:0:0:
256,192,733235,5,0,0:0:0:0:
256,192,733391,5,8,0:0:0:0:
256,192,733469,5,0,0:0:0:0:
256,192,733547,5,0,0:0:0:0:
256,192,733703,5,0,0:0:0:0:
256,192,733860,5,8,0:0:0:0:
256,192,733938,5,8,0:0:0:0:
256,192,734016,5,0,0:0:0:0:
256,192,734172,5,8,0:0:0:0:
256,192,734250,5,0,0:0:0:0:
256,192,734328,5,8,0:0:0:0:
256,192,734485,5,8,0:0:0:0:
256,192,734563,5,8,0:0:0:0:
256,192,734641,5,0,0:0:0:0:
256,192,734719,5,0,0:0:0:0:
256,192,734797,5,0,0:0:0:0:
256,192,734875,5,0,0:0:0:0:
256,192,734953,5,0,0:0:0:0:
256,192,735031,5,0,0:0:0:0:
256,192,735110,5,8,0:0:0:0:
256,192,735188,5,8,0:0:0:0:
256,192,735266,5,0,0:0:0:0:
256,192,735344,5,0,0:0:0:0:
256,192,735422,5,0,0:0:0:0:
256,192,735500,5,0,0:0:0:0:
256,192,735578,5,0,0:0:0:0:
256,192,735656,5,0,0:0:0:0:
256,192,735735,5,8,0:0:0:0:
256,192,735813,5,0,0:0:0:0:
256,192,735891,5,0,0:0:0:0:
256,192,735969,5,0,0:0:0:0:
256,192,736047,5,8,0:0:0:0:
256,192,736125,5,8,0:0:0:0:
256,192,736203,5,8,0:0:0:0:
256,192,736281,5,0,0:0:0:0:
256,192,736360,5,8,0:0:0:0:
256,192,736438,5,8,0:0:0:0:
256,192,736516,5,0,0:0:0:0:
256,192,736594,5,0,0:0:0:0:
256,192,736672,5,8,0:0:0:0:
256,192,736750,5,0,0:0:0:0:
256,192,736828,5,8,0:0:0:0:
256,192,736906,5,0,0:0:0:0:
256,192,736985,5,8,0:0:0:0:
256,192,737141,5,0,0:0:0:0:
256,192,737219,5,0,0:0:0:0:
256,192,737297,5,0,0:0:0:0:
256,192,737453,5,8,0:0:0:0:
256,192,737610,5,8,0:0:0:0:
256,192,737688,5,0,0:0:0:0:
256,192,737766,5,8,0:0:0:0:
256,192,737844,5,0,0:0:0:0:
256,192,737922,5,8,0:0:0:0:
256,192,738078,5,8,0:0:0:0:
256,192,738156,5,8,0:0:0:0:
256,192,738235,5,0,0:0:0:0:
256,192,738391,5,8,0:0:0:0:
256,192,738469,5,0,0:0:0:0:
256,192,738547,5,0,0:0:0:0:
256,192,738703,5,8,0:0:0:0:
256,192,738860,5,8,0:0:0:0:
256,192,738938,5,0,0:0:0:0:
256,192,739016,5,0,0:0:0:0:
256,192,739172,5,8,0:0:0:0:
256,192,739250,5,0,0:0:0:0:
256,192,739328,5,8,0:0:0:0:
256,192,739406,5,0,0:0:0:0:
256,192,739485,5,8,0:0:0:0:
256,192,739563,5,0,0:0:0:0:
256,192,739641,5,0,0:0:0:0:
256,192,739719,5,0,0:0:0:0:
256,192,739797,5,8,0:0:0:0:
256,192,739875,5,8,0:0:0:0:
256,192,739953,5,8,0:0:0:0:
256,192,740031,5,0,0:0:0:0:
256,192,740110,5,8,0:0:0:0:
256,192,740188,5,8,0:0:0:0:
256,192,740266,5,0,0:0:0:0:
256,192,740344,5,0,0:0:0:0:
256,192,740422,5,8,0:0:0:0:
256,192,740500,5,8,0:0:0:0:
256,192,740578,5,8,0:0:0:0:
256,192,740656,5,0,0:0:0:0:
256,192,740735,5,8,0:0:0:0:
256,192,740813,5,0,0:0:0:0:
256,192,740891,5,0,0:0:0:0:
256,192,740969,5,0,0:0:0:0:
256,192,741047,5,8,0:0:0:0:
256,192,741125,5,8,0:0:0:0:
256,192,741203,5,8,0:0:0:0:
256,192,741281,5,0,0:0:0:0:
256,192,741360,5,8,0:0:0:0:
256,192,741438,5,8,0:0:0:0:
256,192,741516,5,0,0:0:0:0:
256,192,741594,5,0,0:0:0:0:
256,192,741672,5,8,0:0:0:0:
256,192,741750,5,0,0:0:0:0:
256,192,741828,5,0,0:0:0:0:
256,192,741906,5,0,0:0:0:0:
256,192,741985,5,12,0:0:0:0:
256,192,742297,5,8,0:0:0:0:
256,192,742375,5,0,0:0:0:0:
256,192,742453,5,8,0:0:0:0:
256,192,742531,5,0,0:0:0:0:
256,192,742610,5,8,0:0:0:0:
256,192,742688,5,0,0:0:0:0:
256,192,742766,5,8,0:0:0:0:
256,192,742844,5,0,0:0:0:0:
256,192,742922,5,8,0:0:0:0:
256,192,743000,5,8,0:0:0:0:
256,192,743078,5,8,0:0:0:0:
256,192,743156,5,0,0:0:0:0:
256,192,743235,5,8,0:0:0:0:
256,192,743313,5,0,0:0:0:0:
256,192,743391,5,8,0:0:0:0:
256,192,743469,5,0,0:0:0:0:
256,192,743547,5,8,0:0:0:0:
256,192,743625,5,0,0:0:0:0:
256,192,743703,5,8,0:0:0:0:
256,192,743781,5,0,0:0:0:0:
256,192,743860,5,8,0:0:0:0:
256,192,743938,5,8,0:0:0:0:
256,192,744016,5,8,0:0:0:0:
256,192,744094,5,0,0:0:0:0:
256,192,744172,5,8,0:0:0:0:
256,192,744250,5,0,0:0:0:0:
256,192,744328,5,8,0:0:0:0:
256,192,744406,5,0,0:0:0:0:
256,192,744485,5,8,0:0:0:0:
256,192,744563,5,8,0:0:0:0:
256,192,744641,5,0,0:0:0:0:
256,192,744719,5,0,0:0:0:0:
256,192,744797,5,8,0:0:0:0:
256,192,744875,5,0,0:0:0:0:
256,192,744953,5,8,0:0:0:0:
256,192,745031,5,0,0:0:0:0:
256,192,745110,5,8,0:0:0:0:
256,192,745188,5,8,0:0:0:0:
256,192,745266,5,8,0:0:0:0:
256,192,745344,5,0,0:0:0:0:
256,192,745422,5,8,0:0:0:0:
256,192,745500,5,0,0:0:0:0:
256,192,745578,5,8,0:0:0:0:
256,192,745656,5,0,0:0:0:0:
256,192,745735,5,8,0:0:0:0:
256,192,745813,5,8,0:0:0:0:
256,192,745891,5,8,0:0:0:0:
256,192,745969,5,8,0:0:0:0:
256,192,746047,5,0,0:0:0:0:
256,192,746125,5,0,0:0:0:0:
256,192,746203,5,8,0:0:0:0:
256,192,746281,5,0,0:0:0:0:
256,192,746360,5,8,0:0:0:0:
256,192,746438,5,8,0:0:0:0:
256,192,746516,5,8,0:0:0:0:
256,192,746594,5,0,0:0:0:0:
256,192,746672,5,8,0:0:0:0:
256,192,746750,5,0,0:0:0:0:
256,192,746828,5,8,0:0:0:0:
256,192,746906,5,0,0:0:0:0:
256,192,746985,5,8,0:0:0:0:
256,192,747063,5,8,0:0:0:0:
256,192,747141,5,0,0:0:0:0:
256,192,747219,5,0,0:0:0:0:
256,192,747297,5,8,0:0:0:0:
256,192,747375,5,0,0:0:0:0:
256,192,747453,5,8,0:0:0:0:
256,192,747531,5,0,0:0:0:0:
256,192,747610,5,8,0:0:0:0:
256,192,747688,5,8,0:0:0:0:
256,192,747766,5,8,0:0:0:0:
256,192,747844,5,0,0:0:0:0:
256,192,747922,5,8,0:0:0:0:
256,192,748000,5,0,0:0:0:0:
256,192,748078,5,8,0:0:0:0:
256,192,748156,5,0,0:0:0:0:
256,192,748235,5,8,0:0:0:0:
256,192,748313,5,8,0:0:0:0:
256,192,748391,5,0,0:0:0:0:
256,192,748469,5,0,0:0:0:0:
256,192,748547,5,8,0:0:0:0:
256,192,748625,5,0,0:0:0:0:
256,192,748703,5,8,0:0:0:0:
256,192,748781,5,0,0:0:0:0:
256,192,748860,5,8,0:0:0:0:
256,192,748938,5,8,0:0:0:0:
256,192,749016,5,8,0:0:0:0:
256,192,749094,5,0,0:0:0:0:
256,192,749172,5,8,0:0:0:0:
256,192,749250,5,0,0:0:0:0:
256,192,749328,5,8,0:0:0:0:
256,192,749406,5,0,0:0:0:0:
256,192,749485,5,8,0:0:0:0:
256,192,749563,5,8,0:0:0:0:
256,192,749641,5,8,0:0:0:0:
256,192,749719,5,8,0:0:0:0:
256,192,749797,5,0,0:0:0:0:
256,192,749875,5,0,0:0:0:0:
256,192,749953,5,8,0:0:0:0:
256,192,750031,5,0,0:0:0:0:
256,192,750110,5,8,0:0:0:0:
256,192,750188,5,8,0:0:0:0:
256,192,750266,5,8,0:0:0:0:
256,192,750344,5,0,0:0:0:0:
256,192,750422,5,8,0:0:0:0:
256,192,750500,5,0,0:0:0:0:
256,192,750578,5,8,0:0:0:0:
256,192,750656,5,0,0:0:0:0:
256,192,750735,5,8,0:0:0:0:
256,192,750813,5,8,0:0:0:0:
256,192,750891,5,8,0:0:0:0:
256,192,750969,5,8,0:0:0:0:
256,192,751047,5,0,0:0:0:0:
256,192,751125,5,0,0:0:0:0:
256,192,751203,5,8,0:0:0:0:
256,192,751281,5,0,0:0:0:0:
256,192,751360,5,8,0:0:0:0:
256,192,751438,5,8,0:0:0:0:
256,192,751516,5,8,0:0:0:0:
256,192,751594,5,8,0:0:0:0:
256,192,751672,5,0,0:0:0:0:
256,192,751750,5,0,0:0:0:0:
256,192,751828,5,0,0:0:0:0:
256,192,751985,5,8,0:0:0:0:
256,192,752063,5,0,0:0:0:0:
256,192,752141,5,0,0:0:0:0:
256,192,752219,5,0,0:0:0:0:
256,192,752297,5,8,0:0:0:0:
256,192,752375,5,0,0:0:0:0:
256,192,752453,5,8,0:0:0:0:
256,192,752531,5,8,0:0:0:0:
256,192,752610,5,8,0:0:0:0:
256,192,752688,5,0,0:0:0:0:
256,192,752766,5,8,0:0:0:0:
256,192,752844,5,0,0:0:0:0:
256,192,752922,5,8,0:0:0:0:
256,192,753000,5,8,0:0:0:0:
256,192,753078,5,0,0:0:0:0:
256,192,753156,5,0,0:0:0:0:
256,192,753235,5,8,0:0:0:0:
256,192,753313,5,0,0:0:0:0:
256,192,753391,5,8,0:0:0:0:
256,192,753469,5,0,0:0:0:0:
256,192,753547,5,0,0:0:0:0:
256,192,753625,5,0,0:0:0:0:
256,192,753703,5,8,0:0:0:0:
256,192,753781,5,8,0:0:0:0:
256,192,753860,5,8,0:0:0:0:
256,192,753938,5,0,0:0:0:0:
256,192,754016,5,8,0:0:0:0:
256,192,754094,5,0,0:0:0:0:
256,192,754172,5,0,0:0:0:0:
256,192,754250,5,0,0:0:0:0:
256,192,754328,5,8,0:0:0:0:
256,192,754406,5,0,0:0:0:0:
256,192,754485,5,8,0:0:0:0:
256,192,754563,5,8,0:0:0:0:
256,192,754641,5,8,0:0:0:0:
256,192,754719,5,8,0:0:0:0:
256,192,754797,5,0,0:0:0:0:
256,192,754875,5,0,0:0:0:0:
256,192,754953,5,8,0:0:0:0:
256,192,755031,5,0,0:0:0:0:
256,192,755110,5,8,0:0:0:0:
256,192,755188,5,8,0:0:0:0:
256,192,755266,5,0,0:0:0:0:
256,192,755344,5,8,0:0:0:0:
256,192,755422,5,0,0:0:0:0:
256,192,755500,5,0,0:0:0:0:
256,192,755578,5,8,0:0:0:0:
256,192,755656,5,0,0:0:0:0:
256,192,755735,5,8,0:0:0:0:
256,192,755813,5,8,0:0:0:0:
256,192,755891,5,8,0:0:0:0:
256,192,755969,5,0,0:0:0:0:
256,192,756047,5,8,0:0:0:0:
256,192,756125,5,0,0:0:0:0:
256,192,756203,5,8,0:0:0:0:
256,192,756281,5,0,0:0:0:0:
256,192,756360,5,8,0:0:0:0:
256,192,756438,5,8,0:0:0:0:
256,192,756516,5,0,0:0:0:0:
256,192,756594,5,8,0:0:0:0:
256,192,756672,5,0,0:0:0:0:
256,192,756750,5,0,0:0:0:0:
256,192,756828,5,8,0:0:0:0:
256,192,756906,5,0,0:0:0:0:
256,192,756985,5,8,0:0:0:0:
256,192,757063,5,8,0:0:0:0:
256,192,757141,5,8,0:0:0:0:
256,192,757219,5,0,0:0:0:0:
256,192,757297,5,0,0:0:0:0:
256,192,757375,5,0,0:0:0:0:
256,192,757453,5,8,0:0:0:0:
256,192,757531,5,0,0:0:0:0:
256,192,757610,5,0,0:0:0:0:
256,192,757688,5,0,0:0:0:0:
256,192,757766,5,8,0:0:0:0:
256,192,757844,5,8,0:0:0:0:
256,192,757922,5,0,0:0:0:0:
256,192,758000,5,0,0:0:0:0:
256,192,758078,5,8,0:0:0:0:
256,192,758156,5,0,0:0:0:0:
256,192,758235,5,8,0:0:0:0:
256,192,758313,5,0,0:0:0:0:
256,192,758391,5,8,0:0:0:0:
256,192,758469,5,0,0:0:0:0:
256,192,758547,5,0,0:0:0:0:
256,192,758625,5,0,0:0:0:0:
256,192,758703,5,8,0:0:0:0:
256,192,758781,5,8,0:0:0:0:
256,192,758860,5,0,0:0:0:0:
256,192,758938,5,0,0:0:0:0:
256,192,759016,5,8,0:0:0:0:
256,192,759094,5,8,0:0:0:0:
256,192,759172,5,8,0:0:0:0:
256,192,759250,5,0,0:0:0:0:
256,192,759328,5,8,0:0:0:0:
256,192,759406,5,0,0:0:0:0:
256,192,759485,5,8,0:0:0:0:
256,192,759563,5,8,0:0:0:0:
256,192,759641,5,8,0:0:0:0:
256,192,759719,5,0,0:0:0:0:
256,192,759797,5,0,0:0:0:0:
256,192,759875,5,0,0:0:0:0:
256,192,759953,5,8,0:0:0:0:
256,192,760031,5,0,0:0:0:0:
256,192,760110,5,8,0:0:0:0:
256,192,760188,5,8,0:0:0:0:
256,192,760266,5,8,0:0:0:0:
256,192,760344,5,0,0:0:0:0:
256,192,760422,5,0,0:0:0:0:
256,192,760500,5,0,0:0:0:0:
256,192,760578,5,8,0:0:0:0:
256,192,760656,5,0,0:0:0:0:
256,192,760735,5,8,0:0:0:0:
256,192,760813,5,8,0:0:0:0:
256,192,760891,5,8,0:0:0:0:
256,192,760969,5,8,0:0:0:0:
256,192,761047,5,0,0:0:0:0:
256,192,761125,5,0,0:0:0:0:
256,192,761203,5,8,0:0:0:0:
256,192,761281,5,0,0:0:0:0:
256,192,761360,5,8,0:0:0:0:
256,192,761438,5,0,0:0:0:0:
256,192,761516,5,8,0:0:0:0:
256,192,761594,5,8,0:0:0:0:
256,192,761672,5,0,0:0:0:0:
256,192,761828,5,0,0:0:0:0:
256,192,761985,5,8,0:0:0:0:
256,192,762297,5,0,0:0:0:0:
256,192,762603,5,8,0:0:0:0:
256,192,762674,5,8,0:0:0:0:
256,192,762745,5,8,0:0:0:0:
256,192,762817,5,8,0:0:0:0:
256,192,762888,5,8,0:0:0:0:
256,192,762960,5,8,0:0:0:0:
256,192,763031,5,8,0:0:0:0:
256,192,763103,5,8,0:0:0:0:
256,192,763174,5,8,0:0:0:0:
256,192,763245,5,8,0:0:0:0:
256,192,763317,5,8,0:0:0:0:
256,192,763388,5,8,0:0:0:0:
256,192,763460,5,8,0:0:0:0:
256,192,763531,5,8,0:0:0:0:
256,192,763603,5,8,0:0:0:0:
256,192,763674,5,8,0:0:0:0:
256,192,763745,5,8,0:0:0:0:
256,192,763817,5,8,0:0:0:0:
256,192,763888,5,8,0:0:0:0:
256,192,763960,5,8,0:0:0:0:
256,192,764031,5,8,0:0:0:0:
256,192,764103,5,8,0:0:0:0:
256,192,764174,5,8,0:0:0:0:
256,192,764245,5,8,0:0:0:0:
256,192,764317,5,0,0:0:0:0:
256,192,764388,5,0,0:0:0:0:
256,192,764460,5,0,0:0:0:0:
256,192,764531,5,0,0:0:0:0:
256,192,764603,5,0,0:0:0:0:
256,192,764674,5,0,0:0:0:0:
256,192,764745,5,0,0:0:0:0:
256,192,764817,5,0,0:0:0:0:
256,192,764888,5,0,0:0:0:0:
256,192,764960,5,0,0:0:0:0:
256,192,765031,5,0,0:0:0:0:
256,192,765103,5,0,0:0:0:0:
256,192,765174,5,0,0:0:0:0:
256,192,765245,5,0,0:0:0:0:
256,192,765317,5,0,0:0:0:0:
256,192,765388,5,0,0:0:0:0:
256,192,765460,5,0,0:0:0:0:
256,192,765531,5,0,0:0:0:0:
256,192,765603,5,0,0:0:0:0:
256,192,765674,5,0,0:0:0:0:
256,192,765745,5,8,0:0:0:0:
256,192,765817,5,8,0:0:0:0:
256,192,765888,5,8,0:0:0:0:
256,192,765960,5,8,0:0:0:0:
256,192,766031,5,0,0:0:0:0:
256,192,766103,5,0,0:0:0:0:
256,192,766174,5,0,0:0:0:0:
256,192,766245,5,0,0:0:0:0:
256,192,766317,5,0,0:0:0:0:
256,192,766388,5,0,0:0:0:0:
256,192,766460,5,0,0:0:0:0:
256,192,766531,5,0,0:0:0:0:
256,192,766603,5,0,0:0:0:0:
256,192,766674,5,0,0:0:0:0:
256,192,766745,5,0,0:0:0:0:
256,192,766817,5,0,0:0:0:0:
256,192,766888,5,8,0:0:0:0:
256,192,766960,5,8,0:0:0:0:
256,192,767031,5,0,0:0:0:0:
256,192,767103,5,0,0:0:0:0:
256,192,767174,5,8,0:0:0:0:
256,192,767245,5,8,0:0:0:0:
256,192,767317,5,8,0:0:0:0:
256,192,767388,5,8,0:0:0:0:
256,192,767460,5,0,0:0:0:0:
256,192,767531,5,0,0:0:0:0:
256,192,767603,5,0,0:0:0:0:
256,192,767674,5,0,0:0:0:0:
256,192,767745,5,8,0:0:0:0:
256,192,767817,5,8,0:0:0:0:
256,192,767888,5,8,0:0:0:0:
256,192,767960,5,8,0:0:0:0:
256,192,768031,5,8,0:0:0:0:
256,192,768103,5,8,0:0:0:0:
256,192,768174,5,8,0:0:0:0:
256,192,768245,5,8,0:0:0:0:
256,192,768317,5,8,0:0:0:0:
256,192,768388,5,8,0:0:0:0:
256,192,768460,5,8,0:0:0:0:
256,192,768531,5,8,0:0:0:0:
256,192,768603,5,0,0:0:0:0:
256,192,768674,5,0,0:0:0:0:
256,192,768745,5,0,0:0:0:0:
256,192,768817,5,0,0:0:0:0:
256,192,768888,5,0,0:0:0:0:
256,192,768960,5,0,0:0:0:0:
256,192,769031,5,0,0:0:0:0:
256,192,769103,5,0,0:0:0:0:
256,192,769174,5,0,0:0:0:0:
256,192,769245,5,0,0:0:0:0:
256,192,769317,5,0,0:0:0:0:
256,192,769460,5,0,0:0:0:0:
256,192,769531,5,0,0:0:0:0:
256,192,769603,5,0,0:0:0:0:
256,192,769674,5,0,0:0:0:0:
256,192,769745,5,0,0:0:0:0:
256,192,769817,5,0,0:0:0:0:
256,192,769888,5,0,0:0:0:0:
256,192,769960,5,0,0:0:0:0:
256,192,770031,5,0,0:0:0:0:
256,192,770103,5,0,0:0:0:0:
256,192,770174,5,0,0:0:0:0:
256,192,770245,5,0,0:0:0:0:
256,192,770317,5,0,0:0:0:0:
256,192,770388,5,0,0:0:0:0:
256,192,770460,5,0,0:0:0:0:
256,192,770531,5,0,0:0:0:0:
256,192,770603,5,8,0:0:0:0:
256,192,770674,5,8,0:0:0:0:
256,192,770745,5,8,0:0:0:0:
256,192,770817,5,8,0:0:0:0:
256,192,770888,5,0,0:0:0:0:
256,192,770960,5,0,0:0:0:0:
256,192,771031,5,0,0:0:0:0:
256,192,771103,5,0,0:0:0:0:
256,192,771174,5,8,0:0:0:0:
256,192,771245,5,8,0:0:0:0:
256,192,771317,5,8,0:0:0:0:
256,192,771388,5,8,0:0:0:0:
256,192,771460,5,8,0:0:0:0:
256,192,771531,5,8,0:0:0:0:
256,192,771603,5,8,0:0:0:0:
256,192,771674,5,8,0:0:0:0:
256,192,771745,5,8,0:0:0:0:
256,192,771817,5,8,0:0:0:0:
256,192,771888,5,8,0:0:0:0:
256,192,771960,5,8,0:0:0:0:
256,192,772031,5,8,0:0:0:0:
256,192,772103,5,8,0:0:0:0:
256,192,772174,5,8,0:0:0:0:
256,192,772245,5,8,0:0:0:0:
256,192,772317,5,8,0:0:0:0:
256,192,772388,5,8,0:0:0:0:
256,192,772460,5,8,0:0:0:0:
256,192,772531,5,8,0:0:0:0:
256,192,772603,5,8,0:0:0:0:
256,192,772674,5,8,0:0:0:0:
256,192,772745,5,8,0:0:0:0:
256,192,772817,5,8,0:0:0:0:
256,192,772888,5,0,0:0:0:0:
256,192,772960,5,0,0:0:0:0:
256,192,773031,5,0,0:0:0:0:
256,192,773103,5,0,0:0:0:0:
256,192,773174,5,0,0:0:0:0:
256,192,773245,5,0,0:0:0:0:
256,192,773317,5,0,0:0:0:0:
256,192,773388,5,0,0:0:0:0:
256,192,773460,5,0,0:0:0:0:
256,192,773531,5,0,0:0:0:0:
256,192,773603,5,0,0:0:0:0:
256,192,773674,5,0,0:0:0:0:
256,192,773745,5,8,0:0:0:0:
256,192,773817,5,8,0:0:0:0:
256,192,773888,5,8,0:0:0:0:
256,192,773960,5,8,0:0:0:0:
256,192,774031,5,8,0:0:0:0:
256,192,774103,5,8,0:0:0:0:
256,192,774174,5,8,0:0:0:0:
256,192,774245,5,8,0:0:0:0:
256,192,774317,5,8,0:0:0:0:
256,192,774388,5,8,0:0:0:0:
256,192,774460,5,8,0:0:0:0:
256,192,774531,5,8,0:0:0:0:
256,192,774603,5,0,0:0:0:0:
256,192,774674,5,0,0:0:0:0:
256,192,774745,5,0,0:0:0:0:
256,192,774817,5,0,0:0:0:0:
256,192,774888,5,0,0:0:0:0:
256,192,774960,5,0,0:0:0:0:
256,192,775031,5,0,0:0:0:0:
256,192,775103,5,0,0:0:0:0:
256,192,775174,5,0,0:0:0:0:
256,192,775245,5,0,0:0:0:0:
256,192,775317,5,0,0:0:0:0:
256,192,775388,5,0,0:0:0:0:
256,192,775460,5,8,0:0:0:0:
256,192,775531,5,8,0:0:0:0:
256,192,775603,5,8,0:0:0:0:
256,192,775674,5,8,0:0:0:0:
256,192,775745,5,8,0:0:0:0:
256,192,775817,5,8,0:0:0:0:
256,192,775888,5,8,0:0:0:0:
256,192,775960,5,8,0:0:0:0:
256,192,776031,5,8,0:0:0:0:
256,192,776103,5,8,0:0:0:0:
256,192,776174,5,8,0:0:0:0:
256,192,776245,5,8,0:0:0:0:
256,192,776317,5,8,0:0:0:0:
256,192,776603,5,8,0:0:0:0:
256,192,776745,5,8,0:0:0:0:
256,192,776888,5,8,0:0:0:0:
256,192,777031,5,0,0:0:0:0:
256,192,777174,5,8,0:0:0:0:
256,192,777317,5,0,0:0:0:0:
256,192,777460,5,8,0:0:0:0:
256,192,777603,5,8,0:0:0:0:
256,192,777745,5,8,0:0:0:0:
256,192,777888,5,0,0:0:0:0:
256,192,778031,5,8,0:0:0:0:
256,192,778174,5,0,0:0:0:0:
256,192,778317,5,8,0:0:0:0:
256,192,778460,5,8,0:0:0:0:
256,192,778603,5,0,0:0:0:0:
256,192,778745,5,0,0:0:0:0:
256,192,778888,5,8,0:0:0:0:
256,192,779031,5,8,0:0:0:0:
256,192,779174,5,8,0:0:0:0:
256,192,779317,5,8,0:0:0:0:
256,192,779460,5,0,0:0:0:0:
256,192,779603,5,0,0:0:0:0:
256,192,779745,5,8,0:0:0:0:
256,192,779888,5,8,0:0:0:0:
256,192,780031,5,8,0:0:0:0:
256,192,780174,5,8,0:0:0:0:
256,192,780317,5,0,0:0:0:0:
256,192,780460,5,0,0:0:0:0:
256,192,780603,5,8,0:0:0:0:
256,192,780745,5,0,0:0:0:0:
256,192,780888,5,8,0:0:0:0:
256,192,781031,5,8,0:0:0:0:
256,192,781174,5,8,0:0:0:0:
256,192,781317,5,0,0:0:0:0:
256,192,781460,5,8,0:0:0:0:
256,192,781603,5,8,0:0:0:0:
256,192,781745,5,8,0:0:0:0:
256,192,781888,5,0,0:0:0:0:
256,192,782031,5,0,0:0:0:0:
256,192,782174,5,8,0:0:0:0:
256,192,782317,5,8,0:0:0:0:
256,192,782460,5,8,0:0:0:0:
256,192,782603,5,0,0:0:0:0:
256,192,782745,5,8,0:0:0:0:
256,192,782888,5,0,0:0:0:0:
256,192,783031,5,8,0:0:0:0:
256,192,783174,5,8,0:0:0:0:
256,192,783245,5,8,0:0:0:0:
256,192,783317,5,8,0:0:0:0:
256,192,783388,5,0,0:0:0:0:
256,192,783460,5,8,0:0:0:0:
256,192,783531,5,0,0:0:0:0:
256,192,783603,5,8,0:0:0:0:
256,192,783674,5,0,0:0:0:0:
256,192,783745,5,8,0:0:0:0:
256,192,783817,5,8,0:0:0:0:
256,192,783888,5,0,0:0:0:0:
256,192,783960,5,0,0:0:0:0:
256,192,784031,5,8,0:0:0:0:
256,192,784103,5,0,0:0:0:0:
256,192,784174,5,8,0:0:0:0:
256,192,784245,5,0,0:0:0:0:
256,192,784317,5,8,0:0:0:0:
256,192,784388,5,8,0:0:0:0:
256,192,784460,5,8,0:0:0:0:
256,192,784531,5,0,0:0:0:0:
256,192,784603,5,8,0:0:0:0:
256,192,784674,5,0,0:0:0:0:
256,192,784745,5,8,0:0:0:0:
256,192,784817,5,0,0:0:0:0:
256,192,784888,5,8,0:0:0:0:
256,192,784960,5,8,0:0:0:0:
256,192,785031,5,8,0:0:0:0:
256,192,785103,5,8,0:0:0:0:
256,192,785174,5,0,0:0:0:0:
256,192,785245,5,0,0:0:0:0:
256,192,785317,5,8,0:0:0:0:
256,192,785388,5,0,0:0:0:0:
256,192,785460,5,8,0:0:0:0:
256,192,785531,5,0,0:0:0:0:
256,192,785603,5,8,0:0:0:0:
256,192,785674,5,0,0:0:0:0:
256,192,785745,5,8,0:0:0:0:
256,192,785817,5,8,0:0:0:0:
256,192,785888,5,8,0:0:0:0:
256,192,785960,5,0,0:0:0:0:
256,192,786031,5,8,0:0:0:0:
256,192,786103,5,0,0:0:0:0:
256,192,786174,5,8,0:0:0:0:
256,192,786245,5,0,0:0:0:0:
256,192,786317,5,8,0:0:0:0:
256,192,786388,5,8,0:0:0:0:
256,192,786460,5,0,0:0:0:0:
256,192,786531,5,0,0:0:0:0:
256,192,786603,5,8,0:0:0:0:
256,192,786674,5,0,0:0:0:0:
256,192,786745,5,8,0:0:0:0:
256,192,786817,5,0,0:0:0:0:
256,192,786888,5,8,0:0:0:0:
256,192,786960,5,8,0:0:0:0:
256,192,787031,5,8,0:0:0:0:
256,192,787103,5,0,0:0:0:0:
256,192,787174,5,8,0:0:0:0:
256,192,787245,5,0,0:0:0:0:
256,192,787317,5,8,0:0:0:0:
256,192,787388,5,0,0:0:0:0:
256,192,787460,5,8,0:0:0:0:
256,192,787531,5,8,0:0:0:0:
256,192,787603,5,0,0:0:0:0:
256,192,787674,5,0,0:0:0:0:
256,192,787745,5,8,0:0:0:0:
256,192,787817,5,0,0:0:0:0:
256,192,787888,5,8,0:0:0:0:
256,192,787960,5,0,0:0:0:0:
256,192,788031,5,8,0:0:0:0:
256,192,788103,5,0,0:0:0:0:
256,192,788174,5,8,0:0:0:0:
256,192,788245,5,0,0:0:0:0:
256,192,788317,5,8,0:0:0:0:
256,192,788388,5,8,0:0:0:0:
256,192,788460,5,8,0:0:0:0:
256,192,788531,5,8,0:0:0:0:
256,192,788603,5,0,0:0:0:0:
256,192,788674,5,0,0:0:0:0:
256,192,788745,5,8,0:0:0:0:
256,192,788817,5,0,0:0:0:0:
256,192,788888,5,8,0:0:0:0:
256,192,788960,5,8,0:0:0:0:
256,192,789031,5,0,0:0:0:0:
256,192,789103,5,0,0:0:0:0:
256,192,789174,5,8,0:0:0:0:
256,192,789269,5,0,0:0:0:0:
256,192,789364,5,0,0:0:0:0:
256,192,789460,5,8,0:0:0:0:
256,192,789555,5,8,0:0:0:0:
256,192,789650,5,0,0:0:0:0:
256,192,789745,5,8,0:0:0:0:
256,192,789841,5,8,0:0:0:0:
256,192,789936,5,8,0:0:0:0:
256,192,790031,5,4,0:0:0:0:
256,192,823756,12,0,825756,0:0:0:0:
256,192,826033,5,4,0:0:0:0:
256,192,827747,5,4,0:0:0:0:
256,192,828604,5,8,0:0:0:0:
256,192,829318,5,0,0:0:0:0:
256,192,829390,5,0,0:0:0:0:
256,192,829461,5,0,0:0:0:0:
256,192,829747,5,0,0:0:0:0:
256,192,830033,5,0,0:0:0:0:
256,192,830318,5,0,0:0:0:0:
256,192,830604,5,0,0:0:0:0:
256,192,830890,5,0,0:0:0:0:
256,192,831175,5,0,0:0:0:0:
256,192,831461,5,0,0:0:0:0:
256,192,831747,5,0,0:0:0:0:
256,192,831890,5,0,0:0:0:0:
256,192,831961,5,0,0:0:0:0:
256,192,832033,5,8,0:0:0:0:
256,192,832175,5,0,0:0:0:0:
256,192,832318,5,0,0:0:0:0:
256,192,832461,5,8,0:0:0:0:
256,192,832604,5,0,0:0:0:0:
256,192,832747,5,0,0:0:0:0:
256,192,832890,5,8,0:0:0:0:
256,192,833033,5,0,0:0:0:0:
256,192,833318,5,0,0:0:0:0:
256,192,833604,5,0,0:0:0:0:
256,192,833747,5,12,0:0:0:0:
256,192,834461,5,0,0:0:0:0:
256,192,834604,5,0,0:0:0:0:
256,192,834747,5,0,0:0:0:0:
256,192,835033,5,0,0:0:0:0:
256,192,835318,5,0,0:0:0:0:
256,192,835461,5,4,0:0:0:0:
256,192,836318,5,0,0:0:0:0:
256,192,836461,5,8,0:0:0:0:
256,192,836604,5,0,0:0:0:0:
256,192,836747,5,0,0:0:0:0:
256,192,836890,5,8,0:0:0:0:
256,192,837033,5,0,0:0:0:0:
256,192,837175,5,8,0:0:0:0:
256,192,837318,5,8,0:0:0:0:
256,192,837461,5,0,0:0:0:0:
256,192,837604,5,8,0:0:0:0:
256,192,837747,5,0,0:0:0:0:
256,192,837890,5,0,0:0:0:0:
256,192,838033,5,8,0:0:0:0:
256,192,838104,5,8,0:0:0:0:
256,192,838175,5,0,0:0:0:0:
256,192,838247,5,0,0:0:0:0:
256,192,838318,5,0,0:0:0:0:
256,192,838390,5,0,0:0:0:0:
256,192,838461,5,8,0:0:0:0:
256,192,838533,5,8,0:0:0:0:
256,192,838604,5,0,0:0:0:0:
256,192,838675,5,0,0:0:0:0:
256,192,838747,5,0,0:0:0:0:
256,192,838818,5,0,0:0:0:0:
256,192,838890,5,8,0:0:0:0:
256,192,839033,5,0,0:0:0:0:
256,192,839175,5,8,0:0:0:0:
256,192,839318,5,0,0:0:0:0:
256,192,839461,5,8,0:0:0:0:
256,192,839604,5,8,0:0:0:0:
256,192,840604,5,4,0:0:0:0:
256,192,841461,5,12,0:0:0:0:
256,192,842318,5,8,0:0:0:0:
256,192,843033,5,0,0:0:0:0:
256,192,843104,5,0,0:0:0:0:
256,192,843175,5,0,0:0:0:0:
256,192,843461,5,0,0:0:0:0:
256,192,843747,5,0,0:0:0:0:
256,192,844033,5,8,0:0:0:0:
256,192,844318,5,0,0:0:0:0:
256,192,844604,5,0,0:0:0:0:
256,192,844890,5,8,0:0:0:0:
256,192,845175,5,8,0:0:0:0:
256,192,845461,5,0,0:0:0:0:
256,192,845604,5,0,0:0:0:0:
256,192,845675,5,0,0:0:0:0:
256,192,845747,5,8,0:0:0:0:
256,192,845890,5,8,0:0:0:0:
256,192,846033,5,0,0:0:0:0:
256,192,846175,5,8,0:0:0:0:
256,192,846318,5,0,0:0:0:0:
256,192,846461,5,0,0:0:0:0:
256,192,846533,5,0,0:0:0:0:
256,192,846604,5,8,0:0:0:0:
256,192,846747,5,0,0:0:0:0:
256,192,847033,5,0,0:0:0:0:
256,192,847318,5,0,0:0:0:0:
256,192,847461,5,12,0:0:0:0:
256,192,848175,5,0,0:0:0:0:
256,192,848247,5,0,0:0:0:0:
256,192,848318,5,0,0:0:0:0:
256,192,848461,5,0,0:0:0:0:
256,192,848747,5,0,0:0:0:0:
256,192,849033,5,0,0:0:0:0:
256,192,849175,5,4,0:0:0:0:
256,192,850033,5,0,0:0:0:0:
256,192,850175,5,0,0:0:0:0:
256,192,850318,5,0,0:0:0:0:
256,192,850461,5,8,0:0:0:0:
256,192,850604,5,8,0:0:0:0:
256,192,850747,5,8,0:0:0:0:
256,192,850890,5,0,0:0:0:0:
256,192,851033,5,0,0:0:0:0:
256,192,851175,5,8,0:0:0:0:
256,192,851318,5,8,0:0:0:0:
256,192,851461,5,8,0:0:0:0:
256,192,851604,5,0,0:0:0:0:
256,192,851675,5,0,0:0:0:0:
256,192,851747,5,8,0:0:0:0:
256,192,852033,5,8,0:0:0:0:
256,192,852104,5,8,0:0:0:0:
256,192,852175,5,0,0:0:0:0:
256,192,852247,5,0,0:0:0:0:
256,192,852318,5,8,0:0:0:0:
256,192,852390,5,8,0:0:0:0:
256,192,852461,5,8,0:0:0:0:
256,192,852533,5,8,0:0:0:0:
256,192,852604,5,0,0:0:0:0:
256,192,852675,5,0,0:0:0:0:
256,192,852747,5,0,0:0:0:0:
256,192,852818,5,0,0:0:0:0:
256,192,852890,5,8,0:0:0:0:
256,192,852961,5,8,0:0:0:0:
256,192,853033,5,8,0:0:0:0:
256,192,853104,5,8,0:0:0:0:
256,192,853175,5,0,0:0:0:0:
256,192,853247,5,0,0:0:0:0:
256,192,853318,5,8,0:0:0:0:
256,192,853461,5,4,0:0:0:0:
256,192,853747,5,8,0:0:0:0:
256,192,853818,5,0,0:0:0:0:
256,192,853890,5,8,0:0:0:0:
256,192,853961,5,0,0:0:0:0:
256,192,854033,5,8,0:0:0:0:
256,192,854104,5,8,0:0:0:0:
256,192,854175,5,0,0:0:0:0:
256,192,854247,5,0,0:0:0:0:
256,192,854318,5,8,0:0:0:0:
256,192,854390,5,8,0:0:0:0:
256,192,854461,5,8,0:0:0:0:
256,192,854533,5,8,0:0:0:0:
256,192,854604,5,0,0:0:0:0:
256,192,854675,5,0,0:0:0:0:
256,192,854747,5,8,0:0:0:0:
256,192,854818,5,0,0:0:0:0:
256,192,854890,5,8,0:0:0:0:
256,192,854961,5,8,0:0:0:0:
256,192,855033,5,0,0:0:0:0:
256,192,855104,5,0,0:0:0:0:
256,192,855175,5,8,0:0:0:0:
256,192,855247,5,8,0:0:0:0:
256,192,855318,5,0,0:0:0:0:
256,192,855390,5,8,0:0:0:0:
256,192,855461,5,8,0:0:0:0:
256,192,855533,5,0,0:0:0:0:
256,192,855604,5,8,0:0:0:0:
256,192,855675,5,0,0:0:0:0:
256,192,855747,5,8,0:0:0:0:
256,192,855818,5,8,0:0:0:0:
256,192,855890,5,0,0:0:0:0:
256,192,855961,5,0,0:0:0:0:
256,192,856033,5,8,0:0:0:0:
256,192,856104,5,0,0:0:0:0:
256,192,856175,5,8,0:0:0:0:
256,192,856247,5,0,0:0:0:0:
256,192,856318,5,8,0:0:0:0:
256,192,856390,5,8,0:0:0:0:
256,192,856461,5,0,0:0:0:0:
256,192,856533,5,0,0:0:0:0:
256,192,856604,5,8,0:0:0:0:
256,192,856675,5,8,0:0:0:0:
256,192,856747,5,8,0:0:0:0:
256,192,856818,5,0,0:0:0:0:
256,192,856890,5,8,0:0:0:0:
256,192,856961,5,8,0:0:0:0:
256,192,857033,5,8,0:0:0:0:
256,192,857104,5,8,0:0:0:0:
256,192,857175,5,0,0:0:0:0:
256,192,857247,5,0,0:0:0:0:
256,192,857318,5,8,0:0:0:0:
256,192,857390,5,0,0:0:0:0:
256,192,857461,5,8,0:0:0:0:
256,192,857533,5,8,0:0:0:0:
256,192,857604,5,8,0:0:0:0:
256,192,857675,5,0,0:0:0:0:
256,192,857747,5,8,0:0:0:0:
256,192,857818,5,8,0:0:0:0:
256,192,857890,5,0,0:0:0:0:
256,192,857961,5,0,0:0:0:0:
256,192,858033,5,8,0:0:0:0:
256,192,858104,5,8,0:0:0:0:
256,192,858175,5,8,0:0:0:0:
256,192,858247,5,0,0:0:0:0:
256,192,858318,5,8,0:0:0:0:
256,192,858390,5,8,0:0:0:0:
256,192,858461,5,0,0:0:0:0:
256,192,858604,5,8,0:0:0:0:
256,192,858675,5,8,0:0:0:0:
256,192,858747,5,8,0:0:0:0:
256,192,858818,5,8,0:0:0:0:
256,192,858890,5,0,0:0:0:0:
256,192,858961,5,0,0:0:0:0:
256,192,859033,5,0,0:0:0:0:
256,192,859104,5,0,0:0:0:0:
256,192,859175,5,8,0:0:0:0:
256,192,859247,5,8,0:0:0:0:
256,192,859318,5,8,0:0:0:0:
256,192,859390,5,0,0:0:0:0:
256,192,859461,5,8,0:0:0:0:
256,192,859533,5,8,0:0:0:0:
256,192,859604,5,0,0:0:0:0:
256,192,859675,5,0,0:0:0:0:
256,192,859747,5,8,0:0:0:0:
256,192,859842,5,8,0:0:0:0:
256,192,859937,5,8,0:0:0:0:
256,192,860033,5,4,0:0:0:0:
256,192,860318,5,4,0:0:0:0:
256,192,860604,5,8,0:0:0:0:
256,192,860699,5,8,0:0:0:0:
256,192,860794,5,0,0:0:0:0:
256,192,860890,5,0,0:0:0:0:
256,192,860985,5,8,0:0:0:0:
256,192,861080,5,0,0:0:0:0:
256,192,861175,5,8,0:0:0:0:
256,192,861461,5,4,0:0:0:0:
256,192,862033,5,4,0:0:0:0:
256,192,862318,5,8,0:0:0:0:
256,192,862413,5,0,0:0:0:0:
256,192,862509,5,0,0:0:0:0:
256,192,862604,5,8,0:0:0:0:
256,192,862699,5,0,0:0:0:0:
256,192,862794,5,0,0:0:0:0:
256,192,862890,5,8,0:0:0:0:
256,192,863461,5,4,0:0:0:0:
256,192,863747,5,4,0:0:0:0:
256,192,864033,5,8,0:0:0:0:
256,192,864175,5,8,0:0:0:0:
256,192,864318,5,8,0:0:0:0:
256,192,864461,5,8,0:0:0:0:
256,192,864604,5,8,0:0:0:0:
256,192,864747,5,8,0:0:0:0:
256,192,864890,5,0,0:0:0:0:
256,192,865033,5,0,0:0:0:0:
256,192,865175,5,8,0:0:0:0:
256,192,865318,5,0,0:0:0:0:
256,192,865461,5,8,0:0:0:0:
256,192,865604,5,8,0:0:0:0:
256,192,865747,5,8,0:0:0:0:
256,192,865890,5,8,0:0:0:0:
256,192,866033,5,8,0:0:0:0:
256,192,866175,5,8,0:0:0:0:
256,192,866318,5,8,0:0:0:0:
256,192,866461,5,0,0:0:0:0:
256,192,866604,5,8,0:0:0:0:
256,192,866675,5,8,0:0:0:0:
256,192,866747,5,8,0:0:0:0:
256,192,866818,5,8,0:0:0:0:
256,192,866890,5,0,0:0:0:0:
256,192,866961,5,0,0:0:0:0:
256,192,867033,5,0,0:0:0:0:
256,192,867104,5,0,0:0:0:0:
256,192,867175,5,8,0:0:0:0:
256,192,867247,5,0,0:0:0:0:
256,192,867318,5,0,0:0:0:0:
256,192,867390,5,0,0:0:0:0:
256,192,867461,5,8,0:0:0:0:
256,192,867533,5,8,0:0:0:0:
256,192,867604,5,0,0:0:0:0:
256,192,867675,5,0,0:0:0:0:
256,192,867747,5,8,0:0:0:0:
256,192,867818,5,8,0:0:0:0:
256,192,867890,5,8,0:0:0:0:
256,192,867961,5,0,0:0:0:0:
256,192,868033,5,8,0:0:0:0:
256,192,868104,5,8,0:0:0:0:
256,192,868175,5,8,0:0:0:0:
256,192,868247,5,0,0:0:0:0:
256,192,868318,5,8,0:0:0:0:
256,192,868390,5,0,0:0:0:0:
256,192,868461,5,0,0:0:0:0:
256,192,868533,5,0,0:0:0:0:
256,192,868604,5,8,0:0:0:0:
256,192,868675,5,8,0:0:0:0:
256,192,868747,5,0,0:0:0:0:
256,192,868818,5,0,0:0:0:0:
256,192,868890,5,8,0:0:0:0:
256,192,868961,5,8,0:0:0:0:
256,192,869033,5,8,0:0:0:0:
256,192,869104,5,0,0:0:0:0:
256,192,869175,5,0,0:0:0:0:
256,192,869247,5,8,0:0:0:0:
256,192,869318,5,8,0:0:0:0:
256,192,869390,5,0,0:0:0:0:
256,192,869461,5,8,0:0:0:0:
256,192,869533,5,8,0:0:0:0:
256,192,869604,5,8,0:0:0:0:
256,192,869675,5,0,0:0:0:0:
256,192,869747,5,8,0:0:0:0:
256,192,869818,5,0,0:0:0:0:
256,192,869890,5,0,0:0:0:0:
256,192,869961,5,0,0:0:0:0:
256,192,870033,5,8,0:0:0:0:
256,192,870104,5,8,0:0:0:0:
256,192,870175,5,0,0:0:0:0:
256,192,870247,5,0,0:0:0:0:
256,192,870318,5,8,0:0:0:0:
256,192,870390,5,8,0:0:0:0:
256,192,870461,5,8,0:0:0:0:
256,192,870533,5,0,0:0:0:0:
256,192,870604,5,8,0:0:0:0:
256,192,870675,5,0,0:0:0:0:
256,192,870747,5,0,0:0:0:0:
256,192,870818,5,0,0:0:0:0:
256,192,870890,5,8,0:0:0:0:
256,192,870961,5,8,0:0:0:0:
256,192,871033,5,0,0:0:0:0:
256,192,871104,5,0,0:0:0:0:
256,192,871175,5,8,0:0:0:0:
256,192,871247,5,8,0:0:0:0:
256,192,871318,5,8,0:0:0:0:
256,192,871390,5,0,0:0:0:0:
256,192,871461,5,8,0:0:0:0:
256,192,871533,5,8,0:0:0:0:
256,192,871604,5,0,0:0:0:0:
256,192,871675,5,0,0:0:0:0:
256,192,871747,5,8,0:0:0:0:
256,192,871818,5,0,0:0:0:0:
256,192,871890,5,0,0:0:0:0:
256,192,871961,5,0,0:0:0:0:
256,192,872033,5,8,0:0:0:0:
256,192,872104,5,8,0:0:0:0:
256,192,872175,5,8,0:0:0:0:
256,192,872247,5,0,0:0:0:0:
256,192,872318,5,8,0:0:0:0:
256,192,872604,5,0,0:0:0:0:
256,192,872675,5,0,0:0:0:0:
256,192,872747,5,0,0:0:0:0:
256,192,872818,5,0,0:0:0:0:
256,192,872890,5,0,0:0:0:0:
256,192,872961,5,0,0:0:0:0:
256,192,873033,5,0,0:0:0:0:
256,192,873104,5,0,0:0:0:0:
256,192,873175,5,8,0:0:0:0:
256,192,873461,5,0,0:0:0:0:
256,192,873556,5,8,0:0:0:0:
256,192,873652,5,8,0:0:0:0:
256,192,873747,5,0,0:0:0:0:
256,192,874033,5,0,0:0:0:0:
256,192,874318,5,0,0:0:0:0:
256,192,874413,5,0,0:0:0:0:
256,192,874509,5,0,0:0:0:0:
256,192,874604,5,0,0:0:0:0:
256,192,874699,5,0,0:0:0:0:
256,192,874794,5,0,0:0:0:0:
256,192,874890,5,8,0:0:0:0:
256,192,875461,5,8,0:0:0:0:
256,192,876033,5,4,0:0:0:0:
256,192,876318,5,0,0:0:0:0:
256,192,876413,5,0,0:0:0:0:
256,192,876509,5,0,0:0:0:0:
256,192,876604,5,12,0:0:0:0:
256,192,877175,5,8,0:0:0:0:
256,192,877461,5,4,0:0:0:0:
256,192,877747,5,0,0:0:0:0:
256,192,878033,5,0,0:0:0:0:
256,192,878318,5,8,0:0:0:0:
256,192,878604,5,0,0:0:0:0:
256,192,878890,5,0,0:0:0:0:
256,192,879175,5,8,0:0:0:0:
256,192,879461,5,0,0:0:0:0:
256,192,879747,5,0,0:0:0:0:
256,192,880033,5,8,0:0:0:0:
256,192,880318,5,8,0:0:0:0:
256,192,880604,5,0,0:0:0:0:
256,192,880890,5,8,0:0:0:0:
256,192,881175,5,0,0:0:0:0:
256,192,881461,5,0,0:0:0:0:
256,192,881747,5,8,0:0:0:0:
256,192,882033,5,0,0:0:0:0:
256,192,882318,5,0,0:0:0:0:
256,192,882604,5,8,0:0:0:0:
256,192,882890,5,8,0:0:0:0:
256,192,883175,5,0,0:0:0:0:
256,192,883461,5,8,0:0:0:0:
256,192,883747,5,0,0:0:0:0:
256,192,884033,5,0,0:0:0:0:
256,192,884318,5,0,0:0:0:0:
256,192,884604,5,0,0:0:0:0:
256,192,884890,5,0,0:0:0:0:
256,192,885175,5,8,0:0:0:0:
256,192,885461,5,0,0:0:0:0:
256,192,885747,5,0,0:0:0:0:
256,192,886033,5,8,0:0:0:0:
256,192,886318,5,8,0:0:0:0:
256,192,886604,5,0,0:0:0:0:
256,192,886890,5,8,0:0:0:0:
256,192,887175,5,8,0:0:0:0:
256,192,887461,5,8,0:0:0:0:
256,192,887747,5,8,0:0:0:0:
256,192,888033,5,0,0:0:0:0:
256,192,888318,5,8,0:0:0:0:
256,192,888604,5,8,0:0:0:0:
256,192,888890,5,0,0:0:0:0:
256,192,889175,5,0,0:0:0:0:
256,192,889461,5,8,0:0:0:0:
256,192,889556,5,0,0:0:0:0:
256,192,889652,5,0,0:0:0:0:
256,192,889747,5,8,0:0:0:0:
256,192,889842,5,8,0:0:0:0:
256,192,889937,5,0,0:0:0:0:
256,192,890033,5,8,0:0:0:0:
256,192,890128,5,0,0:0:0:0:
256,192,890223,5,0,0:0:0:0:
256,192,890318,5,8,0:0:0:0:
256,192,890413,5,8,0:0:0:0:
256,192,890509,5,8,0:0:0:0:
256,192,890604,5,0,0:0:0:0:
256,192,890699,5,0,0:0:0:0:
256,192,890794,5,0,0:0:0:0:
256,192,890890,5,8,0:0:0:0:
256,192,890985,5,0,0:0:0:0:
256,192,891080,5,0,0:0:0:0:
256,192,891175,5,12,0:0:0:0:
256,192,916890,5,4,0:0:0:0:
256,192,917747,5,8,0:0:0:0:
256,192,917818,5,8,0:0:0:0:
256,192,917890,5,8,0:0:0:0:
256,192,917961,5,8,0:0:0:0:
256,192,918033,5,0,0:0:0:0:
256,192,918104,5,0,0:0:0:0:
256,192,918175,5,0,0:0:0:0:
256,192,918247,5,0,0:0:0:0:
256,192,918318,5,8,0:0:0:0:
256,192,918390,5,8,0:0:0:0:
256,192,918461,5,8,0:0:0:0:
256,192,918533,5,8,0:0:0:0:
256,192,918604,5,4,0:0:0:0:
256,192,918890,5,8,0:0:0:0:
256,192,918961,5,0,0:0:0:0:
256,192,919033,5,8,0:0:0:0:
256,192,919104,5,0,0:0:0:0:
256,192,919175,5,8,0:0:0:0:
256,192,919247,5,8,0:0:0:0:
256,192,919318,5,0,0:0:0:0:
256,192,919390,5,0,0:0:0:0:
256,192,919461,5,8,0:0:0:0:
256,192,919533,5,8,0:0:0:0:
256,192,919604,5,8,0:0:0:0:
256,192,919675,5,8,0:0:0:0:
256,192,919747,5,0,0:0:0:0:
256,192,919818,5,0,0:0:0:0:
256,192,919890,5,8,0:0:0:0:
256,192,919961,5,0,0:0:0:0:
256,192,920033,5,8,0:0:0:0:
256,192,920104,5,8,0:0:0:0:
256,192,920175,5,8,0:0:0:0:
256,192,920247,5,0,0:0:0:0:
256,192,920318,5,8,0:0:0:0:
256,192,920390,5,8,0:0:0:0:
256,192,920461,5,8,0:0:0:0:
256,192,920533,5,8,0:0:0:0:
256,192,920604,5,0,0:0:0:0:
256,192,920675,5,0,0:0:0:0:
256,192,920747,5,8,0:0:0:0:
256,192,920818,5,8,0:0:0:0:
256,192,920890,5,8,0:0:0:0:
256,192,920961,5,0,0:0:0:0:
256,192,921033,5,8,0:0:0:0:
256,192,921104,5,0,0:0:0:0:
256,192,921175,5,8,0:0:0:0:
256,192,921247,5,8,0:0:0:0:
256,192,921318,5,0,0:0:0:0:
256,192,921390,5,0,0:0:0:0:
256,192,921461,5,8,0:0:0:0:
256,192,921533,5,8,0:0:0:0:
256,192,921604,5,8,0:0:0:0:
256,192,921675,5,0,0:0:0:0:
256,192,921747,5,8,0:0:0:0:
256,192,921818,5,0,0:0:0:0:
256,192,921890,5,8,0:0:0:0:
256,192,921961,5,0,0:0:0:0:
256,192,922033,5,8,0:0:0:0:
256,192,922104,5,8,0:0:0:0:
256,192,922175,5,0,0:0:0:0:
256,192,922247,5,0,0:0:0:0:
256,192,922318,5,8,0:0:0:0:
256,192,922390,5,0,0:0:0:0:
256,192,922461,5,8,0:0:0:0:
256,192,922533,5,8,0:0:0:0:
256,192,922604,5,0,0:0:0:0:
256,192,922675,5,0,0:0:0:0:
256,192,922747,5,0,0:0:0:0:
256,192,922818,5,0,0:0:0:0:
256,192,922890,5,8,0:0:0:0:
256,192,922961,5,8,0:0:0:0:
256,192,923033,5,0,0:0:0:0:
256,192,923104,5,0,0:0:0:0:
256,192,923175,5,0,0:0:0:0:
256,192,923247,5,0,0:0:0:0:
256,192,923318,5,8,0:0:0:0:
256,192,923390,5,0,0:0:0:0:
256,192,923461,5,8,0:0:0:0:
256,192,923533,5,8,0:0:0:0:
256,192,923604,5,0,0:0:0:0:
256,192,923675,5,0,0:0:0:0:
256,192,923747,5,8,0:0:0:0:
256,192,923818,5,8,0:0:0:0:
256,192,923890,5,0,0:0:0:0:
256,192,923961,5,0,0:0:0:0:
256,192,924033,5,0,0:0:0:0:
256,192,924104,5,0,0:0:0:0:
256,192,924175,5,8,0:0:0:0:
256,192,924247,5,0,0:0:0:0:
256,192,924318,5,8,0:0:0:0:
256,192,924390,5,8,0:0:0:0:
256,192,924461,5,0,0:0:0:0:
256,192,924533,5,0,0:0:0:0:
256,192,924604,5,8,0:0:0:0:
256,192,924675,5,0,0:0:0:0:
256,192,924747,5,8,0:0:0:0:
256,192,924818,5,0,0:0:0:0:
256,192,924890,5,8,0:0:0:0:
256,192,924961,5,8,0:0:0:0:
256,192,925033,5,0,0:0:0:0:
256,192,925104,5,0,0:0:0:0:
256,192,925175,5,8,0:0:0:0:
256,192,925247,5,8,0:0:0:0:
256,192,925318,5,0,0:0:0:0:
256,192,925390,5,0,0:0:0:0:
256,192,925461,5,8,0:0:0:0:
256,192,925533,5,8,0:0:0:0:
256,192,925604,5,8,0:0:0:0:
256,192,925675,5,0,0:0:0:0:
256,192,925747,5,8,0:0:0:0:
256,192,925818,5,0,0:0:0:0:
256,192,925890,5,8,0:0:0:0:
256,192,925961,5,8,0:0:0:0:
256,192,926033,5,0,0:0:0:0:
256,192,926104,5,0,0:0:0:0:
256,192,926175,5,0,0:0:0:0:
256,192,926247,5,0,0:0:0:0:
256,192,926318,5,8,0:0:0:0:
256,192,926390,5,0,0:0:0:0:
256,192,926461,5,8,0:0:0:0:
256,192,926533,5,8,0:0:0:0:
256,192,926604,5,0,0:0:0:0:
256,192,926675,5,0,0:0:0:0:
256,192,926747,5,0,0:0:0:0:
256,192,926818,5,0,0:0:0:0:
256,192,926890,5,8,0:0:0:0:
256,192,926961,5,0,0:0:0:0:
256,192,927033,5,8,0:0:0:0:
256,192,927104,5,0,0:0:0:0:
256,192,927175,5,8,0:0:0:0:
256,192,927247,5,8,0:0:0:0:
256,192,927318,5,0,0:0:0:0:
256,192,927390,5,0,0:0:0:0:
256,192,927461,5,0,0:0:0:0:
256,192,927533,5,0,0:0:0:0:
256,192,927604,5,8,0:0:0:0:
256,192,927675,5,8,0:0:0:0:
256,192,927747,5,8,0:0:0:0:
256,192,927818,5,0,0:0:0:0:
256,192,927890,5,8,0:0:0:0:
256,192,927961,5,0,0:0:0:0:
256,192,928033,5,8,0:0:0:0:
256,192,928104,5,0,0:0:0:0:
256,192,928175,5,8,0:0:0:0:
256,192,928247,5,8,0:0:0:0:
256,192,928318,5,0,0:0:0:0:
256,192,928390,5,0,0:0:0:0:
256,192,928461,5,0,0:0:0:0:
256,192,928533,5,0,0:0:0:0:
256,192,928604,5,8,0:0:0:0:
256,192,928675,5,8,0:0:0:0:
256,192,928747,5,0,0:0:0:0:
256,192,928818,5,0,0:0:0:0:
256,192,928890,5,8,0:0:0:0:
256,192,928961,5,8,0:0:0:0:
256,192,929033,5,8,0:0:0:0:
256,192,929104,5,8,0:0:0:0:
256,192,929175,5,0,0:0:0:0:
256,192,929247,5,0,0:0:0:0:
256,192,929318,5,8,0:0:0:0:
256,192,929390,5,0,0:0:0:0:
256,192,929461,5,8,0:0:0:0:
256,192,929533,5,0,0:0:0:0:
256,192,929604,5,8,0:0:0:0:
256,192,929675,5,0,0:0:0:0:
256,192,929747,5,8,0:0:0:0:
256,192,929818,5,8,0:0:0:0:
256,192,929890,5,8,0:0:0:0:
256,192,929961,5,0,0:0:0:0:
256,192,930033,5,8,0:0:0:0:
256,192,930104,5,0,0:0:0:0:
256,192,930175,5,8,0:0:0:0:
256,192,930247,5,8,0:0:0:0:
256,192,930318,5,0,0:0:0:0:
256,192,930390,5,0,0:0:0:0:
256,192,930461,5,8,0:0:0:0:
256,192,930533,5,0,0:0:0:0:
256,192,930604,5,8,0:0:0:0:
256,192,930675,5,8,0:0:0:0:
256,192,930747,5,8,0:0:0:0:
256,192,930818,5,8,0:0:0:0:
256,192,930890,5,0,0:0:0:0:
256,192,930961,5,0,0:0:0:0:
256,192,931033,5,0,0:0:0:0:
256,192,931104,5,0,0:0:0:0:
256,192,931175,5,8,0:0:0:0:
256,192,931247,5,8,0:0:0:0:
256,192,931318,5,8,0:0:0:0:
256,192,931390,5,8,0:0:0:0:
256,192,931461,5,8,0:0:0:0:
256,192,931533,5,8,0:0:0:0:
256,192,931604,5,8,0:0:0:0:
256,192,931675,5,8,0:0:0:0:
256,192,931747,5,0,0:0:0:0:
256,192,931818,5,0,0:0:0:0:
256,192,931890,5,0,0:0:0:0:
256,192,931961,5,0,0:0:0:0:
256,192,932033,5,8,0:0:0:0:
256,192,932104,5,8,0:0:0:0:
256,192,932175,5,0,0:0:0:0:
256,192,932247,5,0,0:0:0:0:
256,192,932318,5,8,0:0:0:0:
256,192,932390,5,8,0:0:0:0:
256,192,932461,5,8,0:0:0:0:
256,192,932533,5,8,0:0:0:0:
256,192,932604,5,0,0:0:0:0:
256,192,932675,5,0,0:0:0:0:
256,192,932747,5,0,0:0:0:0:
256,192,932818,5,0,0:0:0:0:
256,192,932890,5,8,0:0:0:0:
256,192,932961,5,8,0:0:0:0:
256,192,933033,5,0,0:0:0:0:
256,192,933104,5,0,0:0:0:0:
256,192,933175,5,8,0:0:0:0:
256,192,933247,5,8,0:0:0:0:
256,192,933318,5,8,0:0:0:0:
256,192,933390,5,8,0:0:0:0:
256,192,933461,5,0,0:0:0:0:
256,192,933533,5,0,0:0:0:0:
256,192,933604,5,0,0:0:0:0:
256,192,933675,5,0,0:0:0:0:
256,192,933747,5,8,0:0:0:0:
256,192,933818,5,8,0:0:0:0:
256,192,933890,5,0,0:0:0:0:
256,192,933961,5,0,0:0:0:0:
256,192,934033,5,8,0:0:0:0:
256,192,934104,5,8,0:0:0:0:
256,192,934175,5,8,0:0:0:0:
256,192,934247,5,8,0:0:0:0:
256,192,934318,5,0,0:0:0:0:
256,192,934390,5,0,0:0:0:0:
256,192,934461,5,0,0:0:0:0:
256,192,934533,5,0,0:0:0:0:
256,192,934604,5,8,0:0:0:0:
256,192,934675,5,8,0:0:0:0:
256,192,934747,5,0,0:0:0:0:
256,192,934818,5,0,0:0:0:0:
256,192,934890,5,8,0:0:0:0:
256,192,934961,5,8,0:0:0:0:
256,192,935033,5,8,0:0:0:0:
256,192,935104,5,0,0:0:0:0:
256,192,935175,5,8,0:0:0:0:
256,192,935247,5,8,0:0:0:0:
256,192,935318,5,0,0:0:0:0:
256,192,935390,5,0,0:0:0:0:
256,192,935461,5,8,0:0:0:0:
256,192,935533,5,0,0:0:0:0:
256,192,935604,5,0,0:0:0:0:
256,192,935675,5,0,0:0:0:0:
256,192,935747,5,8,0:0:0:0:
256,192,935818,5,8,0:0:0:0:
256,192,935890,5,0,0:0:0:0:
256,192,935961,5,0,0:0:0:0:
256,192,936033,5,8,0:0:0:0:
256,192,936104,5,0,0:0:0:0:
256,192,936175,5,8,0:0:0:0:
256,192,936247,5,8,0:0:0:0:
256,192,936318,5,0,0:0:0:0:
256,192,936390,5,0,0:0:0:0:
256,192,936461,5,0,0:0:0:0:
256,192,936533,5,0,0:0:0:0:
256,192,936604,5,8,0:0:0:0:
256,192,936675,5,0,0:0:0:0:
256,192,936747,5,8,0:0:0:0:
256,192,936818,5,8,0:0:0:0:
256,192,936890,5,0,0:0:0:0:
256,192,936961,5,0,0:0:0:0:
256,192,937033,5,0,0:0:0:0:
256,192,937104,5,0,0:0:0:0:
256,192,937175,5,8,0:0:0:0:
256,192,937247,5,0,0:0:0:0:
256,192,937318,5,0,0:0:0:0:
256,192,937390,5,0,0:0:0:0:
256,192,937461,5,8,0:0:0:0:
256,192,937533,5,8,0:0:0:0:
256,192,937604,5,8,0:0:0:0:
256,192,937675,5,8,0:0:0:0:
256,192,937747,5,0,0:0:0:0:
256,192,937818,5,0,0:0:0:0:
256,192,937890,5,0,0:0:0:0:
256,192,937961,5,0,0:0:0:0:
256,192,938033,5,8,0:0:0:0:
256,192,938104,5,8,0:0:0:0:
256,192,938175,5,0,0:0:0:0:
256,192,938247,5,0,0:0:0:0:
256,192,938318,5,8,0:0:0:0:
256,192,938390,5,0,0:0:0:0:
256,192,938461,5,0,0:0:0:0:
256,192,938533,5,0,0:0:0:0:
256,192,938604,5,8,0:0:0:0:
256,192,938675,5,0,0:0:0:0:
256,192,938747,5,0,0:0:0:0:
256,192,938818,5,0,0:0:0:0:
256,192,938890,5,8,0:0:0:0:
256,192,938961,5,8,0:0:0:0:
256,192,939033,5,8,0:0:0:0:
256,192,939104,5,0,0:0:0:0:
256,192,939175,5,8,0:0:0:0:
256,192,939247,5,0,0:0:0:0:
256,192,939318,5,0,0:0:0:0:
256,192,939390,5,0,0:0:0:0:
256,192,939461,5,8,0:0:0:0:
256,192,939533,5,0,0:0:0:0:
256,192,939604,5,8,0:0:0:0:
256,192,939675,5,8,0:0:0:0:
256,192,939747,5,0,0:0:0:0:
256,192,939818,5,0,0:0:0:0:
256,192,939890,5,0,0:0:0:0:
256,192,939961,5,0,0:0:0:0:
256,192,940033,5,8,0:0:0:0:
256,192,940104,5,8,0:0:0:0:
256,192,940175,5,0,0:0:0:0:
256,192,940247,5,0,0:0:0:0:
256,192,940318,5,0,0:0:0:0:
256,192,940390,5,0,0:0:0:0:
256,192,940461,5,0,0:0:0:0:
256,192,940533,5,0,0:0:0:0:
256,192,940604,5,8,0:0:0:0:
256,192,940675,5,8,0:0:0:0:
256,192,940747,5,0,0:0:0:0:
256,192,940818,5,0,0:0:0:0:
256,192,940890,5,8,0:0:0:0:
256,192,940961,5,8,0:0:0:0:
256,192,941033,5,8,0:0:0:0:
256,192,941104,5,0,0:0:0:0:
256,192,941175,5,8,0:0:0:0:
256,192,941247,5,0,0:0:0:0:
256,192,941318,5,0,0:0:0:0:
256,192,941390,5,0,0:0:0:0:
256,192,941461,5,8,0:0:0:0:
256,192,941533,5,8,0:0:0:0:
256,192,941604,5,0,0:0:0:0:
256,192,941675,5,0,0:0:0:0:
256,192,941747,5,8,0:0:0:0:
256,192,941818,5,8,0:0:0:0:
256,192,941890,5,0,0:0:0:0:
256,192,941961,5,0,0:0:0:0:
256,192,942033,5,0,0:0:0:0:
256,192,942104,5,0,0:0:0:0:
256,192,942175,5,0,0:0:0:0:
256,192,942247,5,0,0:0:0:0:
256,192,942318,5,8,0:0:0:0:
256,192,942390,5,8,0:0:0:0:
256,192,942461,5,0,0:0:0:0:
256,192,942533,5,0,0:0:0:0:
256,192,942604,5,8,0:0:0:0:
256,192,942675,5,8,0:0:0:0:
256,192,942747,5,8,0:0:0:0:
256,192,942818,5,8,0:0:0:0:
256,192,942890,5,0,0:0:0:0:
256,192,942961,5,0,0:0:0:0:
256,192,943033,5,0,0:0:0:0:
256,192,943104,5,0,0:0:0:0:
256,192,943175,5,8,0:0:0:0:
256,192,943247,5,8,0:0:0:0:
256,192,943318,5,0,0:0:0:0:
256,192,943390,5,0,0:0:0:0:
256,192,943461,5,8,0:0:0:0:
256,192,943533,5,0,0:0:0:0:
256,192,943604,5,0,0:0:0:0:
256,192,943675,5,0,0:0:0:0:
256,192,943747,5,8,0:0:0:0:
256,192,943818,5,8,0:0:0:0:
256,192,943890,5,0,0:0:0:0:
256,192,943961,5,0,0:0:0:0:
256,192,944033,5,8,0:0:0:0:
256,192,944104,5,0,0:0:0:0:
256,192,944175,5,0,0:0:0:0:
256,192,944247,5,0,0:0:0:0:
256,192,944318,5,8,0:0:0:0:
256,192,944413,5,0,0:0:0:0:
256,192,944509,5,0,0:0:0:0:
256,192,944604,5,0,0:0:0:0:
256,192,944699,5,0,0:0:0:0:
256,192,944794,5,0,0:0:0:0:
256,192,944890,5,8,0:0:0:0:
256,192,944985,5,0,0:0:0:0:
256,192,945080,5,0,0:0:0:0:
256,192,945175,5,8,0:0:0:0:
256,192,945271,5,8,0:0:0:0:
256,192,945366,5,0,0:0:0:0:
256,192,945461,5,8,0:0:0:0:
256,192,945556,5,0,0:0:0:0:
256,192,945652,5,0,0:0:0:0:
256,192,945747,5,8,0:0:0:0:
256,192,945842,5,8,0:0:0:0:
256,192,945937,5,8,0:0:0:0:
256,192,946033,5,0,0:0:0:0:
256,192,946128,5,0,0:0:0:0:
256,192,946223,5,0,0:0:0:0:
256,192,946318,5,0,0:0:0:0:
256,192,946413,5,0,0:0:0:0:
256,192,946509,5,0,0:0:0:0:
256,192,946604,5,8,0:0:0:0:
256,192,946699,5,0,0:0:0:0:
256,192,946794,5,0,0:0:0:0:
256,192,946890,5,8,0:0:0:0:
256,192,946985,5,8,0:0:0:0:
256,192,947080,5,8,0:0:0:0:
256,192,947175,5,0,0:0:0:0:
256,192,947271,5,0,0:0:0:0:
256,192,947366,5,0,0:0:0:0:
256,192,947461,5,8,0:0:0:0:
256,192,947556,5,0,0:0:0:0:
256,192,947652,5,0,0:0:0:0:
256,192,947747,5,8,0:0:0:0:
256,192,947842,5,8,0:0:0:0:
256,192,947937,5,8,0:0:0:0:
256,192,948033,5,8,0:0:0:0:
256,192,948128,5,0,0:0:0:0:
256,192,948223,5,0,0:0:0:0:
256,192,948318,5,8,0:0:0:0:
256,192,948413,5,0,0:0:0:0:
256,192,948509,5,0,0:0:0:0:
256,192,948604,5,8,0:0:0:0:
256,192,948699,5,0,0:0:0:0:
256,192,948794,5,0,0:0:0:0:
256,192,948890,5,8,0:0:0:0:
256,192,948985,5,8,0:0:0:0:
256,192,949080,5,0,0:0:0:0:
256,192,949175,5,8,0:0:0:0:
256,192,949271,5,0,0:0:0:0:
256,192,949366,5,0,0:0:0:0:
256,192,949461,5,8,0:0:0:0:
256,192,949556,5,0,0:0:0:0:
256,192,949652,5,0,0:0:0:0:
256,192,949747,5,8,0:0:0:0:
256,192,949842,5,0,0:0:0:0:
256,192,949937,5,8,0:0:0:0:
256,192,950033,5,8,0:0:0:0:
256,192,950128,5,0,0:0:0:0:
256,192,950223,5,0,0:0:0:0:
256,192,950318,5,8,0:0:0:0:
256,192,950413,5,8,0:0:0:0:
256,192,950509,5,8,0:0:0:0:
256,192,950604,5,0,0:0:0:0:
256,192,950699,5,0,0:0:0:0:
256,192,950794,5,0,0:0:0:0:
256,192,950890,5,8,0:0:0:0:
256,192,950985,5,0,0:0:0:0:
256,192,951080,5,0,0:0:0:0:
256,192,951175,5,8,0:0:0:0:
256,192,951271,5,0,0:0:0:0:
256,192,951366,5,0,0:0:0:0:
256,192,951461,5,0,0:0:0:0:
256,192,951556,5,0,0:0:0:0:
256,192,951652,5,0,0:0:0:0:
256,192,951747,5,8,0:0:0:0:
256,192,951842,5,0,0:0:0:0:
256,192,951937,5,0,0:0:0:0:
256,192,952033,5,8,0:0:0:0:
256,192,952128,5,8,0:0:0:0:
256,192,952223,5,0,0:0:0:0:
256,192,952318,5,0,0:0:0:0:
256,192,952413,5,0,0:0:0:0:
256,192,952509,5,0,0:0:0:0:
256,192,952604,5,8,0:0:0:0:
256,192,952699,5,0,0:0:0:0:
256,192,952794,5,0,0:0:0:0:
256,192,952890,5,8,0:0:0:0:
256,192,952985,5,0,0:0:0:0:
256,192,953080,5,0,0:0:0:0:
256,192,953175,5,8,0:0:0:0:
256,192,953271,5,8,0:0:0:0:
256,192,953366,5,0,0:0:0:0:
256,192,953461,5,8,0:0:0:0:
256,192,953556,5,0,0:0:0:0:
256,192,953652,5,0,0:0:0:0:
256,192,953747,5,8,0:0:0:0:
256,192,953842,5,8,0:0:0:0:
256,192,953937,5,0,0:0:0:0:
256,192,954033,5,0,0:0:0:0:
256,192,954128,5,0,0:0:0:0:
256,192,954223,5,0,0:0:0:0:
256,192,954318,5,8,0:0:0:0:
256,192,954413,5,0,0:0:0:0:
256,192,954509,5,0,0:0:0:0:
256,192,954604,5,8,0:0:0:0:
256,192,954699,5,8,0:0:0:0:
256,192,954794,5,0,0:0:0:0:
256,192,954890,5,8,0:0:0:0:
256,192,954985,5,8,0:0:0:0:
256,192,955080,5,0,0:0:0:0:
256,192,955175,5,8,0:0:0:0:
256,192,955271,5,0,0:0:0:0:
256,192,955366,5,0,0:0:0:0:
256,192,955461,5,8,0:0:0:0:
256,192,955556,5,8,0:0:0:0:
256,192,955652,5,0,0:0:0:0:
256,192,955747,5,0,0:0:0:0:
256,192,955842,5,0,0:0:0:0:
256,192,955937,5,0,0:0:0:0:
256,192,956033,5,8,0:0:0:0:
256,192,956128,5,0,0:0:0:0:
256,192,956223,5,0,0:0:0:0:
256,192,956318,5,8,0:0:0:0:
256,192,956413,5,8,0:0:0:0:
256,192,956509,5,8,0:0:0:0:
256,192,956604,5,8,0:0:0:0:
256,192,956699,5,0,0:0:0:0:
256,192,956794,5,0,0:0:0:0:
256,192,956890,5,8,0:0:0:0:
256,192,956985,5,0,0:0:0:0:
256,192,957080,5,0,0:0:0:0:
256,192,957175,5,8,0:0:0:0:
256,192,957271,5,8,0:0:0:0:
256,192,957366,5,0,0:0:0:0:
256,192,957461,5,0,0:0:0:0:
256,192,957556,5,0,0:0:0:0:
256,192,957652,5,0,0:0:0:0:
256,192,957747,5,0,0:0:0:0:
256,192,957842,5,0,0:0:0:0:
256,192,957937,5,0,0:0:0:0:
256,192,958033,5,8,0:0:0:0:
256,192,958128,5,8,0:0:0:0:
256,192,958223,5,8,0:0:0:0:
256,192,958318,5,0,0:0:0:0:
256,192,958413,5,0,0:0:0:0:
256,192,958509,5,0,0:0:0:0:
256,192,958604,5,8,0:0:0:0:
256,192,958699,5,0,0:0:0:0:
256,192,958794,5,0,0:0:0:0:
256,192,958890,5,8,0:0:0:0:
256,192,958961,5,8,0:0:0:0:
256,192,959033,5,8,0:0:0:0:
256,192,959104,5,8,0:0:0:0:
256,192,959175,5,0,0:0:0:0:
256,192,959247,5,0,0:0:0:0:
256,192,959318,5,0,0:0:0:0:
256,192,959390,5,0,0:0:0:0:
256,192,959461,5,0,0:0:0:0:
256,192,959533,5,0,0:0:0:0:
256,192,959604,5,0,0:0:0:0:
256,192,959675,5,0,0:0:0:0:
256,192,959747,5,8,0:0:0:0:
256,192,959818,5,8,0:0:0:0:
256,192,959890,5,8,0:0:0:0:
256,192,959961,5,8,0:0:0:0:
256,192,960033,5,0,0:0:0:0:
256,192,960104,5,0,0:0:0:0:
256,192,960175,5,0,0:0:0:0:
256,192,960247,5,0,0:0:0:0:
256,192,960318,5,8,0:0:0:0:
256,192,960390,5,8,0:0:0:0:
256,192,960461,5,0,0:0:0:0:
256,192,960533,5,0,0:0:0:0:
256,192,960604,5,8,0:0:0:0:
256,192,960675,5,8,0:0:0:0:
256,192,960747,5,8,0:0:0:0:
256,192,960818,5,8,0:0:0:0:
256,192,960890,5,0,0:0:0:0:
256,192,960961,5,0,0:0:0:0:
256,192,961033,5,0,0:0:0:0:
256,192,961104,5,0,0:0:0:0:
256,192,961175,5,8,0:0:0:0:
256,192,961247,5,8,0:0:0:0:
256,192,961318,5,0,0:0:0:0:
256,192,961390,5,0,0:0:0:0:
256,192,961461,5,8,0:0:0:0:
256,192,961533,5,8,0:0:0:0:
256,192,961604,5,8,0:0:0:0:
256,192,961675,5,8,0:0:0:0:
256,192,961747,5,0,0:0:0:0:
256,192,961818,5,0,0:0:0:0:
256,192,961890,5,0,0:0:0:0:
256,192,961961,5,0,0:0:0:0:
256,192,962033,5,8,0:0:0:0:
256,192,962104,5,8,0:0:0:0:
256,192,962175,5,0,0:0:0:0:
256,192,962247,5,0,0:0:0:0:
256,192,962318,5,8,0:0:0:0:
256,192,962390,5,8,0:0:0:0:
256,192,962461,5,8,0:0:0:0:
256,192,962533,5,0,0:0:0:0:
256,192,962604,5,8,0:0:0:0:
256,192,962675,5,8,0:0:0:0:
256,192,962747,5,0,0:0:0:0:
256,192,962818,5,0,0:0:0:0:
256,192,962890,5,8,0:0:0:0:
256,192,962961,5,0,0:0:0:0:
256,192,963033,5,0,0:0:0:0:
256,192,963104,5,0,0:0:0:0:
256,192,963175,5,8,0:0:0:0:
256,192,963247,5,8,0:0:0:0:
256,192,963318,5,0,0:0:0:0:
256,192,963390,5,0,0:0:0:0:
256,192,963461,5,8,0:0:0:0:
256,192,963533,5,0,0:0:0:0:
256,192,963604,5,8,0:0:0:0:
256,192,963675,5,8,0:0:0:0:
256,192,963747,5,0,0:0:0:0:
256,192,963818,5,0,0:0:0:0:
256,192,963890,5,0,0:0:0:0:
256,192,963961,5,0,0:0:0:0:
256,192,964033,5,8,0:0:0:0:
256,192,964104,5,0,0:0:0:0:
256,192,964175,5,8,0:0:0:0:
256,192,964247,5,8,0:0:0:0:
256,192,964318,5,0,0:0:0:0:
256,192,964390,5,0,0:0:0:0:
256,192,964461,5,0,0:0:0:0:
256,192,964533,5,0,0:0:0:0:
256,192,964604,5,8,0:0:0:0:
256,192,964675,5,0,0:0:0:0:
256,192,964747,5,0,0:0:0:0:
256,192,964818,5,0,0:0:0:0:
256,192,964890,5,8,0:0:0:0:
256,192,964961,5,8,0:0:0:0:
256,192,965033,5,8,0:0:0:0:
256,192,965104,5,8,0:0:0:0:
256,192,965175,5,0,0:0:0:0:
256,192,965247,5,0,0:0:0:0:
256,192,965318,5,0,0:0:0:0:
256,192,965390,5,0,0:0:0:0:
256,192,965461,5,8,0:0:0:0:
256,192,965533,5,8,0:0:0:0:
256,192,965604,5,0,0:0:0:0:
256,192,965675,5,0,0:0:0:0:
256,192,965747,5,8,0:0:0:0:
256,192,965818,5,0,0:0:0:0:
256,192,965890,5,0,0:0:0:0:
256,192,965961,5,0,0:0:0:0:
256,192,966033,5,8,0:0:0:0:
256,192,966104,5,0,0:0:0:0:
256,192,966175,5,0,0:0:0:0:
256,192,966247,5,0,0:0:0:0:
256,192,966318,5,8,0:0:0:0:
256,192,966390,5,8,0:0:0:0:
256,192,966461,5,8,0:0:0:0:
256,192,966533,5,0,0:0:0:0:
256,192,966604,5,8,0:0:0:0:
256,192,966675,5,0,0:0:0:0:
256,192,966747,5,0,0:0:0:0:
256,192,966818,5,0,0:0:0:0:
256,192,966890,5,8,0:0:0:0:
256,192,966961,5,0,0:0:0:0:
256,192,967033,5,8,0:0:0:0:
256,192,967104,5,8,0:0:0:0:
256,192,967175,5,0,0:0:0:0:
256,192,967247,5,0,0:0:0:0:
256,192,967318,5,0,0:0:0:0:
256,192,967390,5,0,0:0:0:0:
256,192,967461,5,8,0:0:0:0:
256,192,967533,5,8,0:0:0:0:
256,192,967604,5,0,0:0:0:0:
256,192,967675,5,0,0:0:0:0:
256,192,967747,5,0,0:0:0:0:
256,192,967818,5,0,0:0:0:0:
256,192,967890,5,0,0:0:0:0:
256,192,967961,5,0,0:0:0:0:
256,192,968033,5,8,0:0:0:0:
256,192,968104,5,8,0:0:0:0:
256,192,968175,5,0,0:0:0:0:
256,192,968247,5,0,0:0:0:0:
256,192,968318,5,8,0:0:0:0:
256,192,968390,5,8,0:0:0:0:
256,192,968461,5,8,0:0:0:0:
256,192,968533,5,0,0:0:0:0:
256,192,968604,5,8,0:0:0:0:
256,192,968675,5,0,0:0:0:0:
256,192,968747,5,0,0:0:0:0:
256,192,968818,5,0,0:0:0:0:
256,192,968890,5,8,0:0:0:0:
256,192,968961,5,8,0:0:0:0:
256,192,969033,5,0,0:0:0:0:
256,192,969104,5,0,0:0:0:0:
256,192,969175,5,8,0:0:0:0:
256,192,969247,5,8,0:0:0:0:
256,192,969318,5,0,0:0:0:0:
256,192,969390,5,0,0:0:0:0:
256,192,969461,5,0,0:0:0:0:
256,192,969533,5,0,0:0:0:0:
256,192,969604,5,0,0:0:0:0:
256,192,969675,5,0,0:0:0:0:
256,192,969747,5,8,0:0:0:0:
256,192,969818,5,8,0:0:0:0:
256,192,969890,5,0,0:0:0:0:
256,192,969961,5,0,0:0:0:0:
256,192,970033,5,8,0:0:0:0:
256,192,970104,5,8,0:0:0:0:
256,192,970175,5,8,0:0:0:0:
256,192,970247,5,8,0:0:0:0:
256,192,970318,5,0,0:0:0:0:
256,192,970390,5,0,0:0:0:0:
256,192,970461,5,0,0:0:0:0:
256,192,970533,5,0,0:0:0:0:
256,192,970604,5,8,0:0:0:0:
256,192,970675,5,8,0:0:0:0:
256,192,970747,5,0,0:0:0:0:
256,192,970818,5,0,0:0:0:0:
256,192,970890,5,8,0:0:0:0:
256,192,970961,5,0,0:0:0:0:
256,192,971033,5,0,0:0:0:0:
256,192,971104,5,0,0:0:0:0:
256,192,971175,5,8,0:0:0:0:
256,192,971247,5,8,0:0:0:0:
256,192,971318,5,0,0:0:0:0:
256,192,971390,5,0,0:0:0:0:
256,192,971461,5,8,0:0:0:0:
256,192,971533,5,0,0:0:0:0:
256,192,971604,5,0,0:0:0:0:
256,192,971675,5,0,0:0:0:0:
256,192,971747,5,8,0:0:0:0:
256,192,971818,5,8,0:0:0:0:
256,192,971890,5,0,0:0:0:0:
256,192,971961,5,0,0:0:0:0:
256,192,972033,5,8,0:0:0:0:
256,192,972104,5,0,0:0:0:0:
256,192,972175,5,0,0:0:0:0:
256,192,972247,5,0,0:0:0:0:
256,192,972318,5,8,0:0:0:0:
256,192,972390,5,8,0:0:0:0:
256,192,972461,5,8,0:0:0:0:
256,192,972533,5,0,0:0:0:0:
256,192,972604,5,12,0:0:0:0:
256,192,973461,5,4,0:0:0:0:
256,192,974175,5,0,0:0:0:0:
256,192,974318,5,8,0:0:0:0:
256,192,974604,5,0,0:0:0:0:
256,192,974890,5,8,0:0:0:0:
256,192,975175,5,0,0:0:0:0:
256,192,975747,5,0,0:0:0:0:
256,192,975818,5,0,0:0:0:0:
256,192,975890,5,0,0:0:0:0:
256,192,975961,5,0,0:0:0:0:
256,192,976033,5,12,0:0:0:0:
256,192,976318,5,8,0:0:0:0:
256,192,976604,5,0,0:0:0:0:
256,192,976890,5,4,0:0:0:0:
256,192,977175,5,8,0:0:0:0:
256,192,977604,5,0,0:0:0:0:
256,192,977747,5,8,0:0:0:0:
256,192,978033,5,0,0:0:0:0:
256,192,978318,5,8,0:0:0:0:
256,192,978604,5,0,0:0:0:0:
256,192,978747,5,0,0:0:0:0:
256,192,978890,5,8,0:0:0:0:
256,192,979175,5,8,0:0:0:0:
256,192,979461,5,0,0:0:0:0:
256,192,979604,5,0,0:0:0:0:
256,192,979747,5,8,0:0:0:0:
256,192,979890,5,0,0:0:0:0:
256,192,980033,5,8,0:0:0:0:
256,192,980175,5,8,0:0:0:0:
256,192,980318,5,4,0:0:0:0:
256,192,981033,5,0,0:0:0:0:
256,192,981104,5,0,0:0:0:0:
256,192,981175,5,8,0:0:0:0:
256,192,981747,5,0,0:0:0:0:
256,192,982033,5,4,0:0:0:0:
256,192,982604,5,0,0:0:0:0:
256,192,982675,5,0,0:0:0:0:
256,192,982747,5,0,0:0:0:0:
256,192,982818,5,0,0:0:0:0:
256,192,982890,5,8,0:0:0:0:
256,192,983461,5,0,0:0:0:0:
256,192,983747,5,4,0:0:0:0:
256,192,984033,5,8,0:0:0:0:
256,192,984318,5,0,0:0:0:0:
256,192,984604,5,8,0:0:0:0:
256,192,984890,5,0,0:0:0:0:
256,192,985175,5,0,0:0:0:0:
256,192,985461,5,12,0:0:0:0:
256,192,986175,5,0,0:0:0:0:
256,192,986247,5,0,0:0:0:0:
256,192,986318,5,8,0:0:0:0:
256,192,986461,5,0,0:0:0:0:
256,192,986533,5,0,0:0:0:0:
256,192,986604,5,8,0:0:0:0:
256,192,986747,5,0,0:0:0:0:
256,192,986890,5,8,0:0:0:0:
256,192,987033,5,0,0:0:0:0:
256,192,987175,5,4,0:0:0:0:
256,192,987461,5,0,0:0:0:0:
256,192,987747,5,0,0:0:0:0:
256,192,988033,5,8,0:0:0:0:
256,192,988318,5,8,0:0:0:0:
256,192,988604,5,8,0:0:0:0:
256,192,988890,5,4,0:0:0:0:
256,192,989175,5,8,0:0:0:0:
256,192,989247,5,8,0:0:0:0:
256,192,989318,5,0,0:0:0:0:
256,192,989461,5,0,0:0:0:0:
256,192,989533,5,0,0:0:0:0:
256,192,989604,5,0,0:0:0:0:
256,192,989675,5,0,0:0:0:0:
256,192,989747,5,8,0:0:0:0:
256,192,990318,5,0,0:0:0:0:
256,192,990604,5,4,0:0:0:0:
256,192,991175,5,0,0:0:0:0:
256,192,991461,5,8,0:0:0:0:
256,192,992033,5,0,0:0:0:0:
256,192,992318,5,0,0:0:0:0:
256,192,992461,5,0,0:0:0:0:
256,192,992604,5,8,0:0:0:0:
256,192,992747,5,0,0:0:0:0:
256,192,992890,5,8,0:0:0:0:
256,192,993175,5,0,0:0:0:0:
256,192,993318,5,0,0:0:0:0:
256,192,993461,5,8,0:0:0:0:
256,192,993604,5,8,0:0:0:0:
256,192,993747,5,0,0:0:0:0:
256,192,993890,5,8,0:0:0:0:
256,192,994033,5,4,0:0:0:0:
256,192,994747,5,0,0:0:0:0:
256,192,994818,5,0,0:0:0:0:
256,192,994890,5,8,0:0:0:0:
256,192,995175,5,0,0:0:0:0:
256,192,995461,5,0,0:0:0:0:
256,192,995747,5,4,0:0:0:0:
256,192,996604,5,8,0:0:0:0:
256,192,996890,5,8,0:0:0:0:
256,192,997175,5,0,0:0:0:0:
256,192,997461,5,4,0:0:0:0:
256,192,998318,5,8,0:0:0:0:
256,192,998604,5,0,0:0:0:0:
256,192,998890,5,0,0:0:0:0:
256,192,999175,5,12,0:0:0:0:
256,192,999461,5,0,0:0:0:0:
256,192,999747,5,0,0:0:0:0:
256,192,1000033,5,12,0:0:0:0:
256,192,1000318,5,0,0:0:0:0:
256,192,1000604,5,0,0:0:0:0:
256,192,1000890,5,0,0:0:0:0:
256,192,1001033,5,0,0:0:0:0:
256,192,1001175,5,8,0:0:0:0:
256,192,1001318,5,0,0:0:0:0:
256,192,1001461,5,8,0:0:0:0:
256,192,1001604,5,8,0:0:0:0:
256,192,1001747,5,8,0:0:0:0:
256,192,1001890,5,8,0:0:0:0:
256,192,1002033,5,0,0:0:0:0:
256,192,1002175,5,8,0:0:0:0:
256,192,1002318,5,0,0:0:0:0:
256,192,1002461,5,0,0:0:0:0:
256,192,1002604,5,8,0:0:0:0:
256,192,1002747,5,0,0:0:0:0:
256,192,1002890,5,8,0:0:0:0:
256,192,1003033,5,8,0:0:0:0:
256,192,1003175,5,8,0:0:0:0:
256,192,1003318,5,0,0:0:0:0:
256,192,1003461,5,8,0:0:0:0:
256,192,1003604,5,8,0:0:0:0:
256,192,1003747,5,0,0:0:0:0:
256,192,1003890,5,0,0:0:0:0:
256,192,1004033,5,8,0:0:0:0:
256,192,1004175,5,0,0:0:0:0:
256,192,1004318,5,8,0:0:0:0:
256,192,1004461,5,8,0:0:0:0:
256,192,1004604,5,0,0:0:0:0:
256,192,1004747,5,8,0:0:0:0:
256,192,1004890,5,8,0:0:0:0:
256,192,1005033,5,0,0:0:0:0:
256,192,1005175,5,8,0:0:0:0:
256,192,1005318,5,8,0:0:0:0:
256,192,1005461,5,0,0:0:0:0:
256,192,1005604,5,0,0:0:0:0:
256,192,1005747,5,8,0:0:0:0:
256,192,1005890,5,0,0:0:0:0:
256,192,1006033,5,8,0:0:0:0:
256,192,1006175,5,8,0:0:0:0:
256,192,1006318,5,0,0:0:0:0:
256,192,1006604,5,8,0:0:0:0:
256,192,1006890,5,8,0:0:0:0:
256,192,1007033,5,0,0:0:0:0:
256,192,1007175,5,8,0:0:0:0:
256,192,1007318,5,0,0:0:0:0:
256,192,1007461,5,8,0:0:0:0:
256,192,1007604,5,8,0:0:0:0:
256,192,1007747,5,8,0:0:0:0:
256,192,1007890,5,0,0:0:0:0:
256,192,1008033,5,0,0:0:0:0:
256,192,1008175,5,8,0:0:0:0:
256,192,1008318,5,8,0:0:0:0:
256,192,1008461,5,0,0:0:0:0:
256,192,1008604,5,8,0:0:0:0:
256,192,1008747,5,8,0:0:0:0:
256,192,1008890,5,8,0:0:0:0:
256,192,1009033,5,0,0:0:0:0:
256,192,1009175,5,0,0:0:0:0:
256,192,1009318,5,0,0:0:0:0:
256,192,1009461,5,8,0:0:0:0:
256,192,1009604,5,0,0:0:0:0:
256,192,1009747,5,8,0:0:0:0:
256,192,1009890,5,8,0:0:0:0:
256,192,1010033,5,8,0:0:0:0:
256,192,1010175,5,0,0:0:0:0:
256,192,1010318,5,8,0:0:0:0:
256,192,1010461,5,8,0:0:0:0:
256,192,1010604,5,0,0:0:0:0:
256,192,1010747,5,0,0:0:0:0:
256,192,1010890,5,8,0:0:0:0:
256,192,1011033,5,8,0:0:0:0:
256,192,1011175,5,8,0:0:0:0:
256,192,1011318,5,0,0:0:0:0:
256,192,1011461,5,8,0:0:0:0:
256,192,1011604,5,8,0:0:0:0:
256,192,1011747,5,0,0:0:0:0:
256,192,1011890,5,0,0:0:0:0:
256,192,1011961,5,0,0:0:0:0:
256,192,1012033,5,8,0:0:0:0:
256,192,1012175,5,0,0:0:0:0:
256,192,1012318,5,0,0:0:0:0:
256,192,1012461,5,8,0:0:0:0:
256,192,1012604,5,0,0:0:0:0:
256,192,1012747,5,8,0:0:0:0:
256,192,1012890,5,0,0:0:0:0:
256,192,1013033,5,0,0:0:0:0:
256,192,1013175,5,8,0:0:0:0:
256,192,1013318,5,8,0:0:0:0:
256,192,1013461,5,8,0:0:0:0:
256,192,1013604,5,0,0:0:0:0:
256,192,1013675,5,0,0:0:0:0:
256,192,1013747,5,8,0:0:0:0:
256,192,1013890,5,8,0:0:0:0:
256,192,1014033,5,8,0:0:0:0:
256,192,1014175,5,0,0:0:0:0:
256,192,1014318,5,8,0:0:0:0:
256,192,1014461,5,0,0:0:0:0:
256,192,1014604,5,0,0:0:0:0:
256,192,1014890,5,8,0:0:0:0:
256,192,1015033,5,0,0:0:0:0:
256,192,1015175,5,8,0:0:0:0:
256,192,1015318,5,8,0:0:0:0:
256,192,1015461,5,8,0:0:0:0:
256,192,1015604,5,0,0:0:0:0:
256,192,1015747,5,8,0:0:0:0:
256,192,1015890,5,8,0:0:0:0:
256,192,1016033,5,0,0:0:0:0:
256,192,1016175,5,0,0:0:0:0:
256,192,1016318,5,8,0:0:0:0:
256,192,1016461,5,0,0:0:0:0:
256,192,1016604,5,0,0:0:0:0:
256,192,1016747,5,8,0:0:0:0:
256,192,1016890,5,8,0:0:0:0:
256,192,1017033,5,0,0:0:0:0:
256,192,1017175,5,8,0:0:0:0:
256,192,1017318,5,8,0:0:0:0:
256,192,1017461,5,8,0:0:0:0:
256,192,1017604,5,0,0:0:0:0:
256,192,1017747,5,8,0:0:0:0:
256,192,1017890,5,0,0:0:0:0:
256,192,1018033,5,8,0:0:0:0:
256,192,1018175,5,8,0:0:0:0:
256,192,1018318,5,0,0:0:0:0:
256,192,1018461,5,0,0:0:0:0:
256,192,1018604,5,8,0:0:0:0:
256,192,1018747,5,0,0:0:0:0:
256,192,1018890,5,8,0:0:0:0:
256,192,1019033,5,0,0:0:0:0:
256,192,1019175,5,8,0:0:0:0:
256,192,1019318,5,0,0:0:0:0:
256,192,1019461,5,8,0:0:0:0:
256,192,1019604,5,8,0:0:0:0:
256,192,1019747,5,0,0:0:0:0:
256,192,1019890,5,0,0:0:0:0:
256,192,1020033,5,8,0:0:0:0:
256,192,1020175,5,0,0:0:0:0:
256,192,1020318,5,8,0:0:0:0:
256,192,1020604,5,8,0:0:0:0:
256,192,1020747,5,0,0:0:0:0:
256,192,1020890,5,8,0:0:0:0:
256,192,1021033,5,0,0:0:0:0:
256,192,1021175,5,8,0:0:0:0:
256,192,1021318,5,0,0:0:0:0:
256,192,1021461,5,8,0:0:0:0:
256,192,1021604,5,8,0:0:0:0:
256,192,1021747,5,0,0:0:0:0:
256,192,1021890,5,0,0:0:0:0:
256,192,1022033,5,8,0:0:0:0:
256,192,1022175,5,0,0:0:0:0:
256,192,1022318,5,8,0:0:0:0:
256,192,1022461,5,8,0:0:0:0:
256,192,1022604,5,8,0:0:0:0:
256,192,1022747,5,8,0:0:0:0:
256,192,1022890,5,0,0:0:0:0:
256,192,1023033,5,0,0:0:0:0:
256,192,1023175,5,8,0:0:0:0:
256,192,1023318,5,0,0:0:0:0:
256,192,1023461,5,8,0:0:0:0:
256,192,1023604,5,0,0:0:0:0:
256,192,1023747,5,8,0:0:0:0:
256,192,1023890,5,8,0:0:0:0:
256,192,1024033,5,8,0:0:0:0:
256,192,1024175,5,0,0:0:0:0:
256,192,1024318,5,8,0:0:0:0:
256,192,1024461,5,8,0:0:0:0:
256,192,1024604,5,0,0:0:0:0:
256,192,1024747,5,8,0:0:0:0:
256,192,1024890,5,8,0:0:0:0:
256,192,1025033,5,0,0:0:0:0:
256,192,1025104,5,0,0:0:0:0:
256,192,1025175,5,0,0:0:0:0:
256,192,1025318,5,8,0:0:0:0:
256,192,1025461,5,0,0:0:0:0:
256,192,1025604,5,0,0:0:0:0:
256,192,1025747,5,8,0:0:0:0:
256,192,1025890,5,8,0:0:0:0:
256,192,1026033,5,0,0:0:0:0:
256,192,1026175,5,0,0:0:0:0:
256,192,1026318,5,8,0:0:0:0:
256,192,1026461,5,0,0:0:0:0:
256,192,1026604,5,0,0:0:0:0:
256,192,1026675,5,0,0:0:0:0:
256,192,1026747,5,0,0:0:0:0:
256,192,1026890,5,0,0:0:0:0:
256,192,1027033,5,0,0:0:0:0:
256,192,1027175,5,8,0:0:0:0:
256,192,1027318,5,8,0:0:0:0:
256,192,1027461,5,8,0:0:0:0:
256,192,1027497,5,8,0:0:0:0:
256,192,1027604,5,0,0:0:0:0:
256,192,1027747,5,8,0:0:0:0:
256,192,1027890,5,8,0:0:0:0:
256,192,1028033,5,0,0:0:0:0:
256,192,1028175,5,0,0:0:0:0:
256,192,1028318,5,4,0:0:0:0:
256,192,1031746,5,4,0:0:0:0:
256,192,1035175,5,4,0:0:0:0:
256,192,1037603,5,0,0:0:0:0:
256,192,1037675,5,0,0:0:0:0:
256,192,1037746,5,8,0:0:0:0:
256,192,1037889,5,8,0:0:0:0:
256,192,1038032,5,0,0:0:0:0:
256,192,1038175,5,0,0:0:0:0:
256,192,1038318,5,8,0:0:0:0:
256,192,1038460,5,8,0:0:0:0:
256,192,1038603,5,4,0:0:0:0:
256,192,1041175,5,8,0:0:0:0:
256,192,1041318,5,0,0:0:0:0:
256,192,1041460,5,8,0:0:0:0:
256,192,1041603,5,8,0:0:0:0:
256,192,1041746,5,0,0:0:0:0:
256,192,1041889,5,0,0:0:0:0:
256,192,1042032,5,4,0:0:0:0:
256,192,1045460,5,4,0:0:0:0:
256,192,1047175,5,12,0:0:0:0:
256,192,1047460,5,12,0:0:0:0:
256,192,1048318,5,12,0:0:0:0:
256,192,1048603,5,12,0:0:0:0:
256,192,1048889,5,4,0:0:0:0:
256,192,1052318,5,4,0:0:0:0:
256,192,1055746,5,4,0:0:0:0:
256,192,1059175,5,8,0:0:0:0:
