osu file format v14

[General]
AudioFilename: audio.mp3
AudioLeadIn: 0
PreviewTime: 298009
Countdown: 0
SampleSet: Normal
StackLeniency: 0.7
Mode: 1
LetterboxInBreaks: 0
WidescreenStoryboard: 0

[Editor]
Bookmarks: 20809,25609,30409,35209,40009,61609,64009,84409,85009,85609,95209,133009,133609,181409,181609,182509,182809,187609,187909,188209,188509,210409,212809,215209,234409,236809,239209,244009,248809,264559,265309,265609,269509,269959,271609,272809,276409,277609,280909,282409,285709,292759,317209,333859,337609,338209
DistanceSpacing: 0.3
BeatDivisor: 4
GridSize: 32
TimelineZoom: 4.299999

[Metadata]
Title:The Magician
TitleUnicode:The Magician
Artist:Aether Realm
ArtistUnicode:Æther Realm
Creator:Akonine
Version:Restless Spirit
Source:osu!
Tags:english fa featured artist tarot folk melodic metal deathmetal symphonic viking epic majestic Fallmorph
BeatmapID:2512042
BeatmapSetID:1206242

[Difficulty]
HPDrainRate:6
CircleSize:2
OverallDifficulty:7
ApproachRate:10
SliderMultiplier:1.4
SliderTickRate:1

[Events]
//Background and Video events
0,0,"painting-3995999_1920.jpg",0,0
//Break Periods
//Storyboard Layer 0 (Background)
//Storyboard Layer 1 (Fail)
//Storyboard Layer 2 (Pass)
//Storyboard Layer 3 (Foreground)
//Storyboard Layer 4 (Overlay)
//Storyboard Sound Samples

[TimingPoints]
409,300,4,1,0,90,1,0
484,-119.047619047619,4,1,0,90,0,0
4384,-100,4,1,0,90,0,0
5284,-119.047619047619,4,1,0,90,0,0
9334,-100,4,1,0,90,0,0
10084,-119.047619047619,4,1,0,90,0,0
13834,-100,4,1,0,90,0,0
15109,-119.047619047619,4,1,0,90,0,0
15409,-116.103025180424,4,1,0,90,0,0
15709,-113.300710282153,4,1,0,90,0,0
16009,-110.630360732417,4,1,0,90,0,0
16309,-108.08298611674,4,1,0,90,0,0
16609,-105.650282772982,4,1,0,90,0,0
16909,-103.32478492946,4,1,0,90,0,0
17209,-101.099354379523,4,1,0,90,0,0
17359,-100.022204929494,4,1,0,90,0,0
17434,-99.4921918527834,4,1,0,90,0,0
17509,-98.9677661985491,4,1,0,90,0,0
17659,-97.9353274271802,4,1,0,90,0,0
17809,-96.9242072084471,4,1,0,90,0,0
17959,-95.933751988227,4,1,0,90,0,0
18034,-95.4460767844598,4,1,0,90,0,0
18109,-94.9634248369241,4,1,0,90,0,0
18259,-94.0124416065222,4,1,0,90,0,0
18334,-93.5440569122042,4,1,0,90,0,0
18409,-93.0803162124502,4,1,0,90,0,0
18484,-92.62115078075,4,1,0,90,0,0
18559,-92.1664932400485,4,1,0,90,0,0
18634,-91.7162775297871,4,1,0,90,0,0
18709,-91.2704388739053,4,1,0,90,0,0
18784,-90.8289137497718,4,1,0,90,0,0
18859,-90.3916398580128,4,1,0,90,0,0
18934,-89.9585560932079,4,1,0,90,0,0
19009,-89.5296025154237,4,1,0,90,0,0
19084,-89.1047203225591,4,1,0,90,0,0
19159,-88.683851823473,4,1,0,90,0,0
19234,-88.2670183224676,4,1,0,90,0,0
19309,-87.8540077241244,4,1,0,90,0,0
19384,-87.4448441645432,4,1,0,90,0,0
19459,-87.039474142313,4,1,0,90,0,0
19534,-86.6378451435156,4,1,0,90,0,0
19609,-86.2068965517241,4,1,0,90,0,0
40159,-89.655172413793,4,1,0,90,0,0
40234,-91.379310344828,4,1,0,90,0,0
40309,-93.103448275862,4,1,0,90,0,0
40459,-96.551724137931,4,1,0,90,0,0
40609,-100,4,1,0,90,0,0
47359,-99.0124498254411,4,1,0,90,0,0
47509,-98.0442140187539,4,1,0,90,0,0
47659,-97.0947314456823,4,1,0,90,0,0
47809,-96.1634625000962,4,1,0,90,0,0
47959,-95.2498880813815,4,1,0,90,0,0
48109,-94.3535086295719,4,1,0,90,0,0
48184,-93.9116160216973,4,1,0,90,0,0
48259,-93.4738432144533,4,1,0,90,0,0
48334,-93.0401328613097,4,1,0,90,0,0
48409,-92.6104286751522,4,1,0,90,0,0
48484,-92.1846754039302,4,1,0,90,0,0
48559,-91.7628188069732,4,1,0,90,0,0
48634,-91.3448056319553,4,1,0,90,0,0
48709,-90.9305835924855,4,1,0,90,0,0
48784,-90.5201013463055,4,1,0,90,0,0
48859,-90.1133084740753,4,1,0,90,0,0
48934,-89.7101554587284,4,1,0,90,0,0
49009,-89.3105936653782,4,1,0,90,0,0
49084,-88.9145753217596,4,1,0,90,0,0
49159,-88.5220534991883,4,1,0,90,0,0
49234,-88.132982094022,4,1,0,90,0,0
49309,-87.7473158096094,4,1,0,90,0,0
49384,-87.3650101387094,4,1,0,90,0,0
49459,-86.9860213463696,4,1,0,90,0,0
49534,-86.6103064532473,4,1,0,90,0,0
49609,-86.2378232193614,4,1,0,90,0,0
49684,-100,4,1,0,90,0,0
56959,-99.0124498254411,4,1,0,90,0,0
57109,-98.0442140187539,4,1,0,90,0,0
57259,-97.0947314456823,4,1,0,90,0,0
57409,-96.1634625000962,4,1,0,90,0,0
57559,-95.2498880813815,4,1,0,90,0,0
57709,-94.3535086295719,4,1,0,90,0,0
57859,-93.4738432144533,4,1,0,90,0,0
57934,-93.0401328613097,4,1,0,90,0,0
58009,-92.6104286751522,4,1,0,90,0,0
58159,-91.7628188069732,4,1,0,90,0,0
58309,-90.9305835924855,4,1,0,90,0,0
58384,-90.5201013463055,4,1,0,90,0,0
58459,-90.1133084740753,4,1,0,90,0,0
58609,-89.3105936653782,4,1,0,90,0,0
58759,-88.5220534991883,4,1,0,90,0,0
58909,-87.7473158096094,4,1,0,90,0,0
58984,-87.3650101387094,4,1,0,90,0,0
59059,-86.9860213463696,4,1,0,90,0,0
59209,-86.2378232193614,4,1,0,90,0,0
64009,-80.6451612903226,4,1,0,90,0,0
67609,-100,4,1,0,90,0,0
76009,-86.2068965517241,4,1,0,90,0,0
84484,-87.931034482759,4,1,0,90,0,0
84559,-89.655172413793,4,1,0,90,0,0
84634,-91.379310344828,4,1,0,90,0,0
84709,-93.103448275862,4,1,0,90,0,0
84784,-94.827586206897,4,1,0,90,0,0
84859,-96.551724137931,4,1,0,90,0,0
84934,-98.275862068966,4,1,0,90,0,0
85009,-100,4,1,0,90,0,0
85609,-100,4,1,0,90,0,1
95209,-100,4,1,0,90,0,0
113359,-97.4200254655946,4,1,0,90,0,0
113509,-94.9698280856172,4,1,0,90,0,0
113659,-92.6399418962285,4,1,0,90,0,0
113809,-90.4215543284346,4,1,0,90,0,0
113959,-88.3069266187101,4,1,0,90,0,0
114034,-87.2863121969528,4,1,0,90,0,0
114109,-86.2889454369111,4,1,0,90,0,0
114184,-100,4,1,0,90,0,0
124009,-86.2068965517241,4,1,0,90,0,0
132484,-87.931034482759,4,1,0,90,0,0
132559,-89.655172413793,4,1,0,90,0,0
132634,-91.379310344828,4,1,0,90,0,0
132709,-93.103448275862,4,1,0,90,0,0
132784,-94.827586206897,4,1,0,90,0,0
132859,-96.551724137931,4,1,0,90,0,0
132934,-98.275862068966,4,1,0,90,0,0
133009,-100,4,1,0,90,0,0
133609,-100,4,1,0,90,0,1
150409,-100,4,1,0,90,0,0
152809,-83.3333333333333,4,1,0,90,0,1
161357,-84.7457627118644,4,1,0,90,0,1
161507,-86.2068965517241,4,1,0,90,0,1
161657,-87.719298245614,4,1,0,90,0,1
161807,-89.2857142857143,4,1,0,90,0,1
161957,-90.9090909090909,4,1,0,90,0,1
162107,-92.5925925925926,4,1,0,90,0,1
162257,-94.3396226415094,4,1,0,90,0,1
162407,-83.3333333333333,4,1,0,90,0,1
166157,-86.9565217391304,4,1,0,90,0,1
166607,-90.9090909090909,4,1,0,90,0,1
167207,-83.3333333333333,4,1,0,90,0,1
169609,-83.3333333333333,4,1,0,90,0,0
173209,-88,4,1,0,90,0,0
174409,-100,4,1,0,70,0,0
215284,-142.857142857143,4,1,0,70,0,0
234407,-119.047619047619,4,1,0,70,0,0
239207,-113.636363636364,4,1,0,70,0,0
244007,-108.695652173913,4,1,0,70,0,0
248807,-131.578947368421,4,1,0,72,0,0
249107,-126.582278481013,4,1,0,74,0,0
249407,-121.951219512195,4,1,0,76,0,0
249707,-117.647058823529,4,1,0,78,0,0
250007,-113.636363636364,4,1,0,80,0,0
250307,-109.89010989011,4,1,0,82,0,0
250607,-106.382978723404,4,1,0,84,0,0
250907,-103.092783505155,4,1,0,86,0,0
251059,-101.522842639594,4,1,0,88,0,0
251134,-100.755667506297,4,1,0,90,0,0
251209,-100,4,1,0,95,0,0
253607,-100,4,1,0,90,0,0
272809,-86.2068965517241,4,1,0,90,0,0
273709,-100,4,1,0,90,0,0
275209,-86.2068965517241,4,1,0,90,0,0
276409,-100,4,1,0,90,0,0
291109,-119.047619047619,4,1,0,90,0,0
291259,-115.903193017064,4,1,0,90,0,0
291409,-112.920473498129,4,1,0,90,0,0
291559,-110.087541613091,4,1,0,90,0,0
291709,-107.393275247891,4,1,0,90,0,0
291859,-104.827626692049,4,1,0,90,0,0
292009,-102.38181043803,4,1,0,90,0,0
292159,-100.047522573222,4,1,0,90,0,0
292309,-97.8172089815761,4,1,0,90,0,0
292459,-95.6842572605214,4,1,0,90,0,0
292609,-93.6423405715741,4,1,0,90,0,0
292759,-91.6857525841629,4,1,0,90,0,0
292909,-89.8091734682147,4,1,0,90,0,0
292984,-88.8994778044674,4,1,0,90,0,0
293059,-88.0079488779427,4,1,0,90,0,0
293134,-87.1341238141046,4,1,0,90,0,0
293209,-86.2775548940943,4,1,0,90,0,0
301759,-87.931034482759,4,1,0,90,0,0
301909,-89.655172413793,4,1,0,90,0,0
302059,-91.379310344828,4,1,0,90,0,0
302134,-92.241379310345,4,1,0,90,0,0
302209,-93.103448275862,4,1,0,90,0,0
302284,-93.965517241379,4,1,0,90,0,0
302359,-94.827586206897,4,1,0,90,0,0
302434,-95.689655172414,4,1,0,90,0,0
302509,-96.551724137931,4,1,0,90,0,0
302584,-97.413793103448,4,1,0,90,0,0
302659,-98.275862068966,4,1,0,90,0,0
302734,-99.137931034483,4,1,0,90,0,0
302809,-100,4,1,0,90,0,0
311359,-97.101991076327,4,1,0,90,0,0
311509,-94.3673096540589,4,1,0,90,0,0
311584,-93.0569294377221,4,1,0,90,0,0
311659,-91.7823583293408,4,1,0,90,0,0
311734,-90.5423122333529,4,1,0,90,0,0
311809,-89.3353272978386,4,1,0,90,0,0
311959,-87.0153138250801,4,1,0,90,0,0
312034,-85.8999523255265,4,1,0,90,0,0
312109,-84.8128223417329,4,1,0,90,0,0
312259,-82.7190068425163,4,1,0,90,0,0
312409,-80.7261478450962,4,1,0,90,0,0
320959,-83.064516129032,4,1,0,90,0,0
321109,-85.483870967742,4,1,0,90,0,0
321259,-87.903225806452,4,1,0,90,0,0
321409,-90.322580645161,4,1,0,90,0,0
321484,-91.532258064516,4,1,0,90,0,0
321559,-92.741935483871,4,1,0,90,0,0
321634,-93.951612903226,4,1,0,90,0,0
321709,-95.161290322581,4,1,0,90,0,0
321784,-96.370967741936,4,1,0,90,0,0
321859,-97.58064516129,4,1,0,90,0,0
321934,-98.790322580645,4,1,0,90,0,0
322009,-100,4,1,0,90,0,0
329059,-80.6451612903226,4,1,0,90,0,0
334009,-75.7575757575758,4,1,0,90,0,1
338209,-75.7575757575758,4,1,0,90,0,0
338809,-100,4,1,0,90,0,1
353209,315.789473684211,4,1,0,90,1,1
353209,-95,4,1,0,90,0,1
353840,338.983050847458,4,1,0,90,1,9
353840,-88,4,1,0,90,0,1
354517,361.44578313253,4,1,0,90,1,1
354517,-83,4,1,0,90,0,1
354878,405.405405405405,4,1,0,90,1,9
354878,-74,4,1,0,90,0,1
355688,447.761194029851,4,1,0,90,1,9
355688,-67,4,1,0,90,0,1
356135,480,4,1,0,90,1,1
356135,-62.5,4,1,0,90,0,1
357095,545.454545454546,4,1,0,90,1,9
357095,-55,4,1,0,90,0,0
358185,545.454545454546,4,1,0,90,1,1
358185,-54.9450549450549,4,1,0,90,0,1
360912,-54.9450549450549,4,1,0,90,0,0

[HitObjects]
256,192,409,5,4,0:0:0:0:
256,192,4459,1,0,0:0:0:0:
256,192,4534,1,0,0:0:0:0:
256,192,4609,1,12,0:0:0:0:
256,192,4909,1,12,0:0:0:0:
256,192,5209,1,4,0:0:0:0:
256,192,9409,1,4,0:0:0:0:
256,192,9709,1,4,0:0:0:0:
256,192,10009,1,12,0:0:0:0:
256,192,10309,1,0,0:0:0:0:
256,192,10346,1,0,0:0:0:0:
256,192,10909,1,0,0:0:0:0:
256,192,10946,1,0,0:0:0:0:
256,192,11509,1,0,0:0:0:0:
256,192,11546,1,0,0:0:0:0:
256,192,12109,1,0,0:0:0:0:
256,192,12146,1,0,0:0:0:0:
256,192,12709,1,0,0:0:0:0:
256,192,12746,1,0,0:0:0:0:
256,192,13309,1,0,0:0:0:0:
256,192,13346,1,0,0:0:0:0:
256,192,13909,1,0,0:0:0:0:
256,192,13946,1,0,0:0:0:0:
256,192,14059,1,0,0:0:0:0:
256,192,14134,1,0,0:0:0:0:
256,192,14209,1,12,0:0:0:0:
256,192,14509,1,12,0:0:0:0:
256,192,14809,1,12,0:0:0:0:
256,192,15109,1,0,0:0:0:0:
256,192,15409,1,0,0:0:0:0:
256,192,15709,1,0,0:0:0:0:
256,192,16009,1,0,0:0:0:0:
256,192,16309,1,0,0:0:0:0:
256,192,16609,1,0,0:0:0:0:
256,192,16909,1,0,0:0:0:0:
256,192,17209,1,0,0:0:0:0:
256,192,17359,1,0,0:0:0:0:
256,192,17434,1,0,0:0:0:0:
256,192,17509,1,8,0:0:0:0:
256,192,17659,1,0,0:0:0:0:
256,192,17809,1,0,0:0:0:0:
256,192,17959,1,0,0:0:0:0:
256,192,18034,1,8,0:0:0:0:
256,192,18109,1,8,0:0:0:0:
256,192,18259,1,0,0:0:0:0:
256,192,18334,1,0,0:0:0:0:
256,192,18409,1,8,0:0:0:0:
256,192,18484,1,8,0:0:0:0:
256,192,18559,1,0,0:0:0:0:
256,192,18634,1,0,0:0:0:0:
256,192,18709,1,8,0:0:0:0:
256,192,18784,1,8,0:0:0:0:
256,192,18859,1,0,0:0:0:0:
256,192,18934,1,0,0:0:0:0:
256,192,19009,1,8,0:0:0:0:
256,192,19084,1,8,0:0:0:0:
256,192,19159,1,0,0:0:0:0:
256,192,19234,1,0,0:0:0:0:
256,192,19309,1,8,0:0:0:0:
256,192,19384,1,8,0:0:0:0:
256,192,19459,1,0,0:0:0:0:
256,192,19534,1,0,0:0:0:0:
256,192,19609,1,8,0:0:0:0:
256,192,19646,1,8,0:0:0:0:
256,192,19759,12,0,20659,0:0:0:0:
256,192,20809,5,8,0:0:0:0:
256,192,20884,1,0,0:0:0:0:
256,192,20959,1,0,0:0:0:0:
256,192,21034,1,0,0:0:0:0:
256,192,21109,1,8,0:0:0:0:
256,192,21184,1,8,0:0:0:0:
256,192,21259,1,0,0:0:0:0:
256,192,21334,1,0,0:0:0:0:
256,192,21409,1,8,0:0:0:0:
256,192,21484,1,8,0:0:0:0:
256,192,21559,1,0,0:0:0:0:
256,192,21634,1,0,0:0:0:0:
256,192,21709,1,8,0:0:0:0:
256,192,21784,1,8,0:0:0:0:
256,192,21859,1,8,0:0:0:0:
256,192,21934,1,0,0:0:0:0:
256,192,22009,1,8,0:0:0:0:
256,192,22084,1,8,0:0:0:0:
256,192,22159,1,0,0:0:0:0:
256,192,22234,1,0,0:0:0:0:
256,192,22309,1,8,0:0:0:0:
256,192,22384,1,0,0:0:0:0:
256,192,22459,1,8,0:0:0:0:
256,192,22534,1,0,0:0:0:0:
256,192,22609,1,8,0:0:0:0:
256,192,22684,1,0,0:0:0:0:
256,192,22759,1,0,0:0:0:0:
256,192,22834,1,0,0:0:0:0:
256,192,22909,1,8,0:0:0:0:
256,192,22984,1,8,0:0:0:0:
256,192,23059,1,0,0:0:0:0:
256,192,23134,1,0,0:0:0:0:
256,192,23209,1,8,0:0:0:0:
256,192,23284,1,0,0:0:0:0:
256,192,23359,1,0,0:0:0:0:
256,192,23434,1,0,0:0:0:0:
256,192,23509,1,8,0:0:0:0:
256,192,23584,1,0,0:0:0:0:
256,192,23659,1,0,0:0:0:0:
256,192,23734,1,0,0:0:0:0:
256,192,23809,1,8,0:0:0:0:
256,192,23884,1,8,0:0:0:0:
256,192,23959,1,0,0:0:0:0:
256,192,24034,1,0,0:0:0:0:
256,192,24109,1,8,0:0:0:0:
256,192,24184,1,8,0:0:0:0:
256,192,24259,1,0,0:0:0:0:
256,192,24334,1,0,0:0:0:0:
256,192,24409,1,8,0:0:0:0:
256,192,24484,1,0,0:0:0:0:
256,192,24559,1,0,0:0:0:0:
256,192,24634,1,0,0:0:0:0:
256,192,24709,1,8,0:0:0:0:
256,192,24784,1,8,0:0:0:0:
256,192,24859,1,8,0:0:0:0:
256,192,24934,1,0,0:0:0:0:
256,192,25009,1,8,0:0:0:0:
256,192,25084,1,0,0:0:0:0:
256,192,25159,1,8,0:0:0:0:
256,192,25234,1,8,0:0:0:0:
256,192,25309,1,0,0:0:0:0:
256,192,25384,1,0,0:0:0:0:
256,192,25459,1,8,0:0:0:0:
256,192,25534,1,0,0:0:0:0:
256,192,25609,1,8,0:0:0:0:
256,192,25684,1,8,0:0:0:0:
256,192,25759,1,0,0:0:0:0:
256,192,25834,1,0,0:0:0:0:
256,192,25909,1,8,0:0:0:0:
256,192,25984,1,8,0:0:0:0:
256,192,26059,1,8,0:0:0:0:
256,192,26134,1,0,0:0:0:0:
256,192,26209,1,8,0:0:0:0:
256,192,26284,1,8,0:0:0:0:
256,192,26359,1,0,0:0:0:0:
256,192,26434,1,0,0:0:0:0:
256,192,26509,1,8,0:0:0:0:
256,192,26584,1,0,0:0:0:0:
256,192,26659,1,0,0:0:0:0:
256,192,26734,1,0,0:0:0:0:
256,192,26809,1,8,0:0:0:0:
256,192,26884,1,8,0:0:0:0:
256,192,26959,1,0,0:0:0:0:
256,192,27034,1,0,0:0:0:0:
256,192,27109,1,8,0:0:0:0:
256,192,27184,1,0,0:0:0:0:
256,192,27259,1,8,0:0:0:0:
256,192,27334,1,0,0:0:0:0:
256,192,27409,1,8,0:0:0:0:
256,192,27484,1,8,0:0:0:0:
256,192,27559,1,8,0:0:0:0:
256,192,27634,1,0,0:0:0:0:
256,192,27709,1,8,0:0:0:0:
256,192,27784,1,8,0:0:0:0:
256,192,27859,1,0,0:0:0:0:
256,192,27934,1,0,0:0:0:0:
256,192,28009,1,8,0:0:0:0:
256,192,28084,1,8,0:0:0:0:
256,192,28159,1,0,0:0:0:0:
256,192,28234,1,0,0:0:0:0:
256,192,28309,1,8,0:0:0:0:
256,192,28384,1,8,0:0:0:0:
256,192,28459,1,0,0:0:0:0:
256,192,28534,1,0,0:0:0:0:
256,192,28609,1,8,0:0:0:0:
256,192,28684,1,0,0:0:0:0:
256,192,28759,1,8,0:0:0:0:
256,192,28834,1,8,0:0:0:0:
256,192,28909,1,8,0:0:0:0:
256,192,28984,1,8,0:0:0:0:
256,192,29059,1,0,0:0:0:0:
256,192,29134,1,0,0:0:0:0:
256,192,29209,1,8,0:0:0:0:
256,192,29284,1,8,0:0:0:0:
256,192,29359,1,0,0:0:0:0:
256,192,29434,1,8,0:0:0:0:
256,192,29509,1,0,0:0:0:0:
256,192,29584,1,0,0:0:0:0:
256,192,29659,1,8,0:0:0:0:
256,192,29734,1,0,0:0:0:0:
256,192,29809,1,8,0:0:0:0:
256,192,29884,1,8,0:0:0:0:
256,192,29959,1,8,0:0:0:0:
256,192,30034,1,0,0:0:0:0:
256,192,30109,1,8,0:0:0:0:
256,192,30184,1,8,0:0:0:0:
256,192,30259,1,0,0:0:0:0:
256,192,30334,1,0,0:0:0:0:
256,192,30409,1,8,0:0:0:0:
256,192,30484,1,0,0:0:0:0:
256,192,30559,1,0,0:0:0:0:
256,192,30634,1,0,0:0:0:0:
256,192,30709,1,8,0:0:0:0:
256,192,30784,1,8,0:0:0:0:
256,192,30859,1,0,0:0:0:0:
256,192,30934,1,0,0:0:0:0:
256,192,31009,1,8,0:0:0:0:
256,192,31084,1,8,0:0:0:0:
256,192,31159,1,8,0:0:0:0:
256,192,31234,1,8,0:0:0:0:
256,192,31309,1,0,0:0:0:0:
256,192,31384,1,8,0:0:0:0:
256,192,31459,1,0,0:0:0:0:
256,192,31534,1,0,0:0:0:0:
256,192,31609,1,8,0:0:0:0:
256,192,31684,1,0,0:0:0:0:
256,192,31759,1,0,0:0:0:0:
256,192,31834,1,0,0:0:0:0:
256,192,31909,1,8,0:0:0:0:
256,192,31984,1,0,0:0:0:0:
256,192,32059,1,8,0:0:0:0:
256,192,32134,1,0,0:0:0:0:
256,192,32209,1,8,0:0:0:0:
256,192,32284,1,0,0:0:0:0:
256,192,32359,1,0,0:0:0:0:
256,192,32434,1,0,0:0:0:0:
256,192,32509,1,8,0:0:0:0:
256,192,32584,1,8,0:0:0:0:
256,192,32659,1,0,0:0:0:0:
256,192,32734,1,0,0:0:0:0:
256,192,32809,1,8,0:0:0:0:
256,192,32884,1,0,0:0:0:0:
256,192,32959,1,0,0:0:0:0:
256,192,33034,1,0,0:0:0:0:
256,192,33109,1,8,0:0:0:0:
256,192,33184,1,0,0:0:0:0:
256,192,33259,1,8,0:0:0:0:
256,192,33334,1,0,0:0:0:0:
256,192,33409,1,8,0:0:0:0:
256,192,33484,1,8,0:0:0:0:
256,192,33559,1,8,0:0:0:0:
256,192,33634,1,0,0:0:0:0:
256,192,33709,1,8,0:0:0:0:
256,192,33784,1,8,0:0:0:0:
256,192,33859,1,0,0:0:0:0:
256,192,33934,1,0,0:0:0:0:
256,192,34009,1,8,0:0:0:0:
256,192,34084,1,0,0:0:0:0:
256,192,34159,1,0,0:0:0:0:
256,192,34234,1,0,0:0:0:0:
256,192,34309,1,8,0:0:0:0:
256,192,34384,1,8,0:0:0:0:
256,192,34459,1,8,0:0:0:0:
256,192,34534,1,0,0:0:0:0:
256,192,34609,1,8,0:0:0:0:
256,192,34684,1,0,0:0:0:0:
256,192,34759,1,8,0:0:0:0:
256,192,34834,1,0,0:0:0:0:
256,192,34909,1,8,0:0:0:0:
256,192,34984,1,8,0:0:0:0:
256,192,35059,1,0,0:0:0:0:
256,192,35134,1,0,0:0:0:0:
256,192,35209,1,8,0:0:0:0:
256,192,35284,1,0,0:0:0:0:
256,192,35359,1,0,0:0:0:0:
256,192,35434,1,0,0:0:0:0:
256,192,35509,1,8,0:0:0:0:
256,192,35584,1,8,0:0:0:0:
256,192,35659,1,0,0:0:0:0:
256,192,35734,1,0,0:0:0:0:
256,192,35809,5,8,0:0:0:0:
256,192,35884,1,8,0:0:0:0:
256,192,35959,1,8,0:0:0:0:
256,192,36034,1,8,0:0:0:0:
256,192,36109,1,0,0:0:0:0:
256,192,36184,1,0,0:0:0:0:
256,192,36259,1,8,0:0:0:0:
256,192,36334,1,0,0:0:0:0:
256,192,36409,1,8,0:0:0:0:
256,192,36484,1,0,0:0:0:0:
256,192,36559,1,0,0:0:0:0:
256,192,36634,1,0,0:0:0:0:
256,192,36709,1,8,0:0:0:0:
256,192,36784,1,8,0:0:0:0:
256,192,36859,1,8,0:0:0:0:
256,192,36934,1,0,0:0:0:0:
256,192,37009,1,8,0:0:0:0:
256,192,37084,1,8,0:0:0:0:
256,192,37159,1,0,0:0:0:0:
256,192,37234,1,0,0:0:0:0:
256,192,37309,1,8,0:0:0:0:
256,192,37384,1,0,0:0:0:0:
256,192,37459,1,0,0:0:0:0:
256,192,37534,1,0,0:0:0:0:
256,192,37609,1,8,0:0:0:0:
256,192,37684,1,8,0:0:0:0:
256,192,37759,1,0,0:0:0:0:
256,192,37834,1,0,0:0:0:0:
256,192,37909,1,8,0:0:0:0:
256,192,37984,1,0,0:0:0:0:
256,192,38059,1,8,0:0:0:0:
256,192,38134,1,0,0:0:0:0:
256,192,38209,1,8,0:0:0:0:
256,192,38284,1,8,0:0:0:0:
256,192,38359,1,0,0:0:0:0:
256,192,38434,1,0,0:0:0:0:
256,192,38509,1,8,0:0:0:0:
256,192,38584,1,8,0:0:0:0:
256,192,38659,1,8,0:0:0:0:
256,192,38734,1,0,0:0:0:0:
256,192,38809,1,8,0:0:0:0:
256,192,38884,1,8,0:0:0:0:
256,192,38959,1,0,0:0:0:0:
256,192,39034,1,0,0:0:0:0:
256,192,39109,1,8,0:0:0:0:
256,192,39184,1,8,0:0:0:0:
256,192,39259,1,0,0:0:0:0:
256,192,39334,1,8,0:0:0:0:
256,192,39409,1,0,0:0:0:0:
256,192,39484,1,0,0:0:0:0:
256,192,39559,1,8,0:0:0:0:
256,192,39634,1,0,0:0:0:0:
256,192,39709,1,8,0:0:0:0:
256,192,39784,1,0,0:0:0:0:
256,192,39859,1,0,0:0:0:0:
256,192,39934,1,0,0:0:0:0:
256,192,40009,1,8,0:0:0:0:
256,192,40159,1,0,0:0:0:0:
256,192,40234,1,0,0:0:0:0:
256,192,40309,1,8,0:0:0:0:
256,192,40459,1,0,0:0:0:0:
256,192,40759,1,0,0:0:0:0:
256,192,40834,1,0,0:0:0:0:
256,192,40909,1,8,0:0:0:0:
256,192,41059,1,0,0:0:0:0:
256,192,41209,1,0,0:0:0:0:
256,192,41284,1,0,0:0:0:0:
256,192,41359,1,0,0:0:0:0:
256,192,41434,1,0,0:0:0:0:
256,192,41509,1,8,0:0:0:0:
256,192,41659,1,8,0:0:0:0:
256,192,41734,1,8,0:0:0:0:
256,192,41809,1,8,0:0:0:0:
256,192,41959,1,0,0:0:0:0:
256,192,42034,1,0,0:0:0:0:
256,192,42109,1,8,0:0:0:0:
256,192,42259,1,0,0:0:0:0:
256,192,42409,1,12,0:0:0:0:
256,192,42709,1,8,0:0:0:0:
256,192,42859,1,0,0:0:0:0:
256,192,43009,1,8,0:0:0:0:
256,192,43159,1,0,0:0:0:0:
256,192,43234,1,0,0:0:0:0:
256,192,43309,1,8,0:0:0:0:
256,192,43459,1,0,0:0:0:0:
256,192,43609,1,8,0:0:0:0:
256,192,43684,1,0,0:0:0:0:
256,192,43759,1,0,0:0:0:0:
256,192,43834,1,0,0:0:0:0:
256,192,43909,1,8,0:0:0:0:
256,192,44059,1,4,0:0:0:0:
256,192,44359,1,0,0:0:0:0:
256,192,44434,1,8,0:0:0:0:
256,192,44509,1,8,0:0:0:0:
256,192,44659,1,0,0:0:0:0:
256,192,44809,1,12,0:0:0:0:
256,192,45109,1,8,0:0:0:0:
256,192,45259,1,8,0:0:0:0:
256,192,45409,1,0,0:0:0:0:
256,192,45559,1,0,0:0:0:0:
256,192,45634,1,0,0:0:0:0:
256,192,45709,1,8,0:0:0:0:
256,192,45859,1,0,0:0:0:0:
256,192,46009,1,8,0:0:0:0:
256,192,46084,1,8,0:0:0:0:
256,192,46159,1,0,0:0:0:0:
256,192,46234,1,0,0:0:0:0:
256,192,46309,1,8,0:0:0:0:
256,192,46459,1,0,0:0:0:0:
256,192,46534,1,8,0:0:0:0:
256,192,46609,1,8,0:0:0:0:
256,192,46759,1,0,0:0:0:0:
256,192,46834,1,0,0:0:0:0:
256,192,46909,1,8,0:0:0:0:
256,192,47059,1,0,0:0:0:0:
256,192,47209,1,12,0:0:0:0:
256,192,47359,1,0,0:0:0:0:
256,192,47509,1,8,0:0:0:0:
256,192,47659,1,0,0:0:0:0:
256,192,47809,1,8,0:0:0:0:
256,192,47959,1,0,0:0:0:0:
256,192,48109,1,8,0:0:0:0:
256,192,48184,1,0,0:0:0:0:
256,192,48259,1,8,0:0:0:0:
256,192,48334,1,0,0:0:0:0:
256,192,48409,1,8,0:0:0:0:
256,192,48484,1,8,0:0:0:0:
256,192,48559,1,0,0:0:0:0:
256,192,48634,1,0,0:0:0:0:
256,192,48709,1,8,0:0:0:0:
256,192,48784,1,0,0:0:0:0:
256,192,48859,1,0,0:0:0:0:
256,192,48934,1,0,0:0:0:0:
256,192,49009,1,8,0:0:0:0:
256,192,49084,1,8,0:0:0:0:
256,192,49159,1,8,0:0:0:0:
256,192,49234,1,0,0:0:0:0:
256,192,49309,1,8,0:0:0:0:
256,192,49384,1,8,0:0:0:0:
256,192,49459,1,0,0:0:0:0:
256,192,49534,1,0,0:0:0:0:
256,192,49609,1,12,0:0:0:0:
256,192,49909,1,8,0:0:0:0:
256,192,50059,1,0,0:0:0:0:
256,192,50209,1,8,0:0:0:0:
256,192,50359,1,0,0:0:0:0:
256,192,50434,1,0,0:0:0:0:
256,192,50509,1,8,0:0:0:0:
256,192,50659,1,0,0:0:0:0:
256,192,50809,1,0,0:0:0:0:
256,192,50884,1,8,0:0:0:0:
256,192,50959,1,0,0:0:0:0:
256,192,51034,1,0,0:0:0:0:
256,192,51109,1,8,0:0:0:0:
256,192,51259,1,8,0:0:0:0:
256,192,51334,1,8,0:0:0:0:
256,192,51409,1,8,0:0:0:0:
256,192,51559,1,0,0:0:0:0:
256,192,51634,1,8,0:0:0:0:
256,192,51709,1,8,0:0:0:0:
256,192,51859,1,0,0:0:0:0:
256,192,52009,1,12,0:0:0:0:
256,192,52309,1,8,0:0:0:0:
256,192,52459,1,8,0:0:0:0:
256,192,52609,1,0,0:0:0:0:
256,192,52759,1,0,0:0:0:0:
256,192,52834,1,0,0:0:0:0:
256,192,52909,1,8,0:0:0:0:
256,192,53059,1,8,0:0:0:0:
256,192,53209,1,4,0:0:0:0:
256,192,53509,1,8,0:0:0:0:
256,192,53659,1,4,0:0:0:0:
256,192,53959,1,0,0:0:0:0:
256,192,54034,1,0,0:0:0:0:
256,192,54109,1,8,0:0:0:0:
256,192,54259,1,0,0:0:0:0:
256,192,54409,1,12,0:0:0:0:
256,192,54709,1,8,0:0:0:0:
256,192,54859,1,8,0:0:0:0:
256,192,55009,1,0,0:0:0:0:
256,192,55159,1,0,0:0:0:0:
256,192,55234,1,8,0:0:0:0:
256,192,55309,1,8,0:0:0:0:
256,192,55459,1,0,0:0:0:0:
256,192,55609,1,0,0:0:0:0:
256,192,55684,1,0,0:0:0:0:
256,192,55759,1,0,0:0:0:0:
256,192,55834,1,0,0:0:0:0:
256,192,55909,1,8,0:0:0:0:
256,192,56059,1,0,0:0:0:0:
256,192,56134,1,8,0:0:0:0:
256,192,56209,1,8,0:0:0:0:
256,192,56359,1,0,0:0:0:0:
256,192,56434,1,0,0:0:0:0:
256,192,56509,1,8,0:0:0:0:
256,192,56659,1,0,0:0:0:0:
256,192,56809,1,12,0:0:0:0:
256,192,56959,1,0,0:0:0:0:
256,192,57109,1,8,0:0:0:0:
256,192,57259,1,0,0:0:0:0:
256,192,57409,1,8,0:0:0:0:
256,192,57559,1,0,0:0:0:0:
256,192,57709,1,8,0:0:0:0:
256,192,57859,1,0,0:0:0:0:
256,192,57934,1,0,0:0:0:0:
256,192,58009,1,12,0:0:0:0:
256,192,58159,1,0,0:0:0:0:
256,192,58309,1,8,0:0:0:0:
256,192,58384,1,0,0:0:0:0:
256,192,58459,1,0,0:0:0:0:
256,192,58609,1,8,0:0:0:0:
256,192,58759,1,0,0:0:0:0:
256,192,58909,1,8,0:0:0:0:
256,192,58984,1,8,0:0:0:0:
256,192,59059,1,0,0:0:0:0:
256,192,59209,1,12,0:0:0:0:
256,192,60409,1,12,0:0:0:0:
256,192,61609,1,8,0:0:0:0:
256,192,61684,1,8,0:0:0:0:
256,192,61759,1,0,0:0:0:0:
256,192,61834,1,0,0:0:0:0:
256,192,61909,1,8,0:0:0:0:
256,192,61984,1,0,0:0:0:0:
256,192,62059,1,0,0:0:0:0:
256,192,62134,1,0,0:0:0:0:
256,192,62209,1,8,0:0:0:0:
256,192,62284,1,8,0:0:0:0:
256,192,62359,1,0,0:0:0:0:
256,192,62434,1,0,0:0:0:0:
256,192,62509,1,8,0:0:0:0:
256,192,62584,1,0,0:0:0:0:
256,192,62659,1,0,0:0:0:0:
256,192,62734,1,0,0:0:0:0:
256,192,62809,1,8,0:0:0:0:
256,192,62884,1,8,0:0:0:0:
256,192,62959,1,0,0:0:0:0:
256,192,63034,1,0,0:0:0:0:
256,192,63109,1,8,0:0:0:0:
256,192,63184,1,0,0:0:0:0:
256,192,63259,1,0,0:0:0:0:
256,192,63334,1,0,0:0:0:0:
256,192,63409,1,8,0:0:0:0:
256,192,63484,1,8,0:0:0:0:
256,192,63559,1,0,0:0:0:0:
256,192,63634,1,0,0:0:0:0:
256,192,63709,1,8,0:0:0:0:
256,192,63784,1,8,0:0:0:0:
256,192,63859,1,0,0:0:0:0:
256,192,63934,1,0,0:0:0:0:
256,192,64009,1,8,0:0:0:0:
256,192,64084,1,8,0:0:0:0:
256,192,64159,1,8,0:0:0:0:
256,192,64234,1,0,0:0:0:0:
256,192,64309,1,8,0:0:0:0:
256,192,64384,1,8,0:0:0:0:
256,192,64459,1,0,0:0:0:0:
256,192,64534,1,0,0:0:0:0:
256,192,64609,1,8,0:0:0:0:
256,192,64684,1,8,0:0:0:0:
256,192,64759,1,8,0:0:0:0:
256,192,64834,1,0,0:0:0:0:
256,192,64909,1,8,0:0:0:0:
256,192,64984,1,8,0:0:0:0:
256,192,65059,1,0,0:0:0:0:
256,192,65134,1,0,0:0:0:0:
256,192,65209,1,8,0:0:0:0:
256,192,65284,1,8,0:0:0:0:
256,192,65359,1,8,0:0:0:0:
256,192,65434,1,0,0:0:0:0:
256,192,65509,1,8,0:0:0:0:
256,192,65584,1,8,0:0:0:0:
256,192,65659,1,0,0:0:0:0:
256,192,65734,1,0,0:0:0:0:
256,192,65809,1,8,0:0:0:0:
256,192,65884,1,8,0:0:0:0:
256,192,65959,1,8,0:0:0:0:
256,192,66034,1,8,0:0:0:0:
256,192,66109,1,0,0:0:0:0:
256,192,66184,1,0,0:0:0:0:
256,192,66259,1,0,0:0:0:0:
256,192,66334,1,0,0:0:0:0:
256,192,66409,1,8,0:0:0:0:
256,192,67609,1,4,0:0:0:0:
256,192,67759,1,8,0:0:0:0:
256,192,67909,1,0,0:0:0:0:
256,192,68059,1,8,0:0:0:0:
256,192,68134,1,8,0:0:0:0:
256,192,68209,1,0,0:0:0:0:
256,192,68359,1,8,0:0:0:0:
256,192,68509,1,0,0:0:0:0:
256,192,68584,1,0,0:0:0:0:
256,192,68659,1,8,0:0:0:0:
256,192,68809,1,8,0:0:0:0:
256,192,68884,1,0,0:0:0:0:
256,192,68959,1,8,0:0:0:0:
256,192,69109,1,8,0:0:0:0:
256,192,69259,1,0,0:0:0:0:
256,192,69409,1,8,0:0:0:0:
256,192,69484,1,0,0:0:0:0:
256,192,69559,1,0,0:0:0:0:
256,192,69709,1,8,0:0:0:0:
256,192,69859,1,8,0:0:0:0:
256,192,70009,1,8,0:0:0:0:
256,192,70084,1,8,0:0:0:0:
256,192,70159,1,0,0:0:0:0:
256,192,70234,1,0,0:0:0:0:
256,192,70309,1,8,0:0:0:0:
256,192,70459,1,0,0:0:0:0:
256,192,70609,1,8,0:0:0:0:
256,192,70759,1,0,0:0:0:0:
256,192,70834,1,8,0:0:0:0:
256,192,70909,1,0,0:0:0:0:
256,192,70984,1,0,0:0:0:0:
256,192,71059,1,8,0:0:0:0:
256,192,71209,1,8,0:0:0:0:
256,192,71359,1,8,0:0:0:0:
256,192,71509,1,8,0:0:0:0:
256,192,71584,1,8,0:0:0:0:
256,192,71659,1,0,0:0:0:0:
256,192,71734,1,0,0:0:0:0:
256,192,71809,1,8,0:0:0:0:
256,192,71959,1,8,0:0:0:0:
256,192,72109,1,0,0:0:0:0:
256,192,72259,1,0,0:0:0:0:
256,192,72334,1,0,0:0:0:0:
256,192,72409,1,8,0:0:0:0:
256,192,72484,1,0,0:0:0:0:
256,192,72559,1,8,0:0:0:0:
256,192,72709,1,0,0:0:0:0:
256,192,72859,1,8,0:0:0:0:
256,192,72934,1,8,0:0:0:0:
256,192,73009,1,8,0:0:0:0:
256,192,73159,1,0,0:0:0:0:
256,192,73309,1,8,0:0:0:0:
256,192,73384,1,0,0:0:0:0:
256,192,73459,1,0,0:0:0:0:
256,192,73609,1,4,0:0:0:0:
256,192,73759,1,8,0:0:0:0:
256,192,73909,1,8,0:0:0:0:
256,192,74059,1,8,0:0:0:0:
256,192,74209,1,4,0:0:0:0:
256,192,74359,1,8,0:0:0:0:
256,192,74509,1,0,0:0:0:0:
256,192,74659,1,0,0:0:0:0:
256,192,74809,1,12,0:0:0:0:
256,192,74959,1,0,0:0:0:0:
256,192,75034,1,0,0:0:0:0:
256,192,75109,1,8,0:0:0:0:
256,192,75184,1,0,0:0:0:0:
256,192,75259,1,0,0:0:0:0:
256,192,75334,1,0,0:0:0:0:
256,192,75409,1,8,0:0:0:0:
256,192,75484,1,8,0:0:0:0:
256,192,75559,1,8,0:0:0:0:
256,192,75634,1,8,0:0:0:0:
256,192,75709,1,0,0:0:0:0:
256,192,75784,1,0,0:0:0:0:
256,192,75859,1,8,0:0:0:0:
256,192,75934,1,8,0:0:0:0:
256,192,76009,1,0,0:0:0:0:
256,192,76084,1,0,0:0:0:0:
256,192,76159,1,8,0:0:0:0:
256,192,76234,1,0,0:0:0:0:
256,192,76309,1,0,0:0:0:0:
256,192,76384,1,0,0:0:0:0:
256,192,76459,1,8,0:0:0:0:
256,192,76534,1,8,0:0:0:0:
256,192,76609,1,0,0:0:0:0:
256,192,76684,1,0,0:0:0:0:
256,192,76759,1,8,0:0:0:0:
256,192,76834,1,0,0:0:0:0:
256,192,76909,1,8,0:0:0:0:
256,192,76984,1,8,0:0:0:0:
256,192,77059,1,0,0:0:0:0:
256,192,77134,1,0,0:0:0:0:
256,192,77209,1,8,0:0:0:0:
256,192,77284,1,8,0:0:0:0:
256,192,77359,1,8,0:0:0:0:
256,192,77434,1,8,0:0:0:0:
256,192,77509,1,0,0:0:0:0:
256,192,77584,1,0,0:0:0:0:
256,192,77659,1,8,0:0:0:0:
256,192,77734,1,8,0:0:0:0:
256,192,77809,1,0,0:0:0:0:
256,192,77884,1,0,0:0:0:0:
256,192,77959,1,8,0:0:0:0:
256,192,78034,1,0,0:0:0:0:
256,192,78109,1,0,0:0:0:0:
256,192,78184,1,0,0:0:0:0:
256,192,78259,1,8,0:0:0:0:
256,192,78334,1,8,0:0:0:0:
256,192,78409,1,8,0:0:0:0:
256,192,78484,1,0,0:0:0:0:
256,192,78559,1,8,0:0:0:0:
256,192,78634,1,8,0:0:0:0:
256,192,78709,1,0,0:0:0:0:
256,192,78784,1,0,0:0:0:0:
256,192,78859,1,8,0:0:0:0:
256,192,78934,1,0,0:0:0:0:
256,192,79009,1,8,0:0:0:0:
256,192,79084,1,8,0:0:0:0:
256,192,79159,1,8,0:0:0:0:
256,192,79234,1,8,0:0:0:0:
256,192,79309,1,0,0:0:0:0:
256,192,79384,1,0,0:0:0:0:
256,192,79459,1,8,0:0:0:0:
256,192,79534,1,0,0:0:0:0:
256,192,79609,1,8,0:0:0:0:
256,192,79684,1,0,0:0:0:0:
256,192,79759,1,8,0:0:0:0:
256,192,79834,1,8,0:0:0:0:
256,192,79909,1,0,0:0:0:0:
256,192,79984,1,0,0:0:0:0:
256,192,80059,1,8,0:0:0:0:
256,192,80134,1,8,0:0:0:0:
256,192,80209,1,0,0:0:0:0:
256,192,80284,1,0,0:0:0:0:
256,192,80359,1,8,0:0:0:0:
256,192,80434,1,0,0:0:0:0:
256,192,80509,1,0,0:0:0:0:
256,192,80584,1,0,0:0:0:0:
256,192,80659,1,8,0:0:0:0:
256,192,80734,1,8,0:0:0:0:
256,192,80809,1,0,0:0:0:0:
256,192,80884,1,0,0:0:0:0:
256,192,80959,1,8,0:0:0:0:
256,192,81034,1,0,0:0:0:0:
256,192,81109,1,0,0:0:0:0:
256,192,81184,1,0,0:0:0:0:
256,192,81259,1,8,0:0:0:0:
256,192,81334,1,8,0:0:0:0:
256,192,81409,1,0,0:0:0:0:
256,192,81484,1,0,0:0:0:0:
256,192,81559,1,8,0:0:0:0:
256,192,81634,1,8,0:0:0:0:
256,192,81709,1,8,0:0:0:0:
256,192,81784,1,0,0:0:0:0:
256,192,81859,1,8,0:0:0:0:
256,192,81934,1,8,0:0:0:0:
256,192,82009,1,0,0:0:0:0:
256,192,82084,1,0,0:0:0:0:
256,192,82159,1,8,0:0:0:0:
256,192,82234,1,0,0:0:0:0:
256,192,82309,1,0,0:0:0:0:
256,192,82384,1,0,0:0:0:0:
256,192,82459,1,8,0:0:0:0:
256,192,82534,1,8,0:0:0:0:
256,192,82609,1,0,0:0:0:0:
256,192,82684,1,0,0:0:0:0:
256,192,82759,1,8,0:0:0:0:
256,192,82834,1,8,0:0:0:0:
256,192,82909,1,8,0:0:0:0:
256,192,82984,1,8,0:0:0:0:
256,192,83059,1,0,0:0:0:0:
256,192,83134,1,8,0:0:0:0:
256,192,83209,1,0,0:0:0:0:
256,192,83284,1,0,0:0:0:0:
256,192,83359,1,8,0:0:0:0:
256,192,83434,1,0,0:0:0:0:
256,192,83509,1,0,0:0:0:0:
256,192,83584,1,0,0:0:0:0:
256,192,83659,1,8,0:0:0:0:
256,192,83734,1,0,0:0:0:0:
256,192,83809,1,0,0:0:0:0:
256,192,83884,1,0,0:0:0:0:
256,192,83959,1,8,0:0:0:0:
256,192,84034,1,8,0:0:0:0:
256,192,84109,1,0,0:0:0:0:
256,192,84184,1,0,0:0:0:0:
256,192,84259,1,8,0:0:0:0:
256,192,84334,1,0,0:0:0:0:
256,192,84409,1,8,0:0:0:0:
256,192,84484,1,0,0:0:0:0:
256,192,84559,1,0,0:0:0:0:
256,192,84634,1,0,0:0:0:0:
256,192,84709,1,8,0:0:0:0:
256,192,84784,1,8,0:0:0:0:
256,192,84859,1,0,0:0:0:0:
256,192,84934,1,0,0:0:0:0:
256,192,85009,1,8,0:0:0:0:
256,192,85609,1,8,0:0:0:0:
256,192,85684,1,8,0:0:0:0:
256,192,85759,1,8,0:0:0:0:
256,192,85834,1,8,0:0:0:0:
256,192,85909,1,8,0:0:0:0:
256,192,85984,1,8,0:0:0:0:
256,192,86059,1,0,0:0:0:0:
256,192,86134,1,0,0:0:0:0:
256,192,86209,1,8,0:0:0:0:
256,192,86284,1,8,0:0:0:0:
256,192,86359,1,0,0:0:0:0:
256,192,86434,1,0,0:0:0:0:
256,192,86509,1,8,0:0:0:0:
256,192,86584,1,0,0:0:0:0:
256,192,86659,1,0,0:0:0:0:
256,192,86734,1,0,0:0:0:0:
256,192,86809,1,8,0:0:0:0:
256,192,86884,1,8,0:0:0:0:
256,192,86959,1,8,0:0:0:0:
256,192,87034,1,8,0:0:0:0:
256,192,87109,1,0,0:0:0:0:
256,192,87184,1,0,0:0:0:0:
256,192,87259,1,0,0:0:0:0:
256,192,87334,1,0,0:0:0:0:
256,192,87409,1,8,0:0:0:0:
256,192,87484,1,8,0:0:0:0:
256,192,87559,1,0,0:0:0:0:
256,192,87634,1,0,0:0:0:0:
256,192,87709,1,8,0:0:0:0:
256,192,87784,1,8,0:0:0:0:
256,192,87859,1,0,0:0:0:0:
256,192,87934,1,0,0:0:0:0:
256,192,88009,1,8,0:0:0:0:
256,192,88084,1,8,0:0:0:0:
256,192,88159,1,8,0:0:0:0:
256,192,88234,1,8,0:0:0:0:
256,192,88309,1,8,0:0:0:0:
256,192,88384,1,8,0:0:0:0:
256,192,88459,1,0,0:0:0:0:
256,192,88534,1,0,0:0:0:0:
256,192,88609,1,8,0:0:0:0:
256,192,88684,1,8,0:0:0:0:
256,192,88759,1,8,0:0:0:0:
256,192,88834,1,8,0:0:0:0:
256,192,88909,1,0,0:0:0:0:
256,192,88984,1,0,0:0:0:0:
256,192,89059,1,0,0:0:0:0:
256,192,89134,1,0,0:0:0:0:
256,192,89209,1,8,0:0:0:0:
256,192,89284,1,8,0:0:0:0:
256,192,89359,1,8,0:0:0:0:
256,192,89434,1,8,0:0:0:0:
256,192,89509,1,8,0:0:0:0:
256,192,89584,1,8,0:0:0:0:
256,192,89659,1,0,0:0:0:0:
256,192,89734,1,0,0:0:0:0:
256,192,89809,1,8,0:0:0:0:
256,192,89884,1,8,0:0:0:0:
256,192,89959,1,0,0:0:0:0:
256,192,90034,1,8,0:0:0:0:
256,192,90109,1,0,0:0:0:0:
256,192,90184,1,0,0:0:0:0:
256,192,90259,1,0,0:0:0:0:
256,192,90334,1,0,0:0:0:0:
256,192,90409,1,8,0:0:0:0:
256,192,90484,1,8,0:0:0:0:
256,192,90559,1,8,0:0:0:0:
256,192,90634,1,8,0:0:0:0:
256,192,90709,1,8,0:0:0:0:
256,192,90784,1,8,0:0:0:0:
256,192,90859,1,8,0:0:0:0:
256,192,90934,1,8,0:0:0:0:
256,192,91009,1,0,0:0:0:0:
256,192,91084,1,0,0:0:0:0:
256,192,91159,1,0,0:0:0:0:
256,192,91234,1,0,0:0:0:0:
256,192,91309,1,8,0:0:0:0:
256,192,91384,1,8,0:0:0:0:
256,192,91459,1,0,0:0:0:0:
256,192,91534,1,0,0:0:0:0:
256,192,91609,1,8,0:0:0:0:
256,192,91684,1,8,0:0:0:0:
256,192,91759,1,8,0:0:0:0:
256,192,91834,1,8,0:0:0:0:
256,192,91909,1,8,0:0:0:0:
256,192,91984,1,8,0:0:0:0:
256,192,92059,1,0,0:0:0:0:
256,192,92134,1,0,0:0:0:0:
256,192,92209,1,8,0:0:0:0:
256,192,92284,1,8,0:0:0:0:
256,192,92359,1,0,0:0:0:0:
256,192,92434,1,0,0:0:0:0:
256,192,92509,1,8,0:0:0:0:
256,192,92584,1,8,0:0:0:0:
256,192,92659,1,0,0:0:0:0:
256,192,92734,1,0,0:0:0:0:
256,192,92809,1,8,0:0:0:0:
256,192,92884,1,8,0:0:0:0:
256,192,92959,1,8,0:0:0:0:
256,192,93034,1,8,0:0:0:0:
256,192,93109,1,8,0:0:0:0:
256,192,93184,1,8,0:0:0:0:
256,192,93259,1,0,0:0:0:0:
256,192,93334,1,0,0:0:0:0:
256,192,93409,1,8,0:0:0:0:
256,192,93484,1,8,0:0:0:0:
256,192,93559,1,8,0:0:0:0:
256,192,93634,1,8,0:0:0:0:
256,192,93709,1,8,0:0:0:0:
256,192,93784,1,8,0:0:0:0:
256,192,93859,1,0,0:0:0:0:
256,192,93934,1,0,0:0:0:0:
256,192,94009,1,8,0:0:0:0:
256,192,94084,1,8,0:0:0:0:
256,192,94159,1,8,0:0:0:0:
256,192,94234,1,8,0:0:0:0:
256,192,94309,1,8,0:0:0:0:
256,192,94384,1,8,0:0:0:0:
256,192,94459,1,8,0:0:0:0:
256,192,94534,1,8,0:0:0:0:
256,192,94609,1,0,0:0:0:0:
256,192,94684,1,0,0:0:0:0:
256,192,94759,1,8,0:0:0:0:
256,192,94834,1,8,0:0:0:0:
256,192,94909,1,0,0:0:0:0:
256,192,94984,1,0,0:0:0:0:
256,192,95059,1,8,0:0:0:0:
256,192,95209,1,4,0:0:0:0:
256,192,95509,1,8,0:0:0:0:
256,192,95584,1,0,0:0:0:0:
256,192,95659,1,8,0:0:0:0:
256,192,95734,1,8,0:0:0:0:
256,192,95809,1,0,0:0:0:0:
256,192,95959,1,0,0:0:0:0:
256,192,96109,1,8,0:0:0:0:
256,192,96259,1,0,0:0:0:0:
256,192,96409,1,12,0:0:0:0:
256,192,96709,1,8,0:0:0:0:
256,192,96784,1,0,0:0:0:0:
256,192,96859,1,0,0:0:0:0:
256,192,96934,1,0,0:0:0:0:
256,192,97009,1,0,0:0:0:0:
256,192,97159,1,0,0:0:0:0:
256,192,97309,1,8,0:0:0:0:
256,192,97459,1,0,0:0:0:0:
256,192,97609,1,12,0:0:0:0:
256,192,97909,1,8,0:0:0:0:
256,192,97984,1,0,0:0:0:0:
256,192,98059,1,0,0:0:0:0:
256,192,98134,1,0,0:0:0:0:
256,192,98209,1,12,0:0:0:0:
256,192,98509,1,8,0:0:0:0:
256,192,98584,1,8,0:0:0:0:
256,192,98659,1,0,0:0:0:0:
256,192,98734,1,0,0:0:0:0:
256,192,98809,1,12,0:0:0:0:
256,192,99109,1,8,0:0:0:0:
256,192,99259,1,0,0:0:0:0:
256,192,99409,1,0,0:0:0:0:
256,192,99559,1,8,0:0:0:0:
256,192,99634,1,0,0:0:0:0:
256,192,99709,1,8,0:0:0:0:
256,192,99859,1,0,0:0:0:0:
256,192,100009,1,12,0:0:0:0:
256,192,100309,1,8,0:0:0:0:
256,192,100384,1,0,0:0:0:0:
256,192,100459,1,8,0:0:0:0:
256,192,100534,1,8,0:0:0:0:
256,192,100609,1,0,0:0:0:0:
256,192,100759,1,0,0:0:0:0:
256,192,100909,1,8,0:0:0:0:
256,192,101059,1,0,0:0:0:0:
256,192,101209,1,4,0:0:0:0:
256,192,101509,1,8,0:0:0:0:
256,192,101584,1,0,0:0:0:0:
256,192,101659,1,0,0:0:0:0:
256,192,101734,1,0,0:0:0:0:
256,192,101809,1,0,0:0:0:0:
256,192,101959,1,0,0:0:0:0:
256,192,102109,1,8,0:0:0:0:
256,192,102259,1,0,0:0:0:0:
256,192,102409,1,12,0:0:0:0:
256,192,102709,1,8,0:0:0:0:
256,192,102784,1,0,0:0:0:0:
256,192,102859,1,0,0:0:0:0:
256,192,102934,1,0,0:0:0:0:
256,192,103009,1,12,0:0:0:0:
256,192,103309,1,8,0:0:0:0:
256,192,103384,1,8,0:0:0:0:
256,192,103459,1,0,0:0:0:0:
256,192,103534,1,0,0:0:0:0:
256,192,103609,1,8,0:0:0:0:
256,192,103684,1,0,0:0:0:0:
256,192,103759,1,0,0:0:0:0:
256,192,103834,1,0,0:0:0:0:
256,192,103909,1,8,0:0:0:0:
256,192,103984,1,0,0:0:0:0:
256,192,104059,1,0,0:0:0:0:
256,192,104134,1,0,0:0:0:0:
256,192,104209,1,8,0:0:0:0:
256,192,104284,1,8,0:0:0:0:
256,192,104359,1,8,0:0:0:0:
256,192,104434,1,8,0:0:0:0:
256,192,104509,1,0,0:0:0:0:
256,192,104584,1,0,0:0:0:0:
256,192,104659,1,0,0:0:0:0:
256,192,104734,1,0,0:0:0:0:
256,192,104809,1,12,0:0:0:0:
256,192,105109,1,8,0:0:0:0:
256,192,105184,1,0,0:0:0:0:
256,192,105259,1,8,0:0:0:0:
256,192,105334,1,8,0:0:0:0:
256,192,105409,1,0,0:0:0:0:
256,192,105559,1,0,0:0:0:0:
256,192,105709,1,8,0:0:0:0:
256,192,105859,1,0,0:0:0:0:
256,192,106009,1,12,0:0:0:0:
256,192,106309,1,8,0:0:0:0:
256,192,106384,1,0,0:0:0:0:
256,192,106459,1,0,0:0:0:0:
256,192,106534,1,0,0:0:0:0:
256,192,106609,1,0,0:0:0:0:
256,192,106759,1,0,0:0:0:0:
256,192,106909,1,8,0:0:0:0:
256,192,107059,1,0,0:0:0:0:
256,192,107209,1,12,0:0:0:0:
256,192,107509,1,8,0:0:0:0:
256,192,107584,1,0,0:0:0:0:
256,192,107659,1,0,0:0:0:0:
256,192,107734,1,0,0:0:0:0:
256,192,107809,1,12,0:0:0:0:
256,192,108109,1,8,0:0:0:0:
256,192,108184,1,8,0:0:0:0:
256,192,108259,1,0,0:0:0:0:
256,192,108334,1,0,0:0:0:0:
256,192,108409,1,12,0:0:0:0:
256,192,108709,1,8,0:0:0:0:
256,192,108784,1,0,0:0:0:0:
256,192,108859,1,0,0:0:0:0:
256,192,108934,1,0,0:0:0:0:
256,192,109009,1,0,0:0:0:0:
256,192,109159,1,0,0:0:0:0:
256,192,109309,1,8,0:0:0:0:
256,192,109459,1,0,0:0:0:0:
256,192,109609,1,12,0:0:0:0:
256,192,109909,1,8,0:0:0:0:
256,192,109984,1,0,0:0:0:0:
256,192,110059,1,8,0:0:0:0:
256,192,110134,1,8,0:0:0:0:
256,192,110209,1,0,0:0:0:0:
256,192,110359,1,0,0:0:0:0:
256,192,110509,1,8,0:0:0:0:
256,192,110659,1,8,0:0:0:0:
256,192,110809,1,4,0:0:0:0:
256,192,111109,1,8,0:0:0:0:
256,192,111184,1,0,0:0:0:0:
256,192,111259,1,0,0:0:0:0:
256,192,111334,1,0,0:0:0:0:
256,192,111409,1,0,0:0:0:0:
256,192,111559,1,0,0:0:0:0:
256,192,111709,1,8,0:0:0:0:
256,192,111859,1,0,0:0:0:0:
256,192,112009,1,12,0:0:0:0:
256,192,112309,1,8,0:0:0:0:
256,192,112384,1,8,0:0:0:0:
256,192,112459,1,8,0:0:0:0:
256,192,112534,1,8,0:0:0:0:
256,192,112609,1,4,0:0:0:0:
256,192,112909,1,4,0:0:0:0:
256,192,113209,1,12,0:0:0:0:
256,192,113359,1,0,0:0:0:0:
256,192,113509,1,0,0:0:0:0:
256,192,113659,1,0,0:0:0:0:
256,192,113809,1,8,0:0:0:0:
256,192,113959,1,0,0:0:0:0:
256,192,114034,1,0,0:0:0:0:
256,192,114109,1,12,0:0:0:0:
256,192,114409,1,4,0:0:0:0:
256,192,114559,1,8,0:0:0:0:
256,192,114709,1,8,0:0:0:0:
256,192,114784,1,0,0:0:0:0:
256,192,114859,1,0,0:0:0:0:
256,192,114934,1,0,0:0:0:0:
256,192,115009,1,8,0:0:0:0:
256,192,115084,1,8,0:0:0:0:
256,192,115159,1,0,0:0:0:0:
256,192,115309,1,8,0:0:0:0:
256,192,115459,1,8,0:0:0:0:
256,192,115609,1,0,0:0:0:0:
256,192,115684,1,8,0:0:0:0:
256,192,115759,1,8,0:0:0:0:
256,192,115909,1,8,0:0:0:0:
256,192,116059,1,0,0:0:0:0:
256,192,116209,1,0,0:0:0:0:
256,192,116284,1,0,0:0:0:0:
256,192,116359,1,8,0:0:0:0:
256,192,116434,1,8,0:0:0:0:
256,192,116509,1,0,0:0:0:0:
256,192,116659,1,8,0:0:0:0:
256,192,116734,1,0,0:0:0:0:
256,192,116809,1,0,0:0:0:0:
256,192,116959,1,8,0:0:0:0:
256,192,117109,1,8,0:0:0:0:
256,192,117259,1,8,0:0:0:0:
256,192,117409,1,0,0:0:0:0:
256,192,117484,1,8,0:0:0:0:
256,192,117559,1,0,0:0:0:0:
256,192,117709,1,8,0:0:0:0:
256,192,117859,1,8,0:0:0:0:
256,192,117934,1,8,0:0:0:0:
256,192,118009,1,0,0:0:0:0:
256,192,118159,1,8,0:0:0:0:
256,192,118309,1,8,0:0:0:0:
256,192,118459,1,0,0:0:0:0:
256,192,118609,1,0,0:0:0:0:
256,192,118759,1,8,0:0:0:0:
256,192,118834,1,0,0:0:0:0:
256,192,118909,1,8,0:0:0:0:
256,192,119059,1,0,0:0:0:0:
256,192,119209,1,8,0:0:0:0:
256,192,119359,1,0,0:0:0:0:
256,192,119509,1,8,0:0:0:0:
256,192,119584,1,8,0:0:0:0:
256,192,119659,1,0,0:0:0:0:
256,192,119734,1,8,0:0:0:0:
256,192,119809,1,0,0:0:0:0:
256,192,119884,1,0,0:0:0:0:
256,192,119959,1,8,0:0:0:0:
256,192,120109,1,8,0:0:0:0:
256,192,120259,1,8,0:0:0:0:
256,192,120409,1,0,0:0:0:0:
256,192,120484,1,0,0:0:0:0:
256,192,120559,1,8,0:0:0:0:
256,192,120634,1,8,0:0:0:0:
256,192,120709,1,8,0:0:0:0:
256,192,120859,1,8,0:0:0:0:
256,192,120934,1,0,0:0:0:0:
256,192,121009,1,0,0:0:0:0:
256,192,121159,1,8,0:0:0:0:
256,192,121309,1,0,0:0:0:0:
256,192,121459,1,8,0:0:0:0:
256,192,121534,1,0,0:0:0:0:
256,192,121609,1,0,0:0:0:0:
256,192,121759,1,8,0:0:0:0:
256,192,121909,1,0,0:0:0:0:
256,192,122059,1,8,0:0:0:0:
256,192,122134,1,8,0:0:0:0:
256,192,122209,1,0,0:0:0:0:
256,192,122359,1,8,0:0:0:0:
256,192,122509,1,8,0:0:0:0:
256,192,122659,1,8,0:0:0:0:
256,192,122734,1,8,0:0:0:0:
256,192,122809,1,0,0:0:0:0:
256,192,122959,1,8,0:0:0:0:
256,192,123034,1,0,0:0:0:0:
256,192,123109,1,8,0:0:0:0:
256,192,123259,1,0,0:0:0:0:
256,192,123334,1,0,0:0:0:0:
256,192,123409,1,8,0:0:0:0:
256,192,123484,1,8,0:0:0:0:
256,192,123559,1,8,0:0:0:0:
256,192,123634,1,8,0:0:0:0:
256,192,123709,1,0,0:0:0:0:
256,192,123784,1,0,0:0:0:0:
256,192,123859,1,0,0:0:0:0:
256,192,123934,1,0,0:0:0:0:
256,192,124009,1,8,0:0:0:0:
256,192,124084,1,0,0:0:0:0:
256,192,124159,1,8,0:0:0:0:
256,192,124234,1,0,0:0:0:0:
256,192,124309,1,0,0:0:0:0:
256,192,124384,1,0,0:0:0:0:
256,192,124459,1,8,0:0:0:0:
256,192,124534,1,8,0:0:0:0:
256,192,124609,1,0,0:0:0:0:
256,192,124684,1,0,0:0:0:0:
256,192,124759,1,8,0:0:0:0:
256,192,124834,1,0,0:0:0:0:
256,192,124909,1,0,0:0:0:0:
256,192,124984,1,0,0:0:0:0:
256,192,125059,1,8,0:0:0:0:
256,192,125134,1,8,0:0:0:0:
256,192,125209,1,0,0:0:0:0:
256,192,125284,1,0,0:0:0:0:
256,192,125359,1,8,0:0:0:0:
256,192,125434,1,8,0:0:0:0:
256,192,125509,1,8,0:0:0:0:
256,192,125584,1,0,0:0:0:0:
256,192,125659,1,8,0:0:0:0:
256,192,125734,1,8,0:0:0:0:
256,192,125809,1,0,0:0:0:0:
256,192,125884,1,0,0:0:0:0:
256,192,125959,1,8,0:0:0:0:
256,192,126034,1,0,0:0:0:0:
256,192,126109,1,0,0:0:0:0:
256,192,126184,1,0,0:0:0:0:
256,192,126259,1,8,0:0:0:0:
256,192,126334,1,8,0:0:0:0:
256,192,126409,1,0,0:0:0:0:
256,192,126484,1,0,0:0:0:0:
256,192,126559,1,8,0:0:0:0:
256,192,126634,1,0,0:0:0:0:
256,192,126709,1,0,0:0:0:0:
256,192,126784,1,0,0:0:0:0:
256,192,126859,1,8,0:0:0:0:
256,192,126934,1,8,0:0:0:0:
256,192,127009,1,0,0:0:0:0:
256,192,127084,1,0,0:0:0:0:
256,192,127159,1,8,0:0:0:0:
256,192,127234,1,8,0:0:0:0:
256,192,127309,1,8,0:0:0:0:
256,192,127384,1,0,0:0:0:0:
256,192,127459,1,8,0:0:0:0:
256,192,127534,1,8,0:0:0:0:
256,192,127609,1,0,0:0:0:0:
256,192,127684,1,0,0:0:0:0:
256,192,127759,1,8,0:0:0:0:
256,192,127834,1,0,0:0:0:0:
256,192,127909,1,0,0:0:0:0:
256,192,127984,1,0,0:0:0:0:
256,192,128059,1,8,0:0:0:0:
256,192,128134,1,8,0:0:0:0:
256,192,128209,1,0,0:0:0:0:
256,192,128284,1,0,0:0:0:0:
256,192,128359,1,8,0:0:0:0:
256,192,128434,1,0,0:0:0:0:
256,192,128509,1,0,0:0:0:0:
256,192,128584,1,0,0:0:0:0:
256,192,128659,1,8,0:0:0:0:
256,192,128734,1,8,0:0:0:0:
256,192,128809,1,0,0:0:0:0:
256,192,128884,1,0,0:0:0:0:
256,192,128959,1,8,0:0:0:0:
256,192,129034,1,8,0:0:0:0:
256,192,129109,1,8,0:0:0:0:
256,192,129184,1,0,0:0:0:0:
256,192,129259,1,8,0:0:0:0:
256,192,129334,1,8,0:0:0:0:
256,192,129409,1,0,0:0:0:0:
256,192,129484,1,0,0:0:0:0:
256,192,129559,1,8,0:0:0:0:
256,192,129634,1,0,0:0:0:0:
256,192,129709,1,0,0:0:0:0:
256,192,129784,1,0,0:0:0:0:
256,192,129859,1,8,0:0:0:0:
256,192,129934,1,8,0:0:0:0:
256,192,130009,1,0,0:0:0:0:
256,192,130084,1,0,0:0:0:0:
256,192,130159,1,8,0:0:0:0:
256,192,130234,1,8,0:0:0:0:
256,192,130309,1,8,0:0:0:0:
256,192,130384,1,0,0:0:0:0:
256,192,130459,1,8,0:0:0:0:
256,192,130534,1,8,0:0:0:0:
256,192,130609,1,0,0:0:0:0:
256,192,130684,1,0,0:0:0:0:
256,192,130759,1,8,0:0:0:0:
256,192,130834,1,0,0:0:0:0:
256,192,130909,1,0,0:0:0:0:
256,192,130984,1,0,0:0:0:0:
256,192,131059,1,8,0:0:0:0:
256,192,131134,1,8,0:0:0:0:
256,192,131209,1,0,0:0:0:0:
256,192,131284,1,0,0:0:0:0:
256,192,131359,1,8,0:0:0:0:
256,192,131434,1,8,0:0:0:0:
256,192,131509,1,8,0:0:0:0:
256,192,131584,1,0,0:0:0:0:
256,192,131659,1,8,0:0:0:0:
256,192,131734,1,8,0:0:0:0:
256,192,131809,1,0,0:0:0:0:
256,192,131884,1,0,0:0:0:0:
256,192,131959,1,8,0:0:0:0:
256,192,132034,1,8,0:0:0:0:
256,192,132109,1,0,0:0:0:0:
256,192,132184,1,0,0:0:0:0:
256,192,132259,1,8,0:0:0:0:
256,192,132334,1,0,0:0:0:0:
256,192,132409,1,0,0:0:0:0:
256,192,132484,1,0,0:0:0:0:
256,192,132559,1,8,0:0:0:0:
256,192,132634,1,8,0:0:0:0:
256,192,132709,1,0,0:0:0:0:
256,192,132784,1,0,0:0:0:0:
256,192,132859,1,8,0:0:0:0:
256,192,132934,1,8,0:0:0:0:
256,192,133009,1,8,0:0:0:0:
256,192,133609,1,8,0:0:0:0:
256,192,133684,1,8,0:0:0:0:
256,192,133759,1,0,0:0:0:0:
256,192,133834,1,0,0:0:0:0:
256,192,133909,1,0,0:0:0:0:
256,192,133984,1,0,0:0:0:0:
256,192,134059,1,8,0:0:0:0:
256,192,134134,1,8,0:0:0:0:
256,192,134209,1,8,0:0:0:0:
256,192,134284,1,8,0:0:0:0:
256,192,134359,1,0,0:0:0:0:
256,192,134434,1,0,0:0:0:0:
256,192,134509,1,8,0:0:0:0:
256,192,134584,1,8,0:0:0:0:
256,192,134659,1,8,0:0:0:0:
256,192,134734,1,0,0:0:0:0:
256,192,134809,1,8,0:0:0:0:
256,192,134884,1,8,0:0:0:0:
256,192,134959,1,0,0:0:0:0:
256,192,135034,1,0,0:0:0:0:
256,192,135109,1,8,0:0:0:0:
256,192,135184,1,8,0:0:0:0:
256,192,135259,1,0,0:0:0:0:
256,192,135334,1,0,0:0:0:0:
256,192,135409,1,8,0:0:0:0:
256,192,135484,1,8,0:0:0:0:
256,192,135559,1,8,0:0:0:0:
256,192,135634,1,8,0:0:0:0:
256,192,135709,1,0,0:0:0:0:
256,192,135784,1,0,0:0:0:0:
256,192,135859,1,0,0:0:0:0:
256,192,135934,1,0,0:0:0:0:
256,192,136009,1,8,0:0:0:0:
256,192,136084,1,8,0:0:0:0:
256,192,136159,1,8,0:0:0:0:
256,192,136234,1,8,0:0:0:0:
256,192,136309,1,0,0:0:0:0:
256,192,136384,1,0,0:0:0:0:
256,192,136459,1,8,0:0:0:0:
256,192,136534,1,8,0:0:0:0:
256,192,136609,1,8,0:0:0:0:
256,192,136684,1,8,0:0:0:0:
256,192,136759,1,8,0:0:0:0:
256,192,136834,1,8,0:0:0:0:
256,192,136909,1,0,0:0:0:0:
256,192,136984,1,0,0:0:0:0:
256,192,137059,1,8,0:0:0:0:
256,192,137134,1,0,0:0:0:0:
256,192,137209,1,8,0:0:0:0:
256,192,137284,1,8,0:0:0:0:
256,192,137359,1,8,0:0:0:0:
256,192,137434,1,8,0:0:0:0:
256,192,137509,1,0,0:0:0:0:
256,192,137584,1,8,0:0:0:0:
256,192,137659,1,0,0:0:0:0:
256,192,137734,1,0,0:0:0:0:
256,192,137809,1,8,0:0:0:0:
256,192,137884,1,8,0:0:0:0:
256,192,137959,1,8,0:0:0:0:
256,192,138034,1,8,0:0:0:0:
256,192,138109,1,0,0:0:0:0:
256,192,138184,1,0,0:0:0:0:
256,192,138259,1,0,0:0:0:0:
256,192,138334,1,0,0:0:0:0:
256,192,138409,1,8,0:0:0:0:
256,192,138484,1,8,0:0:0:0:
256,192,138559,1,8,0:0:0:0:
256,192,138634,1,8,0:0:0:0:
256,192,138709,1,0,0:0:0:0:
256,192,138784,1,0,0:0:0:0:
256,192,138859,1,8,0:0:0:0:
256,192,138934,1,0,0:0:0:0:
256,192,139009,1,8,0:0:0:0:
256,192,139084,1,8,0:0:0:0:
256,192,139159,1,8,0:0:0:0:
256,192,139234,1,8,0:0:0:0:
256,192,139309,1,0,0:0:0:0:
256,192,139384,1,8,0:0:0:0:
256,192,139459,1,0,0:0:0:0:
256,192,139534,1,0,0:0:0:0:
256,192,139609,1,8,0:0:0:0:
256,192,139684,1,8,0:0:0:0:
256,192,139759,1,8,0:0:0:0:
256,192,139834,1,8,0:0:0:0:
256,192,139909,1,0,0:0:0:0:
256,192,139984,1,0,0:0:0:0:
256,192,140059,1,0,0:0:0:0:
256,192,140134,1,0,0:0:0:0:
256,192,140209,1,8,0:0:0:0:
256,192,140284,1,8,0:0:0:0:
256,192,140359,1,8,0:0:0:0:
256,192,140434,1,8,0:0:0:0:
256,192,140509,1,8,0:0:0:0:
256,192,140584,1,8,0:0:0:0:
256,192,140659,1,0,0:0:0:0:
256,192,140734,1,0,0:0:0:0:
256,192,140809,1,8,0:0:0:0:
256,192,140884,1,8,0:0:0:0:
256,192,140959,1,8,0:0:0:0:
256,192,141034,1,8,0:0:0:0:
256,192,141109,1,8,0:0:0:0:
256,192,141184,1,8,0:0:0:0:
256,192,141259,1,0,0:0:0:0:
256,192,141334,1,0,0:0:0:0:
256,192,141409,1,8,0:0:0:0:
256,192,141484,1,8,0:0:0:0:
256,192,141559,1,8,0:0:0:0:
256,192,141634,1,8,0:0:0:0:
256,192,141709,1,8,0:0:0:0:
256,192,141784,1,8,0:0:0:0:
256,192,141859,1,0,0:0:0:0:
256,192,141934,1,0,0:0:0:0:
256,192,142009,1,8,0:0:0:0:
256,192,142084,1,8,0:0:0:0:
256,192,142159,1,8,0:0:0:0:
256,192,142234,1,8,0:0:0:0:
256,192,142309,1,8,0:0:0:0:
256,192,142384,1,8,0:0:0:0:
256,192,142459,1,8,0:0:0:0:
256,192,142534,1,8,0:0:0:0:
256,192,142609,1,8,0:0:0:0:
256,192,142684,1,8,0:0:0:0:
256,192,142759,1,0,0:0:0:0:
256,192,142834,1,0,0:0:0:0:
256,192,142909,1,0,0:0:0:0:
256,192,142984,1,0,0:0:0:0:
256,192,143059,1,8,0:0:0:0:
256,192,143134,1,0,0:0:0:0:
256,192,143209,1,8,0:0:0:0:
256,192,143284,1,8,0:0:0:0:
256,192,143359,1,0,0:0:0:0:
256,192,143434,1,0,0:0:0:0:
256,192,143509,1,8,0:0:0:0:
256,192,143584,1,8,0:0:0:0:
256,192,143659,1,8,0:0:0:0:
256,192,143734,1,8,0:0:0:0:
256,192,143809,1,0,0:0:0:0:
256,192,143884,1,0,0:0:0:0:
256,192,143959,1,8,0:0:0:0:
256,192,144034,1,0,0:0:0:0:
256,192,144109,1,8,0:0:0:0:
256,192,144184,1,8,0:0:0:0:
256,192,144259,1,0,0:0:0:0:
256,192,144334,1,0,0:0:0:0:
256,192,144409,1,8,0:0:0:0:
256,192,144484,1,8,0:0:0:0:
256,192,144559,1,8,0:0:0:0:
256,192,144634,1,8,0:0:0:0:
256,192,144709,1,0,0:0:0:0:
256,192,144784,1,0,0:0:0:0:
256,192,144859,1,8,0:0:0:0:
256,192,144934,1,0,0:0:0:0:
256,192,145009,1,8,0:0:0:0:
256,192,145084,1,8,0:0:0:0:
256,192,145159,1,8,0:0:0:0:
256,192,145234,1,8,0:0:0:0:
256,192,145309,1,8,0:0:0:0:
256,192,145384,1,8,0:0:0:0:
256,192,145459,1,0,0:0:0:0:
256,192,145534,1,0,0:0:0:0:
256,192,145609,1,8,0:0:0:0:
256,192,145684,1,8,0:0:0:0:
256,192,145759,1,8,0:0:0:0:
256,192,145834,1,8,0:0:0:0:
256,192,145909,1,0,0:0:0:0:
256,192,145984,1,0,0:0:0:0:
256,192,146059,1,8,0:0:0:0:
256,192,146134,1,8,0:0:0:0:
256,192,146209,1,8,0:0:0:0:
256,192,146284,1,8,0:0:0:0:
256,192,146359,1,0,0:0:0:0:
256,192,146434,1,0,0:0:0:0:
256,192,146509,1,8,0:0:0:0:
256,192,146584,1,8,0:0:0:0:
256,192,146659,1,0,0:0:0:0:
256,192,146734,1,0,0:0:0:0:
256,192,146809,1,8,0:0:0:0:
256,192,146884,1,8,0:0:0:0:
256,192,146959,1,8,0:0:0:0:
256,192,147034,1,8,0:0:0:0:
256,192,147109,1,0,0:0:0:0:
256,192,147184,1,0,0:0:0:0:
256,192,147259,1,8,0:0:0:0:
256,192,147334,1,0,0:0:0:0:
256,192,147409,1,8,0:0:0:0:
256,192,147484,1,8,0:0:0:0:
256,192,147559,1,8,0:0:0:0:
256,192,147634,1,8,0:0:0:0:
256,192,147709,1,8,0:0:0:0:
256,192,147784,1,8,0:0:0:0:
256,192,147859,1,0,0:0:0:0:
256,192,147934,1,0,0:0:0:0:
256,192,148009,1,8,0:0:0:0:
256,192,148084,1,0,0:0:0:0:
256,192,148159,1,8,0:0:0:0:
256,192,148234,1,0,0:0:0:0:
256,192,148309,1,8,0:0:0:0:
256,192,148384,1,8,0:0:0:0:
256,192,148459,1,0,0:0:0:0:
256,192,148534,1,0,0:0:0:0:
256,192,148609,1,8,0:0:0:0:
256,192,148684,1,8,0:0:0:0:
256,192,148759,1,8,0:0:0:0:
256,192,148834,1,8,0:0:0:0:
256,192,148909,1,0,0:0:0:0:
256,192,148984,1,0,0:0:0:0:
256,192,149059,1,8,0:0:0:0:
256,192,149134,1,8,0:0:0:0:
256,192,149209,1,0,0:0:0:0:
256,192,149284,1,0,0:0:0:0:
256,192,149359,1,8,0:0:0:0:
256,192,149434,1,0,0:0:0:0:
256,192,149509,1,8,0:0:0:0:
256,192,149584,1,0,0:0:0:0:
256,192,149659,1,8,0:0:0:0:
256,192,149734,1,8,0:0:0:0:
256,192,149809,5,0,0:0:0:0:
256,192,149884,1,0,0:0:0:0:
256,192,149959,1,8,0:0:0:0:
256,192,150034,1,8,0:0:0:0:
256,192,150109,1,0,0:0:0:0:
256,192,150184,1,8,0:0:0:0:
256,192,150259,1,0,0:0:0:0:
256,192,150334,1,0,0:0:0:0:
256,192,150409,1,12,0:0:0:0:
256,192,151009,1,4,0:0:0:0:
256,192,151609,1,4,0:0:0:0:
256,192,152059,1,0,0:0:0:0:
256,192,152134,1,0,0:0:0:0:
256,192,152209,1,8,0:0:0:0:
256,192,152246,1,8,0:0:0:0:
256,192,152359,1,0,0:0:0:0:
256,192,152809,1,4,0:0:0:0:
256,192,152959,1,0,0:0:0:0:
256,192,153034,1,0,0:0:0:0:
256,192,153109,1,8,0:0:0:0:
256,192,153259,1,0,0:0:0:0:
256,192,153409,1,8,0:0:0:0:
256,192,153559,1,0,0:0:0:0:
256,192,153709,1,0,0:0:0:0:
256,192,153784,1,0,0:0:0:0:
256,192,153859,1,8,0:0:0:0:
256,192,154159,1,0,0:0:0:0:
256,192,154234,1,0,0:0:0:0:
256,192,154309,1,8,0:0:0:0:
256,192,154459,1,0,0:0:0:0:
256,192,154609,1,8,0:0:0:0:
256,192,154759,1,0,0:0:0:0:
256,192,154909,1,0,0:0:0:0:
256,192,154984,1,0,0:0:0:0:
256,192,155059,1,8,0:0:0:0:
256,192,155209,1,0,0:0:0:0:
256,192,155359,1,0,0:0:0:0:
256,192,155434,1,0,0:0:0:0:
256,192,155509,1,0,0:0:0:0:
256,192,155659,1,0,0:0:0:0:
256,192,155809,1,8,0:0:0:0:
256,192,155884,1,0,0:0:0:0:
256,192,155959,1,0,0:0:0:0:
256,192,156109,1,0,0:0:0:0:
256,192,156184,1,0,0:0:0:0:
256,192,156259,1,0,0:0:0:0:
256,192,156559,1,0,0:0:0:0:
256,192,156634,1,0,0:0:0:0:
256,192,156709,1,8,0:0:0:0:
256,192,157009,1,8,0:0:0:0:
256,192,157084,1,0,0:0:0:0:
256,192,157159,1,0,0:0:0:0:
256,192,157609,1,0,0:0:0:0:
256,192,157759,1,0,0:0:0:0:
256,192,157834,1,0,0:0:0:0:
256,192,157909,1,8,0:0:0:0:
256,192,158059,1,0,0:0:0:0:
256,192,158209,1,8,0:0:0:0:
256,192,158284,1,0,0:0:0:0:
256,192,158359,1,0,0:0:0:0:
256,192,158509,1,0,0:0:0:0:
256,192,158584,1,0,0:0:0:0:
256,192,158659,1,0,0:0:0:0:
256,192,158959,1,0,0:0:0:0:
256,192,159034,1,0,0:0:0:0:
256,192,159109,1,0,0:0:0:0:
256,192,159259,1,0,0:0:0:0:
256,192,159409,1,8,0:0:0:0:
256,192,159484,1,0,0:0:0:0:
256,192,159559,1,0,0:0:0:0:
256,192,159709,1,0,0:0:0:0:
256,192,159784,1,0,0:0:0:0:
256,192,159859,1,8,0:0:0:0:
256,192,160009,1,0,0:0:0:0:
256,192,160159,1,0,0:0:0:0:
256,192,160234,1,0,0:0:0:0:
256,192,160309,1,0,0:0:0:0:
256,192,160459,1,0,0:0:0:0:
256,192,160609,1,8,0:0:0:0:
256,192,160684,1,0,0:0:0:0:
256,192,160759,1,0,0:0:0:0:
256,192,160909,1,0,0:0:0:0:
256,192,160984,1,0,0:0:0:0:
256,192,161059,1,0,0:0:0:0:
256,192,161359,1,0,0:0:0:0:
256,192,161509,1,0,0:0:0:0:
256,192,161659,1,0,0:0:0:0:
256,192,161809,1,8,0:0:0:0:
256,192,161959,1,0,0:0:0:0:
256,192,162109,1,0,0:0:0:0:
256,192,162259,1,0,0:0:0:0:
256,192,162409,1,0,0:0:0:0:
256,192,162559,1,0,0:0:0:0:
256,192,162634,1,0,0:0:0:0:
256,192,162709,1,8,0:0:0:0:
256,192,162859,1,0,0:0:0:0:
256,192,163009,1,8,0:0:0:0:
256,192,163084,1,0,0:0:0:0:
256,192,163159,1,0,0:0:0:0:
256,192,163309,1,0,0:0:0:0:
256,192,163384,1,0,0:0:0:0:
256,192,163459,1,0,0:0:0:0:
256,192,163759,1,0,0:0:0:0:
256,192,163834,1,0,0:0:0:0:
256,192,163909,1,0,0:0:0:0:
256,192,164059,1,0,0:0:0:0:
256,192,164209,1,8,0:0:0:0:
256,192,164359,1,0,0:0:0:0:
256,192,164509,1,0,0:0:0:0:
256,192,164584,1,0,0:0:0:0:
256,192,164809,1,0,0:0:0:0:
256,192,164959,1,0,0:0:0:0:
256,192,165034,1,0,0:0:0:0:
256,192,165109,1,8,0:0:0:0:
256,192,165259,1,0,0:0:0:0:
256,192,165409,1,8,0:0:0:0:
256,192,165484,1,0,0:0:0:0:
256,192,165559,1,0,0:0:0:0:
256,192,165709,1,0,0:0:0:0:
256,192,165784,1,0,0:0:0:0:
256,192,165859,1,8,0:0:0:0:
256,192,166159,1,8,0:0:0:0:
256,192,166234,1,8,0:0:0:0:
256,192,166309,1,0,0:0:0:0:
256,192,166609,1,0,0:0:0:0:
256,192,166684,1,0,0:0:0:0:
256,192,166759,1,8,0:0:0:0:
256,192,167209,1,0,0:0:0:0:
256,192,167359,1,0,0:0:0:0:
256,192,167434,1,0,0:0:0:0:
256,192,167509,1,8,0:0:0:0:
256,192,167659,1,0,0:0:0:0:
256,192,167809,1,8,0:0:0:0:
256,192,167884,1,0,0:0:0:0:
256,192,167959,1,0,0:0:0:0:
256,192,168109,1,0,0:0:0:0:
256,192,168184,1,0,0:0:0:0:
256,192,168259,1,0,0:0:0:0:
256,192,168559,1,0,0:0:0:0:
256,192,168634,1,0,0:0:0:0:
256,192,168709,1,0,0:0:0:0:
256,192,168859,1,0,0:0:0:0:
256,192,169009,1,8,0:0:0:0:
256,192,169084,1,0,0:0:0:0:
256,192,169159,1,0,0:0:0:0:
256,192,169309,1,0,0:0:0:0:
256,192,169384,1,0,0:0:0:0:
256,192,169459,1,0,0:0:0:0:
256,192,169609,1,12,0:0:0:0:
256,192,171259,1,0,0:0:0:0:
256,192,171334,1,0,0:0:0:0:
256,192,171409,1,12,0:0:0:0:
256,192,172009,1,4,0:0:0:0:
256,192,176209,1,8,0:0:0:0:
256,192,176359,1,0,0:0:0:0:
256,192,176509,1,8,0:0:0:0:
256,192,176659,1,8,0:0:0:0:
256,192,176809,1,0,0:0:0:0:
256,192,177259,1,0,0:0:0:0:
256,192,177709,1,0,0:0:0:0:
256,192,178009,1,8,0:0:0:0:
256,192,178609,1,0,0:0:0:0:
256,192,179209,1,8,0:0:0:0:
256,192,179659,1,0,0:0:0:0:
256,192,179959,1,0,0:0:0:0:
256,192,180109,1,8,0:0:0:0:
256,192,180259,1,8,0:0:0:0:
256,192,180409,1,0,0:0:0:0:
256,192,181009,1,8,0:0:0:0:
256,192,181159,1,8,0:0:0:0:
256,192,181409,1,0,0:0:0:0:
256,192,181509,1,8,0:0:0:0:
256,192,181609,1,8,0:0:0:0:
256,192,182059,1,8,0:0:0:0:
256,192,182359,1,8,0:0:0:0:
256,192,182509,1,0,0:0:0:0:
256,192,182609,1,8,0:0:0:0:
256,192,182709,1,8,0:0:0:0:
256,192,182809,1,8,0:0:0:0:
256,192,184009,1,0,0:0:0:0:
256,192,184459,1,0,0:0:0:0:
256,192,184759,1,0,0:0:0:0:
256,192,184909,1,0,0:0:0:0:
256,192,185059,1,8,0:0:0:0:
256,192,185209,1,8,0:0:0:0:
256,192,186409,1,8,0:0:0:0:
256,192,186859,1,0,0:0:0:0:
256,192,187309,1,0,0:0:0:0:
256,192,187609,1,0,0:0:0:0:
256,192,187709,1,8,0:0:0:0:
256,192,187809,1,8,0:0:0:0:
256,192,187909,1,0,0:0:0:0:
256,192,188059,1,8,0:0:0:0:
256,192,188209,1,0,0:0:0:0:
256,192,188309,1,8,0:0:0:0:
256,192,188409,1,0,0:0:0:0:
256,192,188509,1,0,0:0:0:0:
256,192,188809,1,8,0:0:0:0:
256,192,189009,1,0,0:0:0:0:
256,192,189109,1,8,0:0:0:0:
256,192,189259,1,0,0:0:0:0:
256,192,189409,1,8,0:0:0:0:
256,192,189559,1,0,0:0:0:0:
256,192,189709,1,8,0:0:0:0:
256,192,189859,1,8,0:0:0:0:
256,192,190009,1,8,0:0:0:0:
256,192,190109,1,0,0:0:0:0:
256,192,190209,1,0,0:0:0:0:
256,192,190309,1,8,0:0:0:0:
256,192,190459,1,8,0:0:0:0:
256,192,190609,1,0,0:0:0:0:
256,192,190759,1,0,0:0:0:0:
256,192,190909,1,8,0:0:0:0:
256,192,191059,1,8,0:0:0:0:
256,192,191209,1,0,0:0:0:0:
256,192,191659,1,0,0:0:0:0:
256,192,192109,1,8,0:0:0:0:
256,192,192259,1,8,0:0:0:0:
256,192,192409,1,0,0:0:0:0:
256,192,192559,1,8,0:0:0:0:
256,192,192859,1,8,0:0:0:0:
256,192,193159,1,0,0:0:0:0:
256,192,193309,1,0,0:0:0:0:
256,192,193609,1,0,0:0:0:0:
256,192,193909,1,8,0:0:0:0:
256,192,194059,1,0,0:0:0:0:
256,192,194209,1,8,0:0:0:0:
256,192,194359,1,0,0:0:0:0:
256,192,194509,1,0,0:0:0:0:
256,192,194809,1,0,0:0:0:0:
256,192,194909,1,8,0:0:0:0:
256,192,195009,1,8,0:0:0:0:
256,192,195109,1,0,0:0:0:0:
256,192,195259,1,0,0:0:0:0:
256,192,195409,2,0,L|320:192,6,35
256,192,196009,1,0,0:0:0:0:
256,192,196084,1,8,0:0:0:0:
256,192,196159,1,0,0:0:0:0:
256,192,196234,1,0,0:0:0:0:
256,192,196309,1,8,0:0:0:0:
256,192,196384,1,0,0:0:0:0:
256,192,196459,1,8,0:0:0:0:
256,192,196534,1,0,0:0:0:0:
256,192,196609,1,8,0:0:0:0:
256,192,196684,1,8,0:0:0:0:
256,192,196759,1,0,0:0:0:0:
256,192,196834,1,8,0:0:0:0:
256,192,196909,1,0,0:0:0:0:
256,192,196984,1,0,0:0:0:0:
256,192,197059,1,8,0:0:0:0:
256,192,197134,1,8,0:0:0:0:
256,192,197209,1,0,0:0:0:0:
256,192,197309,1,8,0:0:0:0:
256,192,197409,1,8,0:0:0:0:
256,192,197509,1,0,0:0:0:0:
256,192,197609,1,8,0:0:0:0:
256,192,197709,1,0,0:0:0:0:
256,192,197809,1,0,0:0:0:0:
256,192,197909,1,8,0:0:0:0:
256,192,198009,1,0,0:0:0:0:
256,192,198109,1,8,0:0:0:0:
256,192,198409,1,0,0:0:0:0:
256,192,198509,1,0,0:0:0:0:
256,192,198609,1,8,0:0:0:0:
256,192,198709,1,0,0:0:0:0:
256,192,198859,1,0,0:0:0:0:
256,192,199009,1,0,0:0:0:0:
256,192,199109,1,8,0:0:0:0:
256,192,199209,1,0,0:0:0:0:
256,192,199309,1,8,0:0:0:0:
256,192,199409,1,8,0:0:0:0:
256,192,199509,1,0,0:0:0:0:
256,192,199609,1,8,0:0:0:0:
256,192,199759,1,8,0:0:0:0:
256,192,199909,1,0,0:0:0:0:
256,192,200059,1,8,0:0:0:0:
256,192,200209,1,8,0:0:0:0:
256,192,200359,1,0,0:0:0:0:
256,192,200509,1,0,0:0:0:0:
256,192,200659,1,8,0:0:0:0:
256,192,200809,1,8,0:0:0:0:
256,192,200909,1,8,0:0:0:0:
256,192,201009,1,0,0:0:0:0:
256,192,201109,1,8,0:0:0:0:
256,192,201209,1,0,0:0:0:0:
256,192,201309,1,0,0:0:0:0:
256,192,201409,1,8,0:0:0:0:
256,192,201509,1,0,0:0:0:0:
256,192,201609,1,0,0:0:0:0:
256,192,201709,1,8,0:0:0:0:
256,192,201809,1,0,0:0:0:0:
256,192,201909,1,0,0:0:0:0:
256,192,202009,1,8,0:0:0:0:
256,192,202109,1,0,0:0:0:0:
256,192,202209,1,0,0:0:0:0:
256,192,202309,1,8,0:0:0:0:
256,192,202409,1,8,0:0:0:0:
256,192,202509,1,0,0:0:0:0:
256,192,202609,1,8,0:0:0:0:
256,192,202709,1,0,0:0:0:0:
256,192,202809,1,0,0:0:0:0:
256,192,202909,1,8,0:0:0:0:
256,192,203009,1,8,0:0:0:0:
256,192,203109,1,0,0:0:0:0:
256,192,203209,1,0,0:0:0:0:
256,192,203359,1,8,0:0:0:0:
256,192,203509,1,8,0:0:0:0:
256,192,203659,1,0,0:0:0:0:
256,192,203959,1,0,0:0:0:0:
256,192,204109,1,0,0:0:0:0:
256,192,204259,1,8,0:0:0:0:
256,192,204409,1,0,0:0:0:0:
256,192,204559,1,8,0:0:0:0:
256,192,204709,1,8,0:0:0:0:
256,192,204859,1,0,0:0:0:0:
256,192,205309,1,8,0:0:0:0:
256,192,205459,1,0,0:0:0:0:
256,192,205609,1,8,0:0:0:0:
256,192,205759,1,0,0:0:0:0:
256,192,205909,1,0,0:0:0:0:
256,192,206059,1,8,0:0:0:0:
256,192,206509,1,0,0:0:0:0:
256,192,206809,1,0,0:0:0:0:
256,192,206959,1,8,0:0:0:0:
256,192,207109,1,8,0:0:0:0:
256,192,207259,1,0,0:0:0:0:
256,192,207409,1,0,0:0:0:0:
256,192,207559,1,8,0:0:0:0:
256,192,207709,1,0,0:0:0:0:
256,192,208009,1,0,0:0:0:0:
256,192,208159,1,8,0:0:0:0:
256,192,208309,1,8,0:0:0:0:
256,192,208459,1,0,0:0:0:0:
256,192,208609,1,8,0:0:0:0:
256,192,208759,1,0,0:0:0:0:
256,192,208909,1,8,0:0:0:0:
256,192,209209,1,0,0:0:0:0:
256,192,209509,1,0,0:0:0:0:
256,192,209659,1,0,0:0:0:0:
256,192,209809,1,8,0:0:0:0:
256,192,210409,1,8,0:0:0:0:
256,192,210484,1,0,0:0:0:0:
256,192,210559,1,8,0:0:0:0:
256,192,210634,1,8,0:0:0:0:
256,192,210709,1,0,0:0:0:0:
256,192,210784,1,8,0:0:0:0:
256,192,210859,1,0,0:0:0:0:
256,192,210934,1,0,0:0:0:0:
256,192,211009,1,8,0:0:0:0:
256,192,211084,1,0,0:0:0:0:
256,192,211159,1,8,0:0:0:0:
256,192,211234,1,0,0:0:0:0:
256,192,211309,1,8,0:0:0:0:
256,192,211384,1,8,0:0:0:0:
256,192,211459,1,0,0:0:0:0:
256,192,211534,1,0,0:0:0:0:
256,192,211609,1,8,0:0:0:0:
256,192,211684,1,8,0:0:0:0:
256,192,211759,1,0,0:0:0:0:
256,192,211834,1,0,0:0:0:0:
256,192,211909,1,8,0:0:0:0:
256,192,211984,1,0,0:0:0:0:
256,192,212059,1,8,0:0:0:0:
256,192,212134,1,0,0:0:0:0:
256,192,212209,1,8,0:0:0:0:
256,192,212284,1,8,0:0:0:0:
256,192,212359,1,0,0:0:0:0:
256,192,212434,1,0,0:0:0:0:
256,192,212509,1,8,0:0:0:0:
256,192,212584,1,8,0:0:0:0:
256,192,212659,1,0,0:0:0:0:
256,192,212734,1,0,0:0:0:0:
256,192,212809,1,8,0:0:0:0:
256,192,212959,1,8,0:0:0:0:
256,192,213109,1,8,0:0:0:0:
256,192,213259,1,0,0:0:0:0:
256,192,213559,1,0,0:0:0:0:
256,192,213709,1,0,0:0:0:0:
256,192,214009,1,0,0:0:0:0:
256,192,214159,1,8,0:0:0:0:
256,192,214309,1,8,0:0:0:0:
256,192,214459,1,0,0:0:0:0:
256,192,214609,1,8,0:0:0:0:
256,192,215209,1,0,0:0:0:0:
256,192,215659,1,8,0:0:0:0:
256,192,215809,1,0,0:0:0:0:
256,192,216109,1,0,0:0:0:0:
256,192,216409,1,0,0:0:0:0:
256,192,216859,1,0,0:0:0:0:
256,192,217009,1,0,0:0:0:0:
256,192,217309,1,8,0:0:0:0:
256,192,217609,1,0,0:0:0:0:
256,192,218059,1,0,0:0:0:0:
256,192,218209,1,0,0:0:0:0:
256,192,218509,1,8,0:0:0:0:
256,192,218809,1,0,0:0:0:0:
256,192,219259,1,0,0:0:0:0:
256,192,219409,1,0,0:0:0:0:
256,192,219859,1,8,0:0:0:0:
256,192,220009,1,0,0:0:0:0:
256,192,220459,1,8,0:0:0:0:
256,192,220609,1,0,0:0:0:0:
256,192,220909,1,0,0:0:0:0:
256,192,221209,1,0,0:0:0:0:
256,192,221659,1,0,0:0:0:0:
256,192,221809,1,0,0:0:0:0:
256,192,222259,1,8,0:0:0:0:
256,192,222409,1,0,0:0:0:0:
256,192,222859,1,0,0:0:0:0:
256,192,223009,1,0,0:0:0:0:
256,192,223309,1,8,0:0:0:0:
256,192,223609,1,0,0:0:0:0:
256,192,223759,1,0,0:0:0:0:
256,192,224059,1,0,0:0:0:0:
256,192,224209,1,0,0:0:0:0:
256,192,224809,1,0,0:0:0:0:
256,192,225259,1,0,0:0:0:0:
256,192,225409,1,8,0:0:0:0:
256,192,225709,1,0,0:0:0:0:
256,192,226009,1,0,0:0:0:0:
256,192,226459,1,8,0:0:0:0:
256,192,226609,1,0,0:0:0:0:
256,192,227209,1,0,0:0:0:0:
256,192,227659,1,0,0:0:0:0:
256,192,227809,1,0,0:0:0:0:
256,192,228109,1,8,0:0:0:0:
256,192,228409,1,0,0:0:0:0:
256,192,228859,1,0,0:0:0:0:
256,192,229009,1,0,0:0:0:0:
256,192,229609,1,0,0:0:0:0:
256,192,230059,1,0,0:0:0:0:
256,192,230209,1,0,0:0:0:0:
256,192,230509,1,8,0:0:0:0:
256,192,230809,1,0,0:0:0:0:
256,192,231259,1,0,0:0:0:0:
256,192,231409,1,0,0:0:0:0:
256,192,231709,1,8,0:0:0:0:
256,192,232009,1,0,0:0:0:0:
256,192,232459,1,0,0:0:0:0:
256,192,232609,1,8,0:0:0:0:
256,192,232909,1,0,0:0:0:0:
256,192,233209,1,0,0:0:0:0:
256,192,233659,1,0,0:0:0:0:
256,192,233809,1,0,0:0:0:0:
256,192,234409,5,0,0:0:0:0:
256,192,234859,1,8,0:0:0:0:
256,192,235009,1,0,0:0:0:0:
256,192,235309,1,8,0:0:0:0:
256,192,235609,1,0,0:0:0:0:
256,192,236059,1,8,0:0:0:0:
256,192,236209,1,0,0:0:0:0:
256,192,236809,1,0,0:0:0:0:
256,192,237259,1,8,0:0:0:0:
256,192,237409,1,0,0:0:0:0:
256,192,237709,1,8,0:0:0:0:
256,192,238009,1,0,0:0:0:0:
256,192,238459,1,8,0:0:0:0:
256,192,238609,1,0,0:0:0:0:
256,192,239209,1,0,0:0:0:0:
256,192,239659,1,8,0:0:0:0:
256,192,239809,1,0,0:0:0:0:
256,192,240109,1,8,0:0:0:0:
256,192,240409,1,0,0:0:0:0:
256,192,240859,1,8,0:0:0:0:
256,192,241009,1,0,0:0:0:0:
256,192,241309,1,8,0:0:0:0:
256,192,241609,1,0,0:0:0:0:
256,192,242059,1,8,0:0:0:0:
256,192,242209,1,0,0:0:0:0:
256,192,242509,1,8,0:0:0:0:
256,192,242809,1,0,0:0:0:0:
256,192,243259,1,8,0:0:0:0:
256,192,243409,1,0,0:0:0:0:
256,192,244009,1,0,0:0:0:0:
256,192,244459,1,8,0:0:0:0:
256,192,244609,1,0,0:0:0:0:
256,192,244909,1,8,0:0:0:0:
256,192,245209,1,0,0:0:0:0:
256,192,245659,1,8,0:0:0:0:
256,192,245809,1,0,0:0:0:0:
256,192,246409,1,0,0:0:0:0:
256,192,246859,1,8,0:0:0:0:
256,192,247009,1,0,0:0:0:0:
256,192,247309,1,8,0:0:0:0:
256,192,247609,1,0,0:0:0:0:
256,192,248059,1,8,0:0:0:0:
256,192,248209,1,0,0:0:0:0:
256,192,248809,1,0,0:0:0:0:
256,192,249109,1,0,0:0:0:0:
256,192,249409,1,0,0:0:0:0:
256,192,249709,1,0,0:0:0:0:
256,192,250009,1,0,0:0:0:0:
256,192,250309,1,0,0:0:0:0:
256,192,250609,1,0,0:0:0:0:
256,192,250909,1,0,0:0:0:0:
256,192,251059,1,0,0:0:0:0:
256,192,251134,1,0,0:0:0:0:
256,192,251209,1,8,0:0:0:0:
256,192,251246,1,8,0:0:0:0:
256,192,253609,1,4,0:0:0:0:
256,192,253759,1,8,0:0:0:0:
256,192,253834,1,8,0:0:0:0:
256,192,253909,1,0,0:0:0:0:
256,192,254059,1,8,0:0:0:0:
256,192,254209,1,0,0:0:0:0:
256,192,254284,1,0,0:0:0:0:
256,192,254359,1,8,0:0:0:0:
256,192,254434,1,0,0:0:0:0:
256,192,254509,1,8,0:0:0:0:
256,192,254659,1,8,0:0:0:0:
256,192,254734,1,0,0:0:0:0:
256,192,254809,1,0,0:0:0:0:
256,192,254884,1,8,0:0:0:0:
256,192,254959,1,8,0:0:0:0:
256,192,255034,1,0,0:0:0:0:
256,192,255109,1,8,0:0:0:0:
256,192,255259,1,8,0:0:0:0:
256,192,255334,1,0,0:0:0:0:
256,192,255409,1,0,0:0:0:0:
256,192,255559,1,8,0:0:0:0:
256,192,255709,1,0,0:0:0:0:
256,192,255859,1,8,0:0:0:0:
256,192,255934,1,0,0:0:0:0:
256,192,256009,1,8,0:0:0:0:
256,192,256084,1,8,0:0:0:0:
256,192,256159,1,0,0:0:0:0:
256,192,256234,1,0,0:0:0:0:
256,192,256309,1,8,0:0:0:0:
256,192,256459,1,8,0:0:0:0:
256,192,256534,1,8,0:0:0:0:
256,192,256609,1,0,0:0:0:0:
256,192,256684,1,8,0:0:0:0:
256,192,256759,1,8,0:0:0:0:
256,192,256834,1,0,0:0:0:0:
256,192,256909,1,8,0:0:0:0:
256,192,257059,1,8,0:0:0:0:
256,192,257134,1,0,0:0:0:0:
256,192,257209,1,0,0:0:0:0:
256,192,257359,1,8,0:0:0:0:
256,192,257509,1,8,0:0:0:0:
256,192,257584,1,8,0:0:0:0:
256,192,257659,1,0,0:0:0:0:
256,192,257734,1,8,0:0:0:0:
256,192,257809,1,0,0:0:0:0:
256,192,257959,1,8,0:0:0:0:
256,192,258034,1,0,0:0:0:0:
256,192,258109,1,8,0:0:0:0:
256,192,258259,1,8,0:0:0:0:
256,192,258409,1,0,0:0:0:0:
256,192,258484,1,8,0:0:0:0:
256,192,258559,1,0,0:0:0:0:
256,192,258634,1,0,0:0:0:0:
256,192,258709,1,8,0:0:0:0:
256,192,258859,1,8,0:0:0:0:
256,192,258934,1,8,0:0:0:0:
256,192,259009,1,0,0:0:0:0:
256,192,259084,1,0,0:0:0:0:
256,192,259159,1,8,0:0:0:0:
256,192,259309,1,0,0:0:0:0:
256,192,259384,1,0,0:0:0:0:
256,192,259459,1,8,0:0:0:0:
256,192,259534,1,0,0:0:0:0:
256,192,259609,1,8,0:0:0:0:
256,192,259684,1,8,0:0:0:0:
256,192,259759,1,0,0:0:0:0:
256,192,259834,1,0,0:0:0:0:
256,192,259909,1,0,0:0:0:0:
256,192,260059,1,8,0:0:0:0:
256,192,260209,1,0,0:0:0:0:
256,192,260359,1,8,0:0:0:0:
256,192,260509,1,0,0:0:0:0:
256,192,260584,1,0,0:0:0:0:
256,192,260659,1,8,0:0:0:0:
256,192,260734,1,8,0:0:0:0:
256,192,260809,1,0,0:0:0:0:
256,192,260959,1,8,0:0:0:0:
256,192,261034,1,0,0:0:0:0:
256,192,261109,1,0,0:0:0:0:
256,192,261259,1,8,0:0:0:0:
256,192,261334,1,8,0:0:0:0:
256,192,261409,1,0,0:0:0:0:
256,192,261484,1,0,0:0:0:0:
256,192,261559,1,8,0:0:0:0:
256,192,261634,1,0,0:0:0:0:
256,192,261709,1,0,0:0:0:0:
256,192,261859,1,8,0:0:0:0:
256,192,262009,1,0,0:0:0:0:
256,192,262159,1,8,0:0:0:0:
256,192,262234,1,8,0:0:0:0:
256,192,262309,1,0,0:0:0:0:
256,192,262459,1,0,0:0:0:0:
256,192,262534,1,0,0:0:0:0:
256,192,262609,1,8,0:0:0:0:
256,192,262684,1,8,0:0:0:0:
256,192,262759,1,8,0:0:0:0:
256,192,262834,1,8,0:0:0:0:
256,192,262909,1,0,0:0:0:0:
256,192,262984,1,0,0:0:0:0:
256,192,263059,1,0,0:0:0:0:
256,192,263134,1,0,0:0:0:0:
256,192,263209,1,8,0:0:0:0:
256,192,263309,1,0,0:0:0:0:
256,192,263409,1,8,0:0:0:0:
256,192,263509,1,0,0:0:0:0:
256,192,263609,1,8,0:0:0:0:
256,192,263709,1,8,0:0:0:0:
256,192,263809,1,0,0:0:0:0:
256,192,263909,1,8,0:0:0:0:
256,192,264009,1,8,0:0:0:0:
256,192,264109,1,0,0:0:0:0:
256,192,264184,1,8,0:0:0:0:
256,192,264259,1,8,0:0:0:0:
256,192,264409,1,8,0:0:0:0:
256,192,264509,1,0,0:0:0:0:
256,192,264609,1,8,0:0:0:0:
256,192,264709,1,8,0:0:0:0:
256,192,264809,1,0,0:0:0:0:
256,192,264909,1,8,0:0:0:0:
256,192,265009,1,0,0:0:0:0:
256,192,265109,1,0,0:0:0:0:
256,192,265209,1,8,0:0:0:0:
256,192,265309,1,8,0:0:0:0:
256,192,265409,1,0,0:0:0:0:
256,192,265509,1,8,0:0:0:0:
256,192,265609,1,0,0:0:0:0:
256,192,265759,1,8,0:0:0:0:
256,192,265834,1,0,0:0:0:0:
256,192,265909,1,0,0:0:0:0:
256,192,266059,1,8,0:0:0:0:
256,192,266134,1,0,0:0:0:0:
256,192,266209,1,8,0:0:0:0:
256,192,266284,1,8,0:0:0:0:
256,192,266359,1,0,0:0:0:0:
256,192,266434,1,8,0:0:0:0:
256,192,266509,1,0,0:0:0:0:
256,192,266584,1,0,0:0:0:0:
256,192,266659,1,8,0:0:0:0:
256,192,266734,1,0,0:0:0:0:
256,192,266809,1,8,0:0:0:0:
256,192,266959,1,8,0:0:0:0:
256,192,267109,1,0,0:0:0:0:
256,192,267259,1,8,0:0:0:0:
256,192,267409,1,8,0:0:0:0:
256,192,267559,1,0,0:0:0:0:
256,192,267709,1,8,0:0:0:0:
256,192,267859,1,8,0:0:0:0:
256,192,267934,1,8,0:0:0:0:
256,192,268009,1,0,0:0:0:0:
256,192,268159,1,8,0:0:0:0:
256,192,268309,1,0,0:0:0:0:
256,192,268459,1,8,0:0:0:0:
256,192,268534,1,8,0:0:0:0:
256,192,268609,1,0,0:0:0:0:
256,192,268759,1,8,0:0:0:0:
256,192,268909,1,8,0:0:0:0:
256,192,269059,1,0,0:0:0:0:
256,192,269209,1,8,0:0:0:0:
256,192,269284,1,8,0:0:0:0:
256,192,269359,1,8,0:0:0:0:
256,192,269509,1,0,0:0:0:0:
256,192,269609,1,8,0:0:0:0:
256,192,269709,1,8,0:0:0:0:
256,192,269809,1,0,0:0:0:0:
256,192,269959,1,8,0:0:0:0:
256,192,270109,1,0,0:0:0:0:
256,192,270259,1,8,0:0:0:0:
256,192,270409,1,0,0:0:0:0:
256,192,270509,1,8,0:0:0:0:
256,192,270609,1,8,0:0:0:0:
256,192,270709,1,0,0:0:0:0:
256,192,270809,1,8,0:0:0:0:
256,192,270909,1,8,0:0:0:0:
256,192,271009,1,0,0:0:0:0:
256,192,271109,1,8,0:0:0:0:
256,192,271209,1,8,0:0:0:0:
256,192,271309,1,0,0:0:0:0:
256,192,271409,1,0,0:0:0:0:
256,192,271509,1,0,0:0:0:0:
256,192,271609,1,8,0:0:0:0:
256,192,271684,1,8,0:0:0:0:
256,192,271759,1,8,0:0:0:0:
256,192,271834,1,8,0:0:0:0:
256,192,271909,1,0,0:0:0:0:
256,192,271984,1,0,0:0:0:0:
256,192,272059,1,8,0:0:0:0:
256,192,272134,1,0,0:0:0:0:
256,192,272209,1,8,0:0:0:0:
256,192,272284,1,8,0:0:0:0:
256,192,272359,1,8,0:0:0:0:
256,192,272434,1,8,0:0:0:0:
256,192,272509,1,0,0:0:0:0:
256,192,272584,1,8,0:0:0:0:
256,192,272659,1,0,0:0:0:0:
256,192,272734,1,0,0:0:0:0:
256,192,272809,1,12,0:0:0:0:
256,192,273709,1,4,0:0:0:0:
256,192,274009,1,4,0:0:0:0:
256,192,275209,1,12,0:0:0:0:
256,192,276409,1,8,0:0:0:0:
256,192,276484,1,8,0:0:0:0:
256,192,276559,1,8,0:0:0:0:
256,192,276634,1,8,0:0:0:0:
256,192,276709,1,0,0:0:0:0:
256,192,276784,1,0,0:0:0:0:
256,192,276859,1,0,0:0:0:0:
256,192,276934,1,0,0:0:0:0:
256,192,277009,1,8,0:0:0:0:
256,192,277084,1,0,0:0:0:0:
256,192,277159,1,8,0:0:0:0:
256,192,277234,1,8,0:0:0:0:
256,192,277309,1,0,0:0:0:0:
256,192,277384,1,0,0:0:0:0:
256,192,277459,1,0,0:0:0:0:
256,192,277534,1,0,0:0:0:0:
256,192,277609,1,12,0:0:0:0:
256,192,277759,1,8,0:0:0:0:
256,192,277909,1,0,0:0:0:0:
256,192,278059,1,0,0:0:0:0:
256,192,278134,1,0,0:0:0:0:
256,192,278209,1,8,0:0:0:0:
256,192,278284,1,8,0:0:0:0:
256,192,278359,1,0,0:0:0:0:
256,192,278509,1,8,0:0:0:0:
256,192,278584,1,0,0:0:0:0:
256,192,278659,1,8,0:0:0:0:
256,192,278809,1,0,0:0:0:0:
256,192,278884,1,8,0:0:0:0:
256,192,278959,1,8,0:0:0:0:
256,192,279109,1,0,0:0:0:0:
256,192,279184,1,0,0:0:0:0:
256,192,279259,1,8,0:0:0:0:
256,192,279334,1,8,0:0:0:0:
256,192,279409,1,0,0:0:0:0:
256,192,279559,1,8,0:0:0:0:
256,192,279709,1,0,0:0:0:0:
256,192,279859,1,0,0:0:0:0:
256,192,279934,1,0,0:0:0:0:
256,192,280009,1,8,0:0:0:0:
256,192,280084,1,8,0:0:0:0:
256,192,280159,1,8,0:0:0:0:
256,192,280309,1,0,0:0:0:0:
256,192,280459,1,8,0:0:0:0:
256,192,280534,1,8,0:0:0:0:
256,192,280609,1,0,0:0:0:0:
256,192,280684,1,0,0:0:0:0:
256,192,280759,1,8,0:0:0:0:
256,192,280909,1,0,0:0:0:0:
256,192,280984,1,0,0:0:0:0:
256,192,281059,1,8,0:0:0:0:
256,192,281134,1,0,0:0:0:0:
256,192,281209,1,0,0:0:0:0:
256,192,281284,1,0,0:0:0:0:
256,192,281359,1,8,0:0:0:0:
256,192,281434,1,8,0:0:0:0:
256,192,281509,1,0,0:0:0:0:
256,192,281584,1,0,0:0:0:0:
256,192,281659,1,8,0:0:0:0:
256,192,281734,1,8,0:0:0:0:
256,192,281809,1,8,0:0:0:0:
256,192,281884,1,0,0:0:0:0:
256,192,281959,1,8,0:0:0:0:
256,192,282034,1,8,0:0:0:0:
256,192,282109,1,0,0:0:0:0:
256,192,282184,1,0,0:0:0:0:
256,192,282259,1,8,0:0:0:0:
256,192,282334,1,8,0:0:0:0:
256,192,282409,1,4,0:0:0:0:
256,192,282559,1,8,0:0:0:0:
256,192,282634,1,8,0:0:0:0:
256,192,282709,1,0,0:0:0:0:
256,192,282859,1,0,0:0:0:0:
256,192,282934,1,0,0:0:0:0:
256,192,283009,1,8,0:0:0:0:
256,192,283084,1,8,0:0:0:0:
256,192,283159,1,0,0:0:0:0:
256,192,283309,1,8,0:0:0:0:
256,192,283384,1,0,0:0:0:0:
256,192,283459,1,8,0:0:0:0:
256,192,283534,1,8,0:0:0:0:
256,192,283609,1,0,0:0:0:0:
256,192,283684,1,0,0:0:0:0:
256,192,283759,1,8,0:0:0:0:
256,192,283909,1,8,0:0:0:0:
256,192,284059,1,0,0:0:0:0:
256,192,284134,1,8,0:0:0:0:
256,192,284209,1,0,0:0:0:0:
256,192,284359,1,8,0:0:0:0:
256,192,284434,1,0,0:0:0:0:
256,192,284509,1,8,0:0:0:0:
256,192,284584,1,8,0:0:0:0:
256,192,284659,1,0,0:0:0:0:
256,192,284734,1,8,0:0:0:0:
256,192,284809,1,0,0:0:0:0:
256,192,284884,1,8,0:0:0:0:
256,192,284959,1,8,0:0:0:0:
256,192,285109,1,8,0:0:0:0:
256,192,285184,1,0,0:0:0:0:
256,192,285259,1,8,0:0:0:0:
256,192,285334,1,8,0:0:0:0:
256,192,285409,1,0,0:0:0:0:
256,192,285484,1,0,0:0:0:0:
256,192,285559,1,8,0:0:0:0:
256,192,285634,1,8,0:0:0:0:
256,192,285709,1,0,0:0:0:0:
256,192,285859,1,8,0:0:0:0:
256,192,286009,1,0,0:0:0:0:
256,192,286159,1,8,0:0:0:0:
256,192,286234,1,8,0:0:0:0:
256,192,286309,1,8,0:0:0:0:
256,192,286459,1,0,0:0:0:0:
256,192,286609,1,8,0:0:0:0:
256,192,286759,1,8,0:0:0:0:
256,192,286834,1,0,0:0:0:0:
256,192,286909,1,8,0:0:0:0:
256,192,286984,1,8,0:0:0:0:
256,192,287059,1,0,0:0:0:0:
256,192,287134,1,0,0:0:0:0:
256,192,287209,1,8,0:0:0:0:
256,192,287284,1,0,0:0:0:0:
256,192,287359,1,0,0:0:0:0:
256,192,287509,1,0,0:0:0:0:
256,192,287659,1,0,0:0:0:0:
256,192,287734,1,0,0:0:0:0:
256,192,287809,1,8,0:0:0:0:
256,192,287884,1,8,0:0:0:0:
256,192,287959,1,0,0:0:0:0:
256,192,288109,1,8,0:0:0:0:
256,192,288184,1,0,0:0:0:0:
256,192,288259,1,8,0:0:0:0:
256,192,288409,1,0,0:0:0:0:
256,192,288484,1,8,0:0:0:0:
256,192,288559,1,8,0:0:0:0:
256,192,288709,1,8,0:0:0:0:
256,192,288784,1,0,0:0:0:0:
256,192,288859,1,0,0:0:0:0:
256,192,289009,1,8,0:0:0:0:
256,192,289084,1,8,0:0:0:0:
256,192,289159,1,0,0:0:0:0:
256,192,289234,1,0,0:0:0:0:
256,192,289309,1,8,0:0:0:0:
256,192,289459,1,8,0:0:0:0:
256,192,289609,1,0,0:0:0:0:
256,192,289684,1,8,0:0:0:0:
256,192,289759,1,0,0:0:0:0:
256,192,289834,1,0,0:0:0:0:
256,192,289909,1,8,0:0:0:0:
256,192,289984,1,8,0:0:0:0:
256,192,290059,1,0,0:0:0:0:
256,192,290209,1,0,0:0:0:0:
256,192,290359,1,0,0:0:0:0:
256,192,290509,1,8,0:0:0:0:
256,192,290659,1,0,0:0:0:0:
256,192,290734,1,0,0:0:0:0:
256,192,290809,1,8,0:0:0:0:
256,192,291109,1,0,0:0:0:0:
256,192,291259,1,0,0:0:0:0:
256,192,291409,1,0,0:0:0:0:
256,192,291559,1,0,0:0:0:0:
256,192,291709,1,0,0:0:0:0:
256,192,291859,1,0,0:0:0:0:
256,192,292009,1,8,0:0:0:0:
256,192,292159,1,0,0:0:0:0:
256,192,292309,1,8,0:0:0:0:
256,192,292459,1,0,0:0:0:0:
256,192,292609,1,8,0:0:0:0:
256,192,292759,1,8,0:0:0:0:
256,192,292909,1,8,0:0:0:0:
256,192,292984,1,0,0:0:0:0:
256,192,293059,1,8,0:0:0:0:
256,192,293134,1,8,0:0:0:0:
256,192,293209,1,0,0:0:0:0:
256,192,293359,1,0,0:0:0:0:
256,192,293509,1,8,0:0:0:0:
256,192,293584,1,0,0:0:0:0:
256,192,293659,1,0,0:0:0:0:
256,192,293809,1,0,0:0:0:0:
256,192,293959,1,0,0:0:0:0:
256,192,294109,1,8,0:0:0:0:
256,192,294184,1,8,0:0:0:0:
256,192,294259,1,0,0:0:0:0:
256,192,294409,1,0,0:0:0:0:
256,192,294559,1,0,0:0:0:0:
256,192,294634,1,0,0:0:0:0:
256,192,294709,1,8,0:0:0:0:
256,192,294859,1,0,0:0:0:0:
256,192,295009,1,0,0:0:0:0:
256,192,295159,1,8,0:0:0:0:
256,192,295234,1,0,0:0:0:0:
256,192,295309,1,8,0:0:0:0:
256,192,295384,1,8,0:0:0:0:
256,192,295459,1,0,0:0:0:0:
256,192,295534,1,0,0:0:0:0:
256,192,295609,1,8,0:0:0:0:
256,192,295759,1,0,0:0:0:0:
256,192,295909,1,8,0:0:0:0:
256,192,295984,1,0,0:0:0:0:
256,192,296059,1,0,0:0:0:0:
256,192,296209,1,0,0:0:0:0:
256,192,296359,1,0,0:0:0:0:
256,192,296434,1,0,0:0:0:0:
256,192,296509,1,8,0:0:0:0:
256,192,296659,1,0,0:0:0:0:
256,192,296809,1,8,0:0:0:0:
256,192,296884,1,8,0:0:0:0:
256,192,296959,1,0,0:0:0:0:
256,192,297034,1,0,0:0:0:0:
256,192,297109,1,8,0:0:0:0:
256,192,297259,1,4,0:0:0:0:
256,192,297409,1,8,0:0:0:0:
256,192,297484,1,0,0:0:0:0:
256,192,297559,1,8,0:0:0:0:
256,192,297634,1,8,0:0:0:0:
256,192,297709,1,0,0:0:0:0:
256,192,297859,1,4,0:0:0:0:
256,192,298159,1,0,0:0:0:0:
256,192,298309,1,8,0:0:0:0:
256,192,298384,1,0,0:0:0:0:
256,192,298459,1,0,0:0:0:0:
256,192,298609,1,8,0:0:0:0:
256,192,298684,1,8,0:0:0:0:
256,192,298759,1,0,0:0:0:0:
256,192,298834,1,0,0:0:0:0:
256,192,298909,1,8,0:0:0:0:
263,192,299059,1,8,0:0:0:0:
256,192,299209,1,0,0:0:0:0:
256,192,299359,1,0,0:0:0:0:
256,192,299434,1,0,0:0:0:0:
256,192,299509,1,8,0:0:0:0:
256,192,299659,1,0,0:0:0:0:
256,192,299809,1,0,0:0:0:0:
256,192,299959,1,8,0:0:0:0:
256,192,300034,1,0,0:0:0:0:
256,192,300109,1,8,0:0:0:0:
256,192,300184,1,8,0:0:0:0:
256,192,300259,1,0,0:0:0:0:
256,192,300334,1,0,0:0:0:0:
256,192,300409,1,8,0:0:0:0:
256,192,300559,1,0,0:0:0:0:
256,192,300709,1,8,0:0:0:0:
256,192,300784,1,8,0:0:0:0:
256,192,300859,1,0,0:0:0:0:
256,192,301009,1,0,0:0:0:0:
256,192,301084,1,8,0:0:0:0:
256,192,301159,1,0,0:0:0:0:
256,192,301234,1,0,0:0:0:0:
256,192,301309,1,8,0:0:0:0:
256,192,301459,1,0,0:0:0:0:
256,192,301609,1,8,0:0:0:0:
256,192,301759,1,0,0:0:0:0:
256,192,301909,1,8,0:0:0:0:
256,192,302059,1,0,0:0:0:0:
256,192,302134,1,0,0:0:0:0:
256,192,302209,1,8,0:0:0:0:
256,192,302284,1,8,0:0:0:0:
256,192,302359,1,8,0:0:0:0:
256,192,302434,1,8,0:0:0:0:
256,192,302509,1,0,0:0:0:0:
256,192,302584,1,0,0:0:0:0:
256,192,302659,1,0,0:0:0:0:
256,192,302734,1,0,0:0:0:0:
256,192,302809,1,12,0:0:0:0:
256,192,302959,1,0,0:0:0:0:
256,192,303109,1,8,0:0:0:0:
256,192,303184,1,8,0:0:0:0:
256,192,303259,1,0,0:0:0:0:
256,192,303409,1,8,0:0:0:0:
256,192,303559,1,0,0:0:0:0:
256,192,303634,1,8,0:0:0:0:
256,192,303709,1,8,0:0:0:0:
256,192,303859,1,8,0:0:0:0:
256,192,304009,1,0,0:0:0:0:
256,192,304159,1,0,0:0:0:0:
256,192,304309,1,8,0:0:0:0:
256,192,304384,1,8,0:0:0:0:
256,192,304459,1,0,0:0:0:0:
256,192,304609,1,8,0:0:0:0:
256,192,304759,1,0,0:0:0:0:
256,192,304834,1,8,0:0:0:0:
256,192,304909,1,8,0:0:0:0:
256,192,305059,1,8,0:0:0:0:
256,192,305209,1,0,0:0:0:0:
256,192,305359,1,0,0:0:0:0:
256,192,305509,1,8,0:0:0:0:
256,192,305584,1,8,0:0:0:0:
256,192,305659,1,0,0:0:0:0:
256,192,305809,1,8,0:0:0:0:
256,192,305959,1,0,0:0:0:0:
256,192,306034,1,8,0:0:0:0:
256,192,306109,1,8,0:0:0:0:
256,192,306259,1,8,0:0:0:0:
256,192,306409,1,0,0:0:0:0:
256,192,306559,1,0,0:0:0:0:
256,192,306709,1,8,0:0:0:0:
256,192,306784,1,8,0:0:0:0:
256,192,306859,1,0,0:0:0:0:
256,192,306934,1,0,0:0:0:0:
256,192,307009,1,8,0:0:0:0:
256,192,307159,1,8,0:0:0:0:
256,192,307234,1,0,0:0:0:0:
256,192,307309,1,8,0:0:0:0:
256,192,307384,1,8,0:0:0:0:
256,192,307459,1,0,0:0:0:0:
256,192,307534,1,0,0:0:0:0:
256,192,307609,1,12,0:0:0:0:
256,192,307759,1,0,0:0:0:0:
256,192,307909,1,8,0:0:0:0:
256,192,307984,1,8,0:0:0:0:
256,192,308059,1,0,0:0:0:0:
256,192,308209,1,8,0:0:0:0:
256,192,308359,1,0,0:0:0:0:
256,192,308434,1,8,0:0:0:0:
256,192,308509,1,8,0:0:0:0:
256,192,308659,1,8,0:0:0:0:
256,192,308809,1,0,0:0:0:0:
256,192,308959,1,0,0:0:0:0:
256,192,309109,1,8,0:0:0:0:
256,192,309184,1,8,0:0:0:0:
256,192,309259,1,0,0:0:0:0:
256,192,309409,1,8,0:0:0:0:
256,192,309559,1,0,0:0:0:0:
256,192,309634,1,8,0:0:0:0:
256,192,309709,1,8,0:0:0:0:
256,192,309859,1,8,0:0:0:0:
256,192,310009,1,0,0:0:0:0:
256,192,310159,1,0,0:0:0:0:
256,192,310309,1,8,0:0:0:0:
256,192,310384,1,8,0:0:0:0:
256,192,310459,1,0,0:0:0:0:
256,192,310609,1,8,0:0:0:0:
256,192,310759,1,0,0:0:0:0:
256,192,310834,1,8,0:0:0:0:
256,192,310909,1,8,0:0:0:0:
256,192,311059,1,8,0:0:0:0:
256,192,311209,1,0,0:0:0:0:
256,192,311359,1,0,0:0:0:0:
256,192,311509,1,8,0:0:0:0:
256,192,311584,1,8,0:0:0:0:
256,192,311659,1,0,0:0:0:0:
256,192,311734,1,0,0:0:0:0:
256,192,311809,1,8,0:0:0:0:
256,192,311959,1,0,0:0:0:0:
256,192,312034,1,0,0:0:0:0:
256,192,312109,1,8,0:0:0:0:
256,192,312259,1,4,0:0:0:0:
256,192,312559,1,0,0:0:0:0:
256,192,312709,1,8,0:0:0:0:
256,192,312784,1,0,0:0:0:0:
256,192,312859,1,8,0:0:0:0:
256,192,312934,1,8,0:0:0:0:
256,192,313009,1,0,0:0:0:0:
256,192,313159,1,0,0:0:0:0:
256,192,313309,1,8,0:0:0:0:
256,192,313384,1,8,0:0:0:0:
256,192,313459,1,0,0:0:0:0:
256,192,313534,1,0,0:0:0:0:
256,192,313609,1,8,0:0:0:0:
256,192,313759,1,0,0:0:0:0:
256,192,313909,1,0,0:0:0:0:
256,192,313984,1,8,0:0:0:0:
256,192,314059,1,0,0:0:0:0:
256,192,314134,1,0,0:0:0:0:
256,192,314209,1,8,0:0:0:0:
256,192,314359,1,0,0:0:0:0:
256,192,314434,1,0,0:0:0:0:
256,192,314509,1,8,0:0:0:0:
256,192,314584,1,0,0:0:0:0:
256,192,314659,1,8,0:0:0:0:
256,192,314734,1,8,0:0:0:0:
256,192,314809,1,0,0:0:0:0:
256,192,314959,1,0,0:0:0:0:
256,192,315109,1,8,0:0:0:0:
256,192,315184,1,8,0:0:0:0:
256,192,315259,1,0,0:0:0:0:
256,192,315334,1,0,0:0:0:0:
256,192,315409,1,8,0:0:0:0:
256,192,315559,1,0,0:0:0:0:
256,192,315634,1,0,0:0:0:0:
256,192,315709,1,8,0:0:0:0:
256,192,315859,1,0,0:0:0:0:
256,192,316159,1,0,0:0:0:0:
256,192,316234,1,0,0:0:0:0:
256,192,316309,1,8,0:0:0:0:
256,192,316384,1,0,0:0:0:0:
256,192,316459,1,8,0:0:0:0:
256,192,316534,1,8,0:0:0:0:
256,192,316609,1,0,0:0:0:0:
256,192,316684,1,8,0:0:0:0:
256,192,316759,1,0,0:0:0:0:
256,192,316834,1,0,0:0:0:0:
256,192,316909,1,8,0:0:0:0:
256,192,316984,1,8,0:0:0:0:
256,192,317059,1,0,0:0:0:0:
256,192,317359,1,0,0:0:0:0:
256,192,317509,1,8,0:0:0:0:
256,192,317659,1,8,0:0:0:0:
256,192,317734,1,8,0:0:0:0:
256,192,317809,1,0,0:0:0:0:
256,192,317959,1,0,0:0:0:0:
256,192,318109,1,8,0:0:0:0:
256,192,318184,1,8,0:0:0:0:
256,192,318259,1,0,0:0:0:0:
256,192,318334,1,0,0:0:0:0:
256,192,318409,1,8,0:0:0:0:
256,192,318559,1,0,0:0:0:0:
256,192,318709,1,0,0:0:0:0:
256,192,318784,1,8,0:0:0:0:
256,192,318859,1,0,0:0:0:0:
256,192,318934,1,0,0:0:0:0:
256,192,319009,1,8,0:0:0:0:
256,192,319159,1,0,0:0:0:0:
256,192,319234,1,0,0:0:0:0:
256,192,319309,1,8,0:0:0:0:
256,192,319384,1,0,0:0:0:0:
256,192,319459,1,8,0:0:0:0:
256,192,319534,1,8,0:0:0:0:
256,192,319609,1,0,0:0:0:0:
256,192,319759,1,0,0:0:0:0:
256,192,319909,1,8,0:0:0:0:
256,192,319984,1,8,0:0:0:0:
256,192,320059,1,0,0:0:0:0:
256,192,320134,1,0,0:0:0:0:
256,192,320209,1,8,0:0:0:0:
256,192,320359,1,0,0:0:0:0:
256,192,320509,1,0,0:0:0:0:
256,192,320584,1,8,0:0:0:0:
256,192,320659,1,0,0:0:0:0:
256,192,320734,1,0,0:0:0:0:
256,192,320809,1,8,0:0:0:0:
256,192,320959,1,0,0:0:0:0:
256,192,321109,1,8,0:0:0:0:
256,192,321259,1,0,0:0:0:0:
256,192,321409,1,8,0:0:0:0:
256,192,321484,1,0,0:0:0:0:
256,192,321559,1,8,0:0:0:0:
256,192,321634,1,8,0:0:0:0:
256,192,321709,1,0,0:0:0:0:
256,192,321784,1,8,0:0:0:0:
256,192,321859,1,0,0:0:0:0:
256,192,321934,1,0,0:0:0:0:
256,192,322009,1,12,0:0:0:0:
256,192,322159,1,8,0:0:0:0:
256,192,322309,1,0,0:0:0:0:
256,192,322459,1,0,0:0:0:0:
256,192,322609,1,8,0:0:0:0:
256,192,322684,1,0,0:0:0:0:
256,192,322759,1,8,0:0:0:0:
256,192,322834,1,8,0:0:0:0:
256,192,322909,1,0,0:0:0:0:
256,192,323059,1,0,0:0:0:0:
256,192,323209,1,8,0:0:0:0:
256,192,323284,1,8,0:0:0:0:
256,192,323359,1,0,0:0:0:0:
256,192,323434,1,0,0:0:0:0:
256,192,323509,1,8,0:0:0:0:
256,192,323659,1,0,0:0:0:0:
256,192,323809,1,8,0:0:0:0:
256,192,323884,1,0,0:0:0:0:
256,192,323959,1,8,0:0:0:0:
256,192,324034,1,8,0:0:0:0:
256,192,324109,1,0,0:0:0:0:
256,192,324259,1,0,0:0:0:0:
256,192,324334,1,0,0:0:0:0:
256,192,324409,1,8,0:0:0:0:
256,192,324559,1,8,0:0:0:0:
256,192,324709,1,0,0:0:0:0:
256,192,324859,1,0,0:0:0:0:
256,192,325009,1,0,0:0:0:0:
256,192,325084,1,0,0:0:0:0:
256,192,325159,1,8,0:0:0:0:
256,192,325234,1,8,0:0:0:0:
256,192,325309,1,0,0:0:0:0:
256,192,325459,1,0,0:0:0:0:
256,192,325609,1,8,0:0:0:0:
256,192,325684,1,0,0:0:0:0:
256,192,325759,1,0,0:0:0:0:
256,192,325834,1,0,0:0:0:0:
256,192,325909,1,8,0:0:0:0:
256,192,326059,1,0,0:0:0:0:
256,192,326209,1,8,0:0:0:0:
256,192,326284,1,0,0:0:0:0:
256,192,326359,1,8,0:0:0:0:
256,192,326434,1,8,0:0:0:0:
256,192,326509,1,0,0:0:0:0:
256,192,326584,1,8,0:0:0:0:
256,192,326659,1,0,0:0:0:0:
256,192,326734,1,0,0:0:0:0:
256,192,326809,1,12,0:0:0:0:
256,192,326959,1,0,0:0:0:0:
256,192,327109,1,8,0:0:0:0:
256,192,327259,1,8,0:0:0:0:
256,192,327409,1,0,0:0:0:0:
256,192,327484,1,8,0:0:0:0:
256,192,327559,1,0,0:0:0:0:
256,192,327634,1,0,0:0:0:0:
256,192,327709,1,8,0:0:0:0:
256,192,327784,1,8,0:0:0:0:
256,192,327859,1,0,0:0:0:0:
256,192,328009,1,8,0:0:0:0:
256,192,328084,1,0,0:0:0:0:
256,192,328159,1,8,0:0:0:0:
256,192,328234,1,8,0:0:0:0:
256,192,328309,1,0,0:0:0:0:
256,192,328384,1,8,0:0:0:0:
256,192,328459,1,8,0:0:0:0:
256,192,328609,1,12,0:0:0:0:
256,192,328759,1,0,0:0:0:0:
256,192,328909,1,12,0:0:0:0:
256,192,329059,1,4,0:0:0:0:
256,192,329359,1,0,0:0:0:0:
256,192,329509,1,8,0:0:0:0:
256,192,329659,1,0,0:0:0:0:
256,192,329809,1,8,0:0:0:0:
256,192,329884,1,8,0:0:0:0:
256,192,329959,1,0,0:0:0:0:
256,192,330034,1,0,0:0:0:0:
256,192,330109,1,8,0:0:0:0:
256,192,330184,1,8,0:0:0:0:
256,192,330259,1,0,0:0:0:0:
256,192,330409,1,0,0:0:0:0:
256,192,330484,1,8,0:0:0:0:
256,192,330559,1,0,0:0:0:0:
256,192,330634,1,0,0:0:0:0:
256,192,330709,1,8,0:0:0:0:
256,192,330784,1,0,0:0:0:0:
256,192,330859,1,8,0:0:0:0:
256,192,331009,1,8,0:0:0:0:
256,192,331084,1,0,0:0:0:0:
256,192,331159,1,0,0:0:0:0:
256,192,331234,1,0,0:0:0:0:
256,192,331309,1,8,0:0:0:0:
256,192,331384,1,0,0:0:0:0:
256,192,331459,1,8,0:0:0:0:
256,192,331609,1,8,0:0:0:0:
256,192,331759,1,0,0:0:0:0:
256,192,331834,1,0,0:0:0:0:
256,192,331909,1,8,0:0:0:0:
256,192,331984,1,8,0:0:0:0:
256,192,332059,1,0,0:0:0:0:
256,192,332209,1,8,0:0:0:0:
256,192,332284,1,8,0:0:0:0:
256,192,332359,1,0,0:0:0:0:
256,192,332509,1,8,0:0:0:0:
256,192,332584,1,8,0:0:0:0:
256,192,332659,1,0,0:0:0:0:
256,192,332734,1,0,0:0:0:0:
256,192,332809,1,12,0:0:0:0:
256,192,332959,1,0,0:0:0:0:
256,192,333109,1,12,0:0:0:0:
256,192,333259,1,0,0:0:0:0:
256,192,333409,1,12,0:0:0:0:
256,192,333559,1,0,0:0:0:0:
256,192,333709,1,12,0:0:0:0:
256,192,333859,1,0,0:0:0:0:
256,192,333934,1,0,0:0:0:0:
256,192,334009,1,8,0:0:0:0:
256,192,334084,1,0,0:0:0:0:
256,192,334159,1,8,0:0:0:0:
256,192,334234,1,0,0:0:0:0:
256,192,334309,1,8,0:0:0:0:
256,192,334384,1,0,0:0:0:0:
256,192,334459,1,8,0:0:0:0:
256,192,334534,1,8,0:0:0:0:
256,192,334609,1,0,0:0:0:0:
256,192,334684,1,8,0:0:0:0:
256,192,334759,1,0,0:0:0:0:
256,192,334834,1,0,0:0:0:0:
256,192,334909,1,8,0:0:0:0:
256,192,334984,1,8,0:0:0:0:
256,192,335059,1,0,0:0:0:0:
256,192,335134,1,0,0:0:0:0:
256,192,335209,1,8,0:0:0:0:
256,192,335284,1,0,0:0:0:0:
256,192,335359,1,8,0:0:0:0:
256,192,335434,1,0,0:0:0:0:
256,192,335509,1,8,0:0:0:0:
256,192,335584,1,8,0:0:0:0:
256,192,335659,1,0,0:0:0:0:
256,192,335734,1,8,0:0:0:0:
256,192,335809,1,0,0:0:0:0:
256,192,335884,1,0,0:0:0:0:
256,192,335959,1,8,0:0:0:0:
256,192,336034,1,0,0:0:0:0:
256,192,336109,1,8,0:0:0:0:
256,192,336184,1,8,0:0:0:0:
256,192,336259,1,0,0:0:0:0:
256,192,336334,1,0,0:0:0:0:
256,192,336409,1,8,0:0:0:0:
256,192,336484,1,0,0:0:0:0:
256,192,336559,1,8,0:0:0:0:
256,192,336634,1,0,0:0:0:0:
256,192,336709,1,8,0:0:0:0:
256,192,336784,1,0,0:0:0:0:
256,192,336859,1,8,0:0:0:0:
256,192,336934,1,8,0:0:0:0:
256,192,337009,1,0,0:0:0:0:
256,192,337084,1,8,0:0:0:0:
256,192,337159,1,0,0:0:0:0:
256,192,337234,1,0,0:0:0:0:
256,192,337309,1,8,0:0:0:0:
256,192,337384,1,8,0:0:0:0:
256,192,337459,1,0,0:0:0:0:
256,192,337534,1,0,0:0:0:0:
256,192,337609,1,8,0:0:0:0:
256,192,337684,1,8,0:0:0:0:
256,192,337759,1,8,0:0:0:0:
256,192,337834,1,8,0:0:0:0:
256,192,337909,1,0,0:0:0:0:
256,192,337984,1,0,0:0:0:0:
256,192,338059,1,0,0:0:0:0:
256,192,338134,1,0,0:0:0:0:
256,192,338209,1,8,0:0:0:0:
256,192,338246,1,8,0:0:0:0:
256,192,338809,1,4,0:0:0:0:
256,192,339409,1,8,0:0:0:0:
256,192,339859,1,0,0:0:0:0:
256,192,339934,1,0,0:0:0:0:
256,192,340009,1,8,0:0:0:0:
256,192,340046,1,8,0:0:0:0:
256,192,340309,1,4,0:0:0:0:
256,192,340609,1,4,0:0:0:0:
256,192,340909,1,4,0:0:0:0:
256,192,341209,1,12,0:0:0:0:
256,192,341809,1,8,0:0:0:0:
256,192,342259,1,0,0:0:0:0:
256,192,342334,1,0,0:0:0:0:
256,192,342409,1,8,0:0:0:0:
256,192,342446,1,8,0:0:0:0:
256,192,342709,1,4,0:0:0:0:
256,192,343009,1,4,0:0:0:0:
256,192,343309,1,4,0:0:0:0:
256,192,343609,1,12,0:0:0:0:
256,192,344209,1,8,0:0:0:0:
256,192,344659,1,0,0:0:0:0:
256,192,344734,1,0,0:0:0:0:
256,192,344809,1,8,0:0:0:0:
256,192,344846,1,8,0:0:0:0:
256,192,345109,1,4,0:0:0:0:
256,192,345409,1,4,0:0:0:0:
256,192,345709,1,4,0:0:0:0:
256,192,346009,1,12,0:0:0:0:
256,192,346609,1,4,0:0:0:0:
256,192,347209,1,8,0:0:0:0:
256,192,347284,1,8,0:0:0:0:
256,192,347359,1,8,0:0:0:0:
256,192,347434,1,8,0:0:0:0:
256,192,347509,1,0,0:0:0:0:
256,192,347584,1,0,0:0:0:0:
256,192,347659,1,0,0:0:0:0:
256,192,347734,1,0,0:0:0:0:
256,192,347809,1,8,0:0:0:0:
256,192,347884,1,8,0:0:0:0:
256,192,347959,1,8,0:0:0:0:
256,192,348034,1,8,0:0:0:0:
256,192,348109,1,0,0:0:0:0:
256,192,348184,1,0,0:0:0:0:
256,192,348259,1,0,0:0:0:0:
256,192,348334,1,0,0:0:0:0:
256,192,348409,1,12,0:0:0:0:
256,192,349609,1,8,0:0:0:0:
256,192,349684,1,8,0:0:0:0:
256,192,349909,1,4,0:0:0:0:
256,192,350209,1,4,0:0:0:0:
256,192,350509,1,4,0:0:0:0:
256,192,350809,1,12,0:0:0:0:
256,192,351409,1,8,0:0:0:0:
256,192,351859,1,0,0:0:0:0:
256,192,351934,1,0,0:0:0:0:
256,192,352009,1,8,0:0:0:0:
256,192,352046,1,8,0:0:0:0:
256,192,352309,1,4,0:0:0:0:
256,192,352609,1,4,0:0:0:0:
256,192,352909,1,4,0:0:0:0:
256,192,353209,1,12,0:0:0:0:
256,192,353840,1,8,0:0:0:0:
256,192,354348,1,0,0:0:0:0:
256,192,354433,1,0,0:0:0:0:
256,192,354517,1,8,0:0:0:0:
256,192,354562,1,8,0:0:0:0:
256,192,354878,1,4,0:0:0:0:
256,192,355283,1,4,0:0:0:0:
256,192,355688,1,4,0:0:0:0:
256,192,356135,1,12,0:0:0:0:
256,192,357095,1,12,0:0:0:0:
256,192,358185,1,4,0:0:0:0:
256,192,358458,12,0,360913,0:0:0:0:
