osu file format v14

[General]
AudioFilename: audio.mp3
AudioLeadIn: 0
PreviewTime: 329074
Countdown: 0
SampleSet: Soft
StackLeniency: 0.5
Mode: 0
LetterboxInBreaks: 0
WidescreenStoryboard: 1

[Editor]
Bookmarks: 10362,65219,99504,126932,150075,168075,180932,181789,195504,209218,236646,236718,236789,236861,236932,237004,237075,237146,237218,237289,237361,237432,237504,237575,237646,237718,237789,237861,237932,238004,238075,238146,238218,238289,238361,238432,238504,238575,264075,264217,264360,264503,264646,264789,264932,265075,265217,265360,265503,265646,265789,265932,266075,266217,266360,266503,266646,266789,266932,267075,267217,277789,277932,278075,278217,278360,278646,278789,279075,279217,279360,279503,279646,279932,280217,280360,280503,305217,305503,305789,305932,306075,306217,306360,306503,306646,306789,306932,307074,307217,307360,307503,307646,307789,308074,308360,308503,308646,332646,332931,333217,333503,333788,334074,334360,334646,334931,335217,335503,346360,346431,346503,346717,346788,346860,346931,347003,347146,347217,347288,347360,347503,347574,347646,347788,348074,348360,348646,348931,360074,373788,400359,403788,407216,414073,426930,427787,434644,438073,445260,451787,472644
DistanceSpacing: 0.8
BeatDivisor: 6
GridSize: 16
TimelineZoom: 4.499998

[Metadata]
Title:The Fool
TitleUnicode:The Fool
Artist:Aether Realm
ArtistUnicode:Æther Realm
Creator:SILENCE PLAYER
Version:Shadow of the Light
Source:osu!
Tags:itswinter tarot mpg mappers guild fa featured artist ghouru power metal folk viking english
BeatmapID:2517705
BeatmapSetID:1209271

[Difficulty]
HPDrainRate:5
CircleSize:4.2
OverallDifficulty:10
ApproachRate:9.8
SliderMultiplier:2
SliderTickRate:1

[Events]
//Background and Video events
0,0,"wl_1920x1200.jpg",0,0
//Break Periods
2,271176,277354
//Storyboard Layer 0 (Background)
//Storyboard Layer 1 (Fail)
//Storyboard Layer 2 (Pass)
//Storyboard Layer 3 (Foreground)
//Storyboard Layer 4 (Overlay)
//Storyboard Sound Samples

[TimingPoints]
10406,571.428571428571,6,2,0,100,1,0
99477,-100,6,2,0,5,0,0
99548,285.714285714286,6,2,1,68,1,0
99976,-83.3333333333333,6,2,1,68,0,0
119833,-83.3333333333333,6,2,8,68,0,0
120119,-83.3333333333333,6,2,1,68,0,0
126976,-66.6666666666667,6,2,1,68,0,0
127262,-66.6666666666667,6,2,1,63,0,0
128119,-100,6,2,1,63,0,0
135262,-83.3333333333333,6,2,1,63,0,0
138690,-100,6,2,1,63,0,0
150119,-76.9230769230769,6,2,1,63,0,0
153833,-76.9230769230769,6,2,8,63,0,0
154119,-76.9230769230769,6,2,9,63,0,0
154405,-83.3333333333333,6,2,1,63,0,0
154619,-83.3333333333333,6,2,1,5,0,0
154690,-83.3333333333333,6,2,1,63,0,0
154833,-100,6,2,1,63,0,0
167833,-100,6,2,10,63,0,0
168119,-100,6,2,2,63,0,1
180976,-100,6,2,8,63,0,1
181262,-100,6,2,9,63,0,1
181548,-100,6,2,10,63,0,1
181833,-83.3333333333333,6,2,1,63,0,0
195119,-83.3333333333333,6,2,8,63,0,0
195262,-83.3333333333333,6,2,9,63,0,0
195405,-83.3333333333333,6,2,8,63,0,0
195548,-83.3333333333333,6,2,1,63,0,0
208976,-83.3333333333333,6,2,8,63,0,0
209119,-83.3333333333333,6,2,9,63,0,0
209262,-83.3333333333333,6,2,1,63,0,0
209476,-83.3333333333333,6,2,1,5,0,0
209548,-83.3333333333333,6,2,1,63,0,0
210548,-100,6,2,1,63,0,0
233690,-83.3333333333333,6,2,1,63,0,0
233833,-66.6666666666667,6,2,1,63,0,0
234119,-80,6,2,1,63,0,0
234405,-66.6666666666667,6,2,1,63,0,0
234690,-57.1428571428571,6,2,1,63,0,0
235548,-80,6,2,1,63,0,0
235833,-100,6,2,1,63,0,0
236119,-100,6,2,8,63,0,0
236262,-66.6666666666667,6,2,8,63,0,0
236405,-57.1428571428571,6,2,9,63,0,0
236548,-50,6,2,10,63,0,0
236690,-250,6,2,2,63,0,0
239975,-250,6,2,2,5,0,0
240119,-277.777777777778,6,2,2,63,0,0
241761,-277.777777777778,6,2,2,5,0,0
241833,-277.777777777778,6,2,2,63,0,0
242475,-277.777777777778,6,2,2,5,0,0
242548,-277.777777777778,6,2,2,63,0,0
242976,-277.777777777778,6,2,8,63,0,0
243262,-277.777777777778,6,2,2,63,0,0
243548,-250,6,2,2,63,0,0
246905,-250,6,2,2,5,0,0
246976,-277.777777777778,6,2,2,63,0,0
248618,-277.777777777778,6,2,2,5,0,0
248690,-277.777777777778,6,2,2,63,0,0
249332,-277.777777777778,6,2,2,5,0,0
249405,-277.777777777778,6,2,2,63,0,0
249548,-277.777777777778,6,2,8,63,0,0
249833,-277.777777777778,6,2,9,63,0,0
250119,-277.777777777778,6,2,10,63,0,0
250405,-277.777777777778,6,2,2,63,0,0
251190,-277.777777777778,6,2,2,5,0,0
251262,-277.777777777778,6,2,2,63,0,0
253762,-277.777777777778,6,2,2,5,0,0
253833,-277.777777777778,6,2,2,63,0,0
255475,-277.777777777778,6,2,2,5,0,0
255548,-277.777777777778,6,2,2,63,0,0
256190,-277.777777777778,6,2,2,5,0,0
256262,-277.777777777778,6,2,2,63,0,0
256690,-277.777777777778,6,2,8,63,0,0
256833,-277.777777777778,6,2,2,63,0,0
256976,-277.777777777778,6,2,9,63,0,0
257119,-277.777777777778,6,2,2,63,0,0
260619,-277.777777777778,6,2,2,5,0,0
260690,-277.777777777778,6,2,2,63,0,0
262332,-277.777777777778,6,2,2,5,0,0
262405,-277.777777777778,6,2,2,63,0,0
262905,-277.777777777778,6,2,2,5,0,0
262976,-277.777777777778,6,2,2,63,0,0
264047,-277.777777777778,6,2,2,5,0,0
264119,571.428571428571,3,2,2,68,1,0
264261,-100,3,2,2,60,0,0
264833,-100,3,2,2,50,0,0
265261,-100,3,2,2,45,0,0
265976,-100,3,2,2,40,0,0
266547,-100,3,2,2,35,0,0
267119,-100,3,2,2,30,0,0
267690,-100,3,2,2,25,0,0
268261,-100,3,2,2,20,0,0
270976,-100,3,2,2,10,0,0
277833,857.142857142857,4,2,0,38,1,0
278690,-114.025085518814,4,2,0,35,0,0
332690,285.714285714286,6,2,1,68,1,0
332690,-83.3333333333333,6,2,1,68,0,0
332904,-83.3333333333333,6,2,1,5,0,0
332975,-83.3333333333333,6,2,1,68,0,0
345832,-83.3333333333333,6,2,8,68,0,0
346118,-83.3333333333333,6,2,9,68,0,0
346404,428.571428571429,4,2,2,68,1,1
346404,-61.7283950617284,4,2,2,68,0,1
359404,-61.7283950617284,4,2,8,68,0,1
359689,-61.7283950617284,4,2,9,68,0,1
359832,-61.7283950617284,4,2,10,68,0,1
360118,-66.6666666666667,4,2,2,68,0,0
366332,-66.6666666666667,4,2,2,5,0,1
366404,-66.6666666666667,4,2,2,68,0,1
366618,-66.6666666666667,4,2,2,5,0,1
366689,-66.6666666666667,4,2,2,68,0,1
366903,-66.6666666666667,4,2,2,5,0,1
366975,-66.6666666666667,4,2,2,68,0,0
373832,-100,4,2,2,68,0,1
380689,-66.6666666666667,4,2,2,68,0,1
380903,-66.6666666666667,4,2,2,5,0,1
380975,-66.6666666666667,4,2,2,68,0,1
381189,-66.6666666666667,4,2,2,5,0,1
381261,-66.6666666666667,4,2,2,68,0,1
381475,-66.6666666666667,4,2,2,5,0,1
381546,-100,4,2,2,68,0,1
393546,-66.6666666666667,4,2,2,68,0,1
393760,-66.6666666666667,4,2,2,5,0,1
393832,-66.6666666666667,4,2,2,68,0,1
394046,-66.6666666666667,4,2,2,5,0,1
394118,-66.6666666666667,4,2,2,68,0,1
394332,-66.6666666666667,4,2,2,5,0,1
394404,-100,4,2,2,68,0,1
395189,-100,4,2,2,5,0,1
395261,-100,4,2,2,68,0,1
396975,428.571428571429,4,2,2,68,1,1
403832,-666.666666666667,4,2,3,30,0,0
407260,-166.666666666667,4,2,2,68,0,0
417832,-166.666666666667,4,2,1,68,0,0
418403,-166.666666666667,4,2,2,68,0,0
419260,-66.6666666666667,4,2,2,68,0,0
420117,-66.6666666666667,4,2,8,68,0,0
420546,-66.6666666666667,4,2,9,68,0,0
420760,-66.6666666666667,4,2,10,68,0,0
420975,-133.333333333333,4,2,2,68,0,0
432117,-66.6666666666667,4,2,2,68,0,0
433189,-66.6666666666667,4,2,2,5,0,0
433260,-66.6666666666667,4,2,2,68,0,0
433832,-66.6666666666667,4,2,8,68,0,0
434260,-66.6666666666667,4,2,9,68,0,0
434689,-166.666666666667,4,2,2,68,0,0
440689,-66.6666666666667,4,2,2,68,0,0
440832,-66.6666666666667,4,2,9,68,0,0
440975,-66.6666666666667,4,2,10,68,0,0
441260,-66.6666666666667,4,2,9,68,0,0
441546,-66.6666666666667,4,2,8,68,0,0
441975,-66.6666666666667,4,2,1,68,0,0
442403,-66.6666666666667,4,2,8,68,0,0
442832,-66.6666666666667,4,2,9,68,0,0
443260,-66.6666666666667,4,2,8,68,0,0
443689,-66.6666666666667,4,2,9,68,0,0
444117,-66.6666666666667,4,2,10,68,0,0
444546,-66.6666666666667,4,2,2,68,0,0
445189,-66.6666666666667,4,2,2,5,0,0
445260,-66.6666666666667,4,2,2,68,0,0
445402,-66.6666666666667,4,2,2,5,0,0

[Colours]
Combo1 : 204,6,36
Combo2 : 245,162,99
Combo3 : 253,236,115
Combo4 : 255,128,0
Combo5 : 255,128,128

[HitObjects]
256,192,97834,12,0,99477,2:0:0:0:
107,220,99548,5,6,3:0:0:0:
207,327,99690,1,0,3:0:0:0:
291,185,99833,1,2,3:0:0:0:
421,377,99976,2,0,L|285:350,1,120,10|0,3:0|3:0,3:0:0:0:
270,171,100262,5,0,3:0:0:0:
192,338,100405,1,2,3:0:0:0:
367,258,100548,1,0,3:0:0:0:
153,111,100690,2,0,L|172:271,1,120,10|0,3:0|3:0,3:0:0:0:
15,335,100976,5,2,3:0:0:0:
53,236,101119,1,0,3:0:0:0:
291,362,101262,2,0,L|158:350,1,120,10|0,3:0|3:0,3:0:0:0:
48,211,101548,5,2,3:0:0:0:
345,290,101690,2,0,L|212:278,1,120,8|2,3:0|3:0,3:0:0:0:
116,144,101976,5,0,3:0:0:0:
247,38,102119,1,2,3:0:0:0:
315,202,102262,1,0,3:0:0:0:
135,18,102405,2,0,B|115:48|115:48|130:159,1,120,10|0,3:0|3:0,3:0:0:0:
173,259,102690,1,2,3:0:0:0:
228,137,102833,1,0,3:0:0:0:
364,338,102976,5,10,3:0:0:0:
243,117,103119,1,0,3:0:0:0:
160,354,103262,1,2,3:0:0:0:
315,202,103405,2,0,L|472:227,1,120,8|2,3:0|3:0,3:0:0:0:
512,127,103690,5,0,3:0:0:0:
443,322,103833,1,2,3:0:0:0:
365,123,103976,1,0,3:0:0:0:
201,278,104119,2,0,B|238:303|238:303|345:268,1,120,10|0,3:0|3:0,3:0:0:0:
254,73,104405,5,2,3:0:0:0:
221,183,104548,1,0,3:0:0:0:
48,65,104690,2,0,L|185:53,1,120,10|0,3:0|3:0,3:0:0:0:
289,2,104976,5,2,3:0:0:0:
27,153,105119,2,0,L|164:141,1,120,8|2,3:0|3:0,3:0:0:0:
281,103,105405,1,0,3:0:0:0:
229,312,105548,1,2,3:0:0:0:
199,202,105690,1,0,3:0:0:0:
406,325,105833,5,10,3:0:0:0:
131,268,105976,1,8,3:0:0:0:
403,340,106119,5,10,3:0:0:0:
296,87,106262,1,8,3:0:0:0:
220,307,106405,5,6,3:0:0:0:
320,193,106548,1,0,3:0:0:0:
395,322,106690,1,2,3:0:0:0:
228,175,106833,2,0,L|211:310,1,120,10|0,3:0|3:0,3:0:0:0:
329,175,107119,5,0,3:0:0:0:
400,302,107262,1,2,3:0:0:0:
512,220,107405,1,0,3:0:0:0:
315,384,107548,2,0,L|305:254,1,120,10|0,3:0|3:0,3:0:0:0:
425,111,107833,5,2,3:0:0:0:
396,223,107976,1,0,3:0:0:0:
183,125,108119,2,0,L|314:107,1,120,10|0,3:0|3:0,3:0:0:0:
435,130,108405,5,2,3:0:0:0:
246,40,108548,2,0,L|115:58,1,120,8|2,3:0|3:0,3:0:0:0:
32,224,108833,5,0,3:0:0:0:
115,132,108976,1,2,3:0:0:0:
158,286,109119,1,0,3:0:0:0:
252,159,109262,5,10,3:0:0:0:
146,274,109405,1,0,3:0:0:0:
331,288,109548,1,2,3:0:0:0:
145,177,109690,1,0,3:0:0:0:
410,197,109833,5,10,3:0:0:0:
321,283,109976,1,0,3:0:0:0:
247,132,110119,1,2,3:0:0:0:
77,287,110262,2,0,B|106:309|106:309|218:276,1,120,8|2,3:0|3:0,3:0:0:0:
331,301,110548,5,0,3:0:0:0:
277,210,110690,1,2,3:0:0:0:
219,367,110833,1,0,3:0:0:0:
350,118,110976,2,0,B|375:147|375:147|364:236,1,120,10|0,3:0|3:0,3:0:0:0:
508,320,111262,5,2,3:0:0:0:
476,221,111405,1,0,3:0:0:0:
208,321,111548,2,0,B|231:346|231:346|327:327,1,120,10|0,3:0|3:0,3:0:0:0:
435,351,111833,5,2,3:0:0:0:
269,141,111976,2,0,L|260:269,1,120,8|2,3:0|3:0,3:0:0:0:
189,347,112262,5,0,3:0:0:0:
124,247,112405,1,2,3:0:0:0:
60,368,112548,1,0,3:0:0:0:
37,224,112690,6,0,L|2:217,1,30,8|8,3:0|3:0,3:0:0:0:
236,106,112833,1,2,3:2:0:0:
38,245,112976,1,0,3:0:0:0:
284,273,113119,1,8,3:0:0:0:
156,32,113262,6,0,P|115:78|125:144,1,120,6|0,3:0|3:0,3:0:0:0:
181,253,113548,1,2,3:0:0:0:
382,95,113690,2,0,L|238:76,1,120,10|0,3:0|3:0,3:0:0:0:
387,228,113976,5,0,3:0:0:0:
460,133,114119,1,2,3:0:0:0:
512,292,114262,1,0,3:0:0:0:
207,181,114405,2,0,B|238:164|238:164|340:177,1,120,10|0,3:0|3:0,3:0:0:0:
452,114,114690,5,2,3:0:0:0:
386,247,114833,1,0,3:0:0:0:
202,54,114976,2,0,L|188:202,1,120,10|0,3:0|3:0,3:0:0:0:
270,9,115262,5,2,3:0:0:0:
68,215,115405,2,0,L|207:191,1,120,8|2,3:0|3:0,3:0:0:0:
83,27,115690,5,0,3:0:0:0:
46,142,115833,1,2,3:0:0:0:
92,13,115976,1,0,3:0:0:0:
301,241,116119,2,0,L|156:215,1,120,10|0,3:0|3:0,3:0:0:0:
361,379,116405,1,2,3:0:0:0:
403,267,116548,1,0,3:0:0:0:
265,378,116690,5,10,3:0:0:0:
183,192,116833,1,0,3:0:0:0:
81,320,116976,1,2,3:0:0:0:
309,104,117119,2,0,L|323:251,1,120,8|2,3:0|3:0,3:0:0:0:
390,62,117405,5,0,3:0:0:0:
462,214,117548,1,2,3:0:0:0:
512,112,117690,1,0,3:0:0:0:
261,290,117833,2,0,P|317:310|381:273,1,120,10|0,3:0|3:0,3:0:0:0:
235,131,118119,1,2,3:0:0:0:
204,218,118262,1,0,3:0:0:0:
80,105,118405,5,10,3:0:0:0:
295,55,118548,1,0,3:0:0:0:
252,270,118690,1,2,3:0:0:0:
163,39,118833,5,8,3:0:0:0:
326,152,118976,1,2,3:0:0:0:
139,236,119119,1,0,3:0:0:0:
284,44,119262,5,2,3:0:0:0:
233,260,119405,1,0,3:0:0:0:
421,115,119548,6,0,L|435:155,1,30,8|8,3:0|3:0,3:0:0:0:
151,54,119690,1,0,3:0:0:0:
432,96,119833,5,8,3:0:0:0:
213,275,119976,1,8,3:0:0:0:
299,21,120119,6,0,L|309:155,1,120,6|0,3:0|3:0,3:0:0:0:
201,285,120405,1,2,3:0:0:0:
464,212,120548,2,0,B|433:192|433:192|352:209,1,120,10|0,3:0|3:0,3:0:0:0:
421,368,120833,5,0,3:0:0:0:
468,227,120976,1,2,3:0:0:0:
430,381,121119,1,0,3:0:0:0:
216,269,121262,2,0,L|380:292,1,120,10|0,3:0|3:0,3:0:0:0:
421,139,121548,5,2,3:0:0:0:
457,253,121690,1,0,3:0:0:0:
223,129,121833,2,0,L|208:261,1,120,10|0,3:0|3:0,3:0:0:0:
173,52,122119,5,2,3:0:0:0:
395,211,122262,2,0,B|367:237|367:237|269:217,1,120,8|2,3:0|3:0,3:0:0:0:
164,311,122548,5,0,3:0:0:0:
119,167,122690,1,2,3:0:0:0:
150,323,122833,1,0,3:0:0:0:
284,131,122976,5,10,3:0:0:0:
234,368,123119,1,8,3:0:0:0:
284,112,123262,5,10,3:0:0:0:
398,382,123405,1,8,3:0:0:0:
502,155,123548,5,14,3:0:0:0:
415,263,123690,1,0,3:0:0:0:
287,94,123833,1,2,3:0:0:0:
166,269,123976,2,0,B|195:289|195:289|306:248,1,120,8|2,3:0|3:0,3:0:0:0:
208,61,124262,5,0,3:0:0:0:
191,183,124405,1,2,3:0:0:0:
223,48,124548,1,0,3:0:0:0:
413,156,124690,2,0,B|389:185|389:185|271:163,1,120,10|0,3:0|3:0,3:0:0:0:
467,50,124976,5,2,3:0:0:0:
503,168,125119,1,0,3:0:0:0:
240,36,125262,2,0,L|369:16,1,120,10|0,3:0|3:0,3:0:0:0:
511,182,125548,5,2,3:0:0:0:
201,118,125690,2,0,L|190:262,1,120,8|2,3:0|3:0,3:0:0:0:
180,353,125976,5,0,3:0:0:0:
321,212,126119,1,2,3:0:0:0:
396,335,126262,1,0,3:0:0:0:
264,364,126405,5,10,3:0:0:0:
354,125,126548,1,8,3:0:0:0:
251,359,126690,5,10,3:0:0:0:
152,56,126833,1,8,3:0:0:0:
34,290,126976,6,0,B|125:268|125:268|171:283|171:283|304:241,1,225,6|0,3:0|3:0,3:0:0:0:
388,186,127262,1,10,3:0:0:0:
413,201,127333,1,0,3:0:0:0:
428,226,127405,1,10,3:0:0:0:
425,255,127476,1,0,3:0:0:0:
408,280,127548,1,10,3:0:0:0:
381,292,127619,1,0,3:0:0:0:
351,291,127690,1,10,3:0:0:0:
326,273,127762,1,0,3:0:0:0:
303,253,127833,1,10,3:0:0:0:
275,241,127905,1,0,3:0:0:0:
245,242,127976,1,10,3:0:0:0:
217,254,128048,1,0,3:0:0:0:
194,273,128119,6,0,L|186:338,3,50,10|0|8|0,3:0|3:0|3:0|3:0,3:0:0:0:
93,331,128405,2,0,L|101:396,3,50,10|0|8|0,3:0|3:0|3:0|3:0,3:0:0:0:
333,384,128690,5,10,3:0:0:0:
370,358,128762,1,0,3:0:0:0:
381,314,128833,1,8,3:0:0:0:
365,271,128905,1,0,3:0:0:0:
325,250,128976,5,10,3:0:0:0:
294,283,129048,1,0,3:0:0:0:
254,283,129119,1,10,3:0:0:0:
224,264,129190,1,0,3:0:0:0:
214,235,129262,1,10,3:0:0:0:
218,210,129333,1,0,3:0:0:0:
230,193,129405,1,10,3:0:0:0:
242,185,129476,1,0,3:0:0:0:
257,183,129548,5,10,3:0:0:0:
306,216,129619,1,0,3:0:0:0:
360,211,129690,1,10,3:0:0:0:
396,175,129762,1,0,3:0:0:0:
402,130,129833,1,10,3:0:0:0:
380,95,129905,1,0,3:0:0:0:
352,82,129976,1,10,3:0:0:0:
331,84,130048,1,0,3:0:0:0:
319,93,130119,6,0,L|310:169,1,50,10|0,3:0|3:0,3:0:0:0:
496,243,130262,2,0,L|490:193,1,50,10|0,3:0|3:0,3:0:0:0:
392,25,130405,5,14,3:0:0:0:
346,6,130476,1,0,3:0:0:0:
296,15,130548,1,10,3:0:0:0:
256,45,130619,1,0,3:0:0:0:
240,92,130690,1,10,3:0:0:0:
246,141,130762,1,0,3:0:0:0:
224,186,130833,1,10,3:0:0:0:
176,201,130905,1,0,3:0:0:0:
128,187,130976,2,0,P|100:163|93:135,3,50,10|0|8|0,3:0|3:0|3:0|3:0,3:0:0:0:
269,39,131262,5,10,3:0:0:0:
300,63,131333,1,0,3:0:0:0:
314,100,131405,1,8,3:0:0:0:
303,138,131476,1,0,3:0:0:0:
275,155,131548,5,10,3:0:0:0:
255,183,131619,1,0,3:0:0:0:
253,217,131690,1,8,3:0:0:0:
272,246,131762,1,0,3:0:0:0:
301,248,131833,5,10,3:0:0:0:
321,270,131905,1,0,3:0:0:0:
327,299,131976,1,8,3:0:0:0:
319,328,132048,1,0,3:0:0:0:
304,348,132119,5,10,3:0:0:0:
273,308,132190,1,0,3:0:0:0:
225,292,132262,1,8,3:0:0:0:
176,302,132333,1,0,3:0:0:0:
146,343,132405,5,10,3:0:0:0:
192,371,132476,1,0,3:0:0:0:
236,346,132548,1,10,3:0:0:0:
250,303,132619,1,0,3:0:0:0:
235,266,132690,1,10,3:0:0:0:
207,243,132762,1,0,3:0:0:0:
198,214,132833,1,10,3:0:0:0:
205,189,132905,1,0,3:0:0:0:
221,177,132976,5,10,3:0:0:0:
266,208,133048,1,0,3:0:0:0:
276,256,133119,1,8,3:0:0:0:
254,295,133190,1,0,3:0:0:0:
215,306,133262,1,10,3:0:0:0:
186,286,133333,1,0,3:0:0:0:
156,278,133405,1,10,3:0:0:0:
136,283,133476,1,0,3:0:0:0:
126,295,133548,6,0,L|112:364,1,50,10|0,3:0|3:0,3:0:0:0:
341,356,133690,2,0,L|331:306,1,50,10|0,3:0|3:0,3:0:0:0:
180,116,133833,5,14,3:0:0:0:
175,124,133905,1,0,3:0:0:0:
171,133,133976,1,10,3:0:0:0:
168,142,134048,1,0,3:0:0:0:
166,151,134119,1,10,3:0:0:0:
165,160,134190,1,0,3:0:0:0:
165,170,134262,1,10,3:0:0:0:
165,179,134333,1,0,3:0:0:0:
167,188,134405,5,10,3:0:0:0:
197,227,134476,1,0,3:0:0:0:
246,233,134548,1,10,3:0:0:0:
290,210,134619,1,0,3:0:0:0:
305,162,134690,1,10,3:0:0:0:
330,118,134762,1,0,3:0:0:0:
375,97,134833,1,10,3:0:0:0:
425,100,134905,1,0,3:0:0:0:
465,129,134976,1,10,3:0:0:0:
475,178,135048,1,0,3:0:0:0:
456,224,135119,1,10,3:0:0:0:
412,247,135190,1,0,3:0:0:0:
361,243,135262,6,0,P|340:233|320:193,1,60,10|0,3:0|3:0,3:0:0:0:
463,54,135405,2,0,P|478:71|481:116,1,60,10|0,3:0|3:0,3:0:0:0:
445,288,135548,5,10,3:0:0:0:
406,333,135619,1,0,3:0:0:0:
347,344,135690,1,10,3:0:0:0:
295,312,135762,1,0,3:0:0:0:
266,259,135833,1,10,3:0:0:0:
213,228,135905,1,0,3:0:0:0:
153,234,135976,1,10,3:0:0:0:
109,276,136048,1,0,3:0:0:0:
100,335,136119,6,0,P|102:367|118:391,1,60,10|0,3:0|3:0,3:0:0:0:
280,235,136262,2,0,P|255:213|227:208,1,60,10|0,3:0|3:0,3:0:0:0:
289,382,136405,5,10,3:0:0:0:
332,370,136476,1,0,3:0:0:0:
360,335,136548,1,10,3:0:0:0:
364,290,136619,1,0,3:0:0:0:
345,249,136690,1,10,3:0:0:0:
308,222,136762,1,0,3:0:0:0:
295,179,136833,1,10,3:0:0:0:
312,137,136905,1,0,3:0:0:0:
350,113,136976,6,0,P|379:108|416:119,1,60,14|0,3:0|3:0,3:0:0:0:
332,314,137119,2,0,P|299:268|298:226,1,60,8|0,3:0|3:0,3:0:0:0:
493,150,137262,5,14,3:0:0:0:
503,188,137333,1,0,3:0:0:0:
496,227,137405,1,10,3:0:0:0:
471,258,137476,1,0,3:0:0:0:
431,267,137548,1,10,3:0:0:0:
391,259,137619,1,0,3:0:0:0:
365,228,137690,1,10,3:0:0:0:
342,194,137762,1,0,3:0:0:0:
304,180,137833,1,10,3:0:0:0:
263,184,137905,1,0,3:0:0:0:
231,208,137976,1,10,3:0:0:0:
217,245,138048,1,0,3:0:0:0:
182,265,138119,1,10,3:0:0:0:
142,268,138190,1,0,3:0:0:0:
109,243,138262,1,10,3:0:0:0:
99,204,138333,1,0,3:0:0:0:
114,166,138405,1,10,3:0:0:0:
146,143,138476,1,0,3:0:0:0:
157,104,138548,1,10,3:0:0:0:
139,68,138619,1,0,3:0:0:0:
101,54,138690,6,0,L|46:47,1,50,10|0,3:0|3:0,3:0:0:0:
29,227,138833,2,0,L|78:220,1,50,10|0,3:0|3:0,3:0:0:0:
263,164,138976,5,10,3:0:0:0:
266,154,139048,1,0,3:0:0:0:
268,144,139119,1,10,3:0:0:0:
269,134,139190,1,0,3:0:0:0:
269,123,139262,1,10,3:0:0:0:
269,113,139333,1,0,3:0:0:0:
268,102,139405,1,10,3:0:0:0:
266,92,139476,1,0,3:0:0:0:
262,82,139548,6,0,L|200:70,1,50,10|0,3:0|3:0,3:0:0:0:
144,209,139690,2,0,L|206:197,1,50,10|0,3:0|3:0,3:0:0:0:
39,105,139833,5,10,3:0:0:0:
16,138,139905,1,0,3:0:0:0:
11,177,139976,1,10,3:0:0:0:
27,213,140048,1,0,3:0:0:0:
60,234,140119,1,10,3:0:0:0:
99,230,140190,1,0,3:0:0:0:
136,245,140262,1,10,3:0:0:0:
162,274,140333,1,0,3:0:0:0:
165,314,140405,1,10,3:0:0:0:
147,349,140476,1,0,3:0:0:0:
110,366,140548,2,0,P|87:369|58:360,1,50,10|0,3:0|3:0,3:0:0:0:
92,152,140690,5,14,3:0:0:0:
134,125,140762,1,0,3:0:0:0:
183,127,140833,1,10,3:0:0:0:
224,155,140905,1,0,3:0:0:0:
240,201,140976,1,10,3:0:0:0:
279,232,141048,1,0,3:0:0:0:
328,232,141119,1,10,3:0:0:0:
372,210,141190,1,0,3:0:0:0:
385,161,141262,1,10,3:0:0:0:
364,115,141333,1,0,3:0:0:0:
378,66,141405,1,10,3:0:0:0:
423,45,141476,1,0,3:0:0:0:
472,53,141548,1,10,3:0:0:0:
499,94,141619,1,0,3:0:0:0:
493,143,141690,1,10,3:0:0:0:
454,175,141762,1,0,3:0:0:0:
404,173,141833,6,0,L|394:125,3,50,10|0|8|0,3:0|3:0|3:0|3:0,3:0:0:0:
291,93,142119,2,0,L|301:45,3,50,10|0|8|0,3:0|3:0|3:0|3:0,3:0:0:0:
190,2,142405,5,10,3:0:0:0:
140,34,142476,1,0,3:0:0:0:
115,89,142548,1,8,3:0:0:0:
130,146,142619,1,0,3:0:0:0:
183,172,142690,5,10,3:0:0:0:
212,219,142762,1,0,3:0:0:0:
205,268,142833,1,10,3:0:0:0:
171,298,142905,1,0,3:0:0:0:
131,302,142976,1,10,3:0:0:0:
100,285,143048,1,0,3:0:0:0:
87,257,143119,1,10,3:0:0:0:
89,232,143190,1,0,3:0:0:0:
101,216,143262,5,10,3:0:0:0:
131,267,143333,1,0,3:0:0:0:
182,287,143405,1,10,3:0:0:0:
229,273,143476,1,0,3:0:0:0:
257,238,143548,1,10,3:0:0:0:
264,198,143619,1,0,3:0:0:0:
251,165,143690,1,10,3:0:0:0:
230,151,143762,1,0,3:0:0:0:
205,147,143833,6,0,L|192:215,1,50,10|0,3:0|3:0,3:0:0:0:
384,303,143976,2,0,L|374:253,1,50,10|0,3:0|3:0,3:0:0:0:
272,71,144119,5,14,3:0:0:0:
225,42,144190,1,0,3:0:0:0:
169,48,144262,1,10,3:0:0:0:
124,79,144333,1,0,3:0:0:0:
103,130,144405,1,10,3:0:0:0:
109,184,144476,1,0,3:0:0:0:
148,222,144548,1,10,3:0:0:0:
161,275,144619,1,0,3:0:0:0:
133,322,144690,1,10,3:0:0:0:
81,341,144762,1,0,3:0:0:0:
30,320,144833,1,10,3:0:0:0:
9,268,144905,1,0,3:0:0:0:
25,215,144976,1,8,3:0:0:0:
69,181,145048,1,0,3:0:0:0:
123,181,145119,1,10,3:0:0:0:
165,214,145190,1,0,3:0:0:0:
178,267,145262,6,0,L|167:336,3,50,10|0|8|0,3:0|3:0|3:0|3:0,3:0:0:0:
292,329,145548,2,0,L|303:398,3,50,10|0|8|0,3:0|3:0|3:0|3:0,3:0:0:0:
439,315,145833,5,10,3:0:0:0:
483,273,145905,1,0,3:0:0:0:
483,213,145976,1,8,3:0:0:0:
444,166,146048,1,0,3:0:0:0:
386,150,146119,5,10,3:0:0:0:
350,108,146190,1,0,3:0:0:0:
354,57,146262,1,10,3:0:0:0:
388,28,146333,1,0,3:0:0:0:
428,24,146405,1,10,3:0:0:0:
456,43,146476,1,0,3:0:0:0:
467,70,146548,1,10,3:0:0:0:
464,94,146619,1,0,3:0:0:0:
452,110,146690,5,10,3:0:0:0:
407,76,146762,1,0,3:0:0:0:
357,80,146833,1,10,3:0:0:0:
323,111,146905,1,0,3:0:0:0:
315,149,146976,1,10,3:0:0:0:
325,177,147048,1,0,3:0:0:0:
345,191,147119,1,10,3:0:0:0:
364,194,147190,1,0,3:0:0:0:
376,189,147262,2,0,P|388:176|390:133,3,50,10|0|10|0,3:0|3:0|3:0|3:0,3:0:0:0:
241,25,147548,5,14,3:0:0:0:
186,27,147619,1,0,3:0:0:0:
138,54,147690,1,10,3:0:0:0:
113,103,147762,1,0,3:0:0:0:
114,157,147833,1,10,3:0:0:0:
143,204,147905,1,0,3:0:0:0:
195,219,147976,1,10,3:0:0:0:
248,202,148048,1,0,3:0:0:0:
301,215,148119,1,10,3:0:0:0:
331,260,148190,1,0,3:0:0:0:
323,314,148262,1,10,3:0:0:0:
283,351,148333,1,0,3:0:0:0:
227,355,148405,1,10,3:0:0:0:
186,318,148476,1,0,3:0:0:0:
181,262,148548,1,10,3:0:0:0:
149,217,148619,1,0,3:0:0:0:
95,203,148690,1,10,3:0:0:0:
43,222,148762,1,0,3:0:0:0:
23,273,148833,1,10,3:0:0:0:
31,327,148905,1,0,3:0:0:0:
78,354,148976,1,10,3:0:0:0:
132,344,149048,1,0,3:0:0:0:
168,303,149119,1,10,3:0:0:0:
219,286,149190,1,0,3:0:0:0:
273,297,149262,5,10,3:0:0:0:
305,334,149333,1,0,3:0:0:0:
348,345,149405,1,10,3:0:0:0:
390,330,149476,1,0,3:0:0:0:
411,289,149548,1,10,3:0:0:0:
407,249,149619,1,0,3:0:0:0:
383,223,149690,1,10,3:0:0:0:
365,192,149762,1,0,3:0:0:0:
368,157,149833,1,10,3:0:0:0:
388,134,149905,1,0,3:0:0:0:
416,124,149976,1,10,3:0:0:0:
440,129,150048,1,0,3:0:0:0:
456,143,150119,6,0,P|467:177|450:229,1,65,10|0,3:0|3:0,3:0:0:0:
333,293,150262,1,10,3:0:0:0:
321,287,150333,1,0,3:0:0:0:
312,277,150405,6,0,P|305:247|323:201,1,65,10|0,3:0|3:0,3:0:0:0:
235,173,150548,2,0,P|251:146|296:127,1,65,10|0,3:0|3:0,3:0:0:0:
407,148,150690,6,0,P|414:118|396:72,1,65,10|0,3:0|3:0,3:0:0:0:
484,44,150833,2,0,P|467:17|422:-1,1,65,10|0,3:0|3:0,3:0:0:0:
227,5,150976,5,14,3:0:0:0:
176,19,151048,1,0,3:0:0:0:
145,60,151119,1,10,3:0:0:0:
137,111,151190,1,0,3:0:0:0:
163,156,151262,1,10,3:0:0:0:
210,177,151333,1,0,3:0:0:0:
231,224,151405,1,10,3:0:0:0:
223,275,151476,1,0,3:0:0:0:
179,304,151548,1,10,3:0:0:0:
140,302,151619,1,0,3:0:0:0:
101,300,151690,1,10,3:0:0:0:
61,298,151762,1,0,3:0:0:0:
33,276,151833,6,0,L|42:346,3,65,10|0|8|0,3:0|3:0|3:0|3:0,3:0:0:0:
226,234,152119,2,0,L|217:304,3,65,10|0|8|0,3:0|3:0|3:0|3:0,3:0:0:0:
335,198,152405,2,0,L|344:268,3,65,10|0|8|0,3:0|3:0|3:0|3:0,3:0:0:0:
433,71,152690,5,10,3:0:0:0:
465,116,152762,1,0,3:0:0:0:
464,170,152833,1,10,3:0:0:0:
431,214,152905,1,0,3:0:0:0:
377,224,152976,1,10,3:0:0:0:
325,204,153048,1,0,3:0:0:0:
298,156,153119,1,10,3:0:0:0:
253,124,153190,1,0,3:0:0:0:
197,121,153262,1,10,3:0:0:0:
148,145,153333,1,0,3:0:0:0:
123,194,153405,1,10,3:0:0:0:
127,248,153476,1,0,3:0:0:0:
161,291,153548,1,10,3:0:0:0:
210,295,153619,1,0,3:0:0:0:
245,268,153690,1,10,3:0:0:0:
252,228,153762,1,0,3:0:0:0:
238,195,153833,5,8,3:0:0:0:
235,169,153905,1,8,3:0:0:0:
243,145,153976,1,8,3:0:0:0:
259,125,154048,1,8,3:0:0:0:
305,103,154119,5,8,3:0:0:0:
313,85,154190,1,8,3:0:0:0:
313,64,154262,1,8,3:0:0:0:
306,45,154333,1,8,3:0:0:0:
274,18,154405,6,0,B|223:4|223:4|159:14|125:80,1,180,6|0,3:0|3:0,3:0:0:0:
115,198,154690,1,10,3:0:0:0:
124,221,154762,1,0,3:0:0:0:
139,240,154833,2,0,P|163:242|194:222,1,50,8|0,3:0|3:0,3:0:0:0:
249,135,154976,5,10,3:0:0:0:
270,119,155048,1,0,3:0:0:0:
295,118,155119,2,0,P|317:130|333:165,1,50,8|0,3:0|3:0,3:0:0:0:
355,320,155262,5,10,3:0:0:0:
329,289,155333,1,0,3:0:0:0:
289,280,155405,2,0,P|261:285|236:310,1,50,8|0,3:0|3:0,3:0:0:0:
158,363,155548,5,10,3:0:0:0:
103,357,155619,1,0,3:0:0:0:
65,316,155690,1,10,3:0:0:0:
68,260,155762,1,0,3:0:0:0:
103,218,155833,1,10,3:0:0:0:
157,206,155905,1,0,3:0:0:0:
189,161,155976,1,10,3:0:0:0:
182,105,156048,1,0,3:0:0:0:
140,69,156119,6,0,P|108:63|87:68,3,50,10|0|10|0,3:0|3:0|3:0|3:0,3:0:0:0:
32,231,156405,2,0,P|64:225|81:212,3,50,10|0|10|0,3:0|3:0|3:0|3:0,3:0:0:0:
239,174,156690,2,0,P|213:153|192:148,3,50,10|0|10|0,3:0|3:0|3:0|3:0,3:0:0:0:
186,293,156976,5,10,3:0:0:0:
225,331,157048,1,0,3:0:0:0:
279,332,157119,2,0,P|313:322|329:303,1,50,8|0,3:0|3:0,3:0:0:0:
344,150,157262,5,10,3:0:0:0:
328,169,157333,1,0,3:0:0:0:
326,194,157405,2,0,P|327:229|347:254,1,50,8|0,3:0|3:0,3:0:0:0:
441,378,157548,5,10,3:0:0:0:
452,339,157619,1,0,3:0:0:0:
442,300,157690,2,0,P|403:289|361:292,1,50,8|0,3:0|3:0,3:0:0:0:
234,294,157833,5,14,3:0:0:0:
178,291,157905,1,0,3:0:0:0:
137,254,157976,1,10,3:0:0:0:
126,199,158048,1,0,3:0:0:0:
153,151,158119,1,10,3:0:0:0:
202,128,158190,1,0,3:0:0:0:
223,76,158262,1,10,3:0:0:0:
207,23,158333,1,0,3:0:0:0:
155,2,158405,6,0,P|133:8|105:25,3,50,10|0|10|0,3:0|3:0|3:0|3:0,3:0:0:0:
74,184,158690,1,10,3:0:0:0:
124,205,158762,1,0,3:0:0:0:
176,188,158833,2,0,P|205:164|209:140,1,50,10|0,3:0|3:0,3:0:0:0:
285,43,158976,5,10,3:0:0:0:
263,65,159048,1,0,3:0:0:0:
262,98,159119,2,0,P|273:131|300:147,1,50,10|0,3:0|3:0,3:0:0:0:
396,183,159262,5,10,3:0:0:0:
424,217,159333,1,0,3:0:0:0:
430,261,159405,2,0,P|426:292|408:310,1,50,10|0,3:0|3:0,3:0:0:0:
288,350,159548,6,0,L|296:272,3,50,10|0|10|0,3:0|3:0|3:0|3:0,3:0:0:0:
209,245,159833,2,0,L|201:167,3,50,10|0|10|0,3:0|3:0|3:0|3:0,3:0:0:0:
291,24,160119,5,10,3:0:0:0:
330,54,160190,1,0,3:0:0:0:
339,103,160262,2,0,P|337:126|317:153,1,50,10|0,3:0|3:0,3:0:0:0:
125,128,160405,5,14,3:0:0:0:
78,165,160476,1,0,3:0:0:0:
65,224,160548,1,10,3:0:0:0:
88,278,160619,1,0,3:0:0:0:
143,299,160690,5,10,3:0:0:0:
187,265,160762,1,0,3:0:0:0:
241,263,160833,1,10,3:0:0:0:
292,286,160905,1,0,3:0:0:0:
309,318,160976,6,0,L|300:367,1,50,14|0,3:0|3:0,3:0:0:0:
124,375,161119,2,0,L|115:325,1,50,10|0,3:0|3:0,3:0:0:0:
160,93,161262,5,14,3:0:0:0:
206,74,161333,1,0,3:0:0:0:
254,88,161405,2,0,P|271:110|275:152,1,50,8|0,3:0|3:0,3:0:0:0:
309,264,161548,5,8,3:0:0:0:
347,287,161619,1,0,3:0:0:0:
391,284,161690,2,0,P|421:278|436:257,1,50,8|0,3:0|3:0,3:0:0:0:
411,93,161833,5,10,3:0:0:0:
386,109,161905,1,0,3:0:0:0:
374,141,161976,2,0,P|372:171|388:203,1,50,8|0,3:0|3:0,3:0:0:0:
446,258,162119,5,10,3:0:0:0:
465,298,162190,1,0,3:0:0:0:
451,341,162262,2,0,P|428:353|374:339,1,50,8|0,3:0|3:0,3:0:0:0:
309,264,162405,5,10,3:0:0:0:
273,236,162476,1,0,3:0:0:0:
227,230,162548,1,10,3:0:0:0:
185,245,162619,1,0,3:0:0:0:
153,276,162690,1,10,3:0:0:0:
110,291,162762,1,0,3:0:0:0:
66,280,162833,1,10,3:0:0:0:
37,244,162905,1,0,3:0:0:0:
43,199,162976,2,0,P|50:172|66:153,3,50,10|0|10|0,3:0|3:0|3:0|3:0,3:0:0:0:
197,130,163262,2,0,P|190:103|174:84,3,50,10|0|10|0,3:0|3:0|3:0|3:0,3:0:0:0:
80,53,163548,2,0,P|87:26|103:7,3,50,10|0|10|0,3:0|3:0|3:0|3:0,3:0:0:0:
284,7,163833,5,10,3:0:0:0:
322,31,163905,1,0,3:0:0:0:
338,72,163976,1,10,3:0:0:0:
330,116,164048,1,0,3:0:0:0:
300,149,164119,5,10,3:0:0:0:
295,198,164190,1,0,3:0:0:0:
325,237,164262,2,0,P|350:254|393:253,1,50,8|0,3:0|3:0,3:0:0:0:
511,130,164405,5,10,3:0:0:0:
488,97,164476,1,0,3:0:0:0:
448,89,164548,2,0,P|421:94|402:113,1,50,8|0,3:0|3:0,3:0:0:0:
281,195,164690,5,14,3:0:0:0:
241,201,164762,1,0,3:0:0:0:
208,177,164833,1,10,3:0:0:0:
198,137,164905,1,0,3:0:0:0:
210,99,164976,1,10,3:0:0:0:
200,59,165048,1,0,3:0:0:0:
171,31,165119,1,10,3:0:0:0:
131,24,165190,1,0,3:0:0:0:
92,37,165262,2,0,P|73:68|80:106,3,50,10|0|10|0,3:0|3:0|3:0|3:0,3:0:0:0:
119,188,165548,5,10,3:0:0:0:
162,164,165619,1,0,3:0:0:0:
211,166,165690,2,0,P|239:178|258:207,1,50,10|0,3:0|3:0,3:0:0:0:
277,307,165833,5,10,3:0:0:0:
246,280,165905,1,0,3:0:0:0:
206,281,165976,2,0,P|174:287|149:310,1,50,10|0,3:0|3:0,3:0:0:0:
326,381,166119,5,10,3:0:0:0:
364,349,166190,1,0,3:0:0:0:
369,298,166262,2,0,P|364:264|343:242,1,50,10|0,3:0|3:0,3:0:0:0:
211,166,166405,6,0,L|202:229,3,50,10|0|10|0,3:0|3:0|3:0|3:0,3:0:0:0:
297,104,166690,2,0,L|306:167,3,50,10|0|10|0,3:0|3:0|3:0|3:0,3:0:0:0:
221,0,166976,2,0,L|212:63,3,50,10|0|10|0,3:0|3:0|3:0|3:0,3:0:0:0:
386,2,167262,5,10,3:0:0:0:
428,28,167333,1,0,3:0:0:0:
431,78,167405,2,0,P|424:110|404:127,1,50,10|0,3:0|3:0,3:0:0:0:
269,188,167548,5,10,2:0:0:0:
235,243,167619,1,8,2:0:0:0:
242,307,167690,1,8,2:0:0:0:
299,337,167762,1,8,2:0:0:0:
352,271,167833,5,8,3:0:0:0:
336,260,167905,1,8,3:0:0:0:
323,263,167976,1,8,3:0:0:0:
317,279,168048,1,8,3:0:0:0:
340,315,168119,6,0,P|363:321|399:303,3,50,6|0|0|0,3:0|3:0|3:0|3:0,3:0:0:0:
464,148,168405,1,10,3:0:0:0:
449,168,168476,1,0,3:0:0:0:
444,192,168548,5,0,3:0:0:0:
417,240,168619,1,0,3:0:0:0:
363,249,168690,1,10,3:0:0:0:
310,232,168762,1,0,3:0:0:0:
287,182,168833,1,0,3:0:0:0:
298,127,168905,1,0,3:0:0:0:
338,90,168976,5,10,3:0:0:0:
363,127,169048,1,0,3:0:0:0:
406,135,169119,1,0,3:0:0:0:
447,119,169190,1,0,3:0:0:0:
459,75,169262,5,10,3:0:0:0:
426,37,169333,1,0,3:0:0:0:
376,30,169405,2,0,P|361:28|315:42,1,50,0|0,3:0|3:0,3:0:0:0:
352,217,169548,5,10,3:0:0:0:
359,172,169619,1,0,3:0:0:0:
339,131,169690,2,0,P|316:114|273:112,1,50,0|0,3:0|3:0,3:0:0:0:
135,212,169833,5,10,3:0:0:0:
175,192,169905,1,0,3:0:0:0:
219,199,169976,2,0,P|248:214|267:253,1,50,0|0,3:0|3:0,3:0:0:0:
270,358,170119,5,10,3:0:0:0:
242,323,170190,1,0,3:0:0:0:
197,312,170262,1,0,3:0:0:0:
153,320,170333,1,0,3:0:0:0:
116,346,170405,1,10,3:0:0:0:
72,354,170476,1,0,3:0:0:0:
34,329,170548,1,0,3:0:0:0:
21,286,170619,1,0,3:0:0:0:
43,247,170690,2,0,P|61:236|99:231,3,50,10|0|0|0,3:0|3:0|3:0|3:0,3:0:0:0:
228,239,170976,5,10,3:0:0:0:
246,230,171048,1,0,3:0:0:0:
258,214,171119,2,0,P|263:181|247:153,1,50,0|0,3:0|3:0,3:0:0:0:
175,129,171262,5,10,3:0:0:0:
157,120,171333,1,0,3:0:0:0:
145,104,171405,2,0,P|140:71|156:43,1,50,0|0,3:0|3:0,3:0:0:0:
311,0,171548,5,14,3:0:0:0:
367,16,171619,1,0,3:0:0:0:
403,63,171690,1,0,3:0:0:0:
406,123,171762,1,0,3:0:0:0:
382,178,171833,1,10,3:0:0:0:
328,207,171905,1,0,3:0:0:0:
268,205,171976,5,0,3:0:0:0:
227,242,172048,1,0,3:0:0:0:
218,296,172119,1,10,3:0:0:0:
232,347,172190,1,0,3:0:0:0:
278,375,172262,1,0,3:0:0:0:
331,370,172333,1,0,3:0:0:0:
365,326,172405,5,10,3:0:0:0:
332,289,172476,1,0,3:0:0:0:
283,281,172548,1,0,3:0:0:0:
234,289,172619,1,0,3:0:0:0:
194,318,172690,1,10,3:0:0:0:
154,348,172762,1,0,3:0:0:0:
105,350,172833,1,0,3:0:0:0:
60,327,172905,1,0,3:0:0:0:
46,280,172976,6,0,L|55:182,1,50,10|0,3:0|3:0,3:0:0:0:
268,205,173119,2,0,L|273:258,1,50,2|0,3:0|3:0,3:0:0:0:
109,117,173262,5,10,3:0:0:0:
129,71,173333,1,0,3:0:0:0:
171,43,173405,1,0,3:0:0:0:
220,39,173476,1,0,3:0:0:0:
267,56,173548,1,10,3:0:0:0:
293,98,173619,1,0,3:0:0:0:
335,123,173690,1,0,3:0:0:0:
385,119,173762,1,0,3:0:0:0:
420,84,173833,1,10,3:0:0:0:
416,33,173905,1,0,3:0:0:0:
376,2,173976,1,0,3:0:0:0:
325,6,174048,1,0,3:0:0:0:
294,45,174119,2,0,P|291:78|296:115,3,50,10|0|0|0,3:0|3:0|3:0|3:0,3:0:0:0:
423,188,174405,6,0,P|408:174|360:167,1,50,14|0,3:0|3:0,3:0:0:0:
252,239,174548,2,0,P|299:248|317:242,3,50,14|0|0|0,3:0|3:0|3:0|3:0,3:0:0:0:
439,185,174833,6,0,P|424:171|376:164,1,50,14|0,3:0|3:0,3:0:0:0:
234,241,174976,1,14,3:0:0:0:
219,294,175048,1,0,3:0:0:0:
176,327,175119,1,0,3:0:0:0:
121,328,175190,1,0,3:0:0:0:
77,293,175262,1,10,3:0:0:0:
71,238,175333,1,0,3:0:0:0:
97,189,175405,1,0,3:0:0:0:
146,165,175476,1,0,3:0:0:0:
165,112,175548,5,10,3:0:0:0:
148,70,175619,1,0,3:0:0:0:
109,47,175690,2,0,P|89:42|48:58,1,50,0|0,3:0|3:0,3:0:0:0:
99,217,175833,5,10,3:0:0:0:
149,240,175905,1,0,3:0:0:0:
202,228,175976,1,0,3:0:0:0:
231,181,176048,1,0,3:0:0:0:
231,126,176119,1,10,3:0:0:0:
248,74,176190,1,0,3:0:0:0:
293,42,176262,1,0,3:0:0:0:
347,45,176333,1,0,3:0:0:0:
388,82,176405,2,0,P|397:113|387:143,3,50,10|0|0|0,3:0|3:0|3:0|3:0,3:0:0:0:
308,200,176690,5,10,3:0:0:0:
284,226,176762,1,0,3:0:0:0:
279,260,176833,2,0,P|283:285|299:309,1,50,0|0,3:0|3:0,3:0:0:0:
463,331,176976,5,10,3:0:0:0:
457,291,177048,1,0,3:0:0:0:
428,263,177119,2,0,P|398:254|369:262,1,50,0|0,3:0|3:0,3:0:0:0:
282,327,177262,5,10,3:0:0:0:
249,357,177333,1,0,3:0:0:0:
203,357,177405,2,0,P|177:348|162:328,1,50,0|0,3:0|3:0,3:0:0:0:
174,143,177548,5,10,3:0:0:0:
209,175,177619,1,0,3:0:0:0:
215,224,177690,2,0,P|203:250|174:269,1,50,0|0,3:0|3:0,3:0:0:0:
48,265,177833,5,10,3:0:0:0:
40,251,177905,1,0,3:0:0:0:
36,236,177976,2,0,P|37:206|55:175,1,50,0|0,3:0|3:0,3:0:0:0:
174,143,178119,5,10,3:0:0:0:
182,129,178190,1,0,3:0:0:0:
186,114,178262,2,0,P|185:84|167:53,1,50,0|0,3:0|3:0,3:0:0:0:
37,29,178405,5,14,3:0:0:0:
13,78,178476,1,0,3:0:0:0:
20,132,178548,1,0,3:0:0:0:
61,167,178619,1,0,3:0:0:0:
114,175,178690,1,10,3:0:0:0:
166,157,178762,1,0,3:0:0:0:
219,166,178833,1,0,3:0:0:0:
255,207,178905,1,0,3:0:0:0:
257,261,178976,1,10,3:0:0:0:
233,299,179048,1,0,3:0:0:0:
195,311,179119,1,0,3:0:0:0:
162,299,179190,1,0,3:0:0:0:
146,272,179262,1,10,3:0:0:0:
146,247,179333,1,0,3:0:0:0:
157,230,179405,1,0,3:0:0:0:
169,222,179476,1,0,3:0:0:0:
183,217,179548,5,10,3:0:0:0:
210,246,179619,1,0,3:0:0:0:
247,258,179690,2,0,P|289:255|319:229,1,50,0|0,3:0|3:0,3:0:0:0:
352,137,179833,5,10,3:0:0:0:
388,122,179905,1,0,3:0:0:0:
427,128,179976,2,0,P|463:149|479:185,1,50,0|0,3:0|3:0,3:0:0:0:
470,318,180119,5,10,3:0:0:0:
426,351,180190,1,0,3:0:0:0:
370,345,180262,1,0,3:0:0:0:
329,307,180333,1,0,3:0:0:0:
282,277,180405,1,10,3:0:0:0:
228,286,180476,1,0,3:0:0:0:
190,326,180548,5,0,3:0:0:0:
226,359,180619,1,0,3:0:0:0:
274,350,180690,1,10,3:0:0:0:
311,316,180762,1,0,3:0:0:0:
317,266,180833,1,0,3:0:0:0:
296,220,180905,1,0,3:0:0:0:
250,201,180976,6,0,L|243:233,1,25,8|8,3:0|3:0,3:0:0:0:
405,365,181119,1,8,3:0:0:0:
342,112,181262,1,8,3:0:0:0:
273,314,181405,1,8,3:0:0:0:
164,203,181548,1,8,3:0:0:0:
73,285,181690,1,8,3:0:0:0:
0,95,181833,6,0,L|138:115,1,120,6|0,3:0|3:0,3:0:0:0:
239,221,182119,1,2,3:0:0:0:
356,39,182262,2,0,L|229:60,1,120,10|0,3:0|3:0,3:0:0:0:
450,213,182548,5,0,3:0:0:0:
401,122,182690,1,2,3:0:0:0:
343,283,182833,1,0,3:0:0:0:
169,189,182976,2,0,P|212:151|295:173,1,120,10|0,3:0|3:0,3:0:0:0:
178,356,183262,1,2,3:0:0:0:
150,275,183405,1,0,3:0:0:0:
353,268,183548,5,10,3:0:0:0:
265,352,183690,1,0,3:0:0:0:
151,259,183833,1,2,3:0:0:0:
330,189,183976,5,8,3:0:0:0:
266,365,184119,1,2,3:0:0:0:
179,184,184262,1,0,3:0:0:0:
177,340,184405,5,2,3:0:0:0:
253,247,184548,1,0,3:0:0:0:
428,370,184690,2,0,L|262:345,1,120,10|0,3:0|3:0,3:0:0:0:
450,195,184976,1,2,3:0:0:0:
472,279,185119,1,0,3:0:0:0:
259,124,185262,5,10,3:0:0:0:
342,268,185405,1,0,3:0:0:0:
443,102,185548,1,2,3:0:0:0:
228,241,185690,5,8,3:0:0:0:
440,187,185833,1,2,3:0:0:0:
256,109,185976,1,0,3:0:0:0:
336,287,186119,5,2,3:0:0:0:
375,157,186262,1,0,3:0:0:0:
111,270,186405,2,0,B|136:290|136:290|247:259,1,120,10|0,3:0|3:0,3:0:0:0:
112,85,186690,5,2,3:0:0:0:
86,175,186833,1,0,3:0:0:0:
226,40,186976,2,0,L|246:178,1,120,10|0,3:0|3:0,3:0:0:0:
320,6,187262,5,2,3:0:0:0:
357,241,187405,2,0,L|374:122,1,120,8|2,3:0|3:0,3:0:0:0:
441,57,187690,1,0,3:0:0:0:
482,222,187833,1,2,3:0:0:0:
446,42,187976,1,0,3:0:0:0:
196,249,188119,5,8,3:0:0:0:
266,263,188190,1,8,3:0:0:0:
336,278,188262,1,8,3:0:0:0:
279,96,188405,1,2,3:0:0:0:
194,336,188548,1,8,3:0:0:0:
5,160,188690,6,0,L|154:190,1,120,6|0,3:0|3:0,3:0:0:0:
291,83,188976,1,2,3:0:0:0:
106,0,189119,2,0,B|79:20|79:20|85:121,1,120,10|0,3:0|3:0,3:0:0:0:
166,280,189405,5,0,3:0:0:0:
198,154,189548,1,2,3:0:0:0:
159,291,189690,1,0,3:0:0:0:
395,186,189833,2,0,L|240:154,1,120,10|0,3:0|3:0,3:0:0:0:
419,352,190119,1,2,3:0:0:0:
447,262,190262,1,0,3:0:0:0:
155,299,190405,6,0,B|192:323|192:323|289:305,1,120,10|0,3:0|3:0,3:0:0:0:
360,285,190690,1,2,3:0:0:0:
206,101,190833,2,0,L|196:241,1,120,8|2,3:0|3:0,3:0:0:0:
298,45,191119,1,0,3:0:0:0:
341,154,191262,1,2,3:0:0:0:
416,76,191405,1,0,3:0:0:0:
471,216,191548,5,10,3:0:0:0:
331,178,191690,1,0,3:0:0:0:
476,224,191833,1,2,3:0:0:0:
307,289,191976,1,0,3:0:0:0:
412,369,192119,5,10,3:0:0:0:
323,196,192262,1,0,3:0:0:0:
224,333,192405,1,2,3:0:0:0:
193,164,192548,5,8,3:0:0:0:
302,301,192690,1,2,3:0:0:0:
407,220,192833,1,0,3:0:0:0:
284,69,192976,5,2,3:0:0:0:
303,182,193119,1,0,3:0:0:0:
488,46,193262,2,0,B|441:41|441:41|422:47|422:47|340:38,1,120,10|0,3:0|3:0,3:0:0:0:
185,173,193548,5,2,3:0:0:0:
207,65,193690,1,0,3:0:0:0:
293,314,193833,2,0,L|307:183,1,120,10|0,3:0|3:0,3:0:0:0:
362,365,194119,5,2,3:0:0:0:
177,166,194262,2,0,L|189:285,1,120,8|2,3:0|3:0,3:0:0:0:
0,127,194548,5,8,3:0:0:0:
69,111,194619,1,8,3:0:0:0:
138,95,194690,1,8,3:0:0:0:
61,332,194833,1,8,3:0:0:0:
278,212,194976,5,0,3:0:0:0:
65,141,195119,1,8,3:0:0:0:
288,227,195262,1,8,3:0:0:0:
137,309,195405,1,8,3:0:0:0:
208,44,195548,6,0,L|226:203,1,120,6|0,3:0|3:0,3:0:0:0:
289,0,195833,1,2,3:0:0:0:
443,166,195976,2,0,L|314:148,1,120,10|0,3:0|3:0,3:0:0:0:
149,197,196262,5,0,3:0:0:0:
129,309,196405,1,2,3:0:0:0:
145,182,196548,1,0,3:0:0:0:
314,346,196690,2,0,B|289:368|289:368|176:350,1,120,10|0,3:0|3:0,3:0:0:0:
333,176,196976,5,2,3:0:0:0:
358,269,197119,1,0,3:0:0:0:
224,112,197262,2,0,L|212:255,1,120,10|0,3:0|3:0,3:0:0:0:
290,63,197548,5,2,3:0:0:0:
126,302,197690,2,0,L|114:159,1,120,8|2,3:0|3:0,3:0:0:0:
61,60,197976,5,0,3:0:0:0:
36,193,198119,1,2,3:0:0:0:
69,41,198262,1,0,3:0:0:0:
210,163,198405,2,0,L|220:282,1,120,10|0,3:0|3:0,3:0:0:0:
339,128,198690,1,2,3:0:0:0:
317,223,198833,1,0,3:0:0:0:
481,117,198976,5,10,3:0:0:0:
335,236,199119,1,0,3:0:0:0:
267,118,199262,1,2,3:0:0:0:
233,279,199405,5,8,3:0:0:0:
366,130,199548,1,2,3:0:0:0:
426,237,199690,1,0,3:0:0:0:
161,230,199833,5,2,3:0:0:0:
252,193,199976,1,0,3:0:0:0:
119,20,200119,2,0,L|112:168,1,120,10|0,3:0|3:0,3:0:0:0:
261,206,200405,1,2,3:0:0:0:
291,89,200548,1,0,3:0:0:0:
388,301,200690,5,10,3:0:0:0:
288,68,200833,1,0,3:0:0:0:
190,224,200976,1,2,3:0:0:0:
393,42,201119,2,0,L|417:187,1,120,8|2,3:0|3:0,3:0:0:0:
314,273,201405,5,0,3:0:0:0:
462,238,201548,1,2,3:0:0:0:
318,293,201690,1,0,3:0:0:0:
298,129,201833,5,10,3:0:0:0:
260,359,201976,1,8,3:0:0:0:
310,121,202119,1,10,3:0:0:0:
386,299,202262,1,8,3:0:0:0:
127,226,202405,6,0,L|267:212,1,120,6|0,3:0|3:0,3:0:0:0:
401,292,202690,1,2,3:0:0:0:
237,136,202833,2,0,L|97:150,1,120,10|0,3:0|3:0,3:0:0:0:
59,53,203119,5,0,3:0:0:0:
28,172,203262,1,2,3:0:0:0:
59,35,203405,1,0,3:0:0:0:
163,243,203548,2,0,B|130:244|130:244|109:143,1,120,10|0,3:0|3:0,3:0:0:0:
229,29,203833,5,2,3:0:0:0:
211,135,203976,1,0,3:0:0:0:
416,79,204119,2,0,B|398:49|398:49|303:43,1,120,10|0,3:0|3:0,3:0:0:0:
482,12,204405,5,2,3:0:0:0:
337,130,204548,2,0,B|355:160|355:160|450:166,1,120,8|2,3:0|3:0,3:0:0:0:
436,278,204833,1,0,3:0:0:0:
310,250,204976,1,2,3:0:0:0:
440,294,205119,1,0,3:0:0:0:
260,355,205262,5,10,3:0:0:0:
299,238,205405,1,0,3:0:0:0:
243,362,205548,1,2,3:0:0:0:
200,198,205690,1,0,3:0:0:0:
148,365,205833,5,10,3:0:0:0:
280,151,205976,1,0,3:0:0:0:
373,311,206119,1,2,3:0:0:0:
429,167,206262,5,8,3:0:0:0:
364,326,206405,1,2,3:0:0:0:
192,185,206548,1,0,3:0:0:0:
265,378,206690,5,2,3:0:0:0:
290,165,206833,1,0,3:0:0:0:
82,301,206976,2,0,L|231:288,1,120,10|0,3:0|3:0,3:0:0:0:
85,123,207262,5,2,3:0:0:0:
61,216,207405,1,0,3:0:0:0:
197,73,207548,2,0,L|211:215,1,120,10|0,3:0|3:0,3:0:0:0:
265,24,207833,1,2,3:0:0:0:
313,256,207976,2,0,L|324:136,1,120,8|2,3:0|3:0,3:0:0:0:
409,47,208262,5,0,3:0:0:0:
436,199,208405,1,2,3:0:0:0:
422,28,208548,1,0,3:0:0:0:
207,183,208690,5,10,3:0:0:0:
435,12,208833,1,8,3:0:0:0:
196,203,208976,1,8,3:0:0:0:
427,266,209119,1,8,3:0:0:0:
256,16,209262,6,0,P|170:3|97:75,1,180,6|0,3:0|3:0,3:0:0:0:
90,146,209548,1,10,3:0:0:0:
98,199,209619,1,0,3:2:0:0:
137,234,209690,1,10,3:0:0:0:
191,239,209762,1,0,3:2:0:0:
237,211,209833,1,10,3:0:0:0:
291,217,209905,1,0,3:2:0:0:
324,258,209976,1,10,3:0:0:0:
324,312,210048,1,0,3:2:0:0:
289,353,210119,1,10,3:0:0:0:
235,361,210190,1,0,3:2:0:0:
189,330,210262,1,10,3:0:0:0:
176,277,210333,1,0,3:2:0:0:
201,229,210405,5,10,3:0:0:0:
227,215,210476,1,0,3:2:0:0:
257,216,210548,2,0,P|292:230|313:260,1,50,8|0,3:0|3:2,3:0:0:0:
355,345,210690,5,10,3:0:0:0:
381,359,210762,1,0,3:0:0:0:
411,358,210833,2,0,P|446:344|467:314,1,50,8|0,3:0|3:0,3:0:0:0:
416,59,210976,5,10,3:0:0:0:
374,94,211048,1,0,3:0:0:0:
367,147,211119,1,8,3:0:0:0:
396,192,211190,1,0,3:0:0:0:
449,200,211262,5,10,3:0:0:0:
420,159,211333,1,0,3:0:0:0:
374,155,211405,1,10,3:0:0:0:
337,169,211476,1,0,3:0:0:0:
317,198,211548,1,10,3:0:0:0:
289,210,211619,1,0,3:0:0:0:
265,203,211690,1,10,3:0:0:0:
252,187,211762,1,0,3:0:0:0:
252,167,211833,5,10,3:0:0:0:
306,193,211905,1,0,3:0:0:0:
324,244,211976,1,10,3:0:0:0:
313,293,212048,1,0,3:0:0:0:
279,322,212119,1,10,3:0:0:0:
239,325,212190,1,0,3:0:0:0:
219,307,212262,1,10,3:0:0:0:
212,291,212333,1,0,3:0:0:0:
213,276,212405,6,0,L|223:188,1,50,14|0,3:0|3:0,3:0:0:0:
403,304,212548,2,0,L|408:353,1,50,10|0,3:0|3:0,3:0:0:0:
184,379,212690,5,14,3:0:0:0:
132,359,212762,1,0,3:0:0:0:
102,313,212833,1,10,3:0:0:0:
110,258,212905,1,0,3:0:0:0:
140,212,212976,1,10,3:0:0:0:
188,185,213048,1,0,3:0:0:0:
209,134,213119,1,10,3:0:0:0:
195,81,213190,1,0,3:0:0:0:
148,50,213262,2,0,P|127:47|96:54,3,50,10|0|8|0,3:0|3:0|3:0|3:0,3:0:0:0:
54,177,213548,5,10,3:0:0:0:
83,195,213619,1,0,3:0:0:0:
117,194,213690,2,0,P|153:171|172:136,1,50,8|0,3:0|3:0,3:0:0:0:
271,86,213833,5,10,3:0:0:0:
247,118,213905,1,0,3:0:0:0:
246,157,213976,2,0,P|249:184|265:216,1,50,8|0,3:0|3:0,3:0:0:0:
371,241,214119,5,10,3:0:0:0:
390,266,214190,1,0,3:0:0:0:
391,297,214262,2,0,P|388:318|375:344,1,50,8|0,3:0|3:0,3:0:0:0:
214,383,214405,5,10,3:0:0:0:
188,334,214476,1,0,3:0:0:0:
197,279,214548,1,8,3:0:0:0:
236,241,214619,1,0,3:0:0:0:
290,236,214690,5,10,3:0:0:0:
332,209,214762,1,0,3:0:0:0:
343,165,214833,1,10,3:0:0:0:
326,128,214905,1,0,3:0:0:0:
296,110,214976,1,10,3:0:0:0:
265,111,215048,1,0,3:0:0:0:
243,123,215119,1,10,3:0:0:0:
233,140,215190,1,0,3:0:0:0:
229,154,215262,5,10,3:0:0:0:
189,198,215333,1,0,3:0:0:0:
133,197,215405,1,10,3:0:0:0:
99,160,215476,1,0,3:0:0:0:
99,114,215548,1,10,3:0:0:0:
116,84,215619,1,0,3:0:0:0:
138,72,215690,1,10,3:0:0:0:
158,71,215762,1,0,3:0:0:0:
171,76,215833,6,0,L|176:161,1,50,14|0,3:0|3:0,3:0:0:0:
0,199,215976,2,0,L|2:149,1,50,10|0,3:0|3:0,3:0:0:0:
249,6,216119,5,14,3:0:0:0:
292,17,216190,1,0,3:0:0:0:
322,50,216262,1,10,3:0:0:0:
336,92,216333,1,0,3:0:0:0:
328,136,216405,1,10,3:0:0:0:
301,165,216476,1,0,3:0:0:0:
286,197,216548,1,10,3:0:0:0:
286,226,216619,1,0,3:0:0:0:
295,248,216690,5,10,3:0:0:0:
347,264,216762,1,0,3:0:0:0:
399,247,216833,1,10,3:0:0:0:
423,197,216905,1,0,3:0:0:0:
416,142,216976,1,10,3:0:0:0:
372,108,217048,1,0,3:0:0:0:
317,106,217119,1,10,3:0:0:0:
267,128,217190,1,0,3:0:0:0:
245,179,217262,1,10,3:0:0:0:
257,232,217333,1,0,3:0:0:0:
241,285,217405,1,10,3:0:0:0:
194,313,217476,1,0,3:0:0:0:
138,312,217548,1,10,3:0:0:0:
94,278,217619,1,0,3:0:0:0:
90,223,217690,1,10,3:0:0:0:
117,174,217762,1,0,3:0:0:0:
166,151,217833,1,10,3:0:0:0:
184,98,217905,1,0,3:0:0:0:
168,45,217976,1,10,3:0:0:0:
119,18,218048,1,0,3:0:0:0:
64,23,218119,1,10,3:0:0:0:
22,57,218190,1,0,3:0:0:0:
10,111,218262,1,10,3:0:0:0:
25,163,218333,1,0,3:0:0:0:
69,196,218405,1,10,3:0:0:0:
123,194,218476,1,0,3:0:0:0:
168,162,218548,1,10,3:0:0:0:
222,157,218619,1,0,3:0:0:0:
266,186,218690,1,10,3:0:0:0:
284,234,218762,1,0,3:0:0:0:
279,278,218833,1,10,3:0:0:0:
250,304,218905,1,0,3:0:0:0:
211,312,218976,1,10,3:0:0:0:
193,300,219048,1,0,3:0:0:0:
182,283,219119,1,10,3:0:0:0:
180,265,219190,1,0,3:0:0:0:
188,248,219262,6,0,L|271:226,1,50,14|0,3:0|3:0,3:0:0:0:
397,384,219405,2,0,L|314:362,1,50,10|0,3:0|3:0,3:0:0:0:
402,119,219548,5,14,3:0:0:0:
451,121,219619,1,0,3:0:0:0:
494,156,219690,1,10,3:0:0:0:
505,210,219762,1,0,3:0:0:0:
483,258,219833,1,10,3:0:0:0:
437,289,219905,1,0,3:0:0:0:
382,283,219976,2,0,P|357:274|325:236,1,50,10|0,3:0|3:0,3:0:0:0:
299,124,220119,5,10,3:0:0:0:
261,99,220190,1,0,3:0:0:0:
215,94,220262,1,10,3:0:0:0:
171,104,220333,1,0,3:0:0:0:
135,132,220405,1,10,3:0:0:0:
120,174,220476,1,0,3:0:0:0:
118,219,220548,2,0,P|124:259|140:277,1,50,10|0,3:0|3:0,3:0:0:0:
248,363,220690,5,10,3:0:0:0:
288,359,220762,1,0,3:0:0:0:
319,334,220833,1,10,3:0:0:0:
334,295,220905,1,0,3:0:0:0:
327,256,220976,1,10,3:0:0:0:
302,223,221048,1,0,3:0:0:0:
267,202,221119,2,0,P|242:195|208:198,1,50,10|0,3:0|3:0,3:0:0:0:
128,266,221262,5,10,3:0:0:0:
83,272,221333,1,0,3:0:0:0:
47,244,221405,2,0,P|32:222|36:179,1,50,10|0,3:0|3:0,3:0:0:0:
68,31,221548,5,10,3:0:0:0:
116,48,221619,1,0,3:0:0:0:
136,93,221690,2,0,P|143:126|115:175,1,50,10|0,3:0|3:0,3:0:0:0:
128,266,221833,5,10,3:0:0:0:
163,294,221905,1,0,3:0:0:0:
207,295,221976,1,10,3:0:0:0:
249,280,222048,1,0,3:0:0:0:
280,248,222119,1,10,3:0:0:0:
286,203,222190,1,0,3:0:0:0:
273,159,222262,2,0,P|257:140|224:126,1,50,10|0,3:0|3:0,3:0:0:0:
341,0,222405,5,14,3:0:0:0:
347,34,222476,1,0,3:0:0:0:
353,68,222548,2,0,L|370:162,1,50,10|0,3:0|3:0,3:0:0:0:
478,200,222690,5,14,3:0:0:0:
468,245,222762,1,0,3:0:0:0:
460,292,222833,2,0,L|445:369,1,50,10|0,3:0|3:0,3:0:0:0:
259,373,222976,5,14,3:0:0:0:
206,356,223048,1,0,3:0:0:0:
182,306,223119,1,10,3:0:0:0:
190,252,223190,1,0,3:0:0:0:
230,214,223262,1,10,3:0:0:0:
245,161,223333,1,0,3:0:0:0:
229,107,223405,2,0,P|215:83|190:68,1,50,10|0,3:0|3:0,3:0:0:0:
30,168,223548,5,10,3:0:0:0:
44,215,223619,1,0,3:0:0:0:
87,239,223690,1,10,3:0:0:0:
137,238,223762,1,0,3:0:0:0:
180,213,223833,1,10,3:0:0:0:
230,214,223905,1,0,3:0:0:0:
269,244,223976,2,0,P|283:272|279:304,1,50,8|0,3:0|3:0,3:0:0:0:
128,384,224119,5,10,3:0:0:0:
114,365,224190,1,0,3:0:0:0:
111,343,224262,2,0,P|110:313|122:291,1,50,8|0,3:0|3:0,3:0:0:0:
230,214,224405,5,10,3:0:0:0:
244,195,224476,1,0,3:0:0:0:
247,173,224548,2,0,P|247:143|235:121,1,50,8|0,3:0|3:0,3:0:0:0:
109,16,224690,5,10,3:0:0:0:
68,53,224762,1,0,3:0:0:0:
52,105,224833,1,8,3:0:0:0:
60,159,224905,1,0,3:0:0:0:
99,196,224976,5,10,3:0:0:0:
134,160,225048,1,0,3:0:0:0:
182,149,225119,1,10,3:0:0:0:
224,163,225190,1,0,3:0:0:0:
246,196,225262,1,10,3:0:0:0:
247,230,225333,1,0,3:0:0:0:
239,259,225405,1,10,3:0:0:0:
224,272,225476,1,0,3:0:0:0:
209,276,225548,5,10,3:0:0:0:
198,222,225619,1,0,3:0:0:0:
228,176,225690,1,10,3:0:0:0:
276,163,225762,1,0,3:0:0:0:
317,180,225833,1,10,3:0:0:0:
356,171,225905,1,0,3:0:0:0:
373,146,225976,1,10,3:0:0:0:
372,120,226048,1,0,3:0:0:0:
361,102,226119,6,0,L|286:91,1,50,10|0,3:0|3:0,3:0:0:0:
190,235,226262,2,0,L|265:224,1,50,10|0,3:0|3:0,3:0:0:0:
123,51,226405,5,14,3:0:0:0:
67,71,226476,1,0,3:0:0:0:
41,125,226548,1,10,3:0:0:0:
47,184,226619,1,0,3:0:0:0:
89,225,226690,1,10,3:0:0:0:
149,230,226762,1,0,3:0:0:0:
199,198,226833,1,10,3:0:0:0:
259,197,226905,1,0,3:0:0:0:
304,235,226976,1,10,3:0:0:0:
314,294,227048,1,0,3:0:0:0:
285,346,227119,1,10,3:0:0:0:
230,369,227190,1,0,3:0:0:0:
171,352,227262,2,0,P|157:323|155:303,3,50,10|0|10|0,3:0|3:0|3:0|3:0,3:0:0:0:
214,171,227548,5,10,3:0:0:0:
247,162,227619,1,0,3:0:0:0:
279,173,227690,2,0,P|299:196|304:237,1,50,8|0,3:0|3:0,3:0:0:0:
454,246,227833,5,10,3:0:0:0:
462,214,227905,1,0,3:0:0:0:
451,182,227976,2,0,P|428:162|388:157,1,50,8|0,3:0|3:0,3:0:0:0:
234,255,228119,5,10,3:0:0:0:
266,300,228190,1,0,3:0:0:0:
320,308,228262,1,8,3:0:0:0:
369,283,228333,1,0,3:0:0:0:
382,229,228405,5,10,3:0:0:0:
369,175,228476,1,0,3:0:0:0:
324,150,228548,1,10,3:0:0:0:
279,150,228619,1,0,3:0:0:0:
244,169,228690,1,10,3:0:0:0:
209,164,228762,1,0,3:0:0:0:
189,141,228833,1,10,3:0:0:0:
183,116,228905,1,0,3:0:0:0:
190,97,228976,5,10,3:0:0:0:
245,113,229048,1,0,3:0:0:0:
272,156,229119,1,10,3:0:0:0:
265,205,229190,1,0,3:0:0:0:
232,236,229262,1,10,3:0:0:0:
215,272,229333,1,0,3:0:0:0:
217,297,229405,1,10,3:0:0:0:
227,314,229476,1,0,3:0:0:0:
243,325,229548,6,0,L|298:320,1,50,14|0,3:0|3:0,3:0:0:0:
406,178,229690,2,0,L|356:173,1,50,10|0,3:0|3:0,3:0:0:0:
425,372,229833,5,14,3:0:0:0:
476,340,229905,1,0,3:0:0:0:
484,281,229976,1,10,3:0:0:0:
456,227,230048,1,0,3:0:0:0:
399,207,230119,1,10,3:0:0:0:
339,212,230190,1,0,3:0:0:0:
294,252,230262,1,10,3:0:0:0:
272,307,230333,1,0,3:0:0:0:
221,340,230405,1,10,3:0:0:0:
161,335,230476,1,0,3:0:0:0:
113,297,230548,1,10,3:0:0:0:
106,237,230619,1,0,3:0:0:0:
128,181,230690,1,10,3:0:0:0:
182,153,230762,1,0,3:0:0:0:
203,97,230833,1,10,3:0:0:0:
185,39,230905,1,0,3:0:0:0:
132,11,230976,1,10,3:0:0:0:
74,28,231048,1,0,3:0:0:0:
33,71,231119,1,10,3:0:0:0:
34,130,231190,1,0,3:0:0:0:
70,178,231262,1,10,3:0:0:0:
128,190,231333,1,0,3:0:0:0:
182,164,231405,1,10,3:0:0:0:
241,172,231476,1,0,3:0:0:0:
276,221,231548,6,0,L|269:291,3,50,10|0|10|0,3:0|3:0|3:0|3:0,3:0:0:0:
392,347,231833,2,0,L|387:297,3,50,10|0|10|0,3:0|3:0|3:0|3:0,3:0:0:0:
496,233,232119,5,10,3:0:0:0:
500,183,232190,1,0,3:0:0:0:
481,136,232262,1,10,3:0:0:0:
441,105,232333,1,0,3:0:0:0:
390,99,232405,1,10,3:0:0:0:
343,116,232476,1,0,3:0:0:0:
313,157,232548,2,0,P|301:189|302:219,1,50,10|0,3:0|3:0,3:0:0:0:
251,357,232690,5,10,3:0:0:0:
214,373,232762,1,0,3:0:0:0:
172,367,232833,1,10,3:0:0:0:
139,344,232905,1,0,3:0:0:0:
117,310,232976,1,10,3:0:0:0:
112,271,233048,1,0,3:0:0:0:
123,233,233119,2,0,P|138:210|159:193,1,50,10|0,3:0|3:0,3:0:0:0:
392,203,233262,5,10,3:0:0:0:
374,265,233333,1,0,3:0:0:0:
314,292,233405,1,10,3:0:0:0:
253,270,233476,1,0,3:0:0:0:
217,214,233548,1,10,3:0:0:0:
155,195,233619,1,0,3:0:0:0:
93,213,233690,2,0,P|65:233|51:263,1,60,10|0,3:0|3:0,3:0:0:0:
205,373,233833,6,0,L|287:358,1,75,10|0,3:0|3:0,3:0:0:0:
271,182,233976,2,0,L|197:168,1,75,10|0,3:0|3:0,3:0:0:0:
342,297,234119,6,0,L|350:209,1,62.5,10|0,3:0|3:0,3:0:0:0:
176,100,234262,2,0,L|181:162,1,62.5,10|0,3:0|3:0,3:0:0:0:
158,297,234405,6,0,L|79:282,1,75,10|0,3:0|3:0,3:0:0:0:
7,128,234548,2,0,L|85:113,1,75,10|0,3:0|3:0,3:0:0:0:
271,182,234690,6,0,L|277:309,1,87.5000000000001,10|0,3:0|3:0,3:0:0:0:
0,197,234833,2,0,L|4:109,1,87.5000000000001,10|0,3:0|3:0,3:0:0:0:
229,17,234976,6,0,B|232:57|232:57|228:72|228:72|236:136,1,87.5000000000001,10|2,3:0|3:0,3:0:0:0:
244,27,235119,2,0,B|247:67|247:67|243:82|243:82|251:146,1,87.5000000000001,10|2,3:0|3:0,3:0:0:0:
79,210,235262,6,0,B|91:182|91:182|180:169,1,87.5000000000001,10|0,3:0|3:0,3:0:0:0:
277,292,235405,2,0,B|255:313|255:313|168:290,1,87.5000000000001,10|0,3:0|3:0,3:0:0:0:
329,152,235548,6,0,L|338:261,1,62.5,10|0,3:0|3:0,3:0:0:0:
470,317,235690,2,0,L|475:254,1,62.5,10|0,3:0|3:0,3:0:0:0:
474,125,235833,6,0,L|415:119,1,50,10|0,3:0|3:0,3:0:0:0:
274,246,235976,2,0,L|333:240,1,50,10|0,3:0|3:0,3:0:0:0:
226,56,236119,5,8,3:0:0:0:
207,61,236190,1,8,3:0:0:0:
192,75,236262,2,0,P|177:122|184:167,1,75,8|8,3:0|3:0,3:0:0:0:
453,205,236405,2,0,P|437:167|395:144,1,87.5000000000001,8|8,3:0|3:0,3:0:0:0:
198,303,236548,2,0,P|290:343|324:328,1,100,8|8,3:0|3:0,3:0:0:0:
427,55,236690,6,0,B|364:19|292:40|326:63|268:84|197:48|197:48|246:133|221:190|194:159|168:228|206:270|206:270|118:220|41:262|67:365|141:354|141:354|185:326|241:338|220:353|264:385|335:353,1,920,14|0,3:0|3:0,3:0:0:0:
505,281,240119,6,0,B|457:251|408:255|402:303|358:312|316:300|304:276|304:276|342:270|370:252|384:223|368:184|338:174|310:178|287:222|314:229,1,414,6|0,3:0|3:0,3:0:0:0:
407,128,241833,6,0,P|324:103|248:138,1,162,6|0,3:0|3:0,3:0:0:0:
258,147,242548,1,0,3:0:0:0:
271,180,242619,1,0,3:0:0:0:
267,226,242690,5,10,3:0:0:0:
396,327,242976,5,8,3:0:0:0:
159,193,243262,5,0,3:0:0:0:
429,144,243405,1,0,3:0:0:0:
124,76,243548,6,0,B|158:8|61:-18|23:14|15:125|106:134|106:134|153:99|228:111|181:141|254:149|322:114|322:114|215:213|279:288|333:308|333:308|315:245|366:196|447:206|456:263,1,940,6|0,3:0|3:0,3:0:0:0:
403,349,246976,6,0,B|353:320|299:349|299:349|250:376|198:343|198:343|245:320|261:260|248:209|189:182,1,414,6|0,3:0|3:0,3:0:0:0:
73,244,248690,6,0,P|135:272|175:197,1,162,6|0,3:0|3:0,3:0:0:0:
131,191,249405,1,0,3:0:0:0:
115,221,249476,1,0,3:0:0:0:
126,257,249548,5,8,3:0:0:0:
237,300,249690,1,8,3:0:0:0:
336,237,249833,1,8,3:0:0:0:
240,199,249976,1,8,3:0:0:0:
252,301,250119,1,8,3:0:0:0:
349,323,250262,1,8,3:0:0:0:
481,251,250405,6,0,B|496:208|460:159|460:159|425:114|445:50,1,198,6|0,3:0|3:0,3:0:0:0:
460,67,251262,2,0,B|473:137|386:167|326:106|357:46|357:46|237:103|239:4|146:44|146:44|192:64|212:130|163:184|102:169,1,630,2|0,2:0|3:0,3:0:0:0:
34,44,253833,6,0,B|47:76|33:115|14:124|11:144|6:162|26:206|75:205|98:180|98:180|80:218|56:249|66:286|100:311|138:298|155:274|134:243,1,414,6|0,3:0|3:0,3:0:0:0:
30,340,255548,6,0,P|94:373|190:341,1,162,6|0,3:0|3:0,3:0:0:0:
227,256,256262,1,0,3:0:0:0:
190,232,256333,1,0,3:0:0:0:
143,249,256405,5,14,3:0:0:0:
256,353,256548,1,0,3:0:0:0:
293,364,256619,1,0,3:0:0:0:
337,353,256690,5,8,3:0:0:0:
315,178,256833,1,0,3:0:0:0:
246,337,256976,1,8,3:0:0:0:
131,268,257119,1,0,3:0:0:0:
451,155,257262,6,0,B|397:253|481:291|429:363|429:363|337:325|320:382|220:351|220:351|288:334|304:253|213:210|171:282|171:282|202:179|127:184|168:89,1,845.999999999999,6|0,3:0|3:0,3:0:0:0:
368,135,260690,6,0,B|313:176|219:177|182:93|182:93|124:163|214:185|179:282,1,414,6|0,3:0|3:0,3:0:0:0:
32,245,262405,6,0,B|70:228|103:240|103:240|90:273|102:303,1,126,6|0,3:0|3:0,3:0:0:0:
189,346,262976,1,0,3:0:0:0:
188,328,263048,1,0,3:0:0:0:
187,310,263119,1,0,3:0:0:0:
186,292,263190,1,0,3:0:0:0:
211,217,263262,6,0,L|202:15,1,198,14|0,3:0|2:0,3:0:0:0:
309,247,264119,1,6,3:0:0:0:
256,192,264190,12,0,270976,2:0:0:0:
459,85,277833,6,0,P|395:99|349:45,1,133.333333333333,6|0,2:0|2:0,2:0:0:0:
129,128,278690,6,0,P|168:160|179:97,1,116.933333333333,2|0,2:0|2:0,2:0:0:0:
100,232,279547,2,0,P|61:264|50:201,1,116.933333333333,2|0,2:0|2:0,2:0:0:0:
162,296,280404,2,0,P|201:328|212:265,1,116.933333333333,2|0,2:0|2:0,2:0:0:0:
370,264,281261,6,0,P|350:258|326:260,5,29.2333333333334,2|0|0|0|0|0,2:0|2:0|2:0|2:0|2:0|2:0,2:0:0:0:
310,167,282118,2,0,P|330:161|354:163,5,29.2333333333334,2|0|0|0|0|0,2:0|2:0|2:0|2:0|2:0|2:0,2:0:0:0:
246,240,282975,2,0,L|251:276,1,29.2333333333334,2|0,2:0|2:0,2:0:0:0:
194,164,283261,2,0,L|172:192,1,29.2333333333334,2|0,2:0|2:0,2:0:0:0:
208,73,283547,2,0,L|185:76,3,14.616666675588,2|2|2|0,2:0|2:0|2:0|2:0,2:0:0:0:
354,61,283833,5,2,2:0:0:0:
251,284,284118,5,2,2:0:0:0:
276,18,284404,5,2,2:0:0:0:
474,211,284690,6,0,P|431:214|370:172,1,116.933333333333,2|0,2:0|2:0,2:0:0:0:
231,303,285547,6,0,P|280:328|321:273,1,116.933333333333,2|0,2:0|2:0,2:0:0:0:
137,218,286404,2,0,B|169:268|121:292|159:349,1,116.933333333333,2|0,2:0|2:0,2:0:0:0:
92,139,287261,2,0,P|124:124|187:150,1,87.7000000000001,2|0,2:0|2:0,2:0:0:0:
242,83,287833,2,0,L|242:125,1,29.2333333333334,2|0,2:0|2:0,2:0:0:0:
248,212,288118,6,0,B|291:226|297:169|361:177,1,116.933333333333,2|0,2:0|2:0,2:0:0:0:
354,297,288975,2,0,P|344:265|374:298,1,116.933333333333,2|0,2:0|2:0,2:0:0:0:
479,211,289833,2,0,B|436:225|430:168|366:176,1,116.933333333333,2|0,2:0|2:0,2:0:0:0:
295,108,290690,2,0,L|338:100,1,29.2333333333334,2|0,2:0|2:0,2:0:0:0:
216,76,290975,2,0,L|240:39,1,29.2333333333334,2|0,2:0|2:0,2:0:0:0:
137,109,291261,2,0,L|134:85,3,14.616666675588,2|2|2|0,2:0|2:0|2:0|2:0,2:0:0:0:
145,245,291547,6,0,P|138:208|171:245,1,116.933333333333,2|0,2:0|2:0,2:0:0:0:
64,268,292404,2,0,B|29:232|73:188|30:146,1,116.933333333333,2|2,2:0|2:0,2:0:0:0:
16,33,293261,2,0,P|64:75|116:47,1,116.933333333333,2|0,2:0|2:0,2:0:0:0:
245,5,294118,2,0,P|219:55|231:122,1,116.933333333333,2|0,2:0|2:0,2:0:0:0:
459,40,294975,6,0,P|471:95|442:156,1,116.933333333333,2|0,2:0|2:0,2:0:0:0:
385,197,295833,2,0,B|411:252|461:203|491:274,1,116.933333333333,2|0,2:0|2:0,2:0:0:0:
326,328,296690,2,0,P|384:341|429:303,1,116.933333333333,2|0,2:0|2:0,2:0:0:0:
242,251,297547,2,0,B|260:289|227:320|255:368,1,116.933333333333,2|0,2:0|2:0,2:0:0:0:
50,203,298404,6,0,B|89:217|88:262|141:276,1,116.933333333333,2|0,2:0|2:0,2:0:0:0:
191,105,299261,2,0,P|148:143|165:197,1,116.933333333333,2|0,2:0|2:0,2:0:0:0:
263,9,300118,2,0,B|242:64|288:79|267:128,1,116.933333333333,2|0,2:0|2:0,2:0:0:0:
436,66,300975,2,0,P|367:66|332:27,1,116.933333333333,2|0,2:0|2:0,2:0:0:0:
85,157,301833,6,0,P|195:197|283:124,1,233.866666666667,2|0,2:0|2:0,2:0:0:0:
354,241,303261,2,0,P|354:220|361:191,1,29.2333333333334,2|0,2:0|2:0,2:0:0:0:
401,334,303547,2,0,B|333:378|264:286|162:355,1,233.866666666667,2|0,2:0|2:0,2:0:0:0:
34,211,305261,6,0,B|51:215|51:215|75:212,1,29.2333333333334,2|0,2:0|2:0,2:0:0:0:
127,174,305547,2,0,B|113:155|113:155|125:118|115:74,1,87.7000000000001,2|0,2:0|2:0,2:0:0:0:
216,46,306404,6,0,L|218:81,1,29.2333333333334,2|0,2:0|2:0,2:0:0:0:
300,96,306690,2,0,L|276:122,1,29.2333333333334,2|0,2:0|2:0,2:0:0:0:
222,204,306975,1,2,2:0:0:0:
327,205,307118,6,0,B|322:237|326:263|326:263|312:279|312:279|323:311|314:356,1,146.166666666667,2|0,2:0|2:0,2:0:0:0:
423,63,308547,5,2,2:0:0:0:
443,147,308690,2,0,B|398:154|398:154|367:113|315:118,1,116.933333333333,2|2,2:0|2:0,2:0:0:0:
207,153,309547,6,0,B|210:185|210:185|248:176|248:100,1,116.933333333333,2|2,2:0|2:0,2:0:0:0:
52,86,310404,6,0,B|90:79|90:79|119:90|119:90|165:82,1,116.933333333333,2|2,2:0|2:0,2:0:0:0:
86,280,311261,2,0,B|78:234|78:234|89:205|89:205|82:167,1,116.933333333333,2|2,2:0|2:0,2:0:0:0:
179,310,312118,2,0,B|219:321|219:321|248:310|275:319|275:319|301:355|343:342,1,175.4,2|0,2:0|2:0,2:0:0:0:
412,231,313261,6,0,B|416:253|416:253|417:272,1,29.2333333333334,2|0,2:0|2:0,2:0:0:0:
323,172,313547,2,0,B|319:194|319:194|318:213,1,29.2333333333334,2|0,2:0|2:0,2:0:0:0:
396,102,313833,2,0,B|402:139|402:139|349:124|304:152,1,116.933333333333,2|2,2:0|2:0,2:0:0:0:
236,238,314690,2,0,B|238:209|227:184|227:184|239:182|239:182|226:162|231:118,1,116.933333333333,2|2,2:0|2:0,2:0:0:0:
138,178,315404,1,2,2:0:0:0:
252,250,315547,2,0,B|210:261|210:261|185:254|185:254|142:273|101:267|77:233,1,175.4,2|0,2:0|2:0,2:0:0:0:
379,179,316975,6,0,B|394:184|394:184|417:177,1,29.2333333333334,2|0,2:0|2:0,2:0:0:0:
309,140,317261,2,0,B|300:178|300:178|306:207|306:207,2,58.4666666666667,2|2|0,2:0|2:0|2:0,2:0:0:0:
359,37,318118,6,0,B|360:74|360:74|322:46|279:62,1,116.933333333333,2|2,2:0|2:0,2:0:0:0:
82,48,318975,6,0,L|93:86,1,29.2333333333334,2|0,2:0|2:0,2:0:0:0:
128,194,319261,1,2,2:0:0:0:
67,270,319547,1,2,2:0:0:0:
262,303,319833,5,2,2:0:0:0:
195,119,320118,1,2,2:0:0:0:
296,145,320404,1,2,2:0:0:0:
161,286,320690,6,0,L|194:274,1,29.2333333333334,2|0,2:0|2:0,2:0:0:0:
345,221,320975,1,2,2:0:0:0:
298,307,321261,1,2,2:0:0:0:
459,278,321547,5,2,2:0:0:0:
387,131,321833,1,2,2:0:0:0:
478,159,322118,1,2,2:0:0:0:
266,61,322404,6,0,L|308:61,1,29.2333333333334,2|0,2:0|2:0,2:0:0:0:
459,65,322690,1,2,2:0:0:0:
386,142,322975,1,2,2:0:0:0:
471,289,323261,5,2,2:0:0:0:
259,239,323547,1,2,2:0:0:0:
318,333,323833,1,2,2:0:0:0:
129,337,324118,6,0,L|146:295,1,29.2333333333334,2|0,2:0|2:0,2:0:0:0:
204,146,324404,1,2,2:0:0:0:
102,180,324690,1,2,2:0:0:0:
285,217,324975,5,2,2:0:0:0:
125,95,325261,1,2,2:0:0:0:
213,52,325547,1,2,2:0:0:0:
370,141,325833,6,0,P|331:144|290:97,1,87.7000000000001,2|0,2:0|2:0,2:0:0:0:
205,169,326404,2,0,L|217:116,1,29.2333333333334,2|0,2:0|2:0,2:0:0:0:
239,247,326690,2,0,L|284:218,1,29.2333333333334,2|0,2:0|2:0,2:0:0:0:
207,326,326975,2,0,L|260:338,1,29.2333333333334,2|0,2:0|2:0,2:0:0:0:
129,359,327261,2,0,L|157:404,1,29.2333333333334,2|0,2:0|2:0,2:0:0:0:
50,327,327547,6,0,L|37:380,1,29.2333333333334,2|0,2:0|2:0,2:0:0:0:
117,242,327833,2,0,L|129:295,1,29.2333333333334,2|0,2:0|2:0,2:0:0:0:
30,167,328118,2,0,L|18:220,1,29.2333333333334,2|0,2:0|2:0,2:0:0:0:
97,106,328404,2,0,B|115:124|119:150|119:150|154:157|195:137,1,116.933333333333,2|0,2:0|2:0,2:0:0:0:
348,68,329261,6,0,B|348:112|348:112|335:143,5,58.4666666666667,2|2|2|2|2|2,2:0|2:0|2:0|2:0|2:0|2:0,2:0:0:0:
414,240,330975,6,0,B|450:273|475:231|516:245,1,87.7000000000001,2|2,2:0|2:0,2:0:0:0:
435,341,331833,2,0,B|399:374|374:332|333:346,1,87.7000000000001,2|2,2:0|2:0,2:0:0:0:
216,132,332690,6,0,B|256:149|256:149|241:318,1,180,6|0,3:0|3:0,3:0:0:0:
241,305,332975,1,2,3:0:0:0:
0,184,333118,2,0,B|45:176|45:176|73:185|73:185|144:172,1,120,10|0,3:0|3:0,3:0:0:0:
251,19,333404,5,0,3:0:0:0:
206,120,333547,1,2,3:0:0:0:
132,53,333690,1,0,3:0:0:0:
86,292,333832,2,0,B|115:286|115:286|125:166,1,120,10|0,3:0|3:0,3:0:0:0:
234,362,334118,5,2,3:0:0:0:
270,264,334261,1,0,3:0:0:0:
436,358,334404,2,0,B|313:342,1,120,10|0,3:0|3:0,3:0:0:0:
497,280,334690,1,2,3:0:0:0:
251,252,334832,2,0,B|374:236,1,120,8|2,3:0|3:0,3:0:0:0:
204,167,335118,5,0,3:0:0:0:
309,357,335261,1,2,3:0:0:0:
396,160,335404,1,0,3:0:0:0:
139,291,335547,2,0,B|175:308|175:308|249:270,1,120,10|0,3:0|3:0,3:0:0:0:
112,90,335832,1,2,3:0:0:0:
81,196,335975,1,0,3:0:0:0:
205,62,336118,5,10,3:0:0:0:
306,244,336261,1,0,3:0:0:0:
372,94,336404,1,2,3:0:0:0:
110,183,336547,5,8,3:0:0:0:
300,260,336690,1,2,3:0:0:0:
294,67,336832,1,0,3:0:0:0:
226,307,336975,5,2,3:0:0:0:
444,128,337118,1,0,3:0:0:0:
455,330,337261,6,0,B|425:352|425:352|316:327,1,120,10|0,3:0|3:0,3:0:0:0:
308,137,337547,1,2,3:0:0:0:
341,233,337690,1,0,3:0:0:0:
190,21,337832,6,0,L|200:172,1,120,10|0,3:0|3:0,3:0:0:0:
182,277,338118,1,2,3:0:0:0:
45,174,338261,2,0,L|54:22,1,120,8|2,3:0|3:0,3:0:0:0:
109,262,338547,1,0,3:0:0:0:
199,130,338690,1,2,3:0:0:0:
281,324,338832,1,0,3:0:0:0:
419,120,338975,6,0,L|378:112,1,30,8|8,3:0|3:0,3:0:0:0:
167,306,339118,2,0,L|208:298,1,30,8|8,3:0|3:0,3:0:0:0:
421,278,339261,5,2,3:0:0:0:
201,142,339404,1,8,3:0:0:0:
230,382,339547,6,0,P|263:368|286:286,1,120,6|0,3:0|3:0,3:0:0:0:
273,178,339832,1,2,3:0:0:0:
45,280,339975,2,0,B|115:262|115:262|160:294,1,120,8|2,3:0|3:0,3:0:0:0:
63,72,340261,5,0,3:0:0:0:
43,191,340404,1,2,3:0:0:0:
66,55,340547,1,0,3:0:0:0:
267,190,340690,2,0,B|246:215|246:215|135:199,1,120,10|0,3:0|3:0,3:0:0:0:
312,28,340975,1,2,3:0:0:0:
337,125,341118,1,0,3:0:0:0:
418,48,341261,5,10,3:0:0:0:
371,244,341404,1,0,3:0:0:0:
263,175,341547,1,2,3:0:0:0:
493,145,341690,5,8,3:0:0:0:
363,263,341832,1,2,3:0:0:0:
318,118,341975,1,0,3:0:0:0:
287,306,342118,5,2,3:0:0:0:
350,184,342261,1,0,3:0:0:0:
446,356,342404,6,0,L|390:370,1,30,8|8,3:0|3:0,3:0:0:0:
203,266,342547,1,0,3:0:0:0:
395,118,342690,1,2,3:0:0:0:
343,372,342832,5,8,3:0:0:0:
236,171,342975,2,0,B|191:178|191:178|172:193|172:193|106:205,1,120,2|0,3:0|3:0,3:0:0:0:
302,241,343261,1,2,3:0:0:0:
103,67,343404,2,0,L|95:206,1,120,8|2,3:0|3:0,3:0:0:0:
245,364,343690,5,0,3:0:0:0:
251,192,343832,1,2,3:0:0:0:
231,376,343975,1,0,3:0:0:0:
426,273,344118,2,0,B|406:253|406:253|313:267,1,120,10|0,3:0|3:0,3:0:0:0:
484,125,344404,1,2,3:0:0:0:
502,221,344547,1,0,3:0:0:0:
256,118,344690,6,0,L|396:134,1,120,10|0,3:0|3:0,3:0:0:0:
199,190,344975,1,2,3:0:0:0:
447,36,345118,2,0,L|307:52,1,120,8|2,3:0|3:0,3:0:0:0:
507,96,345404,1,0,3:0:0:0:
367,207,345547,5,2,3:0:0:0:
336,61,345690,1,0,3:0:0:0:
242,249,345832,5,8,3:0:0:0:
480,167,345975,1,8,3:0:0:0:
238,278,346118,5,8,3:0:0:0:
401,347,346261,1,8,3:0:0:0:
326,140,346404,6,0,P|387:135|438:97,1,108,6|0,3:0|3:0,3:0:0:0:
477,16,346689,1,0,3:0:0:0:
495,204,346832,2,0,L|504:329,1,108,10|0,3:0|3:0,3:0:0:0:
313,282,347118,1,0,3:0:0:0:
494,188,347261,5,2,3:0:0:0:
295,283,347404,1,0,3:0:0:0:
504,332,347546,1,0,3:0:0:0:
306,147,347689,2,0,P|245:152|194:190,1,108,10|0,3:0|3:0,3:0:0:0:
157,303,347975,1,0,3:0:0:0:
141,99,348118,5,2,3:0:0:0:
137,309,348261,1,0,3:0:0:0:
5,150,348404,1,0,3:0:0:0:
277,227,348546,5,10,3:0:0:0:
69,243,348689,1,0,3:0:0:0:
264,349,348832,2,0,L|278:214,1,108,0|2,3:0|3:0,3:0:0:0:
289,104,349118,1,0,3:0:0:0:
199,184,349261,1,0,3:0:0:0:
434,168,349404,5,10,3:0:0:0:
177,67,349546,1,0,3:0:0:0:
277,227,349689,1,0,3:0:0:0:
405,27,349832,5,2,3:0:0:0:
296,113,349975,1,0,3:0:0:0:
424,169,350118,1,0,3:0:0:0:
173,73,350261,5,10,3:0:0:0:
292,121,350404,1,0,3:0:0:0:
196,195,350546,1,0,3:0:0:0:
281,0,350689,5,2,3:0:0:0:
288,132,350832,1,0,3:0:0:0:
169,81,350975,1,0,3:0:0:0:
379,102,351118,5,10,3:0:0:0:
294,231,351261,1,0,3:0:0:0:
490,206,351404,1,0,3:0:0:0:
405,328,351546,5,2,3:0:0:0:
391,120,351689,1,0,3:0:0:0:
227,261,351832,1,0,3:0:0:0:
468,215,351975,1,10,3:0:0:0:
269,127,352118,1,0,3:0:0:0:
409,335,352261,1,0,3:0:0:0:
279,117,352404,5,2,3:0:0:0:
237,366,352546,1,0,3:0:0:0:
458,220,352689,1,0,3:0:0:0:
135,160,352832,2,0,P|79:151|33:104,1,108,10|0,3:0|3:0,3:0:0:0:
11,11,353118,1,0,3:0:0:0:
148,161,353261,6,0,L|119:283,1,108,6|0,3:0|3:0,3:0:0:0:
7,288,353546,1,0,3:0:0:0:
161,164,353689,2,0,L|283:193,1,108,10|0,3:0|3:0,3:0:0:0:
334,336,353975,1,0,3:0:0:0:
265,197,354118,5,2,3:0:0:0:
464,244,354261,1,0,3:0:0:0:
332,349,354404,1,0,3:0:0:0:
386,125,354546,2,0,L|415:3,1,108,10|0,3:0|3:0,3:0:0:0:
512,136,354832,1,0,3:0:0:0:
237,83,354975,5,2,3:0:0:0:
353,263,355118,1,0,3:0:0:0:
123,266,355261,1,0,3:0:0:0:
256,81,355404,5,10,3:0:0:0:
339,278,355546,1,0,3:0:0:0:
112,241,355689,2,0,L|-13:218,1,108,0|2,3:0|3:0,3:0:0:0:
179,160,355975,1,0,3:0:0:0:
219,257,356118,1,0,3:0:0:0:
72,140,356261,5,10,3:0:0:0:
290,181,356404,1,0,3:0:0:0:
149,341,356546,1,0,3:0:0:0:
246,88,356689,5,6,3:0:0:0:
112,241,356832,1,0,3:0:0:0:
308,189,356975,1,0,3:0:0:0:
75,148,357118,5,10,3:0:0:0:
337,100,357261,1,0,3:0:0:0:
233,247,357404,1,0,3:0:0:0:
445,186,357546,5,2,3:0:0:0:
223,228,357689,1,0,3:0:0:0:
376,330,357832,1,0,3:0:0:0:
195,374,357975,5,10,3:0:0:0:
391,327,358118,1,0,3:0:0:0:
193,348,358261,1,0,3:0:0:0:
328,184,358404,5,2,3:0:0:0:
305,384,358546,1,0,3:0:0:0:
213,208,358689,1,0,3:0:0:0:
512,258,358832,1,10,3:0:0:0:
386,337,358975,5,0,3:0:0:0:
416,107,359118,1,0,3:0:0:0:
502,258,359261,1,2,3:0:0:0:
228,210,359404,1,8,3:0:0:0:
213,208,359475,1,8,3:0:0:0:
197,206,359546,1,8,3:0:0:0:
235,88,359689,5,8,3:0:0:0:
198,320,359832,1,8,3:0:0:0:
109,188,359975,1,8,3:0:0:0:
434,200,360118,6,0,L|428:317,2,99.9999999999999,6|0|0,3:0|2:0|2:0,3:0:0:0:
331,132,360546,2,0,L|337:15,2,99.9999999999999,0|0|0,2:0|2:0|2:0,3:0:0:0:
262,225,360975,5,10,3:0:0:0:
252,222,361118,1,0,2:0:0:0:
242,219,361261,1,0,2:0:0:0:
174,154,361404,5,0,2:0:0:0:
164,157,361546,1,0,2:0:0:0:
154,160,361689,1,0,2:0:0:0:
63,294,361832,6,0,B|94:281|94:281|83:188,2,99.9999999999999,2|0|0,3:0|2:0|2:0,3:0:0:0:
206,285,362261,2,0,B|175:298|175:298|186:391,2,99.9999999999999,0|0|0,2:0|2:0|2:0,2:0:0:0:
258,184,362689,5,10,3:0:0:0:
268,187,362832,1,0,2:0:0:0:
278,190,362975,1,0,2:0:0:0:
346,255,363118,5,0,2:0:0:0:
356,252,363261,1,0,2:0:0:0:
366,249,363404,1,0,2:0:0:0:
456,175,363546,6,0,P|468:116|469:66,2,99.9999999999999,2|0|0,3:0|2:0|2:0,3:0:0:0:
364,13,363975,2,0,P|376:72|377:122,2,99.9999999999999,0|0|0,2:0|2:0|2:0,2:0:0:0:
206,96,364404,5,10,3:0:0:0:
225,99,364546,1,0,2:0:0:0:
244,102,364689,1,0,2:0:0:0:
293,193,364832,5,0,2:0:0:0:
274,196,364975,1,0,2:0:0:0:
255,199,365118,1,0,2:0:0:0:
149,189,365261,6,0,B|144:162|144:162|147:156|147:156|134:85,2,99.9999999999999,2|0|0,3:0|2:0|2:0,3:0:0:0:
62,234,365689,6,0,B|57:261|57:261|60:267|60:267|47:338,1,99.9999999999999,0|0,2:0|2:0,2:0:0:0:
223,366,365975,1,0,3:0:0:0:
251,331,366046,1,0,3:0:0:0:
242,275,366118,6,0,P|183:258|131:332,1,150,14|0,3:0|3:0,3:0:0:0:
145,352,366404,2,0,B|199:332|199:332|239:361|239:361|326:337,1,150,6|0,3:0|3:0,3:0:0:0:
341,267,366689,2,0,P|317:282|339:387,1,150,6|0,3:0|3:0,3:0:0:0:
366,376,366975,6,0,P|387:358|463:348,2,99.9999999999999,6|0|0,3:0|2:0|2:0,3:0:0:0:
284,302,367404,2,0,P|263:284|187:274,2,99.9999999999999,0|0|0,2:0|2:0|2:0,2:0:0:0:
406,245,367832,5,10,3:0:0:0:
429,212,367975,1,0,2:0:0:0:
426,170,368118,1,0,2:0:0:0:
321,133,368261,5,0,2:0:0:0:
298,100,368404,1,0,2:0:0:0:
301,58,368546,1,0,2:0:0:0:
419,32,368689,6,0,L|531:41,2,99.9999999999999,2|0|0,3:0|2:0|2:0,3:0:0:0:
318,147,369118,2,0,L|206:156,2,99.9999999999999,0|0|0,2:0|2:0|2:0,2:0:0:0:
382,262,369546,5,10,3:0:0:0:
353,251,369689,1,0,2:0:0:0:
323,255,369832,1,0,2:0:0:0:
281,333,369975,5,0,2:0:0:0:
252,344,370118,1,0,2:0:0:0:
222,340,370261,1,0,2:0:0:0:
195,225,370404,6,0,B|208:247|208:247|197:328,2,99.9999999999999,2|0|0,3:0|2:0|2:0,3:0:0:0:
86,151,370832,2,0,B|73:173|73:173|84:254,2,99.9999999999999,0|0|0,2:0|2:0|2:0,2:0:0:0:
174,61,371261,5,10,3:0:0:0:
193,63,371404,1,0,2:0:0:0:
212,65,371546,1,0,2:0:0:0:
271,129,371689,5,0,2:0:0:0:
290,127,371832,1,0,2:0:0:0:
309,125,371975,1,0,2:0:0:0:
336,248,372118,6,0,L|214:237,2,99.9999999999999,2|0|0,3:0|2:0|2:0,3:0:0:0:
237,358,372546,2,0,L|137:366,1,99.9999999999999,0|0,2:0|2:0,2:0:0:0:
73,172,372832,1,0,3:0:0:0:
107,180,372904,1,0,3:0:0:0:
129,206,372975,6,0,L|126:239,1,37.5,8|8,2:3|2:3,3:0:0:0:
26,308,373118,1,8,2:3:0:0:
134,93,373261,1,8,2:3:0:0:
214,291,373404,1,0,3:0:0:0:
282,218,373546,1,0,3:0:0:0:
369,266,373689,1,0,3:0:0:0:
443,226,373832,6,0,L|450:70,1,133.333333333333,6|0,3:0|3:0,3:0:0:0:
449,79,374189,1,0,3:0:0:0:
449,65,374261,1,2,3:0:0:0:
456,242,374546,5,0,3:0:0:0:
337,167,374689,1,10,3:0:0:0:
258,182,374832,1,0,3:0:0:0:
179,197,374975,1,0,3:0:0:0:
356,180,375118,2,0,L|133:217,1,200,2|2,3:0|3:0,3:0:0:0:
152,226,375832,5,0,3:0:0:0:
69,111,375975,2,0,L|-2:128,1,66.6666666666667,2|0,3:0|3:0,3:0:0:0:
150,240,376261,5,0,3:0:0:0:
233,125,376404,2,0,L|304:142,1,66.6666666666667,10|0,3:0|3:0,3:0:0:0:
148,254,376689,5,0,3:0:0:0:
71,293,376832,1,2,3:0:0:0:
60,213,376975,1,0,3:0:0:0:
130,174,377118,1,0,3:0:0:0:
244,313,377261,2,0,P|191:314|149:236,1,133.333333333333,2|0,3:0|3:0,3:0:0:0:
211,189,377689,1,2,3:0:0:0:
327,271,377832,5,0,3:0:0:0:
336,273,377904,1,0,3:0:0:0:
345,274,377975,1,0,3:0:0:0:
354,276,378046,1,0,3:0:0:0:
379,302,378118,5,10,3:0:0:0:
371,211,378261,1,0,3:0:0:0:
363,120,378404,1,0,3:0:0:0:
478,195,378546,2,0,B|458:228|458:228|350:217,1,133.333333333333,2|0,3:0|3:0,3:0:0:0:
279,31,378975,6,0,P|323:52|346:138,1,133.333333333333,2|0,3:0|3:0,3:0:0:0:
227,195,379404,2,0,P|246:155|332:130,1,133.333333333333,2|0,3:0|3:0,3:0:0:0:
332,215,379832,5,10,3:0:0:0:
330,241,379904,1,0,3:0:0:0:
328,267,379975,1,0,3:0:0:0:
412,170,380118,1,8,2:3:0:0:
431,317,380261,5,2,3:0:0:0:
333,200,380404,1,8,3:0:0:0:
257,322,380546,1,8,3:0:0:0:
166,175,380689,6,0,P|199:199|137:281,1,150,6|0,3:0|3:0,3:0:0:0:
131,281,380975,2,0,B|127:231|127:231|92:223|92:223|84:119,1,150,6|0,3:0|3:0,3:0:0:0:
69,87,381261,2,0,P|96:125|187:74,1,150,6|0,3:0|3:0,3:0:0:0:
178,30,381546,6,0,B|166:89|237:123|311:105|280:71|386:29|472:84,1,333.333333333333,6|0,3:0|3:0,3:0:0:0:
472,91,382332,1,0,3:0:0:0:
477,106,382404,2,0,L|473:134,1,25,8|8,2:3|2:3,3:0:0:0:
385,318,383118,5,0,3:0:0:0:
383,291,383189,1,0,3:0:0:0:
368,268,383261,2,0,L|343:265,1,25,8|8,2:3|2:3,3:0:0:0:
264,258,383404,1,0,3:0:0:0:
205,319,383546,1,0,3:0:0:0:
121,329,383689,1,0,3:0:0:0:
68,257,383832,1,0,3:0:0:0:
67,243,383904,1,0,3:0:0:0:
66,229,383975,1,0,3:0:0:0:
206,97,384118,5,6,3:0:0:0:
225,174,384261,1,0,3:0:0:0:
171,234,384404,1,0,3:0:0:0:
91,234,384546,1,0,3:0:0:0:
49,165,384689,1,0,3:0:0:0:
78,90,384832,1,0,3:0:0:0:
209,100,384975,5,10,3:0:0:0:
276,143,385118,1,0,3:0:0:0:
354,128,385261,1,0,3:0:0:0:
410,71,385404,1,0,3:0:0:0:
488,85,385546,1,0,3:0:0:0:
505,163,385689,1,0,3:0:0:0:
446,224,385832,5,2,3:0:0:0:
425,223,385904,1,0,3:0:0:0:
402,216,385975,1,0,3:0:0:0:
381,194,386046,1,0,3:0:0:0:
379,160,386118,1,0,3:0:0:0:
394,131,386189,1,0,3:0:0:0:
394,90,386261,1,0,3:0:0:0:
367,56,386332,1,0,3:0:0:0:
321,45,386404,1,0,3:0:0:0:
274,61,386475,1,0,3:0:0:0:
239,101,386546,1,0,3:0:0:0:
236,158,386618,1,0,3:0:0:0:
268,209,386689,6,0,P|327:175|418:184,1,133.333333333333,6|0,3:0|3:0,3:0:0:0:
421,73,387118,2,0,P|465:95|505:182,1,133.333333333333,2|0,3:0|3:0,3:0:0:0:
504,182,387475,1,0,3:0:0:0:
499,205,387546,5,10,3:0:0:0:
436,256,387689,1,0,3:0:0:0:
359,230,387832,1,0,3:0:0:0:
297,325,387975,6,0,B|341:301|341:301|350:271|327:204,1,133.333333333333,2|0,3:0|3:0,3:0:0:0:
234,151,388404,2,0,P|216:203|155:230,1,100,2|0,3:0|3:0,3:0:0:0:
160,227,388689,1,0,3:0:0:0:
143,225,388761,1,0,3:0:0:0:
119,207,388832,2,0,L|112:64,1,133.333333333333,2|0,3:0|3:0,3:0:0:0:
22,302,389261,6,0,P|56:283|110:276,1,66.6666666666667,10|0,3:0|3:0,3:0:0:0:
186,290,389546,1,8,3:0:0:0:
107,191,389689,1,2,3:0:0:0:
289,261,389904,5,0,3:0:0:0:
289,261,389975,1,0,3:0:0:0:
284,290,390046,1,0,3:0:0:0:
279,319,390118,6,0,L|421:307,1,133.333333333333,2|0,3:0|3:0,3:0:0:0:
500,223,390546,2,0,L|358:211,1,133.333333333333,2|0,3:0|3:0,3:0:0:0:
346,210,390904,1,0,3:0:0:0:
326,208,390975,5,10,3:0:0:0:
275,150,391118,1,0,3:0:0:0:
297,74,391261,1,0,3:0:0:0:
373,49,391404,6,0,P|418:63|465:136,1,133.333333333333,2|0,3:0|3:0,3:0:0:0:
504,235,391832,2,0,P|461:281|386:275,1,133.333333333333,2|0,3:0|3:0,3:0:0:0:
231,198,392261,2,0,P|286:176|360:224,1,133.333333333333,2|0,3:0|3:0,3:0:0:0:
357,221,392618,1,0,3:0:0:0:
357,239,392689,6,0,P|351:261|337:274,2,33.3333333333333,10|0|0,3:0|3:0|3:0,3:0:0:0:
296,158,392975,1,8,3:0:0:0:
254,242,393118,1,2,3:0:0:0:
190,145,393261,5,8,3:0:0:0:
230,341,393404,1,8,3:0:0:0:
45,261,393546,6,0,B|70:234|70:234|195:253,1,150,6|0,3:0|3:0,3:0:0:0:
254,146,393832,2,0,L|87:159,1,150,6|0,3:0|3:0,3:0:0:0:
38,91,394118,2,0,P|77:138|33:243,1,150,6|0,3:0|3:0,3:0:0:0:
45,261,394404,6,0,B|84:269|110:232|110:232|141:268|186:269|186:269|193:278|193:278|229:291|269:263|269:263|289:285|322:278|322:278|338:264|380:275,1,366.666666666667,6|0,3:0|3:0,3:0:0:0:
381,287,395261,2,0,L|383:312,1,25,8|8,2:3|2:3,3:0:0:0:
448,107,396118,6,0,L|453:72,1,25,8|8,2:3|2:3,3:0:0:0:
384,163,396261,1,0,3:0:0:0:
308,123,396404,1,0,3:0:0:0:
196,253,396546,5,0,3:0:0:0:
235,181,396689,1,0,3:0:0:0:
187,113,396832,1,0,3:0:0:0:
36,194,396975,6,0,L|25:284,1,66.6666666666667,6|0,3:0|3:0,3:0:0:0:
71,344,397260,1,0,3:0:0:0:
158,189,397403,2,0,P|200:192|234:216,1,66.6666666666667,0|0,3:0|3:0,3:0:0:0:
280,285,397689,1,0,3:0:0:0:
256,81,397832,6,0,L|175:70,1,66.6666666666667,10|0,3:0|3:0,3:0:0:0:
329,206,398117,1,0,3:0:0:0:
346,43,398260,2,0,L|427:32,1,66.6666666666667,0|0,3:0|3:0,3:0:0:0:
238,212,398546,1,0,3:0:0:0:
420,131,398689,6,0,P|426:171|452:216,1,66.6666666666667,2|0,3:0|3:0,3:0:0:0:
495,295,398975,1,0,3:0:0:0:
367,267,399117,2,0,P|332:259|287:255,1,66.6666666666667,0|0,3:0|3:0,3:0:0:0:
498,316,399403,1,0,3:0:0:0:
220,192,399546,5,10,3:0:0:0:
171,323,399689,1,0,3:0:0:0:
303,282,399832,1,0,3:0:0:0:
133,216,399975,5,0,3:0:0:0:
255,380,400117,1,0,3:0:0:0:
311,166,400260,1,0,3:0:0:0:
48,117,400403,5,6,3:0:0:0:
43,125,400475,1,0,3:0:0:0:
39,134,400546,1,0,3:0:0:0:
36,143,400617,1,0,3:0:0:0:
34,152,400689,1,0,3:0:0:0:
33,161,400760,1,0,3:0:0:0:
33,171,400832,1,0,3:0:0:0:
33,180,400903,1,0,3:0:0:0:
35,189,400975,1,0,3:0:0:0:
38,198,401046,1,0,3:0:0:0:
43,206,401117,1,0,3:0:0:0:
49,213,401189,1,0,3:0:0:0:
56,219,401260,5,14,3:0:0:0:
86,197,401332,1,0,3:0:0:0:
122,191,401403,1,0,3:0:0:0:
158,198,401475,1,0,3:0:0:0:
181,225,401546,1,0,3:0:0:0:
191,259,401617,1,0,3:0:0:0:
182,295,401689,5,0,3:0:0:0:
172,304,401760,1,0,3:0:0:0:
159,309,401832,1,0,3:0:0:0:
145,311,401903,1,0,3:0:0:0:
131,309,401975,1,0,3:0:0:0:
120,301,402046,1,0,3:0:0:0:
113,289,402117,5,6,3:0:0:0:
131,261,402189,1,0,3:0:0:0:
160,246,402260,1,0,3:0:0:0:
193,246,402332,1,0,3:0:0:0:
222,260,402403,1,0,3:0:0:0:
241,287,402475,1,0,3:0:0:0:
271,299,402546,1,0,3:0:0:0:
303,292,402617,1,0,3:0:0:0:
324,265,402689,1,0,3:0:0:0:
326,231,402760,1,0,3:0:0:0:
307,202,402832,1,0,3:0:0:0:
275,191,402903,1,0,3:0:0:0:
242,197,402975,5,14,3:0:0:0:
227,234,403046,1,0,3:0:0:0:
236,275,403117,1,0,3:0:0:0:
274,301,403189,1,0,3:0:0:0:
323,302,403260,1,0,3:0:0:0:
366,270,403332,1,0,3:0:0:0:
374,214,403403,1,0,3:0:0:0:
342,160,403475,1,0,3:0:0:0:
343,95,403546,1,0,3:0:0:0:
391,40,403617,1,0,3:0:0:0:
466,39,403689,1,0,3:0:0:0:
512,97,403760,1,0,3:0:0:0:
503,170,403832,6,0,L|469:168,7,30,2|2|2|2|2|2|2|2,2:0|2:0|2:0|2:0|2:0|2:0|2:0|2:0,2:0:0:0:
285,347,407260,6,0,B|306:328|306:328|292:263,1,79.9999999999998,6|0,3:0|3:0,3:0:0:0:
398,235,407689,2,0,L|389:323,1,79.9999999999998,0|0,3:0|3:0,3:0:0:0:
223,181,408117,2,0,P|254:167|306:181,1,79.9999999999998,10|0,3:0|3:0,3:0:0:0:
213,299,408546,2,0,L|126:293,1,79.9999999999998,0|0,3:0|3:0,3:0:0:0:
113,115,408975,6,0,L|103:206,1,79.9999999999998,2|0,3:0|3:0,3:0:0:0:
221,107,409403,2,0,L|212:27,1,79.9999999999998,0|0,3:0|3:0,3:0:0:0:
246,240,409832,2,0,P|277:226|332:227,1,79.9999999999998,10|0,3:0|3:0,3:0:0:0:
395,156,410260,2,0,P|422:175|449:218,1,79.9999999999998,0|0,3:0|3:0,3:0:0:0:
308,384,410689,6,0,L|297:289,1,79.9999999999998,2|0,3:0|3:0,3:0:0:0:
220,239,411117,2,0,L|209:334,1,79.9999999999998,0|0,3:0|3:0,3:0:0:0:
39,216,411546,2,0,L|125:202,1,79.9999999999998,10|0,3:0|3:0,3:0:0:0:
190,109,411975,2,0,L|104:95,1,79.9999999999998,0|0,3:0|3:0,3:0:0:0:
226,222,412403,6,0,P|232:193|264:153,1,79.9999999999998,2|0,3:0|3:0,3:0:0:0:
284,65,412832,2,0,P|321:44|371:41,1,79.9999999999998,0|0,3:0|3:0,3:0:0:0:
464,171,413260,5,10,3:0:0:0:
348,135,413403,1,0,3:0:0:0:
484,163,413546,1,0,3:0:0:0:
357,257,413689,5,0,3:0:0:0:
415,85,413832,1,0,3:0:0:0:
498,254,413975,1,0,3:0:0:0:
341,142,414117,6,0,P|288:140|254:153,1,79.9999999999998,6|0,3:0|3:0,3:0:0:0:
191,103,414546,2,0,P|158:109|114:132,1,79.9999999999998,0|0,3:0|3:0,3:0:0:0:
133,329,414975,2,0,L|141:246,1,79.9999999999998,10|0,3:0|3:0,3:0:0:0:
247,371,415403,2,0,L|239:288,1,79.9999999999998,0|0,3:0|3:0,3:0:0:0:
430,303,415832,6,0,P|391:317|346:311,1,79.9999999999998,2|0,3:0|3:0,3:0:0:0:
302,162,416260,2,0,P|329:194|341:244,1,79.9999999999998,0|0,3:0|3:0,3:0:0:0:
512,137,416689,2,0,L|429:127,1,79.9999999999998,10|0,3:0|3:0,3:0:0:0:
329,44,417117,2,0,L|412:34,1,79.9999999999998,0|0,3:0|3:0,3:0:0:0:
340,181,417546,5,6,3:0:0:0:
261,117,417689,1,0,3:0:0:0:
206,203,417832,1,2,3:0:0:0:
160,37,417975,5,2,3:2:0:0:
285,276,418117,1,0,3:0:0:0:
313,245,418189,1,0,3:0:0:0:
353,233,418260,1,0,3:0:0:0:
394,240,418332,1,0,3:0:0:0:
425,267,418403,5,14,3:0:0:0:
231,193,418546,1,0,3:0:0:0:
388,123,418689,1,0,3:0:0:0:
299,357,418832,5,2,3:0:0:0:
294,138,418975,1,8,3:0:0:0:
448,263,419117,1,0,3:0:0:0:
235,281,419260,6,0,P|192:255|137:241,1,99.9999999999999,6|0,3:0|3:0,3:0:0:0:
14,243,419546,1,0,3:0:0:0:
208,152,419689,2,0,P|251:126|306:112,1,99.9999999999999,2|0,3:0|3:0,3:0:0:0:
401,274,419975,1,0,3:0:0:0:
401,274,420046,1,0,3:0:0:0:
401,274,420117,5,8,3:0:0:0:
374,315,420189,1,8,3:0:0:0:
326,331,420260,1,8,3:0:0:0:
280,311,420332,1,8,3:0:0:0:
257,266,420403,1,8,3:0:0:0:
227,231,420475,1,8,3:0:0:0:
188,220,420546,1,8,3:0:0:0:
154,229,420617,1,8,3:0:0:0:
136,253,420689,1,8,3:0:0:0:
136,278,420760,1,8,3:0:0:0:
147,294,420832,1,8,3:0:0:0:
161,298,420903,1,8,3:0:0:0:
174,294,420975,6,0,P|169:247|142:195,1,100,6|2,3:0|3:2,3:0:0:0:
198,112,421403,2,0,P|179:64|139:19,1,100,2|2,3:0|3:2,3:0:0:0:
264,204,421832,2,0,L|366:186,1,100,10|2,3:0|3:2,3:0:0:0:
414,261,422260,2,0,L|516:243,1,100,2|2,3:0|3:2,3:0:0:0:
384,370,422689,6,0,P|349:346|290:324,1,100,2|2,3:2|3:2,3:0:0:0:
214,264,423117,2,0,P|249:240|308:218,1,100,2|2,3:0|3:2,3:0:0:0:
245,33,423546,2,0,P|229:90|223:141,1,100,10|2,3:2|3:2,3:0:0:0:
129,173,423975,2,0,P|128:220|145:287,1,100,2|2,3:0|3:2,3:0:0:0:
282,337,424403,6,0,B|300:315|300:315|274:243,1,100,2|2,3:2|3:2,3:0:0:0:
380,186,424832,2,0,L|374:303,1,100,2|2,3:0|3:2,3:0:0:0:
509,140,425260,2,0,P|469:132|428:89,1,100,10|2,3:2|3:2,3:0:0:0:
338,97,425689,2,0,P|332:57|347:-3,1,100,2|2,3:0|3:2,3:0:0:0:
377,187,426117,6,0,L|268:199,1,100,2|2,3:2|3:2,3:0:0:0:
211,289,426546,2,0,P|190:270|121:248,1,100,2|2,3:0|3:2,3:0:0:0:
131,368,426975,5,10,3:2:0:0:
305,306,427117,1,0,3:0:0:0:
179,192,427260,1,2,3:2:0:0:
223,373,427403,5,2,3:0:0:0:
291,215,427546,1,0,3:0:0:0:
103,285,427689,1,6,3:0:0:0:
176,53,427832,6,0,P|230:69|269:102,1,100,6|0,3:0|3:0,3:0:0:0:
291,215,428260,2,0,P|320:178|383:151,1,100,0|0,3:0|3:0,3:0:0:0:
472,299,428689,2,0,B|439:284|439:284|369:303,1,100,10|0,3:0|3:0,3:0:0:0:
275,335,429117,2,0,B|308:320|308:320|378:339,1,100,0|0,3:0|3:0,3:0:0:0:
177,369,429546,6,0,P|188:326|186:262,1,100,2|0,3:0|3:0,3:0:0:0:
291,222,429975,2,0,P|280:179|282:115,1,100,0|0,3:0|3:0,3:0:0:0:
149,31,430403,2,0,L|155:138,1,100,10|0,3:0|3:0,3:0:0:0:
47,219,430832,2,0,L|52:119,1,100,0|0,3:0|3:0,3:0:0:0:
117,285,431260,5,6,3:0:0:0:
234,146,431403,1,0,3:0:0:0:
280,302,431546,1,0,3:0:0:0:
108,196,431689,5,2,3:0:0:0:
321,195,431832,1,0,3:0:0:0:
350,199,431903,1,0,3:0:0:0:
379,203,431975,1,0,3:0:0:0:
408,207,432046,1,0,3:0:0:0:
437,212,432117,6,0,P|453:269|465:319,1,99.9999999999999,14|0,3:0|3:0,3:0:0:0:
496,121,432403,1,2,3:2:0:0:
317,221,432546,2,0,P|301:278|289:328,1,99.9999999999999,0|0,3:0|3:0,3:0:0:0:
502,104,432832,1,6,3:0:0:0:
249,148,432975,6,0,P|228:105|286:25,1,150,6|0,3:0|3:0,3:0:0:0:
409,59,433260,2,0,P|356:87|285:28,1,150,6|0,3:0|3:0,3:0:0:0:
301,37,433546,1,0,3:0:0:0:
326,61,433617,1,0,3:0:0:0:
326,95,433689,1,0,3:0:0:0:
306,124,433760,1,0,3:0:0:0:
273,133,433832,5,8,3:0:0:0:
238,128,433903,1,8,3:0:0:0:
203,123,433975,1,8,3:0:0:0:
327,253,434117,5,8,3:0:0:0:
220,49,434260,1,8,3:0:0:0:
146,229,434403,1,8,3:0:0:0:
57,142,434546,1,8,3:0:0:0:
75,367,434689,6,0,P|89:328|88:273,1,79.9999999999998,6|0,3:0|3:0,3:0:0:0:
214,296,435117,2,0,P|196:344|190:380,1,79.9999999999998,2|2,3:0|3:2,3:0:0:0:
318,300,435475,1,0,3:0:0:0:
325,280,435546,2,0,L|331:195,1,79.9999999999998,10|2,3:2|3:2,3:0:0:0:
431,208,435975,2,0,L|437:123,1,79.9999999999998,2|2,3:0|3:2,3:0:0:0:
474,303,436403,6,0,P|461:257|432:221,1,79.9999999999998,2|2,3:2|3:2,3:0:0:0:
426,118,436832,2,0,P|384:94|338:89,1,79.9999999999998,2|2,3:0|3:2,3:0:0:0:
242,177,437260,2,0,L|233:265,1,79.9999999999998,10|2,3:2|3:2,3:0:0:0:
140,105,437689,2,0,L|149:193,1,79.9999999999998,2|2,3:0|3:2,3:0:0:0:
254,82,438117,6,0,P|253:47|236:0,1,79.9999999999998,2|2,3:2|3:2,3:0:0:0:
339,128,438546,2,0,P|350:87|377:44,1,79.9999999999998,2|2,3:0|3:2,3:0:0:0:
233,207,438975,2,0,L|150:200,1,79.9999999999998,10|2,3:2|3:2,3:0:0:0:
253,332,439403,2,0,L|336:325,1,79.9999999999998,2|2,3:0|3:2,3:0:0:0:
141,290,439832,6,0,P|127:331|126:372,1,79.9999999999998,2|2,3:2|3:2,3:0:0:0:
29,266,440260,1,2,3:0:0:0:
119,272,440403,1,0,3:0:0:0:
209,278,440546,1,0,3:0:0:0:
73,158,440689,6,0,L|45:154,1,37.5,8|8,2:0|2:0,3:0:0:0:
209,296,440832,1,8,3:0:0:0:
274,133,440975,1,8,3:0:0:0:
102,283,441117,5,8,3:0:0:0:
328,211,441260,1,8,3:0:0:0:
92,294,441403,1,8,3:0:0:0:
187,145,441546,1,8,3:0:0:0:
251,343,441689,1,8,3:0:0:0:
332,198,441832,1,8,3:0:0:0:
111,197,441975,5,0,3:0:0:0:
350,293,442117,1,0,3:0:0:0:
271,96,442260,1,0,3:0:0:0:
237,337,442403,5,8,3:0:0:0:
344,123,442546,1,8,3:0:0:0:
452,321,442689,1,8,3:0:0:0:
343,108,442832,1,8,3:0:0:0:
260,246,442975,1,8,3:0:0:0:
439,221,443117,1,8,3:0:0:0:
233,134,443260,5,8,3:0:0:0:
342,332,443403,1,8,3:0:0:0:
416,133,443546,1,8,3:0:0:0:
457,291,443689,5,8,3:0:0:0:
227,244,443832,1,8,3:0:0:0:
415,147,443975,1,8,3:0:0:0:
217,264,444117,1,8,3:0:0:0:
319,119,444260,1,8,3:0:0:0:
290,341,444403,1,8,3:0:0:0:
430,240,444546,5,0,3:0:0:0:
166,175,444689,1,0,3:0:0:0:
361,17,444832,1,0,3:0:0:0:
299,353,444975,6,0,P|249:335|141:329,1,150,6|0,3:0|3:0,3:0:0:0:
410,248,445260,2,0,L|523:237,1,99.9999999999999,0|0,3:0|3:0,3:0:0:0:
