osu file format v14

[General]
AudioFilename: audio.mp3
AudioLeadIn: 0
PreviewTime: 274254
Countdown: 1
SampleSet: Normal
StackLeniency: 0.7
Mode: 0
LetterboxInBreaks: 0
WidescreenStoryboard: 0

[Editor]
Bookmarks: 37683,49968,65111,97436,99397,126865,149968,167968,181683,209111,236540,263968,277683,304968,332540,359968,373683,393397,396826,403683,407111
DistanceSpacing: 1.8
BeatDivisor: 4
GridSize: 8
TimelineZoom: 2.1

[Metadata]
Title:The Fool
TitleUnicode:The Fool
Artist:Aether Realm
ArtistUnicode:Æther Realm
Creator:FireAce62
Version:Hear This Thunderous Rumbling While I Die In The Shadow
Source:
Tags:Tarot Death Metal
BeatmapID:2140429
BeatmapSetID:1023190

[Difficulty]
HPDrainRate:5
CircleSize:4.5
OverallDifficulty:8
ApproachRate:9
SliderMultiplier:1.9
SliderTickRate:1

[Events]
//Background and Video events
0,0,"322549dgfhk.jpg",0,0
//Break Periods
//Storyboard Layer 0 (Background)
//Storyboard Layer 1 (Fail)
//Storyboard Layer 2 (Pass)
//Storyboard Layer 3 (Foreground)
//Storyboard Layer 4 (Overlay)
//Storyboard Sound Samples

[TimingPoints]
6865,285.714285714286,4,1,0,20,1,0
10293,-200,4,1,0,20,0,0
99436,-100,4,1,0,20,0,0

[HitObjects]
256,192,7151,12,0,10151,0:0:0:0:
137,152,10293,6,0,P|128:220|134:241,1,71.25
140,255,10579,1,0,0:0:0:0:
140,255,10865,1,0,0:0:0:0:
238,208,11436,2,0,P|284:193|377:217,1,142.5
459,315,12008,5,0,0:0:0:0:
459,315,12293,1,0,0:0:0:0:
459,315,12579,2,0,P|413:300|320:324,1,142.5
223,377,13151,6,0,P|207:346|189:327,1,47.5
39,204,13722,6,0,P|66:172|165:160,1,142.5
249,242,14293,1,0,0:0:0:0:
249,242,14579,2,0,L|291:152,1,95
398,161,15151,2,0,L|375:212,1,47.5
473,183,15436,6,0,P|501:178|525:189,1,47.5
400,86,15722,2,0,P|428:88|448:105,1,47.5
303,121,16008,2,0,P|295:81|326:15,1,95
135,73,16579,6,0,P|166:92|228:89,1,95
142,218,17151,2,0,L|103:309,1,95
244,202,17722,6,0,P|286:183|337:196,1,95
424,295,18294,2,0,P|466:314|517:301,1,95
346,222,18865,6,0,P|320:256|318:268,1,47.5
269,346,19151,2,0,P|237:353|214:342,1,47.5
424,295,19436,2,0,P|466:314|517:301,1,95
462,114,20008,6,0,P|481:155|468:207,1,95
299,163,20579,2,0,L|398:163,1,95
226,112,21151,6,0,P|207:153|220:205,1,95
137,17,21722,2,0,P|156:58|143:110,1,95
260,35,22294,2,0,P|287:49|304:72,1,47.5
342,168,22579,2,0,P|375:179|405:177,1,47.5
226,111,22865,2,0,P|206:154|216:200,1,95
199,320,23436,6,0,P|239:289|298:299,1,95
379,364,24007,2,0,L|316:289,1,95
256,177,24579,6,0,P|280:159|347:172,1,95
487,125,25150,2,0,P|442:137|401:115,1,95
333,46,25722,6,0,P|299:40|273:50,1,47.5
199,112,26007,2,0,P|169:111|140:93,1,47.5
303,213,26293,2,0,P|297:250|250:289,1,95
123,214,26865,6,0,P|153:192|214:197,1,95
398,154,27436,2,0,L|312:113,1,95
168,96,28007,6,0,P|184:127|164:185,1,95
99,47,28579,2,0,P|127:21|186:17,1,95
276,123,29150,6,0,P|306:148|335:152,1,47.5
364,231,29436,2,0,P|362:266|350:294,1,47.5
331,84,29722,2,0,P|366:52|427:65,1,95
482,206,30293,6,0,P|447:238|386:225,1,95
204,212,30865,2,0,L|302:243,1,95
148,281,31436,2,0,P|115:299|86:365,1,95
168,202,32007,2,0,P|135:184|106:118,1,95
115,35,32579,6,0,P|143:18|176:19,1,47.5
241,109,32865,2,0,P|266:118|303:117,1,47.5
107,135,33150,2,0,P|128:177|168:202,1,95
122,302,33722,6,0,P|166:317|212:306,1,95
286,119,34293,2,0,L|264:224,1,95
378,109,34865,2,0,P|424:70|470:72,1,95
206,71,35436,2,0,P|180:16|138:-1,1,95
220,159,36007,6,0,P|250:151|270:137,1,47.5
378,109,36293,2,0,P|411:121|430:146,1,47.5
206,71,36579,2,0,P|180:16|138:-1,1,95
64,119,37150,6,0,P|25:144|10:189,1,95
24,214,37507,1,0,0:0:0:0:
24,214,37579,1,0,0:0:0:0:
24,214,37650,1,0,0:0:0:0:
24,214,37722,1,0,0:0:0:0:
262,182,38007,6,0,L|244:240,1,47.5
334,175,38293,2,0,L|316:233,1,47.5
252,110,38579,2,0,L|350:100,1,95
226,42,39150,6,0,L|169:48,1,47.5
203,113,39436,2,0,L|146:119,1,47.5
307,30,39722,2,0,L|405:20,1,95
466,131,40293,6,0,L|441:195,1,47.5
420,244,40579,2,0,L|395:308,1,47.5
363,170,40865,2,0,L|399:76,1,95
268,243,41436,6,0,L|293:307,1,47.5
191,244,41722,2,0,L|216:308,1,47.5
275,171,42007,2,0,L|168:172,1,95
40,355,42579,6,0,L|57:310,1,47.5
115,359,42865,2,0,L|132:314,1,47.5
284,370,43150,2,0,L|179:365,1,95
376,329,43722,6,0,L|358:373,1,47.5
301,325,44008,2,0,L|283:369,1,47.5
220,255,44293,2,0,P|279:245|313:217,1,95
204,243,44865,2,0,P|264:249|304:230,1,95
192,228,45436,2,0,P|248:248|291:241,2,95
87,124,46293,6,0,P|115:111|151:113,1,47.5
235,152,46579,2,0,P|269:154|297:145,1,47.5
192,228,46865,2,0,P|225:245|247:246,1,47.5
277,75,47150,6,0,L|306:24,1,47.5
352,88,47436,2,0,L|381:37,1,47.5
374,210,47722,6,0,L|345:261,1,47.5
449,223,48007,2,0,L|420:274,1,47.5
496,362,48293,2,0,P|459:347|399:359,1,95
315,361,48865,6,0,B|352:337|406:356|406:356|377:313|389:278|389:278|346:262|345:217,1,237.5
428,199,49722,6,0,L|454:147,1,47.5
369,137,50007,2,0,L|395:85,1,47.5
193,103,50293,6,0,L|167:155,1,47.5
252,165,50578,2,0,L|226:217,1,47.5
428,199,50865,6,0,L|454:147,1,47.5
369,137,51150,2,0,L|395:85,1,47.5
245,286,51436,6,0,P|208:287|187:270,1,47.5
185,203,51722,2,0,P|222:202|243:219,1,47.5
212,293,52007,6,0,P|176:284|160:262,1,47.5
175,197,52293,2,0,P|210:205|226:227,1,47.5
178,291,52579,6,0,P|145:273|135:248,1,47.5
167,188,52865,2,0,P|199:205|209:230,1,47.5
101,118,53150,6,0,P|134:96|156:94,1,47.5
208,38,53436,2,0,P|175:16|153:14,1,47.5
235,170,53722,6,0,L|277:145,1,47.5
302,219,54007,2,0,L|336:183,1,47.5
201,231,54293,6,0,L|235:195,1,47.5
278,260,54578,2,0,L|301:217,1,47.5
183,298,54865,6,0,L|206:255,1,47.5
265,306,55150,2,0,L|277:258,1,47.5
182,367,55436,6,0,L|194:319,1,47.5
264,353,55721,2,0,L|263:304,1,47.5
353,241,56007,6,0,P|388:239|414:246,1,47.5
498,225,56293,2,0,P|508:195|502:160,1,47.5
418,93,56579,6,0,P|388:102|352:104,1,47.5
330,183,56865,2,0,P|300:174|264:172,1,47.5
459,98,57150,6,0,P|429:107|393:109,1,47.5
308,90,57436,2,0,P|271:87|200:160,1,142.5
192,252,58007,2,0,P|173:278|150:288,1,47.5
284,172,58293,6,0,L|321:214,1,47.5
123,201,58579,2,0,P|125:160|166:118,1,95
210,193,59150,6,0,L|183:274,1,71.25
204,291,59436,2,0,L|226:223,1,71.25
210,193,59722,2,0,L|183:274,1,71.25
164,276,60007,6,0,P|122:305|110:307,1,47.5
143,143,60293,2,0,P|185:114|197:112,1,47.5
315,171,60579,2,0,P|384:185|440:137,1,142.5
295,190,61150,2,0,P|358:221|424:189,1,142.5
231,280,61722,6,0,P|162:294|106:246,1,142.5
251,299,62293,2,0,P|187:330|121:298,1,142.5
192,179,62865,6,0,L|214:118,1,47.5
361,97,63150,2,0,L|339:36,1,47.5
344,281,63436,5,0,0:0:0:0:
344,281,63507,1,0,0:0:0:0:
344,281,63579,1,0,0:0:0:0:
344,281,63650,1,0,0:0:0:0:
344,281,63722,2,0,P|383:305|451:302,1,95
361,97,64293,2,0,P|322:73|254:76,1,95
254,202,64865,2,0,L|292:155,1,47.5
499,15,65150,5,0,0:0:0:0:
499,15,65436,1,0,0:0:0:0:
290,269,66007,5,0,0:0:0:0:
290,269,68579,5,0,0:0:0:0:
290,269,68865,1,0,0:0:0:0:
206,22,69436,5,0,0:0:0:0:
158,349,70007,5,0,0:0:0:0:
158,349,70293,1,0,0:0:0:0:
158,349,70579,1,0,0:0:0:0:
426,194,71150,5,0,0:0:0:0:
189,124,71722,5,0,0:0:0:0:
177,123,71793,1,0,0:0:0:0:
165,123,71864,1,0,0:0:0:0:
153,125,71936,1,0,0:0:0:0:
144,133,72007,1,0,0:0:0:0:
143,133,72293,5,0,0:0:0:0:
447,31,72865,5,0,0:0:0:0:
108,17,73436,5,0,0:0:0:0:
108,17,73722,1,0,0:0:0:0:
405,8,75436,5,0,0:0:0:0:
405,8,75722,1,0,0:0:0:0:
391,337,76293,5,0,0:0:0:0:
178,69,76865,5,0,0:0:0:0:
178,69,77150,1,0,0:0:0:0:
178,69,77436,1,0,0:0:0:0:
81,347,78007,5,0,0:0:0:0:
220,121,78579,1,0,0:0:0:0:
227,111,78650,1,0,0:0:0:0:
235,103,78721,1,0,0:0:0:0:
245,96,78793,1,0,0:0:0:0:
256,91,78864,1,0,0:0:0:0:
267,93,78936,1,0,0:0:0:0:
267,92,79150,5,0,0:0:0:0:
241,351,79722,5,0,0:0:0:0:
457,93,80293,5,0,0:0:0:0:
457,93,80579,1,0,0:0:0:0:
457,93,82293,5,0,0:0:0:0:
457,93,82579,1,0,0:0:0:0:
2,45,83150,5,0,0:0:0:0:
150,355,83722,5,0,0:0:0:0:
150,355,84007,1,0,0:0:0:0:
150,355,84293,1,0,0:0:0:0:
496,230,84865,5,0,0:0:0:0:
86,231,85436,1,0,0:0:0:0:
74,229,85507,1,0,0:0:0:0:
62,225,85578,1,0,0:0:0:0:
52,219,85650,1,0,0:0:0:0:
45,210,85721,1,0,0:0:0:0:
44,210,86007,5,0,0:0:0:0:
319,66,86579,5,0,0:0:0:0:
381,373,87150,5,0,0:0:0:0:
381,373,87436,1,0,0:0:0:0:
116,50,89150,5,0,0:0:0:0:
83,187,89436,1,0,0:0:0:0:
83,187,90007,5,0,0:0:0:0:
276,91,90579,5,0,0:0:0:0:
309,228,90865,1,0,0:0:0:0:
342,365,91150,1,0,0:0:0:0:
83,187,91722,5,0,0:0:0:0:
288,15,92294,5,0,0:0:0:0:
299,13,92365,1,0,0:0:0:0:
311,14,92436,1,0,0:0:0:0:
322,18,92508,1,0,0:0:0:0:
333,23,92579,1,0,0:0:0:0:
294,114,92865,5,0,0:0:0:0:
294,114,93436,5,0,0:0:0:0:
186,334,96007,5,0,0:0:0:0:
228,169,96293,1,0,0:0:0:0:
228,169,96865,5,0,0:0:0:0:
403,384,97436,5,0,0:0:0:0:
361,219,97722,1,0,0:0:0:0:
319,54,98007,1,0,0:0:0:0:
64,368,98579,5,0,0:0:0:0:
425,368,98865,1,0,0:0:0:0:
423,7,99150,1,0,0:0:0:0:
62,7,99436,6,0,P|46:53|56:111,1,95
145,206,99722,1,0,0:0:0:0:
163,64,99865,1,0,0:0:0:0:
298,105,100007,1,0,0:0:0:0:
283,246,100150,5,0,0:0:0:0:
185,141,100293,1,0,0:0:0:0:
73,229,100436,1,0,0:0:0:0:
264,353,100579,1,0,0:0:0:0:
212,219,100722,5,0,0:0:0:0:
344,166,100865,1,0,0:0:0:0:
424,282,101007,1,0,0:0:0:0:
196,302,101150,1,0,0:0:0:0:
226,162,101293,5,0,0:0:0:0:
84,34,101436,2,0,P|101:90|101:95,1,47.5
56,246,101579,2,0,P|103:222|115:222,1,47.5
308,169,101722,2,0,P|299:112|295:105,1,47.5
262,63,101865,5,0,0:0:0:0:
213,196,102007,1,0,0:0:0:0:
344,251,102150,1,0,0:0:0:0:
504,89,102293,1,0,0:0:0:0:
476,228,102436,5,0,0:0:0:0:
346,168,102579,1,0,0:0:0:0:
214,222,102722,1,0,0:0:0:0:
385,372,102865,2,0,P|441:355|454:342,1,47.5
476,228,103007,5,0,0:0:0:0:
346,168,103150,1,0,0:0:0:0:
190,250,103293,2,0,P|149:247|121:225,1,47.5
199,82,103436,2,0,P|267:108|273:117,1,47.5
313,221,103579,5,0,0:0:0:0:
263,332,103722,1,0,0:0:0:0:
122,341,103865,1,0,0:0:0:0:
58,170,104007,2,0,P|101:141|118:139,1,47.5
234,169,104150,5,0,0:0:0:0:
373,104,104293,1,0,0:0:0:0:
281,0,104436,1,0,0:0:0:0:
136,133,104579,2,0,P|108:172|101:206,1,47.5
161,290,104722,5,0,0:0:0:0:
278,355,104865,1,0,0:0:0:0:
387,195,105007,2,0,P|392:142|385:126,1,47.5
317,30,105150,1,0,0:0:0:0:
194,56,105293,1,0,0:0:0:0:
142,132,105436,1,0,0:0:0:0:
186,258,105579,5,0,0:0:0:0:
111,47,105722,1,0,0:0:0:0:
69,279,105865,1,0,0:0:0:0:
244,119,106007,1,0,0:0:0:0:
230,348,106150,1,0,0:0:0:0:
161,170,106293,6,0,P|153:138|159:108,1,47.5
259,40,106436,1,0,0:0:0:0:
354,170,106579,1,0,0:0:0:0:
202,279,106722,2,0,L|152:296,1,47.5
53,222,106865,5,0,0:0:0:0:
122,128,107007,1,0,0:0:0:0:
188,249,107150,1,0,0:0:0:0:
337,305,107293,1,0,0:0:0:0:
430,134,107436,2,0,L|489:105,1,47.5
380,228,107579,5,0,0:0:0:0:
314,91,107722,1,0,0:0:0:0:
179,135,107865,1,0,0:0:0:0:
197,288,108007,2,0,L|252:278,1,47.5
298,136,108150,5,0,0:0:0:0:
153,39,108293,1,0,0:0:0:0:
168,338,108436,2,0,L|223:328,1,47.5
129,221,108579,5,0,0:0:0:0:
21,312,108722,1,0,0:0:0:0:
98,383,108865,1,0,0:0:0:0:
110,296,109007,1,0,0:0:0:0:
55,125,109150,6,0,P|97:91|112:89,1,47.5
315,96,109293,2,0,P|273:130|258:132,1,47.5
61,68,109436,2,0,P|113:55|127:60,1,47.5
308,152,109579,2,0,P|256:165|242:160,1,47.5
410,334,109722,2,0,L|438:389,1,47.5
448,193,109865,5,0,0:0:0:0:
341,40,110007,1,0,0:0:0:0:
264,332,110150,2,0,L|236:277,1,47.5
81,137,110293,2,0,L|109:192,1,47.5
78,344,110436,1,0,0:0:0:0:
231,224,110579,1,0,0:0:0:0:
214,81,110722,1,0,0:0:0:0:
14,250,110865,2,0,P|9:282|16:302,1,47.5
121,271,111007,5,0,0:0:0:0:
111,126,111150,1,0,0:0:0:0:
0,18,111293,1,0,0:0:0:0:
121,271,111436,2,0,L|167:293,1,47.5
325,242,111579,5,0,0:0:0:0:
306,67,111722,1,0,0:0:0:0:
128,324,111865,2,0,L|178:324,1,47.5
