osu file format v14

[General]
AudioFilename: audio.mp3
AudioLeadIn: 0
PreviewTime: 123117
Countdown: 0
SampleSet: Normal
StackLeniency: 0.7
Mode: 1
LetterboxInBreaks: 0
WidescreenStoryboard: 0

[Editor]
Bookmarks: 749,10854,20801,30906,41012,51117,61222,71327,81433,92801,105433,113012,123117,133222,143327,153433,164801
DistanceSpacing: 0.3
BeatDivisor: 4
GridSize: 32
TimelineZoom: 1.6

[Metadata]
Title:The Emperor
TitleUnicode:The Emperor
Artist:Aether Realm
ArtistUnicode:Æther Realm
Creator:Greenshell
Version:Futsuu
Source:osu!
Tags:english grünschale tarot melodic folk death metal melodeath
BeatmapID:2193991
BeatmapSetID:1047197

[Difficulty]
HPDrainRate:7
CircleSize:3
OverallDifficulty:4.5
ApproachRate:10
SliderMultiplier:1.4
SliderTickRate:1

[Events]
//Background and Video events
0,0,"vienna-library.jpg",0,-20
//Break Periods
//Storyboard Layer 0 (Background)
//Storyboard Layer 1 (Fail)
//Storyboard Layer 2 (Pass)
//Storyboard Layer 3 (Foreground)
//Storyboard Layer 4 (Overlay)
//Storyboard Sound Samples

[TimingPoints]
756,315.789473684211,4,1,0,60,1,0
51124,-100,4,1,0,60,0,1
71334,-100,4,1,0,60,0,0
102992,-100,4,1,0,30,0,0
105440,-100,4,1,0,60,0,0
128177,-100,4,1,0,60,0,1
143334,-100,4,1,0,60,0,0

[HitObjects]
224,160,756,5,4,0:0:0:0:
288,160,2650,1,8,0:0:0:0:
224,160,2966,1,0,0:0:0:0:
224,224,3282,1,4,0:0:0:0:
288,160,5177,1,8,0:0:0:0:
288,160,5492,1,8,0:0:0:0:
224,224,5808,1,4,0:0:0:0:
288,160,7703,1,8,0:0:0:0:
224,160,8019,1,0,0:0:0:0:
224,224,8334,1,4,0:0:0:0:
288,160,10229,1,8,0:0:0:0:
288,160,10387,1,8,0:0:0:0:
224,224,10861,1,4,0:0:0:0:
288,160,11177,1,8,0:0:0:0:
288,160,11808,1,8,0:0:0:0:
288,160,12440,1,8,0:0:0:0:
288,160,12756,1,8,0:0:0:0:
224,160,13071,1,0,0:0:0:0:
224,224,13387,1,4,0:0:0:0:
288,160,13703,1,8,0:0:0:0:
288,160,14334,1,8,0:0:0:0:
288,160,14966,1,8,0:0:0:0:
288,160,15282,1,8,0:0:0:0:
288,160,15598,1,8,0:0:0:0:
224,224,15913,1,4,0:0:0:0:
224,160,16545,1,0,0:0:0:0:
224,160,17177,1,0,0:0:0:0:
224,160,17492,1,0,0:0:0:0:
288,160,17650,1,8,0:0:0:0:
224,160,17808,1,0,0:0:0:0:
288,160,18124,1,8,0:0:0:0:
224,224,18440,1,4,0:0:0:0:
224,224,20808,1,4,0:0:0:0:
224,160,22861,1,0,0:0:0:0:
288,224,23334,1,12,0:0:0:0:
288,160,25071,1,8,0:0:0:0:
288,160,25229,1,8,0:0:0:0:
224,160,25387,1,0,0:0:0:0:
224,224,25861,1,4,0:0:0:0:
288,160,26334,1,8,0:0:0:0:
288,160,26966,1,8,0:0:0:0:
288,160,27598,1,8,0:0:0:0:
224,224,28387,1,4,0:0:0:0:
288,160,28861,1,8,0:0:0:0:
288,160,29177,1,8,0:0:0:0:
224,160,29808,1,0,0:0:0:0:
224,160,30124,1,0,0:0:0:0:
224,160,30282,1,0,0:0:0:0:
288,160,30440,1,8,0:0:0:0:
288,224,30913,1,12,0:0:0:0:
288,160,31387,1,8,0:0:0:0:
224,160,31703,1,0,0:0:0:0:
288,160,32019,1,8,0:0:0:0:
224,160,32177,1,0,0:0:0:0:
224,160,32334,1,0,0:0:0:0:
288,160,32650,1,8,0:0:0:0:
288,224,33440,1,12,0:0:0:0:
224,160,33756,1,0,0:0:0:0:
288,160,33913,1,8,0:0:0:0:
288,160,34229,1,8,0:0:0:0:
288,160,34861,1,8,0:0:0:0:
224,160,35177,1,0,0:0:0:0:
288,160,35492,1,8,0:0:0:0:
288,160,35650,1,8,0:0:0:0:
224,224,35966,1,4,0:0:0:0:
288,160,36440,1,8,0:0:0:0:
224,160,36756,1,0,0:0:0:0:
288,160,37071,1,8,0:0:0:0:
224,160,37229,1,0,0:0:0:0:
224,160,37387,1,0,0:0:0:0:
288,160,37703,1,8,0:0:0:0:
224,224,38492,1,4,0:0:0:0:
224,160,38808,1,0,0:0:0:0:
288,160,38966,1,8,0:0:0:0:
288,160,39282,1,8,0:0:0:0:
288,160,39913,1,8,0:0:0:0:
288,160,40229,1,8,0:0:0:0:
224,160,40387,1,0,0:0:0:0:
288,160,40545,1,8,0:0:0:0:
224,224,41019,1,4,0:0:0:0:
224,160,41334,1,0,0:0:0:0:
288,160,41492,1,8,0:0:0:0:
224,160,41808,1,0,0:0:0:0:
288,160,42124,1,8,0:0:0:0:
224,160,42282,1,0,0:0:0:0:
224,160,42440,1,0,0:0:0:0:
288,160,42756,1,8,0:0:0:0:
288,224,43545,1,12,0:0:0:0:
224,160,43861,1,0,0:0:0:0:
288,160,44019,1,8,0:0:0:0:
288,160,44334,1,8,0:0:0:0:
288,160,44966,1,8,0:0:0:0:
224,160,45124,1,0,0:0:0:0:
288,160,45282,1,8,0:0:0:0:
288,160,45598,1,8,0:0:0:0:
288,160,45756,1,8,0:0:0:0:
224,224,46071,1,4,0:0:0:0:
224,160,46387,1,0,0:0:0:0:
288,160,46545,1,8,0:0:0:0:
224,160,46861,1,0,0:0:0:0:
288,160,47177,1,8,0:0:0:0:
224,160,47334,1,0,0:0:0:0:
224,160,47492,1,0,0:0:0:0:
288,160,47808,1,8,0:0:0:0:
224,224,48598,1,4,0:0:0:0:
224,160,48913,1,0,0:0:0:0:
288,160,49071,1,8,0:0:0:0:
288,160,49387,1,8,0:0:0:0:
288,160,49703,1,8,0:0:0:0:
224,160,50018,5,0,0:0:0:0:
288,160,50177,1,8,0:0:0:0:
288,160,50334,1,8,0:0:0:0:
224,160,50650,1,0,0:0:0:0:
288,160,50966,1,8,0:0:0:0:
224,224,51124,1,4,0:0:0:0:
224,160,51598,1,0,0:0:0:0:
288,160,51913,1,8,0:0:0:0:
288,224,52387,1,12,0:0:0:0:
224,160,52861,1,0,0:0:0:0:
288,160,53177,1,8,0:0:0:0:
224,224,53650,1,4,0:0:0:0:
288,160,54124,1,8,0:0:0:0:
288,160,54440,1,8,0:0:0:0:
288,224,54913,1,12,0:0:0:0:
288,160,55229,1,8,0:0:0:0:
224,160,55387,1,0,0:0:0:0:
288,160,55703,1,8,0:0:0:0:
224,224,56177,1,4,0:0:0:0:
224,160,56650,1,0,0:0:0:0:
288,160,56966,1,8,0:0:0:0:
288,224,57440,1,12,0:0:0:0:
224,160,57913,1,0,0:0:0:0:
288,160,58229,1,8,0:0:0:0:
224,224,58703,1,4,0:0:0:0:
288,160,59177,1,8,0:0:0:0:
288,160,59492,1,8,0:0:0:0:
288,160,59808,1,8,0:0:0:0:
224,160,59966,1,0,0:0:0:0:
288,160,60282,1,8,0:0:0:0:
224,160,60440,1,0,0:0:0:0:
288,160,60756,1,8,0:0:0:0:
224,224,61229,1,4,0:0:0:0:
288,160,62019,1,8,0:0:0:0:
288,224,62492,1,12,0:0:0:0:
288,160,62808,1,8,0:0:0:0:
224,160,63124,1,0,0:0:0:0:
288,160,63282,1,8,0:0:0:0:
288,224,63756,1,12,0:0:0:0:
224,160,64229,1,0,0:0:0:0:
288,160,64545,1,8,0:0:0:0:
288,224,65019,1,12,0:0:0:0:
224,160,65334,1,0,0:0:0:0:
288,160,65650,1,8,0:0:0:0:
288,160,65808,1,8,0:0:0:0:
224,224,66282,1,4,0:0:0:0:
288,160,67071,1,8,0:0:0:0:
224,224,67545,1,4,0:0:0:0:
224,160,67861,1,0,0:0:0:0:
224,160,68019,1,0,0:0:0:0:
288,160,68334,1,8,0:0:0:0:
224,224,68808,1,4,0:0:0:0:
224,160,69282,1,0,0:0:0:0:
288,160,69598,1,8,0:0:0:0:
288,160,69756,1,8,0:0:0:0:
224,160,69913,1,0,0:0:0:0:
224,224,70229,1,4,0:0:0:0:
288,224,71334,1,12,0:0:0:0:
288,160,71808,1,8,0:0:0:0:
224,160,72124,1,0,0:0:0:0:
288,160,72440,1,8,0:0:0:0:
224,160,72756,1,0,0:0:0:0:
288,160,72913,1,8,0:0:0:0:
288,160,73071,1,8,0:0:0:0:
224,160,73387,1,0,0:0:0:0:
224,224,73861,1,4,0:0:0:0:
224,160,74177,1,0,0:0:0:0:
288,160,74334,1,8,0:0:0:0:
224,160,74650,1,0,0:0:0:0:
288,160,75282,1,8,0:0:0:0:
288,160,75598,1,8,0:0:0:0:
224,160,75756,1,0,0:0:0:0:
288,160,75913,1,8,0:0:0:0:
288,160,76229,1,8,0:0:0:0:
224,224,76387,1,4,0:0:0:0:
288,160,76861,1,8,0:0:0:0:
224,160,77177,1,0,0:0:0:0:
288,160,77492,1,8,0:0:0:0:
224,160,77808,1,0,0:0:0:0:
288,160,77966,1,8,0:0:0:0:
288,160,78124,1,8,0:0:0:0:
224,160,78440,1,0,0:0:0:0:
288,224,78913,1,12,0:0:0:0:
224,160,79229,1,0,0:0:0:0:
288,160,79387,1,8,0:0:0:0:
224,160,79703,1,0,0:0:0:0:
288,160,80334,1,8,0:0:0:0:
288,160,80650,1,8,0:0:0:0:
224,160,80808,1,0,0:0:0:0:
288,160,80966,1,8,0:0:0:0:
288,160,81282,1,8,0:0:0:0:
224,224,81440,1,4,0:0:0:0:
224,160,81756,1,0,0:0:0:0:
288,160,81913,1,8,0:0:0:0:
224,160,82229,1,0,0:0:0:0:
288,160,82545,1,8,0:0:0:0:
224,160,82861,1,0,0:0:0:0:
288,160,83019,1,8,0:0:0:0:
288,160,83177,1,8,0:0:0:0:
224,160,83492,1,0,0:0:0:0:
288,224,83966,1,12,0:0:0:0:
224,160,84282,1,0,0:0:0:0:
288,160,84440,1,8,0:0:0:0:
224,160,84756,1,0,0:0:0:0:
288,160,85387,1,8,0:0:0:0:
288,160,85703,1,8,0:0:0:0:
224,160,85861,1,0,0:0:0:0:
288,160,86019,1,8,0:0:0:0:
288,160,86334,1,8,0:0:0:0:
224,224,86492,1,4,0:0:0:0:
224,160,86808,1,0,0:0:0:0:
288,160,86966,1,8,0:0:0:0:
224,160,87282,1,0,0:0:0:0:
288,160,87598,1,8,0:0:0:0:
224,160,87913,1,0,0:0:0:0:
288,160,88071,1,8,0:0:0:0:
288,160,88229,1,8,0:0:0:0:
224,160,88545,1,0,0:0:0:0:
288,224,89019,1,12,0:0:0:0:
224,160,89334,1,0,0:0:0:0:
288,160,89492,1,8,0:0:0:0:
224,160,89808,1,0,0:0:0:0:
288,224,90440,1,12,0:0:0:0:
288,160,90756,1,8,0:0:0:0:
288,160,91071,1,8,0:0:0:0:
224,160,91229,1,0,0:0:0:0:
288,160,91387,1,8,0:0:0:0:
288,160,91703,1,8,0:0:0:0:
288,160,92019,1,8,0:0:0:0:
224,160,92177,1,0,0:0:0:0:
288,160,92334,1,8,0:0:0:0:
288,160,92650,1,8,0:0:0:0:
224,224,92808,1,4,0:0:0:0:
288,160,93282,1,8,0:0:0:0:
224,160,93598,1,0,0:0:0:0:
224,224,94071,1,4,0:0:0:0:
288,160,94545,1,8,0:0:0:0:
288,160,94861,1,8,0:0:0:0:
288,160,95177,1,8,0:0:0:0:
224,224,95334,1,4,0:0:0:0:
224,160,95650,1,0,0:0:0:0:
288,160,95808,1,8,0:0:0:0:
224,160,96124,1,0,0:0:0:0:
288,160,96440,1,8,0:0:0:0:
288,160,97071,1,8,0:0:0:0:
224,160,97387,1,0,0:0:0:0:
288,160,97703,1,8,0:0:0:0:
224,224,97861,1,4,0:0:0:0:
288,160,98334,1,8,0:0:0:0:
224,160,98650,1,0,0:0:0:0:
288,160,98966,1,8,0:0:0:0:
224,224,99124,1,4,0:0:0:0:
288,160,99598,1,8,0:0:0:0:
288,160,99913,1,8,0:0:0:0:
288,160,100229,1,8,0:0:0:0:
224,224,100387,1,4,0:0:0:0:
224,160,100703,1,0,0:0:0:0:
288,160,100861,1,8,0:0:0:0:
224,160,101177,1,0,0:0:0:0:
288,160,101492,1,8,0:0:0:0:
224,160,101808,1,0,0:0:0:0:
288,160,101966,1,8,0:0:0:0:
288,160,102124,1,8,0:0:0:0:
288,160,102440,1,8,0:0:0:0:
288,160,102756,1,8,0:0:0:0:
224,224,102913,1,4,0:0:0:0:
256,192,104334,12,0,105124,0:0:0:0:
288,224,105440,5,12,0:0:0:0:
224,160,105756,1,0,0:0:0:0:
224,160,105913,1,0,0:0:0:0:
288,160,106071,1,8,0:0:0:0:
224,160,106229,1,0,0:0:0:0:
224,160,106545,1,0,0:0:0:0:
288,160,106703,1,8,0:0:0:0:
224,160,106861,1,0,0:0:0:0:
288,160,107177,1,8,0:0:0:0:
224,160,107492,1,0,0:0:0:0:
288,160,107808,1,8,0:0:0:0:
224,160,107966,1,0,0:0:0:0:
288,160,108282,1,8,0:0:0:0:
224,160,108440,1,0,0:0:0:0:
288,160,108598,1,8,0:0:0:0:
288,160,108756,1,8,0:0:0:0:
224,160,109071,1,0,0:0:0:0:
288,160,109229,1,8,0:0:0:0:
224,160,109387,1,0,0:0:0:0:
224,160,109703,1,0,0:0:0:0:
288,160,110019,1,8,0:0:0:0:
288,160,110334,1,8,0:0:0:0:
224,160,110492,1,0,0:0:0:0:
224,160,110808,1,0,0:0:0:0:
288,160,110966,1,8,0:0:0:0:
288,160,111282,1,8,0:0:0:0:
224,160,111598,1,0,0:0:0:0:
224,160,111913,1,0,0:0:0:0:
288,160,112071,1,8,0:0:0:0:
288,160,112229,1,8,0:0:0:0:
288,160,112387,1,8,0:0:0:0:
224,160,112545,1,0,0:0:0:0:
288,160,112861,1,8,0:0:0:0:
224,224,113019,1,4,0:0:0:0:
224,160,113492,1,0,0:0:0:0:
288,160,113808,1,8,0:0:0:0:
224,160,114440,1,0,0:0:0:0:
224,160,114756,1,0,0:0:0:0:
224,160,114913,1,0,0:0:0:0:
288,160,115071,1,8,0:0:0:0:
224,224,115545,1,4,0:0:0:0:
224,160,116019,1,0,0:0:0:0:
288,160,116334,1,8,0:0:0:0:
224,160,116650,1,0,0:0:0:0:
288,160,116808,1,8,0:0:0:0:
224,160,116966,1,0,0:0:0:0:
224,160,117282,1,0,0:0:0:0:
224,160,117440,1,0,0:0:0:0:
288,160,117598,1,8,0:0:0:0:
224,224,118071,1,4,0:0:0:0:
224,160,118545,1,0,0:0:0:0:
288,160,118861,1,8,0:0:0:0:
224,160,119492,1,0,0:0:0:0:
224,160,119808,1,0,0:0:0:0:
224,160,119966,1,0,0:0:0:0:
288,160,120124,1,8,0:0:0:0:
224,224,120598,1,4,0:0:0:0:
224,160,121071,1,0,0:0:0:0:
288,160,121387,1,8,0:0:0:0:
224,160,122019,1,0,0:0:0:0:
288,160,122177,1,8,0:0:0:0:
224,160,122334,1,0,0:0:0:0:
288,160,122650,1,8,0:0:0:0:
288,160,122966,1,8,0:0:0:0:
224,224,123124,1,4,0:0:0:0:
224,224,123598,1,4,0:0:0:0:
288,224,123913,1,12,0:0:0:0:
288,224,124387,1,12,0:0:0:0:
224,224,124861,1,4,0:0:0:0:
288,224,125177,1,12,0:0:0:0:
224,224,125650,1,4,0:0:0:0:
224,160,126124,1,0,0:0:0:0:
288,160,126440,1,8,0:0:0:0:
288,160,126756,1,8,0:0:0:0:
224,160,126913,1,0,0:0:0:0:
288,160,127229,1,8,0:0:0:0:
224,160,127387,1,0,0:0:0:0:
288,160,127703,1,8,0:0:0:0:
224,224,128177,1,4,0:0:0:0:
224,160,128650,1,0,0:0:0:0:
288,160,128966,1,8,0:0:0:0:
288,224,129440,1,12,0:0:0:0:
224,160,129913,1,0,0:0:0:0:
288,160,130229,1,8,0:0:0:0:
224,224,130703,1,4,0:0:0:0:
288,160,131177,1,8,0:0:0:0:
288,160,131492,1,8,0:0:0:0:
288,160,131808,1,8,0:0:0:0:
224,160,131966,1,0,0:0:0:0:
288,160,132282,1,8,0:0:0:0:
224,160,132440,1,0,0:0:0:0:
288,160,132756,1,8,0:0:0:0:
224,224,133229,1,4,0:0:0:0:
288,160,134019,1,8,0:0:0:0:
288,224,134492,1,12,0:0:0:0:
288,160,134808,1,8,0:0:0:0:
224,160,135124,1,0,0:0:0:0:
288,160,135282,1,8,0:0:0:0:
288,224,135756,1,12,0:0:0:0:
224,160,136229,1,0,0:0:0:0:
288,160,136545,1,8,0:0:0:0:
288,224,137019,1,12,0:0:0:0:
224,160,137334,1,0,0:0:0:0:
288,160,137650,1,8,0:0:0:0:
288,160,137808,1,8,0:0:0:0:
224,224,138282,1,4,0:0:0:0:
288,160,139071,1,8,0:0:0:0:
224,224,139545,1,4,0:0:0:0:
224,160,139861,1,0,0:0:0:0:
224,160,140019,1,0,0:0:0:0:
288,160,140334,1,8,0:0:0:0:
224,224,140808,1,4,0:0:0:0:
224,160,141282,1,0,0:0:0:0:
288,160,141598,1,8,0:0:0:0:
288,160,141756,1,8,0:0:0:0:
224,160,141913,5,0,0:0:0:0:
224,224,142229,1,4,0:0:0:0:
288,160,142545,1,8,0:0:0:0:
224,160,142861,1,0,0:0:0:0:
224,160,143019,1,0,0:0:0:0:
288,160,143177,1,8,0:0:0:0:
224,224,143334,1,4,0:0:0:0:
224,160,145387,5,0,0:0:0:0:
288,160,145545,1,8,0:0:0:0:
288,160,145703,1,8,0:0:0:0:
224,224,145861,1,4,0:0:0:0:
224,160,146177,1,0,0:0:0:0:
288,160,146334,1,8,0:0:0:0:
224,160,146650,1,0,0:0:0:0:
288,160,147282,1,8,0:0:0:0:
288,160,147598,1,8,0:0:0:0:
224,160,147756,1,0,0:0:0:0:
288,160,147913,1,8,0:0:0:0:
288,160,148229,1,8,0:0:0:0:
224,224,148387,1,4,0:0:0:0:
288,160,148861,1,8,0:0:0:0:
224,160,149177,1,0,0:0:0:0:
288,160,149492,1,8,0:0:0:0:
224,160,149808,1,0,0:0:0:0:
288,160,149966,1,8,0:0:0:0:
288,160,150124,1,8,0:0:0:0:
288,160,150440,1,8,0:0:0:0:
288,224,150913,1,12,0:0:0:0:
224,160,151229,1,0,0:0:0:0:
288,160,151387,1,8,0:0:0:0:
224,160,151703,1,0,0:0:0:0:
288,160,152334,1,8,0:0:0:0:
288,160,152650,1,8,0:0:0:0:
288,160,152808,1,8,0:0:0:0:
224,160,152966,1,0,0:0:0:0:
288,160,153282,1,8,0:0:0:0:
224,224,153440,1,4,0:0:0:0:
224,160,153756,1,0,0:0:0:0:
288,160,153913,1,8,0:0:0:0:
224,160,154229,1,0,0:0:0:0:
288,160,154545,1,8,0:0:0:0:
224,160,154861,1,0,0:0:0:0:
288,160,155019,1,8,0:0:0:0:
288,160,155177,1,8,0:0:0:0:
224,160,155492,1,0,0:0:0:0:
288,224,155966,1,12,0:0:0:0:
224,160,156282,1,0,0:0:0:0:
288,160,156440,1,8,0:0:0:0:
224,160,156756,1,0,0:0:0:0:
288,160,157387,1,8,0:0:0:0:
288,160,157703,1,8,0:0:0:0:
224,160,157861,1,0,0:0:0:0:
288,160,158019,1,8,0:0:0:0:
288,160,158334,1,8,0:0:0:0:
224,224,158492,1,4,0:0:0:0:
224,160,158808,1,0,0:0:0:0:
288,160,158966,1,8,0:0:0:0:
224,160,159282,1,0,0:0:0:0:
288,160,159598,1,8,0:0:0:0:
224,160,159913,1,0,0:0:0:0:
288,160,160071,1,8,0:0:0:0:
288,160,160229,1,8,0:0:0:0:
224,160,160545,1,0,0:0:0:0:
288,224,161019,1,12,0:0:0:0:
224,160,161334,1,0,0:0:0:0:
288,160,161492,1,8,0:0:0:0:
224,160,161808,1,0,0:0:0:0:
288,224,162440,1,12,0:0:0:0:
288,160,162756,1,8,0:0:0:0:
288,160,163071,1,8,0:0:0:0:
224,160,163229,1,0,0:0:0:0:
288,160,163387,1,8,0:0:0:0:
288,160,163703,1,8,0:0:0:0:
288,160,164019,1,8,0:0:0:0:
224,160,164177,1,0,0:0:0:0:
288,160,164334,1,8,0:0:0:0:
288,160,164650,1,8,0:0:0:0:
224,224,164808,1,4,0:0:0:0:
