osu file format v14

[General]
AudioFilename: audio.mp3
AudioLeadIn: 0
PreviewTime: 123117
Countdown: 0
SampleSet: Normal
StackLeniency: 0.7
Mode: 1
LetterboxInBreaks: 0
WidescreenStoryboard: 0

[Editor]
Bookmarks: 749,10854,20801,30906,41012,51117,61222,71327,81433,92801,105433,113012,123117,133222,143327,153433,164801
DistanceSpacing: 0.3
BeatDivisor: 4
GridSize: 16
TimelineZoom: 1.6

[Metadata]
Title:The Emperor
TitleUnicode:The Emperor
Artist:Aether Realm
ArtistUnicode:Æther Realm
Creator:Greenshell
Version:Cowardice
Source:osu!
Tags:english grünschale tarot melodic folk death metal melodeath
BeatmapID:2189025
BeatmapSetID:1047197

[Difficulty]
HPDrainRate:7
CircleSize:3
OverallDifficulty:6.5
ApproachRate:10
SliderMultiplier:1.4
SliderTickRate:1

[Events]
//Background and Video events
0,0,"vienna-library.jpg",0,-20
//Break Periods
//Storyboard Layer 0 (Background)
//Storyboard Layer 1 (Fail)
//Storyboard Layer 2 (Pass)
//Storyboard Layer 3 (Foreground)
//Storyboard Layer 4 (Overlay)
//Storyboard Sound Samples

[TimingPoints]
756,315.789473684211,4,1,0,60,1,0
50177,-101.449275362319,4,1,0,60,0,0
50256,-102.189781021898,4,1,0,60,0,0
50334,-102.941176470588,4,1,0,60,0,0
50492,-104.477611940298,4,1,0,60,0,0
50571,-105.263157894737,4,1,0,60,0,0
50650,-106.060606060606,4,1,0,60,0,0
50808,-107.692307692308,4,1,0,60,0,0
50966,-109.375,4,1,0,60,0,0
51124,-111.111111111111,4,1,0,60,0,1
60282,-112.903225806452,4,1,0,60,0,1
60440,-114.754098360656,4,1,0,60,0,1
60598,-116.666666666667,4,1,0,60,0,1
60756,-118.64406779661,4,1,0,60,0,1
60913,-120.689655172414,4,1,0,60,0,1
61071,-122.80701754386,4,1,0,60,0,1
61229,-125,4,1,0,60,0,1
69282,-121.951219512195,4,1,0,60,0,1
69440,-119.047619047619,4,1,0,60,0,1
69598,-116.279069767442,4,1,0,60,0,1
69756,-113.636363636364,4,1,0,60,0,1
69913,-111.111111111111,4,1,0,60,0,1
70071,-108.695652173913,4,1,0,60,0,1
70229,-106.382978723404,4,1,0,60,0,1
71334,-100,4,1,0,60,0,0
102992,-100,4,1,0,30,0,0
105440,-100,4,1,0,60,0,0
127229,-101.449275362319,4,1,0,60,0,0
127387,-102.941176470588,4,1,0,60,0,0
127466,-103.703703703704,4,1,0,60,0,0
127545,-104.477611940298,4,1,0,60,0,0
127624,-105.263157894737,4,1,0,60,0,0
127703,-106.060606060606,4,1,0,60,0,0
127861,-107.692307692308,4,1,0,60,0,0
128019,-109.375,4,1,0,60,0,0
128177,-111.111111111111,4,1,0,60,0,1
132203,-112,4,1,0,60,0,1
132282,-112.903225806452,4,1,0,60,0,1
132361,-113.821138211382,4,1,0,60,0,1
132440,-114.754098360656,4,1,0,60,0,1
132519,-115.702479338843,4,1,0,60,0,1
132598,-116.666666666667,4,1,0,60,0,1
132677,-117.647058823529,4,1,0,60,0,1
132756,-118.64406779661,4,1,0,60,0,1
132834,-119.65811965812,4,1,0,60,0,1
132913,-120.689655172414,4,1,0,60,0,1
132992,-121.739130434783,4,1,0,60,0,1
133071,-122.80701754386,4,1,0,60,0,1
133229,-125,4,1,0,60,0,1
141677,-123.595505617978,4,1,0,60,0,1
141756,-122.222222222222,4,1,0,60,0,1
141834,-120.879120879121,4,1,0,60,0,1
141913,-119.565217391304,4,1,0,60,0,1
141992,-118.279569892473,4,1,0,60,0,1
142071,-117.021276595745,4,1,0,60,0,1
142150,-115.789473684211,4,1,0,60,0,1
142229,-114.583333333333,4,1,0,60,0,1
142308,-113.40206185567,4,1,0,60,0,1
142387,-112.244897959184,4,1,0,60,0,1
142466,-111.111111111111,4,1,0,60,0,1
142545,-110,4,1,0,60,0,1
142624,-108.910891089109,4,1,0,60,0,1
142703,-107.843137254902,4,1,0,60,0,1
142782,-106.796116504855,4,1,0,60,0,1
142861,-105.769230769231,4,1,0,60,0,1
143019,-103.773584905661,4,1,0,60,0,1
143177,-101.851851851852,4,1,0,60,0,1
143334,-100,4,1,0,60,0,0

[HitObjects]
224,160,756,5,4,0:0:0:0:
288,160,2650,1,8,0:0:0:0:
288,160,2808,1,8,0:0:0:0:
224,160,2966,1,0,0:0:0:0:
224,160,3124,1,0,0:0:0:0:
224,224,3282,1,4,0:0:0:0:
288,160,5177,1,8,0:0:0:0:
224,160,5334,1,0,0:0:0:0:
288,160,5492,1,8,0:0:0:0:
288,160,5650,1,8,0:0:0:0:
224,224,5808,1,4,0:0:0:0:
288,160,7703,1,8,0:0:0:0:
288,160,7861,1,8,0:0:0:0:
224,160,8019,1,0,0:0:0:0:
224,160,8177,1,0,0:0:0:0:
224,224,8334,1,4,0:0:0:0:
288,160,10229,1,8,0:0:0:0:
288,160,10387,1,8,0:0:0:0:
224,224,10861,1,4,0:0:0:0:
288,160,11177,1,8,0:0:0:0:
288,160,11808,1,8,0:0:0:0:
288,160,12440,1,8,0:0:0:0:
288,160,12756,1,8,0:0:0:0:
288,160,12913,1,8,0:0:0:0:
224,160,13071,1,0,0:0:0:0:
224,160,13229,1,0,0:0:0:0:
224,224,13387,1,4,0:0:0:0:
288,160,13703,1,8,0:0:0:0:
288,160,14334,1,8,0:0:0:0:
288,160,14966,1,8,0:0:0:0:
288,160,15282,1,8,0:0:0:0:
224,160,15440,1,0,0:0:0:0:
288,160,15598,1,8,0:0:0:0:
288,160,15756,1,8,0:0:0:0:
224,224,15913,1,4,0:0:0:0:
224,160,16229,1,0,0:0:0:0:
224,160,16545,1,0,0:0:0:0:
224,160,16861,1,0,0:0:0:0:
224,160,17177,1,0,0:0:0:0:
224,160,17492,1,0,0:0:0:0:
288,160,17650,1,8,0:0:0:0:
288,160,17703,1,8,0:0:0:0:
288,160,17756,1,8,0:0:0:0:
224,160,17808,1,0,0:0:0:0:
224,160,17966,1,0,0:0:0:0:
288,160,18124,1,8,0:0:0:0:
288,160,18282,1,8,0:0:0:0:
224,224,18440,1,4,0:0:0:0:
224,224,20808,1,4,0:0:0:0:
224,160,22861,1,0,0:0:0:0:
224,160,23019,1,0,0:0:0:0:
224,160,23177,1,0,0:0:0:0:
288,224,23334,1,12,0:0:0:0:
288,160,25071,1,8,0:0:0:0:
224,160,25150,1,0,0:0:0:0:
224,160,25229,1,0,0:0:0:0:
288,160,25387,1,8,0:0:0:0:
288,160,25545,1,8,0:0:0:0:
224,160,25703,1,0,0:0:0:0:
224,224,25861,1,4,0:0:0:0:
288,160,26334,1,8,0:0:0:0:
288,160,26966,1,8,0:0:0:0:
288,160,27598,1,8,0:0:0:0:
288,160,28229,1,8,0:0:0:0:
224,224,28387,1,4,0:0:0:0:
224,160,28703,1,0,0:0:0:0:
288,160,28861,1,8,0:0:0:0:
224,160,29019,1,0,0:0:0:0:
288,160,29177,1,8,0:0:0:0:
288,160,29334,1,8,0:0:0:0:
224,160,29492,1,0,0:0:0:0:
224,160,29650,1,0,0:0:0:0:
224,160,29808,1,0,0:0:0:0:
288,160,29966,1,8,0:0:0:0:
224,160,30124,1,0,0:0:0:0:
224,160,30203,1,0,0:0:0:0:
224,160,30282,1,0,0:0:0:0:
224,160,30361,1,0,0:0:0:0:
288,160,30440,1,8,0:0:0:0:
288,160,30519,1,8,0:0:0:0:
224,160,30598,1,0,0:0:0:0:
224,160,30677,1,0,0:0:0:0:
224,160,30756,1,0,0:0:0:0:
288,224,30913,1,12,0:0:0:0:
224,160,31229,1,0,0:0:0:0:
288,160,31387,1,8,0:0:0:0:
224,160,31545,1,0,0:0:0:0:
224,160,31624,1,0,0:0:0:0:
224,160,31703,1,0,0:0:0:0:
288,160,32019,1,8,0:0:0:0:
224,160,32177,1,0,0:0:0:0:
224,160,32334,1,0,0:0:0:0:
288,160,32650,1,8,0:0:0:0:
288,160,32808,1,8,0:0:0:0:
224,160,32966,1,0,0:0:0:0:
288,160,33124,1,8,0:0:0:0:
224,160,33282,1,0,0:0:0:0:
288,224,33440,1,12,0:0:0:0:
224,160,33756,1,0,0:0:0:0:
288,160,33913,1,8,0:0:0:0:
224,160,34071,1,0,0:0:0:0:
224,160,34150,1,0,0:0:0:0:
288,160,34229,1,8,0:0:0:0:
224,160,34387,1,0,0:0:0:0:
224,160,34466,1,0,0:0:0:0:
288,160,34545,1,8,0:0:0:0:
288,160,34703,1,8,0:0:0:0:
288,160,34861,1,8,0:0:0:0:
224,160,34940,1,0,0:0:0:0:
224,160,35019,1,0,0:0:0:0:
224,160,35098,1,0,0:0:0:0:
288,160,35177,1,8,0:0:0:0:
224,160,35256,1,0,0:0:0:0:
224,160,35334,1,0,0:0:0:0:
224,160,35413,1,0,0:0:0:0:
288,160,35492,1,8,0:0:0:0:
288,160,35650,1,8,0:0:0:0:
288,160,35808,1,8,0:0:0:0:
224,224,35966,1,4,0:0:0:0:
224,160,36282,1,0,0:0:0:0:
288,160,36440,1,8,0:0:0:0:
224,160,36598,1,0,0:0:0:0:
224,160,36677,1,0,0:0:0:0:
224,160,36756,1,0,0:0:0:0:
288,160,37071,1,8,0:0:0:0:
224,160,37229,1,0,0:0:0:0:
224,160,37387,1,0,0:0:0:0:
288,160,37703,1,8,0:0:0:0:
224,160,37861,1,0,0:0:0:0:
288,160,38019,1,8,0:0:0:0:
288,160,38177,1,8,0:0:0:0:
224,160,38334,1,0,0:0:0:0:
224,224,38492,1,4,0:0:0:0:
224,160,38808,1,0,0:0:0:0:
224,160,38887,1,0,0:0:0:0:
288,160,38966,1,8,0:0:0:0:
224,160,39124,1,0,0:0:0:0:
288,160,39282,1,8,0:0:0:0:
288,160,39440,1,8,0:0:0:0:
288,160,39598,1,8,0:0:0:0:
224,160,39756,1,0,0:0:0:0:
224,160,39913,1,0,0:0:0:0:
288,160,40071,1,8,0:0:0:0:
288,160,40150,1,8,0:0:0:0:
288,160,40229,1,8,0:0:0:0:
224,160,40387,1,0,0:0:0:0:
224,160,40466,1,0,0:0:0:0:
288,160,40545,1,8,0:0:0:0:
224,160,40703,1,0,0:0:0:0:
288,160,40861,1,8,0:0:0:0:
224,224,41019,1,4,0:0:0:0:
224,160,41334,1,0,0:0:0:0:
288,160,41492,1,8,0:0:0:0:
288,160,41650,1,8,0:0:0:0:
288,160,41729,1,8,0:0:0:0:
224,160,41808,1,0,0:0:0:0:
288,160,42124,1,8,0:0:0:0:
224,160,42282,1,0,0:0:0:0:
224,160,42440,1,0,0:0:0:0:
288,160,42756,1,8,0:0:0:0:
288,160,42913,1,8,0:0:0:0:
224,160,43071,1,0,0:0:0:0:
224,160,43150,1,0,0:0:0:0:
224,160,43229,1,0,0:0:0:0:
224,160,43308,1,0,0:0:0:0:
288,160,43387,1,8,0:0:0:0:
288,224,43545,1,12,0:0:0:0:
224,160,43861,1,0,0:0:0:0:
288,160,44019,1,8,0:0:0:0:
224,160,44177,1,0,0:0:0:0:
288,160,44334,1,8,0:0:0:0:
224,160,44492,1,0,0:0:0:0:
288,160,44650,1,8,0:0:0:0:
288,160,44808,1,8,0:0:0:0:
288,160,44966,1,8,0:0:0:0:
288,160,45045,1,8,0:0:0:0:
224,160,45124,1,0,0:0:0:0:
224,160,45203,1,0,0:0:0:0:
288,160,45282,1,8,0:0:0:0:
288,160,45361,1,8,0:0:0:0:
224,160,45440,1,0,0:0:0:0:
224,160,45519,1,0,0:0:0:0:
288,160,45598,1,8,0:0:0:0:
224,160,45756,1,0,0:0:0:0:
224,160,45834,1,0,0:0:0:0:
288,160,45913,1,8,0:0:0:0:
224,224,46071,1,4,0:0:0:0:
224,160,46387,1,0,0:0:0:0:
288,160,46545,1,8,0:0:0:0:
288,160,46703,1,8,0:0:0:0:
288,160,46782,1,8,0:0:0:0:
224,160,46861,1,0,0:0:0:0:
288,160,47177,1,8,0:0:0:0:
224,160,47334,1,0,0:0:0:0:
224,160,47492,1,0,0:0:0:0:
288,160,47808,1,8,0:0:0:0:
224,160,47966,1,0,0:0:0:0:
288,160,48124,1,8,0:0:0:0:
288,160,48282,1,8,0:0:0:0:
224,160,48440,1,0,0:0:0:0:
224,224,48598,1,4,0:0:0:0:
224,160,48913,1,0,0:0:0:0:
224,160,48992,1,0,0:0:0:0:
288,160,49071,1,8,0:0:0:0:
224,160,49229,1,0,0:0:0:0:
288,160,49387,1,8,0:0:0:0:
288,160,49545,1,8,0:0:0:0:
288,160,49703,1,8,0:0:0:0:
224,160,49861,1,0,0:0:0:0:
224,160,50018,5,0,0:0:0:0:
288,160,50177,1,8,0:0:0:0:
224,160,50256,1,0,0:0:0:0:
288,160,50334,1,8,0:0:0:0:
224,160,50492,1,0,0:0:0:0:
224,160,50571,1,0,0:0:0:0:
288,160,50650,1,8,0:0:0:0:
224,160,50808,1,0,0:0:0:0:
288,160,50966,1,8,0:0:0:0:
224,224,51124,1,4,0:0:0:0:
224,160,51440,1,0,0:0:0:0:
288,160,51598,1,8,0:0:0:0:
288,160,51913,1,8,0:0:0:0:
224,160,52071,1,0,0:0:0:0:
224,160,52229,1,0,0:0:0:0:
288,224,52387,1,12,0:0:0:0:
224,160,52703,1,0,0:0:0:0:
224,160,52861,1,0,0:0:0:0:
288,160,53177,1,8,0:0:0:0:
224,160,53334,1,0,0:0:0:0:
288,160,53492,1,8,0:0:0:0:
224,224,53650,1,4,0:0:0:0:
224,160,53966,1,0,0:0:0:0:
288,160,54124,1,8,0:0:0:0:
288,160,54440,1,8,0:0:0:0:
224,160,54598,1,0,0:0:0:0:
288,160,54756,1,8,0:0:0:0:
288,224,54913,1,12,0:0:0:0:
288,160,55229,1,8,0:0:0:0:
224,160,55387,1,0,0:0:0:0:
224,160,55545,1,0,0:0:0:0:
288,160,55703,1,8,0:0:0:0:
224,160,55861,1,0,0:0:0:0:
224,160,55940,1,0,0:0:0:0:
288,160,56019,1,8,0:0:0:0:
224,224,56177,1,4,0:0:0:0:
224,160,56492,1,0,0:0:0:0:
288,160,56650,1,8,0:0:0:0:
288,160,56966,1,8,0:0:0:0:
288,160,57124,1,8,0:0:0:0:
224,160,57282,1,0,0:0:0:0:
288,224,57440,1,12,0:0:0:0:
224,160,57756,1,0,0:0:0:0:
224,160,57913,1,0,0:0:0:0:
288,160,58229,1,8,0:0:0:0:
288,160,58387,1,8,0:0:0:0:
224,160,58545,1,0,0:0:0:0:
224,224,58703,1,4,0:0:0:0:
224,160,59019,1,0,0:0:0:0:
288,160,59177,1,8,0:0:0:0:
320,160,59492,1,8,0:0:0:0:
224,160,59650,1,0,0:0:0:0:
288,160,59808,1,8,0:0:0:0:
224,160,59966,1,0,0:0:0:0:
224,160,60045,1,0,0:0:0:0:
288,160,60124,1,8,0:0:0:0:
288,160,60282,1,8,0:0:0:0:
224,160,60440,1,0,0:0:0:0:
224,160,60598,1,0,0:0:0:0:
288,160,60756,1,8,0:0:0:0:
224,160,60913,1,0,0:0:0:0:
224,160,61071,1,0,0:0:0:0:
224,224,61229,1,4,0:0:0:0:
288,160,61545,1,8,0:0:0:0:
224,160,61703,1,0,0:0:0:0:
224,160,61861,1,0,0:0:0:0:
288,160,62019,1,8,0:0:0:0:
288,160,62177,1,8,0:0:0:0:
224,160,62334,1,0,0:0:0:0:
288,224,62492,1,12,0:0:0:0:
288,160,62808,1,8,0:0:0:0:
224,160,62966,1,0,0:0:0:0:
224,160,63124,1,0,0:0:0:0:
288,160,63282,1,8,0:0:0:0:
224,160,63440,1,0,0:0:0:0:
288,160,63598,1,8,0:0:0:0:
288,224,63756,1,12,0:0:0:0:
288,160,64071,1,8,0:0:0:0:
224,160,64229,1,0,0:0:0:0:
288,160,64387,1,8,0:0:0:0:
288,160,64545,1,8,0:0:0:0:
224,160,64703,1,0,0:0:0:0:
224,160,64861,1,0,0:0:0:0:
288,224,65019,1,12,0:0:0:0:
288,160,65334,1,8,0:0:0:0:
224,160,65492,1,0,0:0:0:0:
288,160,65650,1,8,0:0:0:0:
288,160,65808,1,8,0:0:0:0:
224,160,65966,1,0,0:0:0:0:
288,160,66124,1,8,0:0:0:0:
224,224,66282,1,4,0:0:0:0:
224,160,66598,1,0,0:0:0:0:
224,160,66756,1,0,0:0:0:0:
288,160,66913,1,8,0:0:0:0:
288,160,67071,1,8,0:0:0:0:
224,160,67229,1,0,0:0:0:0:
288,160,67387,1,8,0:0:0:0:
224,224,67545,1,4,0:0:0:0:
224,160,67861,1,0,0:0:0:0:
224,160,68019,1,0,0:0:0:0:
224,160,68177,1,0,0:0:0:0:
288,160,68334,1,8,0:0:0:0:
224,160,68492,1,0,0:0:0:0:
288,160,68650,1,8,0:0:0:0:
224,224,68808,1,4,0:0:0:0:
224,160,69124,1,0,0:0:0:0:
288,160,69282,1,8,0:0:0:0:
224,160,69440,1,0,0:0:0:0:
288,160,69598,1,8,0:0:0:0:
288,160,69756,1,8,0:0:0:0:
224,160,69913,1,0,0:0:0:0:
288,160,70071,1,8,0:0:0:0:
224,224,70229,1,4,0:0:0:0:
288,224,71334,1,12,0:0:0:0:
224,160,71650,1,0,0:0:0:0:
288,160,71808,1,8,0:0:0:0:
224,160,71966,1,0,0:0:0:0:
224,160,72124,1,0,0:0:0:0:
288,160,72440,1,8,0:0:0:0:
224,160,72598,1,0,0:0:0:0:
224,160,72677,1,0,0:0:0:0:
224,160,72756,1,0,0:0:0:0:
288,160,72913,1,8,0:0:0:0:
288,160,73071,1,8,0:0:0:0:
224,160,73229,1,0,0:0:0:0:
288,160,73387,1,8,0:0:0:0:
288,160,73545,1,8,0:0:0:0:
224,160,73703,1,0,0:0:0:0:
224,224,73861,1,4,0:0:0:0:
224,160,74177,1,0,0:0:0:0:
288,160,74334,1,8,0:0:0:0:
224,160,74492,1,0,0:0:0:0:
288,160,74650,1,8,0:0:0:0:
288,160,74966,1,8,0:0:0:0:
224,160,75124,1,0,0:0:0:0:
224,160,75203,1,0,0:0:0:0:
288,160,75282,1,8,0:0:0:0:
224,160,75361,1,0,0:0:0:0:
224,160,75440,1,0,0:0:0:0:
224,160,75519,1,0,0:0:0:0:
288,160,75598,1,8,0:0:0:0:
224,160,75756,1,0,0:0:0:0:
224,160,75834,1,0,0:0:0:0:
288,160,75913,1,8,0:0:0:0:
288,160,75992,1,8,0:0:0:0:
224,160,76071,1,0,0:0:0:0:
224,160,76150,1,0,0:0:0:0:
288,160,76229,1,8,0:0:0:0:
224,224,76387,1,4,0:0:0:0:
224,160,76703,1,0,0:0:0:0:
288,160,76861,1,8,0:0:0:0:
224,160,77019,1,0,0:0:0:0:
224,160,77177,1,0,0:0:0:0:
288,160,77492,1,8,0:0:0:0:
224,160,77650,1,0,0:0:0:0:
224,160,77729,1,0,0:0:0:0:
224,160,77808,1,0,0:0:0:0:
288,160,77966,1,8,0:0:0:0:
288,160,78124,1,8,0:0:0:0:
224,160,78282,1,0,0:0:0:0:
224,160,78440,1,0,0:0:0:0:
288,160,78598,1,8,0:0:0:0:
224,160,78756,1,0,0:0:0:0:
288,224,78913,1,12,0:0:0:0:
224,160,79229,1,0,0:0:0:0:
288,160,79387,1,8,0:0:0:0:
224,160,79545,1,0,0:0:0:0:
288,160,79703,1,8,0:0:0:0:
288,160,80019,1,8,0:0:0:0:
224,160,80177,1,0,0:0:0:0:
224,160,80256,1,0,0:0:0:0:
288,160,80334,1,8,0:0:0:0:
288,160,80413,1,8,0:0:0:0:
224,160,80492,1,0,0:0:0:0:
224,160,80571,1,0,0:0:0:0:
288,160,80650,1,8,0:0:0:0:
224,160,80808,1,0,0:0:0:0:
224,160,80887,1,0,0:0:0:0:
288,160,80966,1,8,0:0:0:0:
224,160,81045,1,0,0:0:0:0:
224,160,81124,1,0,0:0:0:0:
224,160,81203,1,0,0:0:0:0:
288,160,81282,1,8,0:0:0:0:
224,224,81440,1,4,0:0:0:0:
224,160,81756,1,0,0:0:0:0:
288,160,81913,1,8,0:0:0:0:
288,160,82071,1,8,0:0:0:0:
224,160,82229,1,0,0:0:0:0:
288,160,82545,1,8,0:0:0:0:
224,160,82703,1,0,0:0:0:0:
224,160,82782,1,0,0:0:0:0:
224,160,82861,1,0,0:0:0:0:
288,160,83019,1,8,0:0:0:0:
288,160,83177,1,8,0:0:0:0:
224,160,83334,1,0,0:0:0:0:
224,160,83413,1,0,0:0:0:0:
288,160,83492,1,8,0:0:0:0:
288,160,83650,1,8,0:0:0:0:
224,160,83808,1,0,0:0:0:0:
288,224,83966,1,12,0:0:0:0:
224,160,84282,1,0,0:0:0:0:
288,160,84440,1,8,0:0:0:0:
224,160,84598,1,0,0:0:0:0:
288,160,84756,1,8,0:0:0:0:
288,160,85071,1,8,0:0:0:0:
224,160,85229,1,0,0:0:0:0:
224,160,85308,1,0,0:0:0:0:
288,160,85387,1,8,0:0:0:0:
224,160,85466,1,0,0:0:0:0:
224,160,85545,1,0,0:0:0:0:
224,160,85624,1,0,0:0:0:0:
288,160,85703,1,8,0:0:0:0:
224,160,85782,1,0,0:0:0:0:
224,160,85861,1,0,0:0:0:0:
224,160,85940,1,0,0:0:0:0:
288,160,86019,1,8,0:0:0:0:
288,160,86098,1,8,0:0:0:0:
224,160,86177,1,0,0:0:0:0:
224,160,86256,1,0,0:0:0:0:
288,160,86334,1,8,0:0:0:0:
224,224,86492,1,4,0:0:0:0:
224,160,86808,1,0,0:0:0:0:
288,160,86966,1,8,0:0:0:0:
288,160,87124,1,8,0:0:0:0:
224,160,87282,1,0,0:0:0:0:
288,160,87598,1,8,0:0:0:0:
224,160,87756,1,0,0:0:0:0:
224,160,87834,1,0,0:0:0:0:
224,160,87913,1,0,0:0:0:0:
288,160,88071,1,8,0:0:0:0:
288,160,88229,1,8,0:0:0:0:
224,160,88387,1,0,0:0:0:0:
224,160,88466,1,0,0:0:0:0:
288,160,88545,1,8,0:0:0:0:
224,160,88703,1,0,0:0:0:0:
288,160,88861,1,8,0:0:0:0:
288,224,89019,1,12,0:0:0:0:
224,160,89334,1,0,0:0:0:0:
288,160,89492,1,8,0:0:0:0:
224,160,89650,1,0,0:0:0:0:
288,160,89808,1,8,0:0:0:0:
288,160,90124,1,8,0:0:0:0:
224,160,90282,1,0,0:0:0:0:
288,224,90440,1,12,0:0:0:0:
224,160,90598,1,0,0:0:0:0:
288,160,90756,1,8,0:0:0:0:
224,160,90913,1,0,0:0:0:0:
224,160,90992,1,0,0:0:0:0:
288,160,91071,1,8,0:0:0:0:
224,160,91229,1,0,0:0:0:0:
288,160,91387,1,8,0:0:0:0:
224,160,91545,1,0,0:0:0:0:
224,160,91624,1,0,0:0:0:0:
288,160,91703,1,8,0:0:0:0:
224,160,91861,1,0,0:0:0:0:
224,160,91940,1,0,0:0:0:0:
288,160,92019,1,8,0:0:0:0:
224,160,92098,1,0,0:0:0:0:
224,160,92177,1,0,0:0:0:0:
224,160,92256,1,0,0:0:0:0:
288,160,92334,1,8,0:0:0:0:
224,160,92492,1,0,0:0:0:0:
224,160,92571,1,0,0:0:0:0:
288,160,92650,1,8,0:0:0:0:
224,224,92808,1,4,0:0:0:0:
224,160,93124,1,0,0:0:0:0:
288,160,93282,1,8,0:0:0:0:
224,160,93440,1,0,0:0:0:0:
224,160,93598,1,0,0:0:0:0:
224,160,93756,1,0,0:0:0:0:
288,160,93913,1,8,0:0:0:0:
224,224,94071,1,4,0:0:0:0:
224,160,94387,1,0,0:0:0:0:
288,160,94545,1,8,0:0:0:0:
224,160,94703,1,0,0:0:0:0:
288,160,94861,1,8,0:0:0:0:
224,160,95019,1,0,0:0:0:0:
288,160,95177,1,8,0:0:0:0:
224,224,95334,1,4,0:0:0:0:
224,160,95650,1,0,0:0:0:0:
288,160,95808,1,8,0:0:0:0:
288,160,95966,1,8,0:0:0:0:
224,160,96124,1,0,0:0:0:0:
224,160,96282,1,0,0:0:0:0:
288,160,96440,1,8,0:0:0:0:
224,160,96598,1,0,0:0:0:0:
224,160,96677,1,0,0:0:0:0:
224,160,96756,1,0,0:0:0:0:
224,160,96913,1,0,0:0:0:0:
288,160,97071,1,8,0:0:0:0:
224,160,97229,1,0,0:0:0:0:
288,160,97387,1,8,0:0:0:0:
224,160,97545,1,0,0:0:0:0:
224,160,97624,1,0,0:0:0:0:
288,160,97703,1,8,0:0:0:0:
224,224,97861,1,4,0:0:0:0:
224,160,98177,1,0,0:0:0:0:
288,160,98334,1,8,0:0:0:0:
224,160,98492,1,0,0:0:0:0:
224,160,98571,1,0,0:0:0:0:
224,160,98650,1,0,0:0:0:0:
224,160,98808,1,0,0:0:0:0:
288,160,98966,1,8,0:0:0:0:
224,224,99124,1,4,0:0:0:0:
224,160,99440,1,0,0:0:0:0:
288,160,99598,1,8,0:0:0:0:
224,160,99756,1,0,0:0:0:0:
224,160,99834,1,0,0:0:0:0:
288,160,99913,1,8,0:0:0:0:
224,160,100071,1,0,0:0:0:0:
288,160,100229,1,8,0:0:0:0:
224,224,100387,1,4,0:0:0:0:
224,160,100703,1,0,0:0:0:0:
288,160,100861,1,8,0:0:0:0:
288,160,101019,1,8,0:0:0:0:
288,160,101098,1,8,0:0:0:0:
224,160,101177,1,0,0:0:0:0:
224,160,101334,1,0,0:0:0:0:
288,160,101492,1,8,0:0:0:0:
224,160,101650,1,0,0:0:0:0:
224,160,101729,1,0,0:0:0:0:
288,160,101808,1,8,0:0:0:0:
288,160,101887,1,8,0:0:0:0:
224,160,101966,1,0,0:0:0:0:
224,160,102045,1,0,0:0:0:0:
288,160,102124,1,8,0:0:0:0:
224,160,102282,1,0,0:0:0:0:
224,160,102361,1,0,0:0:0:0:
288,160,102440,1,8,0:0:0:0:
224,160,102519,1,0,0:0:0:0:
224,160,102598,1,0,0:0:0:0:
224,160,102677,1,0,0:0:0:0:
288,160,102756,1,8,0:0:0:0:
224,224,102913,1,4,0:0:0:0:
256,192,104334,12,0,105124,0:0:0:0:
288,224,105440,5,12,0:0:0:0:
288,160,105756,1,8,0:0:0:0:
224,160,105834,1,0,0:0:0:0:
224,160,105913,1,0,0:0:0:0:
224,160,105992,1,0,0:0:0:0:
288,160,106071,1,8,0:0:0:0:
288,160,106150,1,8,0:0:0:0:
224,160,106229,1,0,0:0:0:0:
224,160,106308,1,0,0:0:0:0:
288,160,106387,1,8,0:0:0:0:
224,160,106466,1,0,0:0:0:0:
224,160,106545,1,0,0:0:0:0:
224,160,106624,1,0,0:0:0:0:
288,160,106703,1,8,0:0:0:0:
288,160,106782,1,8,0:0:0:0:
224,160,106861,1,0,0:0:0:0:
224,160,106940,1,0,0:0:0:0:
288,160,107019,1,8,0:0:0:0:
224,160,107098,1,0,0:0:0:0:
224,160,107177,1,0,0:0:0:0:
224,160,107256,1,0,0:0:0:0:
288,160,107334,1,8,0:0:0:0:
224,160,107413,1,0,0:0:0:0:
224,160,107492,1,0,0:0:0:0:
224,160,107571,1,0,0:0:0:0:
288,160,107650,1,8,0:0:0:0:
224,160,107729,1,0,0:0:0:0:
288,160,107808,1,8,0:0:0:0:
288,160,107887,1,8,0:0:0:0:
288,160,107966,1,8,0:0:0:0:
224,160,108045,1,0,0:0:0:0:
224,160,108124,1,0,0:0:0:0:
224,160,108203,1,0,0:0:0:0:
288,160,108282,1,8,0:0:0:0:
224,160,108361,1,0,0:0:0:0:
224,160,108440,1,0,0:0:0:0:
224,160,108519,1,0,0:0:0:0:
288,160,108598,1,8,0:0:0:0:
288,160,108677,1,8,0:0:0:0:
224,160,108756,1,0,0:0:0:0:
224,160,108834,1,0,0:0:0:0:
288,160,108913,1,8,0:0:0:0:
224,160,108992,1,0,0:0:0:0:
224,160,109071,1,0,0:0:0:0:
224,160,109150,1,0,0:0:0:0:
288,160,109229,1,8,0:0:0:0:
288,160,109308,1,8,0:0:0:0:
224,160,109387,1,0,0:0:0:0:
224,160,109466,1,0,0:0:0:0:
288,160,109545,1,8,0:0:0:0:
224,160,109624,1,0,0:0:0:0:
224,160,109703,1,0,0:0:0:0:
224,160,109782,1,0,0:0:0:0:
288,160,109861,1,8,0:0:0:0:
224,160,109940,1,0,0:0:0:0:
288,160,110019,1,8,0:0:0:0:
224,160,110098,1,0,0:0:0:0:
288,160,110177,1,8,0:0:0:0:
288,160,110256,1,8,0:0:0:0:
224,160,110334,1,0,0:0:0:0:
224,160,110413,1,0,0:0:0:0:
288,160,110492,1,8,0:0:0:0:
288,160,110571,1,8,0:0:0:0:
224,160,110650,1,0,0:0:0:0:
224,160,110729,1,0,0:0:0:0:
288,160,110808,1,8,0:0:0:0:
288,160,110887,1,8,0:0:0:0:
288,160,110966,1,8,0:0:0:0:
224,160,111045,1,0,0:0:0:0:
288,160,111124,1,8,0:0:0:0:
224,160,111203,1,0,0:0:0:0:
288,160,111282,1,8,0:0:0:0:
288,160,111361,1,8,0:0:0:0:
224,160,111440,1,0,0:0:0:0:
224,160,111519,1,0,0:0:0:0:
288,160,111598,1,8,0:0:0:0:
224,160,111677,1,0,0:0:0:0:
224,160,111756,1,0,0:0:0:0:
224,160,111834,1,0,0:0:0:0:
288,160,111913,1,8,0:0:0:0:
224,160,111992,1,0,0:0:0:0:
288,160,112071,1,8,0:0:0:0:
224,160,112150,1,0,0:0:0:0:
288,160,112229,1,8,0:0:0:0:
288,160,112308,1,8,0:0:0:0:
224,160,112387,1,0,0:0:0:0:
224,160,112466,1,0,0:0:0:0:
288,160,112545,1,8,0:0:0:0:
224,160,112624,1,0,0:0:0:0:
224,160,112703,1,0,0:0:0:0:
224,160,112782,1,0,0:0:0:0:
288,160,112861,1,8,0:0:0:0:
224,224,113019,1,4,0:0:0:0:
224,160,113334,1,0,0:0:0:0:
224,160,113413,1,0,0:0:0:0:
224,160,113492,1,0,0:0:0:0:
288,160,113808,1,8,0:0:0:0:
224,160,114282,1,0,0:0:0:0:
224,160,114440,1,0,0:0:0:0:
224,160,114756,1,0,0:0:0:0:
224,160,114834,1,0,0:0:0:0:
224,160,114913,1,0,0:0:0:0:
224,160,114992,1,0,0:0:0:0:
288,160,115071,1,8,0:0:0:0:
224,160,115229,1,0,0:0:0:0:
288,160,115387,1,8,0:0:0:0:
224,224,115545,1,4,0:0:0:0:
224,160,115861,1,0,0:0:0:0:
224,160,116019,1,0,0:0:0:0:
288,160,116334,1,8,0:0:0:0:
224,160,116650,1,0,0:0:0:0:
288,160,116808,1,8,0:0:0:0:
288,160,116887,1,8,0:0:0:0:
224,160,116966,1,0,0:0:0:0:
224,160,117045,1,0,0:0:0:0:
224,160,117124,1,0,0:0:0:0:
224,160,117203,1,0,0:0:0:0:
224,160,117282,1,0,0:0:0:0:
224,160,117361,1,0,0:0:0:0:
224,160,117440,1,0,0:0:0:0:
224,160,117519,1,0,0:0:0:0:
288,160,117598,1,8,0:0:0:0:
224,160,117756,1,0,0:0:0:0:
288,160,117913,1,8,0:0:0:0:
224,224,118071,1,4,0:0:0:0:
224,160,118387,1,0,0:0:0:0:
224,160,118545,1,0,0:0:0:0:
288,160,118861,1,8,0:0:0:0:
224,160,119334,1,0,0:0:0:0:
224,160,119492,1,0,0:0:0:0:
224,160,119808,1,0,0:0:0:0:
224,160,119887,1,0,0:0:0:0:
224,160,119966,1,0,0:0:0:0:
224,160,120045,1,0,0:0:0:0:
288,160,120124,1,8,0:0:0:0:
288,160,120282,1,8,0:0:0:0:
224,160,120440,1,0,0:0:0:0:
224,224,120598,1,4,0:0:0:0:
224,160,120913,1,0,0:0:0:0:
224,160,120992,1,0,0:0:0:0:
224,160,121071,1,0,0:0:0:0:
288,160,121387,1,8,0:0:0:0:
224,160,121861,1,0,0:0:0:0:
224,160,122019,1,0,0:0:0:0:
288,160,122177,1,8,0:0:0:0:
224,160,122334,1,0,0:0:0:0:
224,160,122413,1,0,0:0:0:0:
224,160,122492,1,0,0:0:0:0:
224,160,122571,1,0,0:0:0:0:
288,160,122650,1,8,0:0:0:0:
288,160,122729,1,8,0:0:0:0:
224,160,122808,1,0,0:0:0:0:
224,160,122887,1,0,0:0:0:0:
288,160,122966,1,8,0:0:0:0:
224,224,123124,1,4,0:0:0:0:
224,160,123440,1,0,0:0:0:0:
224,224,123598,1,4,0:0:0:0:
288,224,123913,1,12,0:0:0:0:
288,224,124387,1,12,0:0:0:0:
224,224,124861,1,4,0:0:0:0:
288,224,125177,1,12,0:0:0:0:
224,224,125650,1,4,0:0:0:0:
288,160,125966,1,8,0:0:0:0:
224,160,126124,1,0,0:0:0:0:
224,160,126282,1,0,0:0:0:0:
288,160,126440,1,8,0:0:0:0:
288,160,126756,1,8,0:0:0:0:
224,160,126913,1,0,0:0:0:0:
224,160,127071,1,0,0:0:0:0:
288,160,127229,1,8,0:0:0:0:
224,160,127387,1,0,0:0:0:0:
224,160,127466,1,0,0:0:0:0:
224,160,127545,1,0,0:0:0:0:
224,160,127624,1,0,0:0:0:0:
288,160,127703,1,8,0:0:0:0:
224,160,127861,1,0,0:0:0:0:
288,160,128019,1,8,0:0:0:0:
224,224,128177,1,4,0:0:0:0:
224,160,128492,1,0,0:0:0:0:
288,160,128650,1,8,0:0:0:0:
288,160,128966,1,8,0:0:0:0:
288,160,129124,1,8,0:0:0:0:
224,160,129282,1,0,0:0:0:0:
288,224,129440,1,12,0:0:0:0:
224,160,129756,1,0,0:0:0:0:
288,160,129913,1,8,0:0:0:0:
288,160,129992,1,8,0:0:0:0:
224,160,130071,1,0,0:0:0:0:
224,160,130150,1,0,0:0:0:0:
288,160,130229,1,8,0:0:0:0:
288,160,130387,1,8,0:0:0:0:
224,160,130545,1,0,0:0:0:0:
224,224,130703,1,4,0:0:0:0:
224,160,131019,1,0,0:0:0:0:
288,160,131177,1,8,0:0:0:0:
224,160,131334,1,0,0:0:0:0:
288,160,131492,1,8,0:0:0:0:
224,160,131650,1,0,0:0:0:0:
288,160,131808,1,8,0:0:0:0:
288,160,131887,1,8,0:0:0:0:
288,160,131966,1,8,0:0:0:0:
288,160,132045,1,8,0:0:0:0:
224,160,132124,1,0,0:0:0:0:
224,160,132203,1,0,0:0:0:0:
288,160,132282,1,8,0:0:0:0:
288,160,132361,1,8,0:0:0:0:
224,160,132440,1,0,0:0:0:0:
224,160,132519,1,0,0:0:0:0:
224,160,132598,1,0,0:0:0:0:
224,160,132677,1,0,0:0:0:0:
288,160,132756,1,8,0:0:0:0:
224,160,132834,1,0,0:0:0:0:
224,160,132913,1,0,0:0:0:0:
224,160,132992,1,0,0:0:0:0:
288,160,133071,1,8,0:0:0:0:
224,224,133229,1,4,0:0:0:0:
288,160,133545,1,8,0:0:0:0:
224,160,133703,1,0,0:0:0:0:
224,160,133861,1,0,0:0:0:0:
288,160,134019,1,8,0:0:0:0:
288,160,134177,1,8,0:0:0:0:
224,160,134334,1,0,0:0:0:0:
288,224,134492,1,12,0:0:0:0:
288,160,134808,1,8,0:0:0:0:
224,160,134966,1,0,0:0:0:0:
224,160,135124,1,0,0:0:0:0:
288,160,135282,1,8,0:0:0:0:
224,160,135440,1,0,0:0:0:0:
288,160,135598,1,8,0:0:0:0:
288,224,135756,1,12,0:0:0:0:
288,160,136071,1,8,0:0:0:0:
224,160,136229,1,0,0:0:0:0:
288,160,136387,1,8,0:0:0:0:
288,160,136545,1,8,0:0:0:0:
224,160,136703,1,0,0:0:0:0:
224,160,136861,1,0,0:0:0:0:
288,224,137019,1,12,0:0:0:0:
288,160,137334,1,8,0:0:0:0:
224,160,137492,1,0,0:0:0:0:
288,160,137650,1,8,0:0:0:0:
288,160,137808,1,8,0:0:0:0:
224,160,137966,1,0,0:0:0:0:
288,160,138124,1,8,0:0:0:0:
224,224,138282,1,4,0:0:0:0:
224,160,138598,1,0,0:0:0:0:
224,160,138756,1,0,0:0:0:0:
288,160,138913,1,8,0:0:0:0:
288,160,139071,1,8,0:0:0:0:
224,160,139229,1,0,0:0:0:0:
288,160,139387,1,8,0:0:0:0:
224,224,139545,1,4,0:0:0:0:
224,160,139861,1,0,0:0:0:0:
224,160,140019,1,0,0:0:0:0:
224,160,140177,1,0,0:0:0:0:
288,160,140334,1,8,0:0:0:0:
224,160,140492,1,0,0:0:0:0:
288,160,140650,1,8,0:0:0:0:
224,224,140808,1,4,0:0:0:0:
224,160,141124,1,0,0:0:0:0:
288,160,141282,1,8,0:0:0:0:
224,160,141440,1,0,0:0:0:0:
288,160,141598,5,8,0:0:0:0:
224,160,141677,5,0,0:0:0:0:
224,160,141756,1,0,0:0:0:0:
224,160,141834,1,0,0:0:0:0:
288,160,141913,1,8,0:0:0:0:
224,160,141992,1,0,0:0:0:0:
224,160,142071,1,0,0:0:0:0:
224,160,142150,1,0,0:0:0:0:
288,160,142229,1,8,0:0:0:0:
288,160,142308,1,8,0:0:0:0:
224,160,142387,1,0,0:0:0:0:
224,160,142466,1,0,0:0:0:0:
288,160,142545,1,8,0:0:0:0:
288,160,142624,1,8,0:0:0:0:
224,160,142703,1,0,0:0:0:0:
224,160,142782,1,0,0:0:0:0:
288,160,142861,1,8,0:0:0:0:
224,160,143019,1,0,0:0:0:0:
288,160,143177,1,8,0:0:0:0:
224,224,143334,1,4,0:0:0:0:
224,224,145387,1,4,0:0:0:0:
288,224,145545,1,12,0:0:0:0:
288,224,145703,1,12,0:0:0:0:
224,224,145861,1,4,0:0:0:0:
224,160,146177,1,0,0:0:0:0:
288,160,146334,1,8,0:0:0:0:
224,160,146492,1,0,0:0:0:0:
288,160,146650,1,8,0:0:0:0:
288,160,146966,1,8,0:0:0:0:
224,160,147124,1,0,0:0:0:0:
224,160,147203,1,0,0:0:0:0:
288,160,147282,1,8,0:0:0:0:
224,160,147361,1,0,0:0:0:0:
224,160,147440,1,0,0:0:0:0:
224,160,147519,1,0,0:0:0:0:
288,160,147598,1,8,0:0:0:0:
224,160,147677,1,0,0:0:0:0:
224,160,147756,1,0,0:0:0:0:
224,160,147834,1,0,0:0:0:0:
288,160,147913,1,8,0:0:0:0:
288,160,147992,1,8,0:0:0:0:
224,160,148071,1,0,0:0:0:0:
224,160,148150,1,0,0:0:0:0:
288,160,148229,1,8,0:0:0:0:
224,224,148387,1,4,0:0:0:0:
224,160,148703,1,0,0:0:0:0:
288,160,148861,1,8,0:0:0:0:
224,160,149019,1,0,0:0:0:0:
224,160,149177,1,0,0:0:0:0:
288,160,149492,1,8,0:0:0:0:
224,160,149650,1,0,0:0:0:0:
224,160,149729,1,0,0:0:0:0:
224,160,149808,1,0,0:0:0:0:
288,160,149966,1,8,0:0:0:0:
288,160,150124,1,8,0:0:0:0:
224,160,150282,1,0,0:0:0:0:
288,160,150440,1,8,0:0:0:0:
224,160,150598,1,0,0:0:0:0:
224,160,150756,1,0,0:0:0:0:
288,224,150913,1,12,0:0:0:0:
224,160,151229,1,0,0:0:0:0:
288,160,151387,1,8,0:0:0:0:
224,160,151545,1,0,0:0:0:0:
288,160,151703,1,8,0:0:0:0:
288,160,152019,1,8,0:0:0:0:
224,160,152177,1,0,0:0:0:0:
224,160,152256,1,0,0:0:0:0:
288,160,152334,1,8,0:0:0:0:
288,160,152413,1,8,0:0:0:0:
224,160,152492,1,0,0:0:0:0:
224,160,152571,1,0,0:0:0:0:
288,160,152650,1,8,0:0:0:0:
224,160,152808,1,0,0:0:0:0:
224,160,152887,1,0,0:0:0:0:
288,160,152966,1,8,0:0:0:0:
224,160,153045,1,0,0:0:0:0:
288,160,153124,1,8,0:0:0:0:
288,160,153203,1,8,0:0:0:0:
288,160,153282,1,8,0:0:0:0:
224,224,153440,1,4,0:0:0:0:
224,160,153756,1,0,0:0:0:0:
288,160,153913,1,8,0:0:0:0:
288,160,154071,1,8,0:0:0:0:
224,160,154229,1,0,0:0:0:0:
288,160,154545,1,8,0:0:0:0:
224,160,154703,1,0,0:0:0:0:
224,160,154782,1,0,0:0:0:0:
224,160,154861,1,0,0:0:0:0:
288,160,155019,1,8,0:0:0:0:
288,160,155177,1,8,0:0:0:0:
224,160,155334,1,0,0:0:0:0:
224,160,155413,1,0,0:0:0:0:
288,160,155492,1,8,0:0:0:0:
288,160,155650,1,8,0:0:0:0:
224,160,155808,1,0,0:0:0:0:
288,224,155966,1,12,0:0:0:0:
224,160,156282,1,0,0:0:0:0:
288,160,156440,1,8,0:0:0:0:
224,160,156598,1,0,0:0:0:0:
288,160,156756,1,8,0:0:0:0:
288,160,157071,1,8,0:0:0:0:
224,160,157229,1,0,0:0:0:0:
224,160,157308,1,0,0:0:0:0:
288,160,157387,1,8,0:0:0:0:
224,160,157466,1,0,0:0:0:0:
224,160,157545,1,0,0:0:0:0:
224,160,157624,1,0,0:0:0:0:
288,160,157703,1,8,0:0:0:0:
224,160,157782,1,0,0:0:0:0:
224,160,157861,1,0,0:0:0:0:
224,160,157940,1,0,0:0:0:0:
288,160,158019,1,8,0:0:0:0:
288,160,158098,1,8,0:0:0:0:
224,160,158177,1,0,0:0:0:0:
224,160,158256,1,0,0:0:0:0:
288,160,158334,1,8,0:0:0:0:
224,224,158492,1,4,0:0:0:0:
224,160,158808,1,0,0:0:0:0:
288,160,158966,1,8,0:0:0:0:
288,160,159124,1,8,0:0:0:0:
224,160,159282,1,0,0:0:0:0:
288,160,159598,1,8,0:0:0:0:
224,160,159756,1,0,0:0:0:0:
224,160,159834,1,0,0:0:0:0:
224,160,159913,1,0,0:0:0:0:
288,160,160071,1,8,0:0:0:0:
288,160,160229,1,8,0:0:0:0:
224,160,160387,1,0,0:0:0:0:
224,160,160466,1,0,0:0:0:0:
288,160,160545,1,8,0:0:0:0:
224,160,160703,1,0,0:0:0:0:
288,160,160861,1,8,0:0:0:0:
288,224,161019,1,12,0:0:0:0:
224,160,161334,1,0,0:0:0:0:
288,160,161492,1,8,0:0:0:0:
224,160,161650,1,0,0:0:0:0:
288,160,161808,1,8,0:0:0:0:
288,160,162124,1,8,0:0:0:0:
224,160,162282,1,0,0:0:0:0:
224,160,162361,1,0,0:0:0:0:
288,160,162440,1,8,0:0:0:0:
224,160,162598,1,0,0:0:0:0:
288,160,162756,1,8,0:0:0:0:
224,160,162913,1,0,0:0:0:0:
224,160,162992,1,0,0:0:0:0:
288,160,163071,1,8,0:0:0:0:
224,160,163229,1,0,0:0:0:0:
288,160,163387,1,8,0:0:0:0:
224,160,163545,1,0,0:0:0:0:
224,160,163624,1,0,0:0:0:0:
288,160,163703,1,8,0:0:0:0:
224,160,163782,1,0,0:0:0:0:
224,160,163861,1,0,0:0:0:0:
224,160,163940,1,0,0:0:0:0:
288,160,164019,1,8,0:0:0:0:
224,160,164098,1,0,0:0:0:0:
224,160,164177,1,0,0:0:0:0:
224,160,164256,1,0,0:0:0:0:
288,160,164334,1,8,0:0:0:0:
288,160,164413,1,8,0:0:0:0:
224,160,164492,1,0,0:0:0:0:
224,160,164571,1,0,0:0:0:0:
288,160,164650,1,8,0:0:0:0:
224,224,164808,1,4,0:0:0:0:
