osu file format v14

[General]
AudioFilename: audio.mp3
AudioLeadIn: 0
PreviewTime: 230719
Countdown: 0
SampleSet: Drum
StackLeniency: 0
Mode: 0
LetterboxInBreaks: 0
WidescreenStoryboard: 1

[Editor]
Bookmarks: 245546,454816,485132,504080
DistanceSpacing: 1.3
BeatDivisor: 4
GridSize: 16
TimelineZoom: 2.3

[Metadata]
Title:The Devil
TitleUnicode:The Devil
Artist:Aether Realm
ArtistUnicode:Æther Realm
Creator:Blood9
Version:Perceptions of Evil
Source:
Tags:tarot english symphonic folk melodic death metal AR mpg mappers' guild featured artist fa
BeatmapID:3505029
BeatmapSetID:1715360

[Difficulty]
HPDrainRate:4.8
CircleSize:4.2
OverallDifficulty:10
ApproachRate:9.7
SliderMultiplier:1.4
SliderTickRate:0.5

[Events]
//Background and Video events
0,0,"tarot.jpg",0,0
//Break Periods
2,83284,89513
2,393438,411690
//Storyboard Layer 0 (Background)
//Storyboard Layer 1 (Fail)
//Storyboard Layer 2 (Pass)
//Storyboard Layer 3 (Foreground)
//Storyboard Layer 4 (Overlay)
//Storyboard Sound Samples

[TimingPoints]
227,300,3,3,2,70,1,0
7427,-66.6666666666667,3,3,2,70,0,0
7652,-66.6666666666667,3,3,2,5,0,0
7727,-66.6666666666667,3,3,2,70,0,0
8927,-161.290322580645,3,3,2,70,0,0
9227,-66.6666666666667,3,3,3,70,0,0
9452,-66.6666666666667,3,3,2,5,0,0
9527,-66.6666666666667,3,3,2,70,0,0
10127,-81.9672131147541,3,3,2,70,0,0
10352,-81.9672131147541,3,3,2,5,0,0
10427,-81.9672131147541,3,3,2,70,0,0
11027,-66.6666666666667,3,3,3,70,0,0
11252,-66.6666666666667,3,3,2,5,0,0
11327,-66.6666666666667,3,3,2,70,0,0
12227,-66.6666666666667,3,3,3,70,0,0
12302,-66.6666666666667,3,3,2,70,0,0
13427,-163.934426229508,3,3,2,70,0,0
13727,-100,3,3,2,70,0,0
14027,-83.3333333333333,3,3,3,70,0,0
14102,-83.3333333333333,3,3,2,70,0,0
14327,-71.4285714285714,3,3,2,70,0,0
14627,-83.3333333333333,3,3,3,70,0,0
14852,-83.3333333333333,3,3,2,5,0,0
14927,-83.3333333333333,3,3,2,70,0,0
15077,-83.3333333333333,3,3,3,70,0,0
15227,-83.3333333333333,3,3,2,70,0,0
15527,-500,3,3,2,70,0,0
15752,-500,3,3,2,5,0,0
15827,-100,3,3,2,70,0,0
16127,-125,3,3,2,70,0,0
16427,-66.6666666666667,3,3,3,70,0,0
16502,-66.6666666666667,3,3,2,70,0,0
17552,-66.6666666666667,3,3,2,5,0,0
17627,-66.6666666666667,3,3,2,70,0,0
18227,-100,3,3,2,70,0,0
19127,-90.9090909090909,3,3,2,70,0,0
19427,-111.111111111111,3,3,2,70,0,0
19727,-142.857142857143,3,3,2,70,0,0
20027,-83.3333333333333,3,3,2,70,0,0
20327,-111.111111111111,3,3,2,70,0,0
20627,-200,3,3,2,70,0,0
20927,-99.9999999999999,3,3,2,70,0,0
21227,-76.9230769230769,3,3,2,70,0,0
21527,-166.666666666667,3,3,2,70,0,0
21827,272.727272727273,3,3,2,80,1,0
21827,-45.4545454545455,3,3,2,80,0,0
22099,-45.4545454545455,3,3,2,5,0,0
22645,-66.6666666666667,3,2,3,80,0,0
22917,-66.6666666666667,3,2,2,80,0,0
23531,-66.6666666666667,3,2,2,5,0,0
23736,-133.333333333333,3,2,2,80,0,0
23804,-133.333333333333,3,2,2,5,0,0
24281,-133.333333333333,3,2,2,80,0,0
24349,-133.333333333333,3,2,2,5,0,0
24827,-133.333333333333,3,2,2,80,0,0
24895,-133.333333333333,3,2,2,5,0,0
25099,-90.9090909090909,3,3,2,80,0,0
25236,-90.9090909090909,3,3,2,5,0,0
25372,-90.9090909090909,3,3,2,80,0,0
25508,-90.9090909090909,3,3,2,5,0,0
25645,-90.9090909090909,3,3,2,80,0,0
25781,-90.9090909090909,3,3,2,5,0,0
25917,-90.9090909090909,3,3,3,80,0,0
27554,-90.9090909090909,3,3,3,80,0,0
28099,-90.9090909090909,3,3,2,80,0,0
28372,-80,3,3,3,80,0,0
29463,-80,3,3,2,80,0,0
29531,-80,3,3,3,80,0,0
31099,-80,3,3,2,80,0,0
31167,-80,3,3,3,80,0,0
32736,-80,3,3,2,80,0,0
32804,-80,3,3,3,80,0,0
33827,-80,3,3,2,80,0,0
34099,-80,3,3,3,80,0,0
34917,-76.9230769230769,3,3,3,100,0,1
37372,-90.9090909090909,3,3,3,100,0,1
37645,-111.111111111111,3,3,2,100,0,1
37917,-142.857142857143,3,3,2,100,0,1
38190,-76.9230769230769,3,3,3,100,0,1
39281,-111.111111111111,3,3,2,100,0,1
39554,-142.857142857143,3,3,2,100,0,1
39827,-76.9230769230769,3,3,3,100,0,1
41190,-76.9230769230769,3,3,2,100,0,1
41554,-76.9230769230769,3,3,3,100,0,1
44190,-76.9230769230769,3,3,2,100,0,1
44736,-66.6666666666667,3,3,2,100,0,1
44940,-66.6666666666667,3,3,2,5,0,1
45008,-133.333333333333,3,3,2,100,0,1
45554,-66.6666666666667,3,3,2,100,0,1
45758,-66.6666666666667,3,3,2,5,0,1
45827,-76.9230769230769,3,3,2,100,0,1
46031,-76.9230769230769,3,3,2,5,0,1
46099,-222.222222222221,3,3,2,100,0,1
46304,-222.222222222221,3,3,2,5,0,1
46372,-76.9230769230769,3,3,2,100,0,1
46645,-133.333333333333,3,3,2,100,0,1
47190,-76.9230769230769,3,3,3,100,0,1
47463,-76.9230769230769,3,3,2,100,0,1
47736,-76.9230769230769,3,3,3,100,0,1
48008,230.769230769231,4,3,2,100,1,0
48008,-217.391304347826,4,3,3,100,0,0
48065,-217.391304347826,4,3,2,5,0,0
52623,-100,4,3,2,100,0,0
53142,-100,4,3,2,5,0,0
53546,-100,4,3,2,90,0,1
56777,-66.6666666666667,4,3,4,90,0,1
56892,-66.6666666666667,4,3,4,5,0,1
56950,-66.6666666666667,4,3,4,90,0,1
57065,-66.6666666666667,4,3,4,5,0,1
57123,-66.6666666666667,4,3,2,90,0,1
57181,-66.6666666666667,4,3,4,5,0,1
57238,-100,4,3,2,90,0,1
58854,-100,4,3,3,90,0,1
59084,-66.6666666666667,4,3,2,90,0,1
59142,-66.6666666666667,4,3,2,5,0,0
59315,-83.3333333333333,4,3,3,85,0,0
59488,-83.3333333333333,4,3,2,5,0,0
59546,-100,4,3,2,85,0,0
59719,-100,4,3,2,5,0,0
59777,-125,4,3,3,85,0,0
59950,-125,4,3,2,5,0,0
60008,-133.333333333333,4,3,2,85,0,0
60181,-133.333333333333,4,3,2,5,0,0
60238,-76.9230769230769,4,3,3,85,0,0
60411,-76.9230769230769,4,3,2,5,0,0
60469,-90.9090909090909,4,3,2,85,0,0
60642,-90.9090909090909,4,3,2,5,0,0
60700,-111.111111111111,4,3,3,85,0,0
60873,-111.111111111111,4,3,2,5,0,0
60931,-100,4,3,2,90,0,1
64623,-100,4,3,3,90,0,1
64854,-111.111111111111,4,3,2,90,0,1
65084,-90.9090909090909,4,3,2,90,0,1
65315,-76.9230769230769,4,3,2,90,0,1
65546,-66.6666666666667,4,3,2,90,0,1
65777,-71.4285714285714,4,3,2,90,0,1
66008,-76.9230769230769,4,3,2,90,0,1
66238,-76.9230769230769,4,3,3,90,0,1
66469,-66.6666666666667,4,3,2,90,0,0
66527,-66.6666666666667,4,3,2,5,0,0
66700,-83.3333333333333,4,3,3,85,0,0
66873,-83.3333333333333,4,3,2,5,0,0
66931,-100,4,3,2,85,0,0
67104,-100,4,3,2,5,0,0
67161,-125,4,3,3,85,0,0
67334,-125,4,3,2,5,0,0
67392,-133.333333333333,4,3,2,85,0,0
67565,-133.333333333333,4,3,2,5,0,0
67623,-76.9230769230769,4,3,3,85,0,0
67796,-76.9230769230769,4,3,2,5,0,0
67854,-76.9230769230769,4,3,2,85,0,0
68315,-196.078431372549,4,3,2,70,0,0
68373,-196.078431372549,4,3,2,5,0,0
68777,-66.6666666666667,4,2,2,70,0,0
68834,-66.6666666666667,4,2,2,5,0,0
69700,-66.6666666666667,4,2,2,70,0,0
69758,-66.6666666666667,4,2,2,5,0,0
70623,-66.6666666666667,4,2,2,70,0,0
70681,-66.6666666666667,4,2,2,5,0,0
70854,-222.222222222222,4,3,2,70,0,0
71258,-222.222222222222,4,3,2,5,0,0
71315,-83.3333333333333,4,3,3,85,0,0
71488,-83.3333333333333,4,3,2,5,0,0
71546,-100,4,3,2,85,0,0
71719,-100,4,3,2,5,0,0
71777,-125,4,3,3,85,0,0
71950,-125,4,3,2,5,0,0
72008,-196.078431372549,4,3,2,70,0,0
72065,-196.078431372549,4,3,2,5,0,0
72469,-66.6666666666667,4,2,2,70,0,0
72527,-66.6666666666667,4,2,2,5,0,0
73392,-66.6666666666667,4,2,2,70,0,0
73450,-66.6666666666667,4,2,2,5,0,0
73623,-222.222222222221,4,3,2,70,0,0
74027,-222.222222222221,4,3,2,5,0,0
74084,-76.9230769230769,4,3,3,85,0,0
74258,-76.9230769230769,4,3,2,5,0,0
74315,-90.9090909090909,4,3,2,85,0,0
74488,-90.9090909090909,4,3,2,5,0,0
74546,-111.111111111111,4,3,3,85,0,0
74719,-111.111111111111,4,3,2,5,0,0
74777,-133.333333333333,4,3,2,85,0,0
74950,-133.333333333333,4,3,2,5,0,0
75008,-71.4285714285714,4,3,3,85,0,0
75181,-71.4285714285714,4,3,2,5,0,0
75238,-71.4285714285714,4,3,2,85,0,0
75700,-196.078431372549,4,3,2,70,0,0
75758,-196.078431372549,4,3,2,5,0,0
76161,-66.6666666666667,4,3,2,70,0,0
76681,-66.6666666666667,4,3,2,5,0,0
77084,-133.333333333333,4,3,2,70,0,0
77546,-66.6666666666667,4,3,2,70,0,0
77604,-66.6666666666667,4,3,2,5,0,0
78008,-133.333333333333,4,3,2,70,0,0
78469,-66.6666666666667,4,3,2,70,0,0
78527,-66.6666666666667,4,3,2,5,0,0
78700,-83.3333333333333,4,3,3,85,0,0
78873,-83.3333333333333,4,3,2,5,0,0
78931,-100,4,3,2,85,0,0
79104,-100,4,3,2,5,0,0
79161,-125,4,3,3,85,0,0
79334,-125,4,3,2,5,0,0
79392,-196.078431372549,4,3,2,70,0,0
79450,-196.078431372549,4,3,2,5,0,0
79854,-133.333333333333,4,3,2,70,0,0
80315,-66.6666666666667,4,3,2,70,0,0
80373,-66.6666666666667,4,3,2,5,0,0
80777,-133.333333333333,4,3,2,70,0,0
80834,-133.333333333333,4,3,3,70,0,0
81238,-66.6666666666667,4,3,2,70,0,0
81296,-66.6666666666667,4,3,2,5,0,0
81469,-83.3333333333333,4,3,3,85,0,0
81642,-83.3333333333333,4,3,2,5,0,0
81700,-100,4,3,2,85,0,0
81873,-100,4,3,2,5,0,0
81931,-125,4,3,3,85,0,0
82104,-125,4,3,2,5,0,0
82161,-133.333333333333,4,3,2,85,0,0
82334,-133.333333333333,4,3,2,5,0,0
82392,-76.9230769230769,4,3,3,85,0,0
82565,-76.9230769230769,4,3,2,5,0,0
82623,-76.9230769230769,4,3,2,85,0,0
82969,-333.333333333333,4,3,2,85,0,0
83084,-333.333333333333,4,3,2,5,0,0
90008,-100,4,3,2,80,0,0
90354,-100,4,3,3,80,0,0
90469,-227.272727272727,4,3,2,80,0,0
90815,-106.382978723404,4,3,2,80,0,0
91623,-106.382978723404,4,3,3,80,0,0
91854,-106.382978723404,4,3,2,80,0,0
93700,-106.382978723404,4,3,2,80,0,0
96008,-106.382978723404,4,3,3,80,0,0
96123,-106.382978723404,4,3,2,80,0,0
96238,-106.382978723404,4,3,3,80,0,0
97854,-106.382978723404,4,3,2,80,0,0
98546,-106.382978723404,4,3,3,80,0,0
98719,-106.382978723404,4,3,2,80,0,0
98777,-106.382978723404,4,3,2,80,0,0
100392,-106.382978723404,4,3,3,80,0,0
100565,-106.382978723404,4,3,2,5,0,0
100623,-106.382978723404,4,3,2,80,0,0
104084,-106.382978723404,4,3,3,80,0,0
104258,-106.382978723404,4,3,2,5,0,0
104315,-106.382978723404,4,3,2,80,0,0
105238,-227.272727272727,4,3,2,80,0,0
105584,-106.382978723404,4,3,2,80,0,0
107084,-106.382978723404,4,3,3,80,0,0
108008,-106.382978723404,4,3,2,80,0,0
111700,-106.382978723404,4,3,3,80,0,0
111931,-106.382978723404,4,3,2,80,0,0
112161,-72.463768115942,4,3,4,80,0,0
112334,-72.463768115942,4,3,2,5,0,0
112392,-90.0900900900901,4,3,4,80,0,0
112565,-90.0900900900901,4,3,2,5,0,0
112623,-111.111111111111,4,3,2,80,0,0
114469,-142.857142857143,4,3,2,80,0,0
116258,-142.857142857143,4,3,2,5,0,0
116315,-111.111111111111,4,3,3,80,0,0
116431,-111.111111111111,4,3,2,80,0,0
122777,-111.111111111111,4,3,3,80,0,0
123008,-111.111111111111,4,3,2,80,0,0
130392,-133.333333333333,4,3,3,80,0,0
130508,-133.333333333333,4,3,3,5,0,0
130623,-100,4,3,2,80,0,0
130738,-100,4,3,2,5,0,0
130854,-86.9565217391304,4,3,2,80,0,0
130969,-86.9565217391304,4,3,2,5,0,0
131084,-66.6666666666667,4,3,2,95,0,1
132931,-66.6666666666667,4,3,3,95,0,1
137777,-66.6666666666667,4,3,2,95,0,1
138008,-66.6666666666667,4,3,3,95,0,1
138238,-66.6666666666667,4,3,2,95,0,1
138469,-100,4,3,2,95,0,1
140084,-100,4,3,2,80,0,0
141700,-200,4,3,2,80,0,0
141931,-100,4,3,2,80,0,0
142161,-66.6666666666667,4,3,3,95,0,1
145623,-66.6666666666667,4,3,2,95,0,1
145854,-66.6666666666667,4,3,3,95,0,1
146027,-66.6666666666667,4,3,3,5,0,1
146084,-100,4,3,2,95,0,1
146315,-100,4,3,3,95,0,1
146546,-100,4,3,2,95,0,1
148392,-200,4,3,2,95,0,1
148623,-100,4,3,2,95,0,1
148854,-100,4,3,3,95,0,1
148969,-100,4,3,2,95,0,1
149546,-66.6666666666667,4,3,2,95,0,1
153238,-98.0392156862745,4,3,2,80,0,0
158719,-98.0392156862745,4,3,2,5,0,0
158777,-83.3333333333333,4,3,2,85,0,0
159642,-83.3333333333333,4,3,2,5,0,0
159700,-83.3333333333333,4,3,2,90,0,0
160623,-196.078431372549,4,3,2,70,0,0
161027,-196.078431372549,4,3,2,5,0,0
161084,-133.333333333333,4,3,2,70,0,0
161546,-66.6666666666667,4,3,2,70,0,0
161604,-66.6666666666667,4,3,2,5,0,0
162008,-133.333333333333,4,3,2,70,0,0
162469,-66.6666666666667,4,3,2,70,0,0
162527,-66.6666666666667,4,3,2,5,0,0
162931,-133.333333333333,4,3,2,70,0,0
163392,-66.6666666666667,4,3,2,70,0,0
163450,-66.6666666666667,4,3,2,5,0,0
163623,-83.3333333333333,4,3,3,85,0,0
163796,-83.3333333333333,4,3,2,5,0,0
163854,-100,4,3,2,85,0,0
164027,-100,4,3,2,5,0,0
164084,-125,4,3,3,85,0,0
164258,-125,4,3,2,5,0,0
164315,-196.078431372549,4,3,2,70,0,0
164719,-196.078431372549,4,3,2,5,0,0
164777,-133.333333333333,4,3,2,70,0,0
165238,-66.6666666666667,4,3,2,70,0,0
165296,-66.6666666666667,4,3,2,5,0,0
165700,-133.333333333333,4,3,2,70,0,0
166161,-66.6666666666667,4,3,2,70,0,0
166219,-66.6666666666667,4,3,2,5,0,0
166392,-76.9230769230769,4,3,2,85,0,0
166565,-76.9230769230769,4,3,2,5,0,0
166623,-90.9090909090909,4,3,2,85,0,0
166796,-90.9090909090909,4,3,2,5,0,0
166854,-90.9090909090909,4,3,2,85,0,0
167084,-133.333333333333,4,3,3,85,0,0
167258,-133.333333333333,4,3,2,5,0,0
167315,-71.4285714285714,4,3,2,85,0,0
167488,-71.4285714285714,4,3,2,5,0,0
167546,-83.3333333333333,4,3,3,85,0,0
167719,-83.3333333333333,4,3,2,5,0,0
167777,-83.3333333333333,4,3,2,85,0,0
168008,-200,4,3,2,70,0,0
168411,-200,4,3,2,5,0,0
168469,-133.333333333333,4,3,2,70,0,0
168931,-66.6666666666667,4,3,2,70,0,0
168988,-66.6666666666667,4,3,2,5,0,0
169392,-133.333333333333,4,3,2,70,0,0
169854,-66.6666666666667,4,3,2,70,0,0
169911,-66.6666666666667,4,3,2,5,0,0
170315,-133.333333333333,4,3,2,70,0,0
170777,-66.6666666666667,4,3,2,70,0,0
170834,-66.6666666666667,4,3,2,5,0,0
171008,-83.3333333333333,4,3,3,85,0,0
171181,-83.3333333333333,4,3,2,5,0,0
171238,-100,4,3,2,85,0,0
171411,-100,4,3,2,5,0,0
171469,-125,4,3,3,85,0,0
171642,-125,4,3,2,5,0,0
171700,-200,4,3,2,70,0,0
171873,-200,4,3,2,5,0,0
171931,-200,4,3,2,70,0,0
172623,-200,4,3,3,70,0,0
172854,-200,4,3,2,70,0,0
174873,-200,4,3,2,5,0,0
174931,-333.333333333333,4,3,2,70,0,0
175334,-333.333333333333,4,3,2,5,0,0
175392,-99.009900990099,4,3,2,80,0,0
181392,-99.009900990099,4,3,3,80,0,0
181854,-99.009900990099,4,3,2,80,0,0
182315,-99.009900990099,4,3,3,80,0,0
183700,-99.009900990099,4,3,2,80,0,0
186642,-99.009900990099,4,3,2,5,0,0
186700,-99.009900990099,4,3,2,80,0,0
189411,-99.009900990099,4,3,2,5,0,0
189469,-99.009900990099,4,3,2,80,0,0
189873,-99.009900990099,4,3,2,5,0,0
189931,-99.009900990099,4,3,2,80,0,0
190334,-99.009900990099,4,3,2,5,0,0
190392,-99.009900990099,4,3,2,80,0,0
190796,-99.009900990099,4,3,2,5,0,0
190854,-99.009900990099,4,3,2,80,0,0
192008,-99.009900990099,4,3,3,80,0,0
193854,-99.009900990099,4,3,2,80,0,0
194027,-99.009900990099,4,3,2,5,0,0
194084,-99.009900990099,4,3,2,80,0,0
194488,-99.009900990099,4,3,2,5,0,0
194546,-99.009900990099,4,3,2,80,0,0
194950,-99.009900990099,4,3,2,5,0,0
195008,-99.009900990099,4,3,2,80,0,0
195238,-99.009900990099,4,3,3,80,0,0
195873,-99.009900990099,4,3,2,5,0,0
195931,-99.009900990099,4,3,2,80,0,0
196623,-99.009900990099,4,3,3,80,0,0
197488,-99.009900990099,4,3,2,5,0,0
197546,-99.009900990099,4,3,2,80,0,0
198642,-99.009900990099,4,3,2,5,0,0
198700,-99.009900990099,4,3,2,80,0,0
199565,-99.009900990099,4,3,2,5,0,0
199623,-99.009900990099,4,3,2,80,0,0
200027,-99.009900990099,4,3,2,5,0,0
200084,-99.009900990099,4,3,2,80,0,0
201411,-99.009900990099,4,3,2,5,0,0
201469,-99.009900990099,4,3,2,80,0,0
201642,-99.009900990099,4,3,2,5,0,0
201700,-83.3333333333333,4,3,4,80,0,0
201873,-83.3333333333333,4,3,2,5,0,0
201931,-100,4,3,2,80,0,0
202104,-100,4,3,2,5,0,0
202161,-1000,4,3,2,80,0,0
203084,-100,4,3,2,70,0,0
207758,-100,4,3,2,5,0,0
208161,-100,4,3,2,70,0,0
209604,-100,4,3,2,70,0,0
209777,-100,4,3,2,70,0,0
211392,-100,4,3,3,70,0,0
211854,-100,4,3,2,70,0,0
212084,-117.647058823529,4,3,2,70,0,0
212315,-100,4,3,2,70,0,0
213238,-100,4,3,2,70,0,0
213296,-100,4,3,2,5,0,0
214161,-133.333333333333,4,3,2,70,0,0
214623,-166.666666666667,4,3,2,70,0,0
216008,-66.6666666666667,4,3,4,70,0,0
216411,-66.6666666666667,4,3,4,5,0,0
216469,-125,4,3,4,70,0,0
217392,-100,4,3,4,70,0,0
218258,-100,4,3,4,5,0,0
218315,-100,4,3,4,70,0,0
218950,-100,4,3,4,5,0,0
219008,-100,4,3,4,70,0,0
219469,-500,4,3,2,70,0,0
219642,-500,4,3,2,5,0,0
219700,-80,4,3,2,70,0,0
220104,-80,4,3,2,5,0,0
220161,-80,4,3,4,70,0,0
220796,-80,4,3,2,5,0,0
220854,-105.263157894737,4,3,2,70,0,0
221027,-105.263157894737,4,3,2,5,0,0
221084,-105.263157894737,4,3,2,70,0,0
221546,-133.333333333333,4,3,2,70,0,0
221719,-133.333333333333,4,3,2,5,0,0
221777,-100,4,3,2,70,0,0
221950,-100,4,3,2,5,0,0
222008,-166.666666666667,4,3,2,70,0,0
222181,-166.666666666667,4,3,2,5,0,0
222238,-166.666666666667,4,3,2,70,0,0
222469,-100,4,3,4,70,0,0
222700,-100,4,3,2,70,0,0
222873,-100,4,3,2,5,0,0
222931,-100,4,3,3,70,0,0
223104,-100,4,3,2,5,0,0
223161,-333.333333333333,4,3,2,70,0,0
223334,-333.333333333333,4,3,2,5,0,0
223392,-80,4,3,2,70,0,0
223796,-80,4,3,2,5,0,0
223854,-80,4,3,2,70,0,0
224315,-125,4,3,4,70,0,0
225238,-100,4,3,2,70,0,0
225642,-100,4,3,4,5,0,0
225700,-100,4,3,2,70,0,0
226161,-71.4285714285714,4,3,2,70,0,0
226565,-71.4285714285714,4,3,2,70,0,0
226623,-71.4285714285714,4,3,2,70,0,0
227084,-133.333333333333,4,3,3,70,0,0
227315,-133.333333333333,4,3,2,5,0,0
227392,-133.333333333333,4,3,3,70,0,0
228931,-133.333333333333,4,3,2,70,0,0
229392,-133.333333333333,4,3,3,80,0,0
232623,-100,4,3,2,90,0,1
237008,-100,4,3,3,90,0,1
238161,-100,4,3,2,90,0,1
243931,-100,4,3,2,90,0,1
244161,-100,4,3,3,90,0,1
244623,-100,4,3,2,90,0,1
245546,-250,4,3,10,60,0,0
245661,-250,4,3,11,60,0,0
245777,-200,4,3,12,60,0,0
245892,-200,4,3,13,60,0,0
246008,-200,4,3,14,60,0,0
246123,-200,4,3,13,60,0,0
246238,-200,4,3,12,60,0,0
246354,-200,4,3,13,60,0,0
246469,-250,4,3,14,60,0,0
246584,-250,4,3,15,60,0,0
246700,-200,4,3,100,60,0,0
246777,-200,4,3,2,60,0,0
246931,-200,4,3,16,60,0,0
246969,-200,4,3,2,60,0,0
247046,-200,4,3,15,60,0,0
247161,-200,4,3,16,60,0,0
247277,-200,4,3,17,60,0,0
247392,-133.333333333333,4,3,18,60,0,0
247431,-133.333333333333,4,3,2,60,0,0
248546,-133.333333333333,4,3,2,60,0,0
248777,-133.333333333333,4,3,2,60,0,0
248950,-133.333333333333,4,3,2,5,0,0
249008,-333.333333333333,4,3,19,60,0,0
249181,-333.333333333333,4,3,19,5,0,0
249238,-153.846153846153,4,3,20,60,0,0
249354,-153.846153846153,4,3,5,60,0,0
249469,-153.846153846153,4,3,21,60,0,0
249700,-153.846153846153,4,3,2,60,0,0
249815,-153.846153846153,4,3,17,60,0,0
250046,-153.846153846153,4,3,21,60,0,0
250161,-153.846153846153,4,3,17,60,0,0
250277,-153.846153846153,4,3,16,60,0,0
250392,-153.846153846153,4,3,17,60,0,0
250508,-153.846153846153,4,3,15,60,0,0
250623,-153.846153846153,4,3,22,60,0,0
250854,-153.846153846153,4,3,23,60,0,0
251084,-153.846153846153,4,3,24,60,0,0
251200,-153.846153846153,4,3,14,60,0,0
251315,-153.846153846153,4,3,13,60,0,0
251431,-153.846153846153,4,3,12,60,0,0
251546,-153.846153846153,4,3,13,60,0,0
251661,-153.846153846153,4,3,14,60,0,0
251777,-153.846153846153,4,3,15,60,0,0
251892,-153.846153846153,4,3,14,60,0,0
252008,-153.846153846153,4,3,13,60,0,0
252123,-153.846153846153,4,3,14,60,0,0
252238,-153.846153846153,4,3,13,60,0,0
252354,-153.846153846153,4,3,12,60,0,0
252469,-153.846153846153,4,3,13,60,0,0
252584,-153.846153846153,4,3,12,60,0,0
252700,-153.846153846153,4,3,11,60,0,0
252815,-153.846153846153,4,3,10,60,0,0
252931,-153.846153846153,4,3,25,60,0,0
253046,-153.846153846153,4,3,10,60,0,0
253161,-153.846153846153,4,3,26,60,0,0
253277,-153.846153846153,4,3,10,60,0,0
253392,-153.846153846153,4,3,27,60,0,0
253508,-153.846153846153,4,3,26,60,0,0
253623,-153.846153846153,4,3,28,60,0,0
253796,-153.846153846153,4,3,28,5,0,0
253854,-133.333333333333,4,3,29,60,0,0
253892,-133.333333333333,4,3,2,60,0,0
254777,-133.333333333333,4,3,35,60,0,0
255084,-133.333333333333,4,3,30,60,0,0
255161,-133.333333333333,4,3,31,60,0,0
255238,-133.333333333333,4,3,32,60,0,0
255354,-166.666666666667,4,3,38,60,0,0
255469,-166.666666666667,4,3,38,5,0,0
255527,-166.666666666667,4,3,37,60,0,0
255642,-166.666666666667,4,3,37,5,0,0
255700,-100,4,3,21,60,0,0
255758,-100,4,3,21,5,0,0
255815,-100,4,3,33,60,0,0
256046,-83.3333333333333,4,3,34,60,0,0
256161,-83.3333333333333,4,3,2,60,0,0
256277,-83.3333333333333,4,3,33,60,0,0
256392,-83.3333333333333,4,3,17,60,0,0
256508,-83.3333333333333,4,3,21,60,0,0
256623,-83.3333333333333,4,3,36,60,0,0
256738,-83.3333333333333,4,3,16,60,0,0
256854,-83.3333333333333,4,3,17,60,0,0
256969,-83.3333333333333,4,3,15,60,0,0
257084,-83.3333333333333,4,3,16,60,0,0
257200,-83.3333333333333,4,3,17,60,0,0
257315,-107.52688172043,4,3,34,60,0,0
257517,-107.52688172043,4,3,39,60,0,0
257546,-142.857142857143,4,3,40,60,0,0
257584,-142.857142857143,4,3,2,60,0,0
258008,-142.857142857143,4,3,5,60,0,0
258238,-142.857142857143,4,3,41,60,0,0
258411,-142.857142857143,4,3,41,5,0,0
258469,-133.333333333333,4,3,42,60,0,0
258700,-133.333333333333,4,3,43,60,0,0
258777,-133.333333333333,4,3,44,60,0,0
258854,-133.333333333333,4,3,45,60,0,0
258931,-133.333333333333,4,3,17,60,0,0
259046,-133.333333333333,4,3,21,60,0,0
259161,-133.333333333333,4,3,19,60,0,0
259277,-133.333333333333,4,3,47,60,0,0
259392,-133.333333333333,4,3,19,60,0,0
259508,-133.333333333333,4,3,21,60,0,0
259623,-133.333333333333,4,3,19,60,0,0
259738,-133.333333333333,4,3,21,60,0,0
259854,-133.333333333333,4,3,17,60,0,0
259969,-133.333333333333,4,3,21,60,0,0
260084,-133.333333333333,4,3,17,60,0,0
260200,-133.333333333333,4,3,21,60,0,0
260315,-133.333333333333,4,3,48,60,0,0
260431,-133.333333333333,4,3,15,60,0,0
260546,-133.333333333333,4,3,14,60,0,0
260661,-133.333333333333,4,3,13,60,0,0
260777,-133.333333333333,4,3,12,60,0,0
260892,-133.333333333333,4,3,11,60,0,0
261008,-133.333333333333,4,3,10,60,0,0
261123,-133.333333333333,4,3,49,60,0,0
261238,-114.285714285714,4,3,50,60,0,0
261277,-114.285714285714,4,3,2,60,0,0
262046,-166.666666666667,4,3,2,60,0,0
262161,-166.666666666667,4,3,51,70,0,0
262508,-166.666666666667,4,3,52,70,0,0
262623,-166.666666666667,4,3,2,70,0,0
262796,-166.666666666667,4,3,52,5,0,0
262854,-166.666666666667,4,3,53,70,0,0
262969,-166.666666666667,4,3,2,70,0,0
263084,-166.666666666667,4,3,54,70,0,0
263315,-166.666666666667,4,3,2,70,0,0
263431,-166.666666666667,4,3,55,70,0,0
263546,-166.666666666667,4,3,2,70,0,0
263777,-166.666666666667,4,3,56,70,0,0
263892,-166.666666666667,4,3,2,70,0,0
264123,-166.666666666667,4,3,5,70,0,0
264238,-166.666666666667,4,3,57,70,0,0
264354,-166.666666666667,4,3,2,70,0,0
264469,-166.666666666667,4,3,58,70,0,0
264700,-166.666666666667,4,3,59,70,0,0
264815,-166.666666666667,4,3,2,70,0,0
264931,-166.666666666667,4,3,60,70,0,0
265161,-166.666666666667,4,3,61,70,0,0
265277,-166.666666666667,4,3,62,70,0,0
265392,-166.666666666667,4,3,2,70,0,0
265508,-166.666666666667,4,3,2,70,0,0
265623,-166.666666666667,4,3,64,70,0,0
265738,-166.666666666667,4,3,2,70,0,0
265854,-166.666666666667,4,3,65,70,0,0
266200,-166.666666666667,4,3,66,70,0,0
266315,-166.666666666667,4,3,2,70,0,0
266488,-166.666666666667,4,3,2,5,0,0
266546,-166.666666666667,4,3,67,70,0,0
266661,-166.666666666667,4,3,2,70,0,0
266777,-166.666666666667,4,3,68,70,0,0
267123,-166.666666666667,4,3,69,70,0,0
267238,-166.666666666667,4,3,2,70,0,0
267469,-166.666666666667,4,3,56,70,0,0
267584,-166.666666666667,4,3,2,70,0,0
267815,-166.666666666667,4,3,5,70,0,0
267931,-166.666666666667,4,3,70,70,0,0
268046,-166.666666666667,4,3,2,70,0,0
268161,-166.666666666667,4,3,58,70,0,0
268392,-166.666666666667,4,3,71,70,0,0
268508,-166.666666666667,4,3,2,70,0,0
268623,-166.666666666667,4,3,73,70,0,0
268969,-166.666666666667,4,3,74,70,0,0
269084,-166.666666666667,4,3,2,70,0,0
269315,-166.666666666667,4,3,75,70,0,0
269431,-166.666666666667,4,3,2,70,0,0
269546,-166.666666666667,4,3,76,70,0,0
269892,-166.666666666667,4,3,66,70,0,0
270008,-166.666666666667,4,3,2,70,0,0
270181,-166.666666666667,4,3,54,5,0,0
270238,-166.666666666667,4,3,77,70,0,0
270354,-166.666666666667,4,3,2,70,0,0
270469,-166.666666666667,4,3,78,70,0,0
270815,-166.666666666667,4,3,69,70,0,0
270931,-166.666666666667,4,3,2,70,0,0
271161,-166.666666666667,4,3,56,70,0,0
271277,-166.666666666667,4,3,2,70,0,0
271623,-166.666666666667,4,3,70,70,0,0
271738,-166.666666666667,4,3,2,70,0,0
271854,-166.666666666667,4,3,58,70,0,0
272084,-166.666666666667,4,3,79,70,0,0
272200,-166.666666666667,4,3,2,70,0,0
272315,-166.666666666667,4,3,73,70,0,0
272546,-166.666666666667,4,3,61,70,0,0
272661,-166.666666666667,4,3,74,70,0,0
272777,-166.666666666667,4,3,2,70,0,0
272892,-166.666666666667,4,3,62,70,0,0
273008,-166.666666666667,4,3,75,70,0,0
273123,-166.666666666667,4,3,2,70,0,0
273238,-166.666666666667,4,3,65,70,0,0
273584,-166.666666666667,4,3,66,70,0,0
273700,-166.666666666667,4,3,2,70,0,0
273873,-166.666666666667,4,3,66,5,0,0
273931,-166.666666666667,4,3,67,70,0,0
274046,-166.666666666667,4,3,2,70,0,0
274161,-166.666666666667,4,3,68,70,0,0
274508,-166.666666666667,4,3,69,70,0,0
274623,-166.666666666667,4,3,2,70,0,0
274738,-166.666666666667,4,3,5,70,0,0
274854,-166.666666666667,4,3,56,70,0,0
274969,-166.666666666667,4,3,2,70,0,0
275084,-100,4,3,80,70,0,0
275315,-100,4,3,2,70,0,0
275892,-100,4,3,3,70,0,0
276008,-100,4,3,2,70,0,0
276931,-181.818181818181,4,3,81,70,0,0
277008,-181.818181818181,4,3,2,70,0,0
277796,-181.818181818181,4,3,81,5,0,0
277854,-500,4,3,2,45,0,0
285123,-133.333333333333,4,3,2,45,0,0
285238,-500,4,3,2,45,0,0
287777,-66.6666666666667,4,3,2,80,0,0
287950,-66.6666666666667,4,3,2,5,0,0
288008,-100,4,3,2,80,0,0
288181,-100,4,3,2,5,0,0
288238,-100,4,3,2,80,0,0
288411,-100,4,3,2,5,0,0
288469,-100,4,3,2,80,0,0
288642,-100,4,3,2,5,0,0
288700,-100,4,3,2,80,0,0
288931,-83.3333333333333,4,3,2,80,0,0
289565,-83.3333333333333,4,3,2,5,0,0
289623,-83.3333333333333,4,3,2,80,0,0
289854,-66.6666666666667,4,3,2,80,0,0
290258,-66.6666666666667,4,3,2,5,0,0
290315,-125,4,3,2,80,0,0
291238,-100,4,3,2,80,0,0
292104,-100,4,3,2,5,0,0
292161,-100,4,3,2,80,0,0
292796,-100,4,3,2,5,0,0
292854,-100,4,3,2,80,0,0
293027,-100,4,3,2,5,0,0
293084,-100,4,3,2,80,0,0
293315,-500,4,3,2,80,0,0
293488,-500,4,3,2,5,0,0
293546,-80,4,3,2,80,0,0
293950,-80,4,3,2,5,0,0
294008,-80,4,3,2,80,0,0
294642,-80,4,3,2,5,0,0
294700,-105.263157894737,4,3,2,80,0,0
294873,-105.263157894737,4,3,2,5,0,0
294931,-105.263157894737,4,3,2,80,0,0
295392,-133.333333333333,4,3,2,80,0,0
295565,-133.333333333333,4,3,2,5,0,0
295623,-100,4,3,2,80,0,0
295796,-100,4,3,2,5,0,0
295854,-166.666666666667,4,3,2,80,0,0
296027,-166.666666666667,4,3,2,5,0,0
296084,-166.666666666667,4,3,2,80,0,0
296604,-166.666666666667,4,3,2,5,0,0
296661,-166.666666666667,4,3,2,80,0,0
296950,-166.666666666667,4,3,2,5,0,0
297008,-166.666666666667,4,3,2,80,0,0
297181,-166.666666666667,4,3,2,5,0,0
297238,-80,4,3,3,80,0,0
297642,-80,4,3,2,5,0,0
297700,-80,4,3,2,80,0,0
298161,-125,4,3,2,80,0,0
298565,-125,4,3,2,5,0,0
298623,-125,4,3,2,80,0,0
299084,-100,4,3,2,80,0,0
299488,-100,4,3,2,5,0,0
299546,-100,4,3,2,80,0,0
300008,-71.4285714285714,4,3,2,80,0,0
300181,-71.4285714285714,4,3,2,5,0,0
300238,-71.4285714285714,4,3,2,80,0,0
300411,-71.4285714285714,4,3,2,5,0,0
300469,-71.4285714285714,4,3,2,80,0,0
300931,-133.333333333333,4,3,2,80,0,0
301334,-133.333333333333,4,3,2,5,0,0
301392,-133.333333333333,4,3,2,80,0,0
301565,-133.333333333333,4,3,2,5,0,0
301623,-222.222222222221,4,3,2,80,0,0
301796,-222.222222222221,4,3,2,5,0,0
301854,-222.222222222221,4,3,2,80,0,0
302546,-100,4,3,2,80,0,0
303238,-100,4,3,3,80,0,0
303700,-100,4,3,2,80,0,0
304623,-100,4,3,3,60,0,0
308315,-100,4,3,2,60,0,0
308777,-100,4,3,3,60,0,0
312008,-100,4,3,2,60,0,0
312469,-100,4,3,3,60,0,0
315584,-100,4,3,4,60,0,0
315700,-100,4,3,2,60,0,0
316161,-100,4,3,3,60,0,0
319392,-90.0900900900901,4,3,2,60,0,0
320027,-90.0900900900901,4,3,2,5,0,0
320084,-90.0900900900901,4,3,3,60,0,0
322334,-90.0900900900901,4,3,3,5,0,0
322392,-333.333333333333,4,3,2,60,0,0
322565,-333.333333333333,4,3,2,5,0,0
322623,-333.333333333333,4,3,2,60,0,0
323084,-90.0900900900901,4,3,2,60,0,0
324008,-90.0900900900901,4,3,3,60,0,0
324931,-125,4,3,3,60,0,0
325392,-166.666666666667,4,3,3,60,0,0
325854,-250,4,3,3,60,0,0
326315,-500,4,3,3,60,0,0
326719,-500,4,3,2,5,0,0
326777,-100,4,3,2,60,0,0
327411,-100,4,3,2,5,0,0
327469,-181.818181818181,4,3,2,60,0,0
328104,-181.818181818181,4,3,2,5,0,0
328161,-181.818181818181,4,3,2,60,0,0
329546,-181.818181818181,4,3,3,60,0,0
330013,-181.818181818181,4,3,2,60,0,0
330469,-111.111111111111,4,3,2,60,0,0
331104,-111.111111111111,4,3,2,5,0,0
331161,-142.857142857143,4,3,3,60,0,0
331681,-142.857142857143,4,3,3,5,0,0
331738,-142.857142857143,4,3,3,60,0,0
331854,-100,4,3,2,60,0,0
332315,-125,4,3,2,60,0,0
332777,-166.666666666667,4,3,2,60,0,0
333238,-250,4,3,2,60,0,0
334161,-100,4,3,2,60,0,0
334796,-100,4,3,2,5,0,0
334854,-125,4,3,3,60,0,0
335373,-125,4,3,3,5,0,0
335431,-125,4,3,3,60,0,0
335546,-100,4,3,2,60,0,0
335719,-100,4,3,2,5,0,0
335777,-111.111111111111,4,3,2,60,0,0
336181,-111.111111111111,4,3,2,5,0,0
336238,-125,4,3,3,60,0,0
336469,-125,4,3,2,60,0,0
336642,-125,4,3,2,5,0,0
336700,-142.857142857143,4,3,2,60,0,0
337104,-142.857142857143,4,3,2,5,0,0
337161,-1000,4,3,2,60,0,0
337546,-1000,4,3,3,60,0,0
337700,-1000,4,3,2,60,0,0
338488,-1000,4,3,2,5,0,0
338546,-1000,4,3,2,60,0,0
341084,-100,4,3,2,80,0,0
341546,-66.6666666666667,4,3,2,80,0,0
341834,-66.6666666666667,4,3,2,5,0,0
341892,-83.3333333333333,4,3,3,80,0,0
342181,-83.3333333333333,4,3,2,5,0,0
342238,-250,4,3,2,80,0,0
342411,-250,4,3,2,5,0,0
342469,-66.6666666666667,4,3,3,80,0,0
342758,-66.6666666666667,4,3,2,5,0,0
342815,-83.3333333333333,4,3,2,80,0,0
343104,-83.3333333333333,4,3,2,5,0,0
343161,-250,4,3,2,80,0,0
343334,-250,4,3,2,5,0,0
343392,-66.6666666666667,4,3,3,80,0,0
343681,-66.6666666666667,4,3,2,5,0,0
343738,-83.3333333333333,4,3,2,80,0,0
344027,-83.3333333333333,4,3,2,5,0,0
344084,-83.3333333333333,4,3,2,80,0,0
344315,-100,4,3,2,80,0,0
344604,-100,4,3,2,5,0,0
344661,-133.333333333333,4,3,2,80,0,0
344950,-133.333333333333,4,3,2,5,0,0
345008,-133.333333333333,4,3,2,80,0,0
345238,-66.6666666666667,4,3,2,80,0,0
345527,-66.6666666666667,4,3,2,5,0,0
345584,-83.3333333333333,4,3,2,80,0,0
345873,-83.3333333333333,4,3,2,5,0,0
345931,-250,4,3,2,80,0,0
346104,-250,4,3,2,5,0,0
346161,-66.6666666666667,4,3,3,80,0,0
346450,-66.6666666666667,4,3,2,5,0,0
346508,-83.3333333333333,4,3,2,80,0,0
346796,-83.3333333333333,4,3,2,5,0,0
346854,-250,4,3,2,80,0,0
347027,-250,4,3,2,5,0,0
347084,-66.6666666666667,4,3,3,80,0,0
347373,-66.6666666666667,4,3,2,5,0,0
347431,-83.3333333333333,4,3,2,80,0,0
347719,-83.3333333333333,4,3,2,5,0,0
347777,-250,4,3,2,80,0,0
347950,-250,4,3,2,5,0,0
348008,-250,4,3,2,80,0,0
348469,-250,4,3,3,80,0,0
348700,-250,4,3,2,80,0,0
348931,-66.6666666666667,4,3,2,80,0,0
349219,-66.6666666666667,4,3,2,5,0,0
349277,-83.3333333333333,4,3,2,80,0,0
349565,-83.3333333333333,4,3,2,5,0,0
349623,-83.3333333333333,4,3,2,80,0,0
349854,-66.6666666666667,4,3,3,80,0,0
350142,-66.6666666666667,4,3,2,5,0,0
350200,-83.3333333333333,4,3,2,80,0,0
350488,-83.3333333333333,4,3,2,5,0,0
350546,-250,4,3,2,80,0,0
350719,-250,4,3,2,5,0,0
350777,-66.6666666666667,4,3,3,80,0,0
351065,-66.6666666666667,4,3,2,5,0,0
351123,-83.3333333333333,4,3,2,80,0,0
351411,-83.3333333333333,4,3,2,5,0,0
351469,-250,4,3,2,80,0,0
351642,-250,4,3,2,5,0,0
351700,-181.818181818181,4,3,2,80,0,0
351988,-181.818181818181,4,3,2,5,0,0
352046,-285.714285714284,4,3,2,80,0,0
352334,-285.714285714284,4,3,2,5,0,0
352392,-666.666666666658,4,3,3,80,0,0
352796,-666.666666666658,4,3,2,5,0,0
352854,-100,4,3,2,80,0,0
353027,-100,4,3,2,5,0,0
353084,-100,4,3,3,80,0,0
353258,-100,4,3,2,5,0,0
353315,-100,4,3,2,80,0,0
353546,-66.6666666666667,4,3,3,80,0,0
353834,-66.6666666666667,4,3,2,5,0,0
353892,-83.3333333333333,4,3,2,80,0,0
354181,-83.3333333333333,4,3,2,5,0,0
354238,-250,4,3,2,80,0,0
354411,-250,4,3,2,5,0,0
354469,-66.6666666666667,4,3,3,80,0,0
354758,-66.6666666666667,4,3,2,5,0,0
354815,-83.3333333333333,4,3,2,80,0,0
355104,-83.3333333333333,4,3,2,5,0,0
355161,-83.3333333333333,4,3,2,80,0,0
355392,-66.6666666666667,4,3,3,80,0,0
355565,-66.6666666666667,4,3,2,5,0,0
355623,-66.6666666666667,4,3,3,80,0,0
356027,-66.6666666666667,4,3,2,5,0,0
356084,-66.6666666666667,4,3,2,80,0,0
356315,-111.111111111111,4,3,2,80,0,0
356604,-111.111111111111,4,3,2,5,0,0
356661,-111.111111111111,4,3,2,80,0,0
356950,-111.111111111111,4,3,2,5,0,0
357008,-222.222222222221,4,3,2,80,0,0
357181,-222.222222222221,4,3,2,5,0,0
357238,-111.111111111111,4,3,2,80,0,0
357642,-111.111111111111,4,3,2,5,0,0
357700,-111.111111111111,4,3,2,80,0,0
357988,-111.111111111111,4,3,2,5,0,0
358046,-111.111111111111,4,3,3,80,0,0
358334,-111.111111111111,4,3,2,5,0,0
358392,-111.111111111111,4,3,2,80,0,0
358681,-111.111111111111,4,3,2,5,0,0
358738,-111.111111111111,4,3,2,80,0,0
359027,-111.111111111111,4,3,2,5,0,0
359084,-111.111111111111,4,3,2,80,0,0
359373,-111.111111111111,4,3,2,5,0,0
359431,-111.111111111111,4,3,2,80,0,0
359719,-111.111111111111,4,3,2,5,0,0
359777,-111.111111111111,4,3,2,80,0,0
359834,-111.111111111111,4,3,2,5,0,0
359892,-111.111111111111,4,3,2,80,0,0
359950,-111.111111111111,4,3,2,5,0,0
360008,-111.111111111111,4,3,2,80,0,0
360296,-111.111111111111,4,3,2,5,0,0
360354,-111.111111111111,4,3,2,80,0,0
360642,-111.111111111111,4,3,2,5,0,0
360700,-222.222222222221,4,3,2,80,0,0
360873,-222.222222222221,4,3,2,5,0,0
360931,-111.111111111111,4,3,2,80,0,0
361334,-111.111111111111,4,3,2,5,0,0
361392,-111.111111111111,4,3,2,80,0,0
361681,-111.111111111111,4,3,2,5,0,0
361738,-111.111111111111,4,3,3,80,0,0
362027,-111.111111111111,4,3,2,5,0,0
362084,-111.111111111111,4,3,2,80,0,0
362373,-111.111111111111,4,3,2,5,0,0
362431,-111.111111111111,4,3,2,80,0,0
362604,-111.111111111111,4,3,2,5,0,0
362661,-111.111111111111,4,3,3,80,0,0
362950,-111.111111111111,4,3,2,5,0,0
363008,-111.111111111111,4,3,2,80,0,0
363181,-111.111111111111,4,3,2,5,0,0
363238,-111.111111111111,4,3,3,80,0,0
363411,-111.111111111111,4,3,2,5,0,0
363469,-111.111111111111,4,3,2,80,0,0
363527,-111.111111111111,4,3,2,5,0,0
363584,-111.111111111111,4,3,2,80,0,0
363642,-111.111111111111,4,3,2,5,0,0
363700,-111.111111111111,4,3,2,80,0,0
363988,-111.111111111111,4,3,2,5,0,0
364046,-111.111111111111,4,3,2,80,0,0
364334,-111.111111111111,4,3,2,5,0,0
364392,-222.222222222221,4,3,2,80,0,0
364565,-222.222222222221,4,3,2,5,0,0
364623,-111.111111111111,4,3,2,80,0,0
365027,-111.111111111111,4,3,2,5,0,0
365084,-111.111111111111,4,3,2,80,0,0
365373,-111.111111111111,4,3,2,5,0,0
365431,-111.111111111111,4,3,3,80,0,0
365950,-111.111111111111,4,3,2,5,0,0
366008,-111.111111111111,4,3,3,80,0,0
366296,-111.111111111111,4,3,2,5,0,0
366354,-111.111111111111,4,3,3,80,0,0
366642,-111.111111111111,4,3,2,5,0,0
366700,-111.111111111111,4,3,2,80,0,0
366988,-111.111111111111,4,3,2,5,0,0
367046,-111.111111111111,4,3,2,80,0,0
367219,-111.111111111111,4,3,2,5,0,0
367277,-111.111111111111,4,3,2,80,0,0
367681,-111.111111111111,4,3,2,5,0,0
367738,-111.111111111111,4,3,2,80,0,0
368027,-111.111111111111,4,3,2,5,0,0
368084,-222.222222222221,4,3,2,80,0,0
368258,-222.222222222221,4,3,2,5,0,0
368315,-111.111111111111,4,3,2,80,0,0
368719,-111.111111111111,4,3,2,5,0,0
368777,-111.111111111111,4,3,3,80,0,0
369065,-111.111111111111,4,3,2,5,0,0
369123,-111.111111111111,4,3,3,80,0,0
369411,-111.111111111111,4,3,2,5,0,0
369469,-111.111111111111,4,3,2,80,0,0
369758,-111.111111111111,4,3,2,5,0,0
369815,-111.111111111111,4,3,2,80,0,0
369988,-111.111111111111,4,3,2,5,0,0
370046,-111.111111111111,4,3,3,80,0,0
371084,-111.111111111111,4,3,3,65,0,0
373392,-111.111111111111,4,3,2,65,0,0
373854,-111.111111111111,4,3,3,65,0,0
374315,-111.111111111111,4,3,2,65,0,0
375700,-111.111111111111,4,3,3,65,0,0
385854,-125,4,3,2,65,0,0
386488,-125,4,3,2,5,0,0
386546,-143.884892086331,4,3,2,65,0,0
393238,315.789473684211,3,3,2,100,1,0
393238,-100,3,3,2,5,0,0
412501,-100,3,3,2,10,0,0
414080,-100,3,3,2,20,0,0
415974,-100,3,3,2,30,0,0
417869,-100,3,3,2,40,0,0
419764,-100,3,3,2,50,0,0
420711,-100,3,3,2,60,0,0
421659,-100,3,3,2,70,0,0
422606,-100,3,3,2,80,0,0
422922,-100,3,3,2,90,0,0
423238,-100,3,3,2,100,0,0
423553,-100,3,3,2,5,0,0
424395,-100,3,3,2,100,0,1
424501,-90.9090909090909,3,3,2,100,0,1
425369,-90.9090909090909,3,3,2,5,0,1
425448,-90.9090909090909,3,3,2,100,0,1
426001,-90.9090909090909,3,3,2,5,0,1
426080,-222.222222222221,3,3,2,100,0,1
426316,-222.222222222221,3,3,2,5,0,1
426395,-90.9090909090909,3,3,2,100,0,1
427106,-90.9090909090909,3,3,2,5,0,1
427185,-90.9090909090909,3,3,2,100,0,1
427580,-90.9090909090909,3,3,2,5,0,1
427659,-125,3,3,2,100,0,1
427895,-125,3,3,2,5,0,1
427974,-200,3,3,2,100,0,1
428211,-200,3,3,2,5,0,1
428290,-83.3333333333333,3,3,2,100,0,1
429001,-83.3333333333333,3,3,2,5,0,1
429080,-83.3333333333333,3,3,2,100,0,1
429790,-83.3333333333333,3,3,2,5,0,1
429869,-222.222222222221,3,3,2,100,0,1
430106,-222.222222222221,3,3,2,5,0,1
430185,-133.333333333333,3,3,2,100,0,1
431764,-133.333333333333,3,3,3,100,0,1
432080,-76.9230769230769,3,3,3,100,0,1
432632,-76.9230769230769,3,3,2,5,0,1
432711,-222.222222222221,3,3,2,100,0,1
432948,-222.222222222221,3,3,2,5,0,1
433027,-90.9090909090909,3,3,2,100,0,1
433580,-90.9090909090909,3,3,2,5,0,1
433659,-222.222222222221,3,3,2,100,0,1
433895,-222.222222222221,3,3,2,5,0,1
433974,-90.9090909090909,3,3,2,100,0,1
434369,-90.9090909090909,3,3,2,5,0,1
434448,-90.9090909090909,3,3,2,100,0,1
434685,-90.9090909090909,3,3,2,5,0,1
434764,-90.9090909090909,3,3,2,100,0,1
435474,-90.9090909090909,3,3,2,5,0,1
435553,-222.222222222221,3,3,2,100,0,1
435790,-222.222222222221,3,3,2,5,0,1
435869,-76.9230769230769,3,3,3,100,0,1
436738,-76.9230769230769,3,3,3,5,0,1
436816,-76.9230769230769,3,3,2,100,0,1
437369,-76.9230769230769,3,3,2,5,0,1
437448,-222.222222222221,3,3,2,100,0,1
437685,-222.222222222221,3,3,2,5,0,1
437764,-100,3,3,2,100,0,1
438159,-100,3,3,2,5,0,1
438238,-100,3,3,2,100,0,1
438474,-100,3,3,2,5,0,1
438553,-100,3,3,2,100,0,1
438948,-100,3,3,2,5,0,1
439027,-100,3,3,2,100,0,1
439343,-100,3,3,3,100,0,1
439659,-125,3,3,2,75,0,0
442501,-76.9230769230769,3,3,3,75,0,0
443053,-76.9230769230769,3,3,2,5,0,0
443132,-76.9230769230769,3,3,2,75,0,0
443369,-76.9230769230769,3,3,2,5,0,0
443448,-125,3,3,2,75,0,0
451027,-125,3,3,3,75,0,0
451343,-125,3,3,2,75,0,0
453238,-90.9090909090909,3,3,2,75,0,0
453474,-90.9090909090909,3,3,2,5,0,0
453553,-111.111111111111,3,3,3,75,0,0
453790,-111.111111111111,3,3,2,5,0,0
453869,-333.333333333333,3,3,2,75,0,0
454106,-333.333333333333,3,3,2,5,0,0
454185,-100,3,3,3,75,0,0
454501,-100,3,3,2,75,0,0
454816,-111.111111111111,3,3,2,100,0,0
469659,-111.111111111111,3,3,3,100,0,0
469974,-111.111111111111,3,3,3,100,0,0
470290,-111.111111111111,3,3,2,100,0,0
477553,-111.111111111111,3,3,3,100,0,0
477869,-111.111111111111,3,3,2,100,0,0
484816,-111.111111111111,3,3,3,100,0,0
485132,-111.111111111111,3,3,3,100,0,0
490816,-111.111111111111,3,3,3,70,0,0
493659,-111.111111111111,3,3,3,50,0,0
499343,-111.111111111111,3,3,3,30,0,0
503132,-111.111111111111,3,3,3,15,0,0
504080,-111.111111111111,3,3,3,5,0,0

[Colours]
Combo1 : 206,198,187
Combo2 : 157,108,60
Combo3 : 166,136,106
Combo4 : 187,175,162

[HitObjects]
200,108,7427,6,0,B|144:125|113:158|113:158|115:121|95:91,1,157.500006008148,4|0,0:2|0:0,0:0:0:0:
270,17,7727,5,0,0:0:0:0:
270,22,7802,1,0,0:0:0:0:
270,27,7877,1,0,0:0:0:0:
270,32,7952,1,0,0:0:0:0:
270,37,8027,1,0,0:0:0:0:
270,42,8102,1,0,0:0:0:0:
270,47,8177,1,0,0:0:0:0:
270,52,8252,1,0,0:0:0:0:
271,57,8327,5,2,0:2:0:0:
452,118,8477,1,0,0:0:0:0:
371,179,8627,5,2,0:2:0:0:
444,323,8777,1,0,0:0:0:0:
316,289,8927,5,2,0:2:0:0:
317,282,9077,2,0,P|303:272|292:267,1,21.6999991390992,0|0,0:0|0:0,0:0:0:0:
183,191,9227,6,0,B|172:214|170:250|190:278|221:286|221:286|215:259|224:234,1,157.500006008148,4|0,0:2|0:0,0:0:0:0:
335,374,9527,5,0,0:0:0:0:
340,372,9602,1,0,0:0:0:0:
345,370,9677,1,0,0:0:0:0:
350,368,9752,1,0,0:0:0:0:
355,366,9827,1,0,0:0:0:0:
360,364,9902,1,0,0:0:0:0:
365,362,9977,1,0,0:0:0:0:
370,360,10052,1,0,0:0:0:0:
374,357,10127,6,0,B|416:356|416:356|440:301|440:301|414:312,1,128.099994722443,8|0,0:2|0:0,0:0:0:0:
359,144,10427,5,0,0:0:0:0:
344,206,10577,1,0,0:0:0:0:
217,142,10727,5,0,0:0:0:0:
209,108,10877,1,0,0:0:0:0:
55,254,11027,6,0,B|53:283|53:283|30:297|30:297|39:172,1,157.500006008148,4|0,0:2|0:0,0:0:0:0:
198,250,11327,5,0,0:0:0:0:
199,255,11402,1,0,0:0:0:0:
200,260,11477,1,0,0:0:0:0:
201,265,11552,1,0,0:0:0:0:
202,270,11627,1,2,0:3:0:0:
203,275,11702,1,0,0:0:0:0:
204,280,11777,1,0,0:0:0:0:
205,285,11852,1,0,0:0:0:0:
187,309,11927,5,8,0:2:0:0:
216,330,12002,1,0,0:0:0:0:
252,331,12077,1,0,0:0:0:0:
286,317,12152,1,0,0:0:0:0:
305,285,12227,5,2,0:3:0:0:
291,262,12302,1,0,0:0:0:0:
292,235,12377,1,0,0:0:0:0:
306,213,12452,1,0,0:0:0:0:
330,203,12527,6,0,P|359:213|377:231,3,52.5000020027161,2|0|0|0,0:3|0:0|0:0|0:0,0:0:0:0:
409,310,12827,5,2,0:3:0:0:
362,320,12902,1,0,0:0:0:0:
318,301,12977,1,0,0:0:0:0:
297,258,13052,1,0,0:0:0:0:
301,210,13127,2,0,L|357:194,1,52.5000020027161,2|0,0:3|0:0,0:0:0:0:
467,149,13277,2,0,L|411:133,1,52.5000020027161,0|0,0:0|0:0,0:0:0:0:
422,235,13427,6,0,L|428:272,3,21.3499991204071,2|0|0|0,0:3|0:0|0:0|0:0,0:0:0:0:
207,190,13727,6,0,P|192:178|176:174,1,35,8|0,0:2|0:0,0:0:0:0:
204,178,13877,2,0,P|189:166|173:162,1,35,0|0,0:0|0:0,0:0:0:0:
253,34,14027,6,0,P|266:50|272:71,1,41.9999987182618,2|0,0:3|0:0,0:0:0:0:
268,39,14177,2,0,P|281:55|287:76,1,41.9999987182618,0|0,0:0|0:0,0:0:0:0:
130,67,14327,6,0,B|109:76|109:76|80:69,1,48.9999985046387,2|0,0:3|0:0,0:0:0:0:
81,54,14477,2,0,B|102:45|102:45|131:52,1,48.9999985046387,0|0,0:0|0:0,0:0:0:0:
293,163,14627,6,0,B|325:168|342:140|342:140|337:135|337:135|343:139|343:139|356:112|393:113,1,125.999996154785,4|0,0:2|0:0,0:0:0:0:
220,211,14927,5,8,0:3:0:0:
219,215,15002,1,8,0:3:0:0:
205,229,15077,1,8,0:3:0:0:
206,233,15152,1,8,0:3:0:0:
221,239,15227,1,8,0:1:0:0:
220,243,15302,1,8,0:1:0:0:
208,259,15377,1,8,0:1:0:0:
209,263,15452,1,8,0:1:0:0:
219,281,15527,6,0,L|213:304,1,21,0|0,0:0|0:0,0:0:0:0:
420,290,15827,6,0,L|463:303,1,35,2|0,0:3|0:0,0:0:0:0:
430,284,15977,2,0,L|473:297,1,35,0|0,0:0|0:0,0:0:0:0:
301,361,16127,6,0,L|257:369,1,28,2|0,0:3|0:0,0:0:0:0:
291,353,16277,2,0,L|247:361,1,28,0|0,0:0|0:0,0:0:0:0:
126,191,16427,5,4,0:2:0:0:
82,220,16502,1,0,0:0:0:0:
68,265,16577,1,0,0:0:0:0:
81,304,16652,1,0,0:0:0:0:
110,325,16727,5,0,0:0:0:0:
114,323,16802,1,0,0:0:0:0:
118,321,16877,1,0,0:0:0:0:
122,319,16952,1,0,0:0:0:0:
126,317,17027,1,0,0:0:0:0:
130,315,17102,1,0,0:0:0:0:
134,313,17177,1,0,0:0:0:0:
138,311,17252,1,0,0:0:0:0:
141,307,17327,6,0,B|166:281|166:281|217:269|217:269|254:279|254:279|216:287,1,157.500006008148,8|0,0:2|0:0,0:0:0:0:
385,233,17627,5,0,0:0:0:0:
407,299,17777,1,0,0:0:0:0:
451,159,17927,5,0,0:0:0:0:
459,131,18077,1,0,0:0:0:0:
186,99,18227,6,0,P|209:125|243:132,1,70,4|0,0:2|0:0,0:0:0:0:
294,75,18527,1,0,0:0:0:0:
372,53,18677,1,0,0:0:0:0:
359,130,18827,2,0,L|352:169,3,35,0|0|0|0,0:0|2:0|3:0|2:0,0:0:0:0:
210,33,19127,6,0,B|190:23|190:23|160:21|138:39,1,77.0000023498536,8|0,0:2|0:0,0:0:0:0:
44,122,19427,2,0,B|60:113|60:113|84:112|102:126,1,62.9999980773926,0|0,0:0|0:0,0:0:0:0:
170,199,19727,2,0,B|157:192|157:192|138:191|124:202,1,48.9999985046387,0|0,0:0|0:0,0:0:0:0:
290,104,20027,6,0,L|282:150,1,41.9999987182618,2|0,0:3|0:0,0:0:0:0:
303,99,20177,2,0,L|295:147,1,41.9999987182618,0|0,0:0|0:0,0:0:0:0:
414,31,20327,6,0,L|420:71,1,31.4999990386963,2|0,0:3|0:0,0:0:0:0:
401,26,20477,2,0,L|407:65,1,31.4999990386963,0|0,0:0|0:0,0:0:0:0:
410,147,20627,6,0,L|436:138,1,17.5,2|0,0:3|0:0,0:0:0:0:
409,159,20777,2,0,L|435:150,1,17.5,0|0,0:0|0:0,0:0:0:0:
271,351,20927,6,0,P|244:334|232:315,1,35,8|0,0:2|0:0,0:0:0:0:
255,355,21077,2,0,P|228:338|216:319,1,35,0|0,0:0|0:0,0:0:0:0:
147,239,21227,6,0,P|175:221|188:201,1,45.4999979171754,2|0,0:3|0:0,0:0:0:0:
163,243,21377,2,0,P|191:224|204:204,1,45.4999979171754,0|0,0:0|0:0,0:0:0:0:
290,253,21527,6,0,P|297:259|310:265,1,20.9999993591309,2|0,0:3|0:0,0:0:0:0:
283,264,21677,2,0,P|290:270|303:276,1,20.9999993591309,0|0,0:0|0:0,0:0:0:0:
74,105,21827,6,0,B|10:93|5:25|53:-12|116:5|150:40|161:126|67:172,1,308.000009399414,8|0,0:2|0:0,0:0:0:0:
64,356,22645,5,2,2:3:0:0:
132,330,22917,1,2,2:3:0:0:
139,339,23190,1,2,2:3:0:0:
100,225,23463,6,0,B|87:224|87:224|35:244,1,52.5000020027161,4|0,0:2|0:0,0:0:0:0:
249,84,23736,6,0,L|262:42,1,26.2500010013581,2|0,2:2|0:0,0:0:0:0:
339,148,24281,6,0,L|326:106,1,26.2500010013581,2|0,2:2|0:0,0:0:0:0:
234,206,24827,6,0,L|247:164,1,26.2500010013581,2|0,2:2|0:0,0:0:0:0:
373,286,25099,6,0,B|380:305|407:308|407:308|455:294,1,77.0000023498536,0|0,0:0|0:0,0:0:0:0:
508,210,25372,2,0,B|501:229|474:232|474:232|426:218,1,77.0000023498536,2|0,0:3|0:0,0:0:0:0:
353,278,25645,2,0,B|348:314|348:314|341:326|341:326|337:366,1,77.0000023498536,0|0,0:0|0:0,0:0:0:0:
271,140,25917,6,0,P|254:124|194:109,1,77.0000023498536,8|0,0:2|0:0,0:0:0:0:
156,32,26190,2,0,B|147:53|131:60|131:60|114:50|86:50,1,77.0000023498536,0|0,0:0|0:0,0:0:0:0:
145,178,26463,5,2,0:3:0:0:
150,196,26531,1,0,0:0:0:0:
155,214,26599,1,0,0:0:0:0:
160,232,26667,1,0,0:0:0:0:
165,250,26736,5,8,0:3:0:0:
237,282,26872,1,8,0:3:0:0:
314,250,27008,1,8,0:3:0:0:
317,170,27145,1,8,0:3:0:0:
224,130,27281,6,0,L|232:185,1,38.5000011749268,2|0,0:3|0:0,0:0:0:0:
73,92,27417,2,0,L|78:53,1,38.5000011749268,0|0,0:0|0:0,0:0:0:0:
239,142,27554,5,8,0:3:0:0:
312,173,27690,1,8,0:3:0:0:
386,142,27827,1,8,0:3:0:0:
399,66,27963,1,8,0:3:0:0:
321,23,28099,6,0,B|298:13|279:30|279:30|304:27|324:37,1,77.0000023498536,4|0,0:2|2:0,0:0:0:0:
477,203,28372,5,12,0:2:0:0:
464,244,28440,1,0,0:0:0:0:
428,269,28508,1,8,0:2:0:0:
383,271,28577,1,0,0:0:0:0:
346,246,28645,1,8,0:2:0:0:
303,236,28713,1,0,0:0:0:0:
260,247,28781,5,12,0:2:0:0:
295,221,28849,1,0,0:0:0:0:
299,177,28917,1,8,0:2:0:0:
283,135,28986,1,0,0:0:0:0:
245,113,29054,1,8,0:2:0:0:
201,113,29122,1,0,0:0:0:0:
164,136,29190,5,12,0:2:0:0:
156,139,29258,1,0,0:0:0:0:
147,141,29327,2,0,P|118:133|103:116,1,43.75,8|0,0:2|0:0,0:0:0:0:
346,67,29463,5,12,0:2:0:0:
359,78,29531,1,0,0:0:0:0:
368,92,29599,2,0,P|371:123|364:149,1,43.75,8|0,0:2|0:0,0:0:0:0:
182,259,29736,5,12,0:2:0:0:
186,284,29804,1,0,0:0:0:0:
202,304,29872,2,0,P|229:314|245:314,1,43.75,8|0,0:2|0:0,0:0:0:0:
95,45,30008,5,12,0:2:0:0:
69,80,30077,1,0,0:0:0:0:
65,123,30145,1,8,0:2:0:0:
90,158,30213,1,0,0:0:0:0:
129,176,30281,1,8,0:2:0:0:
172,175,30349,1,0,0:0:0:0:
206,148,30417,5,12,0:2:0:0:
162,140,30486,1,0,0:0:0:0:
123,161,30554,1,8,0:2:0:0:
110,202,30622,1,0,0:0:0:0:
119,244,30690,1,8,0:2:0:0:
145,278,30758,1,0,0:0:0:0:
187,290,30827,5,12,0:2:0:0:
194,286,30895,1,0,0:0:0:0:
202,283,30963,2,0,L|273:275,1,43.75,8|0,0:2|0:0,0:0:0:0:
359,124,31099,5,12,0:2:0:0:
371,135,31167,1,0,0:0:0:0:
380,149,31236,2,0,L|368:216,1,43.75,8|0,0:2|0:0,0:0:0:0:
424,372,31372,5,12,0:2:0:0:
397,372,31440,1,0,0:0:0:0:
372,362,31508,2,0,L|346:290,1,43.75,8|0,0:2|0:0,0:0:0:0:
284,111,31645,5,12,0:2:0:0:
300,70,31713,1,0,0:0:0:0:
338,50,31781,1,8,0:2:0:0:
381,51,31849,1,0,0:0:0:0:
422,63,31917,1,8,0:2:0:0:
464,49,31986,1,0,0:0:0:0:
475,6,32054,5,12,0:2:0:0:
433,19,32122,1,0,0:0:0:0:
404,51,32190,1,8,0:2:0:0:
399,94,32258,1,0,0:0:0:0:
414,135,32327,1,8,0:2:0:0:
451,157,32395,1,0,0:0:0:0:
494,159,32463,5,12,0:2:0:0:
497,151,32531,1,0,0:0:0:0:
499,142,32599,2,0,B|480:123|480:123|452:115,1,43.75,8|0,0:2|0:0,0:0:0:0:
301,173,32736,5,12,0:2:0:0:
292,187,32804,1,0,0:0:0:0:
289,204,32872,2,0,B|294:228|294:228|320:249,1,43.75,8|0,0:2|0:0,0:0:0:0:
482,315,33008,5,12,0:2:0:0:
501,297,33077,1,0,0:0:0:0:
509,272,33145,2,0,B|511:245|511:245|489:221,1,43.75,8|0,0:2|0:0,0:0:0:0:
290,354,33281,5,12,0:2:0:0:
258,369,33349,1,0,0:0:0:0:
223,369,33417,1,8,0:2:0:0:
191,352,33486,1,0,0:0:0:0:
176,320,33554,1,8,0:2:0:0:
177,285,33622,1,0,0:0:0:0:
197,256,33690,1,8,0:2:0:0:
230,245,33758,1,0,0:0:0:0:
264,250,33827,6,0,P|285:242|302:220,1,43.75,10|0,0:2|0:0,0:0:0:0:
375,216,33963,2,0,P|377:193|364:168,1,43.75,8|0,0:2|0:0,0:0:0:0:
232,49,34099,5,12,0:2:0:0:
207,57,34167,1,0,0:0:0:0:
193,79,34236,1,8,0:2:0:0:
191,105,34304,1,0,0:0:0:0:
207,125,34372,6,0,L|259:114,3,43.75,12|0|8|0,0:2|0:0|0:2|0:0,0:0:0:0:
47,4,34645,6,0,B|21:14|21:14|3:41,1,43.75,12|0,0:2|0:0,0:0:0:0:
35,96,34781,2,0,B|25:119|25:119|29:145,1,43.75,8|0,0:2|0:0,0:0:0:0:
138,181,34917,5,0,0:0:0:0:
201,200,35008,1,0,0:0:0:0:
223,262,35099,1,0,0:0:0:0:
208,327,35190,1,0,0:0:0:0:
237,372,35281,1,0,0:0:0:0:
291,377,35372,1,0,0:0:0:0:
330,339,35463,1,0,0:0:0:0:
357,306,35554,1,0,0:0:0:0:
399,312,35645,1,0,0:0:0:0:
489,370,35736,5,12,0:2:0:0:
457,341,35827,1,0,0:0:0:0:
453,299,35917,1,0,0:0:0:0:
469,259,36008,1,0,0:0:0:0:
486,234,36099,1,0,0:0:0:0:
484,203,36190,1,0,0:0:0:0:
457,187,36281,2,0,B|444:171|426:181|426:181|436:200|456:191,2,60.6666638895672,0|0|0,0:0|0:0|0:0,0:0:0:0:
316,224,36554,5,4,0:2:0:0:
245,241,36645,1,0,0:0:0:0:
188,194,36736,1,0,0:0:0:0:
196,121,36827,1,0,0:0:0:0:
258,85,36917,1,0,0:0:0:0:
328,101,37008,1,0,0:0:0:0:
390,138,37099,1,0,0:0:0:0:
444,129,37190,1,0,0:0:0:0:
464,98,37281,1,0,0:0:0:0:
398,32,37372,6,0,P|372:55|341:66,2,51.3333348999024,12|0|0,0:2|0:0|0:0,0:0:0:0:
241,85,37645,5,2,0:3:0:0:
219,82,37736,1,2,0:3:0:0:
196,56,37827,1,2,0:3:0:0:
157,27,37917,5,2,0:3:0:0:
99,43,38008,1,2,0:3:0:0:
73,110,38099,1,2,0:3:0:0:
120,170,38190,5,2,0:3:0:0:
180,162,38281,1,0,0:0:0:0:
235,187,38372,1,0,0:0:0:0:
261,241,38463,1,0,0:0:0:0:
248,300,38554,1,0,0:0:0:0:
199,335,38645,1,0,0:0:0:0:
138,329,38736,5,0,0:0:0:0:
128,321,38827,1,0,0:0:0:0:
123,309,38917,1,0,0:0:0:0:
179,252,39008,5,12,0:2:0:0:
170,216,39099,1,0,0:0:0:0:
162,179,39190,1,0,0:0:0:0:
98,121,39281,6,0,P|125:105|154:102,2,41.9999987182618,0|0|0,0:0|0:0|0:0,0:0:0:0:
188,34,39554,6,0,P|208:50|225:74,2,32.6666656697591,0|0|0,0:0|0:0|0:0,0:0:0:0:
290,149,39827,5,4,0:2:0:0:
319,169,39917,1,0,0:0:0:0:
355,173,40008,1,0,0:0:0:0:
388,159,40099,1,0,0:0:0:0:
408,128,40190,1,0,0:0:0:0:
408,91,40281,1,0,0:0:0:0:
383,63,40372,6,0,P|371:95|366:128,2,60.6666638895672
305,284,40645,5,12,0:2:0:0:
276,344,40736,1,0,0:0:0:0:
213,367,40827,1,0,0:0:0:0:
150,345,40917,1,0,0:0:0:0:
131,280,41008,1,0,0:0:0:0:
81,235,41099,1,0,0:0:0:0:
15,249,41190,5,2,0:3:0:0:
58,272,41281,2,0,P|90:277|117:296,1,60.6666638895672,2|2,0:3|0:3,0:0:0:0:
219,271,41463,5,4,0:2:0:0:
231,265,41554,1,0,0:0:0:0:
244,259,41645,1,0,0:0:0:0:
256,252,41736,5,0,0:0:0:0:
212,212,41827,1,0,0:0:0:0:
238,182,41917,1,0,0:0:0:0:
221,155,42008,5,0,0:0:0:0:
224,146,42099,1,0,0:0:0:0:
228,136,42190,1,0,0:0:0:0:
177,67,42281,5,12,0:2:0:0:
236,37,42372,1,0,0:0:0:0:
299,58,42463,1,0,0:0:0:0:
319,121,42554,5,0,0:0:0:0:
362,102,42645,1,0,0:0:0:0:
400,120,42736,1,0,0:0:0:0:
417,108,42827,2,0,B|429:99|438:84|438:84|430:102|431:122,2,60.6666638895672
239,116,43099,5,4,0:2:0:0:
230,163,43190,1,0,0:0:0:0:
195,197,43281,1,0,0:0:0:0:
146,200,43372,1,0,0:0:0:0:
98,189,43463,1,0,0:0:0:0:
55,212,43554,1,0,0:0:0:0:
43,259,43645,1,0,0:0:0:0:
59,291,43736,1,0,0:0:0:0:
81,300,43827,1,0,0:0:0:0:
135,355,43917,6,0,P|172:329|193:323,2,60.6666638895672,12|0|0,0:2|0:0|0:0,0:0:0:0:
294,255,44190,5,2,0:3:0:0:
314,251,44281,1,2,0:3:0:0:
342,263,44372,1,2,0:3:0:0:
365,302,44463,5,2,0:3:0:0:
419,323,44554,1,2,0:3:0:0:
473,275,44645,1,2,0:3:0:0:
453,200,44736,6,0,B|416:152|464:119|463:118|463:117|507:81|481:34,1,157.500006008148,4|0,0:2|0:0,0:0:0:0:
413,60,45008,5,0,0:0:0:0:
402,62,45099,1,0,0:0:0:0:
391,64,45190,1,0,0:0:0:0:
370,87,45281,5,0,0:0:0:0:
359,87,45372,1,0,0:0:0:0:
348,87,45463,1,0,0:0:0:0:
258,62,45554,6,0,B|199:65|173:121|173:121|202:142|194:189,1,157.500006008148,8|0,0:2|0:0,0:0:0:0:
123,184,45827,2,0,P|212:165|254:190,1,136.499993751526,0|0,0:0|0:0,0:0:0:0:
316,226,46099,2,0,B|314:237|318:249|318:249|305:247|290:250,1,47.2499985580445,4|0,0:2|0:0,0:0:0:0:
184,239,46372,6,0,B|183:267|183:267|190:239,3,45.4999979171754,0|0|0|0,0:0|0:0|0:0|0:0,0:0:0:0:
312,371,46645,5,0,0:0:0:0:
310,360,46736,1,0,0:0:0:0:
308,349,46827,1,0,0:0:0:0:
285,328,46918,5,0,0:0:0:0:
285,317,47009,1,0,0:0:0:0:
285,306,47100,1,0,0:0:0:0:
363,254,47190,5,8,0:2:0:0:
312,245,47281,1,0,0:0:0:0:
260,234,47372,1,0,0:0:0:0:
227,198,47463,5,8,0:3:0:0:
192,206,47554,1,0,0:0:0:0:
156,215,47645,1,0,0:0:0:0:
129,241,47736,5,8,0:3:0:0:
109,236,47827,1,0,0:0:0:0:
89,232,47917,1,0,0:0:0:0:
107,149,48008,6,0,B|126:143|131:118|131:118|94:97|66:113|66:113|42:127|23:166|40:206|69:222|69:222|122:206|175:230|195:304|175:337|175:337|151:354|128:351|128:346|131:339|98:329|72:336|58:341|58:341|52:347|52:347|58:342|58:342|47:303|72:252|123:234|153:229|217:238|217:238|256:235|325:200|318:136|280:98|224:94|188:116|176:173|198:215|218:237|218:237|226:259|248:287|281:292|281:292|305:277|328:255,1,1271.89995730316,4|0,0:2|0:0,0:0:0:0:
379,79,52623,5,8,0:3:0:0:
364,63,52681,1,8,0:3:0:0:
343,58,52738,2,0,P|317:66|305:85,1,35,8|8,0:3|0:3,0:0:0:0:
397,148,52854,2,0,P|415:154|430:153,3,35,8|8|8|8,0:3|0:3|0:3|0:3,0:0:0:0:
454,62,53084,6,0,B|468:25|508:24|508:24|479:47|454:94,1,140,8|0,0:2|0:0,0:0:0:0:
488,299,53546,6,0,P|468:293|436:287,3,35,12|0|8|0,0:2|0:0|0:2|0:0,0:0:0:0:
411,354,53777,2,0,P|391:360|359:366,3,35,8|0|8|0,0:2|0:0|0:2|0:0,0:0:0:0:
305,188,54008,5,10,0:2:0:0:
290,179,54065,1,0,0:0:0:0:
272,175,54123,1,10,0:2:0:0:
254,175,54181,1,0,0:0:0:0:
237,179,54238,1,10,0:2:0:0:
222,188,54296,1,0,0:0:0:0:
211,201,54354,1,10,0:2:0:0:
203,216,54411,1,0,0:0:0:0:
200,235,54469,6,0,L|211:274,3,35,10|0|8|0,0:2|0:0|0:2|0:0,0:0:0:0:
263,316,54700,2,0,L|252:355,3,35,8|0|8|0,0:2|0:0|0:2|0:0,0:0:0:0:
35,366,54931,5,10,0:2:0:0:
20,356,54988,1,0,0:0:0:0:
10,341,55046,1,10,0:2:0:0:
5,324,55104,1,0,0:0:0:0:
5,306,55161,1,10,0:2:0:0:
11,289,55219,1,0,0:0:0:0:
21,274,55277,1,10,0:2:0:0:
34,263,55334,1,0,0:0:0:0:
50,256,55392,6,0,P|71:262|90:274,3,35,10|0|8|0,0:2|0:0|0:2|0:0,0:0:0:0:
126,329,55623,2,0,P|147:323|166:311,3,35,8|0|8|0,0:2|0:0|0:2|0:0,0:0:0:0:
373,141,55854,5,12,0:2:0:0:
379,131,55911,1,0,0:0:0:0:
382,119,55969,1,10,0:2:0:0:
383,106,56027,1,0,0:0:0:0:
381,94,56084,1,10,0:2:0:0:
374,83,56142,1,0,0:0:0:0:
364,75,56200,1,10,0:2:0:0:
352,69,56258,1,0,0:0:0:0:
340,65,56315,6,0,P|313:70|296:79,3,35,10|0|8|0,0:2|0:0|0:2|0:0,0:0:0:0:
262,139,56546,2,0,P|235:134|218:125,3,35,10|0|8|0,0:2|0:0|0:2|0:0,0:0:0:0:
135,370,56777,6,0,B|114:325|114:325|149:243,1,105.000004005432,12|0,0:2|0:0,0:0:0:0:
212,244,56950,2,0,B|190:235|190:235|136:255|136:255|99:238,1,105.000004005432,8|0,0:2|0:0,0:0:0:0:
49,208,57123,2,0,B|32:187|32:187|71:197,1,52.5000020027161,10|0,0:2|0:0,0:0:0:0:
233,321,57238,6,0,P|256:314|276:310,3,35,8|0|8|0,0:2|0:0|0:2|0:0,0:0:0:0:
308,248,57469,2,0,P|331:255|351:259,3,35,8|0|8|0,0:2|0:0|0:2|0:0,0:0:0:0:
484,133,57700,5,10,0:2:0:0:
489,121,57758,1,0,0:0:0:0:
490,108,57815,1,10,0:2:0:0:
486,96,57873,1,0,0:0:0:0:
478,86,57931,1,10,0:2:0:0:
468,78,57988,1,0,0:0:0:0:
457,71,58046,1,10,0:2:0:0:
444,68,58104,1,0,0:0:0:0:
431,68,58161,6,0,P|416:93|412:107,3,35,10|0|8|0,0:2|0:0|0:2|0:0,0:0:0:0:
359,148,58392,2,0,P|374:173|378:187,3,35,8|0|8|0,0:2|0:0|0:2|0:0,0:0:0:0:
474,289,58623,5,8,0:3:0:0:
467,291,58681,1,8,0:3:0:0:
460,292,58738,1,8,0:3:0:0:
453,294,58796,1,8,0:3:0:0:
436,316,58854,5,8,0:3:0:0:
430,314,58911,1,8,0:3:0:0:
424,312,58969,1,8,0:3:0:0:
418,310,59027,1,8,0:3:0:0:
389,284,59084,6,0,B|364:292|364:292|365:293|365:293|332:304,1,52.5000020027161,12|0,0:2|0:0,0:0:0:0:
182,246,59315,6,0,B|146:275|146:275|177:356,1,125.999996154785,4|0,0:2|0:0,0:0:0:0:
163,363,59546,2,0,B|155:343|155:343|88:357|88:357|77:328,1,105,4|0,0:2|0:0,0:0:0:0:
52,264,59777,2,0,L|86:349,1,84,4|0,0:2|0:0,0:0:0:0:
151,167,60008,6,0,P|169:149|145:164,1,78.7500030040742,4|0,0:2|0:0,0:0:0:0:
338,211,60238,6,0,B|335:227|335:227|433:196|433:196|411:180,1,136.499993751526,4|0,0:2|0:2,0:2:0:0:
296,369,60469,6,0,B|278:320|278:320|278:314|278:314|254:249,1,115.50000352478,4|0,0:2|0:0,0:0:0:0:
376,312,60700,2,0,B|351:297|351:297|377:367,1,94.499997116089,4|0,0:2|0:0,0:0:0:0:
371,65,60931,6,0,P|347:72|329:80,3,35,8|0|8|0,0:2|0:0|0:2|0:0,0:0:0:0:
286,139,61161,2,0,P|262:132|244:124,3,35,8|0|8|0,0:2|0:0|0:2|0:0,0:0:0:0:
115,22,61392,5,10,0:2:0:0:
102,24,61450,1,0,0:0:0:0:
91,29,61508,1,10,0:2:0:0:
82,37,61565,1,0,0:0:0:0:
75,47,61623,1,10,0:2:0:0:
71,58,61681,1,0,0:0:0:0:
69,70,61738,1,10,0:2:0:0:
70,82,61796,1,0,0:0:0:0:
74,93,61854,6,0,P|86:118|90:136,3,35,12|0|8|0,0:2|0:0|0:2|0:0,0:0:0:0:
139,182,62084,2,0,P|127:207|123:225,3,35,8|0|8|0,0:2|0:0|0:2|0:0,0:0:0:0:
68,317,62315,5,10,0:2:0:0:
74,327,62373,1,0,0:0:0:0:
83,334,62431,1,10,0:2:0:0:
94,337,62488,1,0,0:0:0:0:
106,338,62546,1,10,0:2:0:0:
118,337,62604,1,0,0:0:0:0:
129,334,62661,1,10,0:2:0:0:
140,329,62719,1,0,0:0:0:0:
149,321,62777,6,0,P|180:313|202:312,3,35,10|0|8|0,0:2|0:0|0:2|0:0,0:0:0:0:
242,266,63008,2,0,P|273:274|295:275,3,35,8|0|8|0,0:2|0:0|0:2|0:0,0:0:0:0:
146,152,63238,5,10,0:2:0:0:
145,139,63296,1,0,0:0:0:0:
149,127,63354,1,10,0:2:0:0:
157,117,63411,1,0,0:0:0:0:
168,109,63469,1,10,0:2:0:0:
180,105,63527,1,0,0:0:0:0:
193,105,63584,1,10,0:2:0:0:
206,107,63642,1,0,0:0:0:0:
218,111,63700,6,0,P|209:133|204:146,3,35,10|0|8|0,0:2|0:0|0:2|0:0,0:0:0:0:
156,197,63931,2,0,P|165:219|170:232,3,35,8|0|8|0,0:2|0:0|0:2|0:0,0:0:0:0:
268,323,64161,5,12,0:2:0:0:
285,296,64219,1,0,0:0:0:0:
309,276,64277,1,8,0:2:0:0:
337,263,64334,1,0,0:0:0:0:
368,259,64392,1,12,0:2:0:0:
399,263,64450,1,0,0:0:0:0:
428,274,64508,1,8,0:2:0:0:
452,293,64565,1,0,0:0:0:0:
465,321,64623,6,0,P|440:335|430:350,3,35,12|0|8|0,0:2|0:0|0:2|0:0,0:0:0:0:
363,187,64854,5,8,0:2:0:0:
367,165,64911,1,0,0:0:0:0:
371,143,64969,1,8,0:2:0:0:
375,121,65027,1,0,0:0:0:0:
380,95,65084,6,0,P|400:86|421:79,3,38.5000011749268,10|0|10|0,0:2|0:0|0:2|0:0,0:0:0:0:
450,14,65315,2,0,P|473:30|499:46,3,45.4999979171754,10|0|10|0,0:2|0:0|0:2|0:0,0:0:0:0:
463,178,65546,6,0,P|442:206|437:235,3,52.5000020027161,10|0|10|0,0:2|0:0|0:2|0:0,0:0:0:0:
373,267,65777,2,0,P|400:297|421:307,3,48.9999985046387,10|0|10|0,0:2|0:0|0:2|0:0,0:0:0:0:
255,358,66008,5,8,0:3:0:0:
253,346,66066,1,8,0:3:0:0:
252,336,66123,1,8,0:3:0:0:
249,326,66181,1,8,0:3:0:0:
217,301,66239,5,8,0:3:0:0:
219,293,66296,1,8,0:3:0:0:
222,284,66354,1,8,0:3:0:0:
226,275,66412,1,8,0:3:0:0:
269,254,66469,6,0,B|272:242|272:242|260:211|260:211|266:200,1,52.5000020027161,12|0,0:2|0:0,0:0:0:0:
294,65,66700,6,0,B|241:77|241:77|218:72|218:72|158:86,1,125.999996154785,4|0,0:2|0:0,0:0:0:0:
144,67,66931,2,0,B|165:44|165:44|145:132,1,105,4|0,0:2|0:0,0:0:0:0:
254,102,67161,2,0,L|340:76,1,84,4|0,0:2|0:0,0:0:0:0:
456,174,67392,6,0,B|471:164|487:154|487:154|456:148|442:164,1,78.7500030040742,4|0,0:2|0:0,0:0:0:0:
259,307,67623,6,0,B|295:317|320:343|320:343|331:309|357:286,1,136.499993751526,4|0,0:2|0:0,0:0:0:0:
244,211,67854,5,8,0:1:0:0:
149,275,67969,1,8,0:1:0:0:
234,196,68084,5,8,0:1:0:0:
319,210,68200,1,8,0:1:0:0:
419,30,68315,6,0,B|395:45|391:62|391:62|436:35|478:37,1,124.950000762634,8|0,0:1|0:0,0:0:0:0:
499,22,68777,6,0,L|486:82,1,52.5000020027161,2|0,2:2|0:0,0:0:0:0:
499,22,69700,6,0,L|486:82,1,52.5000020027161,2|0,2:2|0:0,0:0:0:0:
499,22,70623,6,0,L|486:82,1,52.5000020027161,2|0,2:2|0:0,0:0:0:0:
394,156,70854,5,0,0:0:0:0:
398,169,70931,1,0,0:0:0:0:
402,182,71008,1,0,0:0:0:0:
404,193,71084,6,0,L|456:201,1,47.2499985580445,0|0,0:0|0:0,0:0:0:0:
274,89,71315,6,0,B|267:68|241:60|212:66|212:66|206:87|182:108|141:99,1,125.999996154785,4|0,0:2|0:0,0:0:0:0:
165,122,71546,2,0,B|175:135|176:152|176:152|149:133|100:123,1,105,4|0,0:2|0:0,0:0:0:0:
246,155,71777,2,0,P|243:182|199:219,1,84,4|0,0:2|0:0,0:0:0:0:
17,236,72008,6,0,P|50:286|64:354,1,124.950000762634,8|0,0:1|0:0,0:0:0:0:
33,370,72469,6,0,L|105:355,1,52.5000020027161,2|0,2:2|0:0,0:0:0:0:
33,370,73392,6,0,L|105:355,1,52.5000020027161,2|0,2:2|0:0,0:0:0:0:
201,285,73623,5,0,0:0:0:0:
214,287,73700,1,0,0:0:0:0:
227,290,73777,1,0,0:0:0:0:
240,293,73854,6,0,P|226:314|192:313,1,47.2499985580445,0|0,0:0|0:0,0:0:0:0:
81,158,74084,6,0,B|80:83|80:83|36:106|36:106|49:127,1,136.499993751526,4|0,0:2|0:0,0:0:0:0:
73,178,74315,2,0,B|129:156|129:156|138:160|138:160|205:131,1,115.50000352478,4|0,0:2|0:0,0:0:0:0:
75,251,74546,2,0,B|45:253|45:253|6:231|6:231|5:194,1,94.499997116089,4|0,0:2|0:0,0:0:0:0:
215,230,74777,6,0,B|203:208|203:208|180:218|180:218|190:239|190:239|212:230,1,78.7500030040742,4|0,0:2|0:0,0:0:0:0:
315,40,75008,6,0,B|353:45|383:84|366:121|366:121|343:102|321:101,1,146.999995513916,4|0,0:2|0:0,0:0:0:0:
172,61,75238,5,8,0:1:0:0:
40,112,75354,1,8,0:1:0:0:
153,133,75469,5,8,0:1:0:0:
238,155,75584,1,8,0:1:0:0:
225,300,75700,6,0,B|209:334|179:335|179:335|169:309|140:298|113:301,1,124.950000762634,8|0,0:1|0:0,0:0:0:0:
280,361,76161,5,10,0:2:0:0:
365,344,76277,1,0,0:0:0:0:
422,284,76392,5,0,0:0:0:0:
460,296,76508,1,0,0:0:0:0:
315,286,76623,6,0,B|299:280|298:263|298:263|299:224,1,52.5000020027161,0|0,0:0|0:0,0:0:0:0:
460,37,77084,6,0,L|451:105,1,52.5000020027161,8|0,0:1|0:0,0:0:0:0:
368,123,77315,2,0,L|377:191,1,52.5000020027161,0|0,0:0|0:0,0:0:0:0:
454,272,77546,6,0,L|401:265,1,52.5000020027161,0|0,0:0|0:0,0:0:0:0:
460,37,78008,6,0,L|451:105,1,52.5000020027161,8|0,0:1|0:0,0:0:0:0:
368,123,78239,2,0,L|377:191,1,52.5000020027161,0|0,0:0|0:0,0:0:0:0:
454,272,78469,6,0,L|401:265,1,52.5000020027161,0|0,0:0|0:0,0:0:0:0:
243,132,78700,6,0,B|253:49|253:49|222:77,1,125.999996154785,4|0,0:2|0:0,0:0:0:0:
199,53,78931,2,0,B|231:26|231:26|315:10,1,105,4|0,0:2|0:0,0:0:0:0:
149,111,79161,2,0,B|128:104|128:104|124:56|124:56|103:49,1,84,4|0,0:2|0:0,0:0:0:0:
329,277,79392,6,0,P|254:245|210:238,1,124.950000762634,8|0,0:1|0:0,0:0:0:0:
191,219,79854,6,0,P|189:248|208:291,1,52.5000020027161,10|0,0:2|0:0,0:0:0:0:
85,311,80084,2,0,P|87:340|68:383,1,52.5000020027161,0|0,0:0|0:0,0:0:0:0:
12,221,80315,6,0,P|41:204|86:196,1,52.5000020027161,0|0,0:0|0:0,0:0:0:0:
191,219,80777,6,0,P|190:233|199:254,3,26.2500010013581,8|8|8|8,0:1|0:3|0:3|0:3,0:0:0:0:
85,311,81008,2,0,P|85:325|76:347,3,26.2500010013581,0|0|0|0,0:0|0:0|0:0|0:0,0:0:0:0:
12,221,81238,6,0,P|41:204|86:196,1,52.5000020027161,0|0,0:0|0:0,0:0:0:0:
255,351,81469,6,0,B|290:349|314:360|314:360|317:320|334:290,1,125.999996154785,4|0,0:2|0:0,0:0:0:0:
394,321,81700,2,0,B|401:314|396:298|396:298|369:302|352:331|350:360,1,105,4|0,0:2|0:0,0:0:0:0:
392,224,81931,2,0,P|348:240|307:275,1,84,4|0,0:2|0:0,0:0:0:0:
471,367,82161,6,0,P|495:354|468:360,1,78.7500030040742,4|0,0:2|0:0,0:0:0:0:
397,212,82392,6,0,B|383:167|418:137|421:145|423:150|466:125|445:81,1,136.499993751526,4|0,0:2|0:0,0:0:0:0:
275,86,82623,5,8,0:1:0:0:
301,201,82738,1,8,0:1:0:0:
209,50,82854,5,8,0:1:0:0:
174,123,82969,2,0,L|195:120,1,20.9999993591309,8|0,0:1|0:0,0:0:0:0:
472,228,90008,5,8,0:2:0:0:
445,196,90065,1,8,0:2:0:0:
403,188,90123,1,8,0:2:0:0:
363,202,90181,1,8,0:2:0:0:
341,237,90238,5,8,0:3:0:0:
307,226,90296,1,8,0:3:0:0:
296,199,90354,1,8,0:3:0:0:
299,178,90411,1,8,0:3:0:0:
303,160,90469,6,0,P|321:148|306:164,1,61.6000018798829,12|0,0:2|0:0,0:0:0:0:
232,294,90815,6,0,P|193:300|167:264,1,65.7999989959717,8|2,0:2|0:2,0:0:0:0:
79,240,91046,2,0,B|68:230|65:221|65:221|73:174,2,65.7999989959717,8|2|8,0:2|0:2|0:2,0:0:0:0:
273,360,91392,6,0,B|296:350|296:350|319:353|319:353|350:344,1,65.7999989959717,2|8,0:2|0:2,0:0:0:0:
442,299,91623,1,4,0:2:0:0:
448,312,91738,1,8,0:2:0:0:
362,264,91854,2,0,B|385:274|385:274|408:271|408:271|439:280,1,65.7999989959717,2|8,0:2|0:2,0:0:0:0:
273,216,92084,5,2,0:2:0:0:
376,129,92200,1,8,0:2:0:0:
191,113,92315,1,2,0:2:0:0:
183,124,92431,2,0,L|199:197,1,65.7999989959717,8|2,0:2|0:2,0:0:0:0:
310,72,92661,2,0,L|324:7,2,65.7999989959717,8|2|8,0:2|0:2|0:2,0:0:0:0:
135,51,93008,5,2,0:2:0:0:
31,79,93123,1,8,0:2:0:0:
133,151,93238,2,0,P|173:149|205:120,1,65.7999989959717,2|8,0:2|0:2,0:0:0:0:
247,42,93469,2,0,P|287:44|319:73,1,65.7999989959717,2|8,0:2|0:2,0:0:0:0:
388,190,93700,5,2,0:2:0:0:
400,173,93815,1,8,0:2:0:0:
299,166,93931,5,0,0:0:0:0:
352,283,94046,1,8,0:2:0:0:
202,239,94161,6,0,B|169:237|169:237|167:233|167:233|135:232,1,65.7999989959717,4|8,0:2|0:2,0:0:0:0:
49,334,94392,1,2,0:2:0:0:
129,362,94508,2,0,B|147:350|147:350|151:319|130:294,2,65.7999989959717,8|2|8,0:2|0:2|0:2,0:0:0:0:
29,210,94854,6,0,P|21:172|28:137,1,65.7999989959717,2|8,0:2|0:2,0:0:0:0:
132,112,95084,1,2,0:2:0:0:
149,117,95200,2,0,B|165:120|181:115|181:115|189:96|210:83,1,65.7999989959717,8|2,0:2|0:2,0:0:0:0:
59,44,95431,2,0,B|43:47|27:42|27:42|19:23|-2:10,2,65.7999989959717,8|2|8,0:2|0:2|0:2,0:0:0:0:
103,187,95777,5,2,0:2:0:0:
183,245,95892,1,8,0:2:0:0:
255,126,96008,6,2,B|257:117|283:116|283:116|293:133|318:129,1,65.7999989959717,4|10,0:2|0:2,0:2:0:0:
357,285,96238,1,0,0:0:0:0:
421,207,96354,2,0,B|409:199|409:199|423:254,1,65.7999989959717,12|0,0:2|0:0,0:0:0:0:
297,356,96584,1,8,0:2:0:0:
251,291,96700,2,0,B|262:283|262:283|249:338,1,65.7999989959717,0|8,0:2|0:2,0:0:0:0:
164,202,96931,6,0,B|150:170|150:170|171:131,1,65.7999989959717,4|8,0:2|0:2,0:0:0:0:
265,99,97161,2,0,B|279:67|279:67|258:28,1,65.7999989959717,0|12,0:0|0:2,0:0:0:0:
279,207,97392,5,0,0:2:0:0:
282,216,97450,1,0,0:0:0:0:
285,223,97508,1,8,0:2:0:0:
385,316,97623,5,0,0:2:0:0:
457,98,97738,5,0,0:0:0:0:
460,87,97796,1,0,0:0:0:0:
461,78,97854,2,0,P|442:56|395:42,1,65.7999989959717,10|0,0:2|0:0,0:0:0:0:
402,26,98084,1,0,0:0:0:0:
417,229,98200,6,0,L|486:208,1,65.7999989959717,10|0,0:2|0:0,0:0:0:0:
499,224,98431,1,0,0:0:0:0:
406,134,98546,6,0,P|372:123|404:140,1,98.6999984939576,12|0,0:2|0:0,0:0:0:0:
242,24,98777,5,10,0:2:0:0:
230,54,98834,1,0,0:0:0:0:
204,69,98892,1,0,0:0:0:0:
177,70,98950,1,0,0:0:0:0:
155,60,99008,1,2,0:2:0:0:
136,55,99065,1,0,0:0:0:0:
119,57,99123,1,0,0:0:0:0:
107,64,99181,1,0,0:0:0:0:
101,71,99238,6,0,B|86:93|86:93|105:131,1,65.7999989959717,10|0,0:2|0:0,0:0:0:0:
98,148,99469,2,0,L|67:89,1,65.7999989959717,8|0,0:2|0:0,0:0:0:0:
279,217,99700,6,0,B|262:235|262:235|215:225,1,65.7999989959717,10|0,0:2|0:0,0:0:0:0:
198,236,99931,1,0,0:0:0:0:
60,356,100046,6,0,B|89:346|89:346|94:338|94:338|131:323,1,65.7999989959717,10|0,0:2|0:0,0:0:0:0:
138,338,100277,1,0,0:0:0:0:
318,316,100392,6,0,B|332:296|332:296|321:271|321:271|300:292|300:292|306:312,1,98.6999984939576,12|0,0:2|0:0,0:0:0:0:
80,253,100623,5,10,0:2:0:0:
74,220,100681,1,0,0:0:0:0:
82,192,100738,1,0,0:0:0:0:
100,172,100796,1,0,0:0:0:0:
122,165,100854,1,2,0:2:0:0:
141,165,100911,1,0,0:0:0:0:
156,170,100969,1,0,0:0:0:0:
166,178,101027,1,0,0:0:0:0:
174,182,101084,6,0,B|188:186|201:180|198:175|195:172|211:161|234:163,1,65.7999989959717,10|0,0:2|0:0,0:0:0:0:
252,150,101315,2,0,P|239:143|193:164,1,65.7999989959717,8|0,0:2|0:0,0:0:0:0:
301,257,101546,5,10,0:2:0:0:
313,271,101661,2,0,B|281:281|281:281|278:287|278:287|248:294,1,65.7999989959717,8|8,0:2|0:2,0:0:0:0:
463,240,101892,5,8,0:2:0:0:
394,341,102008,5,8,0:2:0:0:
348,185,102123,1,8,0:2:0:0:
463,101,102238,6,0,B|442:117|442:117|400:105,1,65.7999989959717,10|8,0:2|0:2,0:0:0:0:
208,24,102469,5,10,0:2:0:0:
199,35,102584,2,0,B|213:45|226:35|223:31|220:27|244:12|276:26,1,65.7999989959717,8|8,0:2|0:2,0:0:0:0:
104,92,102815,5,8,0:2:0:0:
244,152,102931,5,8,0:2:0:0:
115,116,103046,1,8,0:2:0:0:
182,226,103161,6,0,P|166:248|153:290,1,65.7999989959717,10|8,0:2|0:2,0:0:0:0:
326,197,103392,5,10,0:2:0:0:
330,180,103508,2,0,P|360:161|410:153,1,65.7999989959717,8|8,0:2|0:2,0:0:0:0:
266,263,103738,5,8,0:2:0:0:
409,358,103854,5,8,0:2:0:0:
462,201,103969,1,8,0:2:0:0:
167,218,104084,6,0,P|153:213|179:214,1,98.6999984939576,4|0,0:2|0:0,0:0:0:0:
98,274,104315,5,8,0:2:0:0:
59,248,104373,1,8,0:2:0:0:
48,206,104431,1,8,0:2:0:0:
57,168,104488,1,8,0:2:0:0:
79,139,104546,6,0,P|89:117|92:106,3,32.8999994979859,0|0|0|0,0:0|0:0|0:0|0:0,0:0:0:0:
123,358,104777,5,8,0:2:0:0:
153,333,104834,1,8,0:2:0:0:
189,332,104892,1,8,0:2:0:0:
219,345,104950,1,8,0:2:0:0:
236,369,105008,2,0,L|247:324,3,32.8999994979859,0|0|0|0,0:0|0:0|0:0|0:0,0:0:0:0:
321,253,105238,6,0,L|333:320,1,61.6000018798829,4|0,0:2|0:0,0:0:0:0:
259,202,105584,6,0,B|281:174|321:173,2,65.7999989959717,8|2|8,0:2|0:2|0:2,0:0:0:0:
190,268,105931,1,2,0:2:0:0:
174,283,106046,6,0,P|154:239|153:213,1,65.7999989959717,8|2,0:2|0:2,0:0:0:0:
174,87,106277,1,8,0:2:0:0:
180,73,106392,1,2,0:2:0:0:
48,155,106508,6,0,B|57:170|80:162|80:162|94:140|117:134,2,65.7999989959717,8|2|8,0:2|0:2|0:2,0:0:0:0:
276,30,106854,5,2,0:2:0:0:
221,174,106969,1,8,0:2:0:0:
359,124,107084,6,0,B|330:121|330:121|320:114|320:114|287:109,1,65.7999989959717,4|8,0:2|0:2,0:0:0:0:
354,227,107315,1,0,0:0:0:0:
408,276,107431,6,0,B|437:273|437:273|447:266|447:266|480:261,1,65.7999989959717,12|0,0:2|0:0,0:0:0:0:
434,89,107661,1,8,0:2:0:0:
449,88,107777,2,0,B|466:80|466:80|473:52|462:16,1,65.7999989959717,4|8,0:2|0:2,0:0:0:0:
284,42,108008,6,0,B|269:23|237:30|218:52|218:52|202:101|163:97,1,131.599997991943,2|2,0:2|0:2,0:0:0:0:
147,31,108354,1,8,0:2:0:0:
238,238,108469,5,2,0:2:0:0:
245,252,108584,1,8,0:2:0:0:
170,198,108700,5,2,0:2:0:0:
249,331,108815,1,8,0:2:0:0:
33,329,108931,5,4,0:2:0:0:
117,273,109046,1,8,0:2:0:0:
76,183,109161,1,2,0:2:0:0:
49,328,109277,2,0,P|89:354|104:373,2,65.7999989959717,8|2|8,0:2|0:2|0:2,0:0:0:0:
93,92,109623,5,2,0:2:0:0:
100,104,109738,1,8,0:2:0:0:
209,188,109854,5,2,0:2:0:0:
383,203,109969,1,8,0:2:0:0:
205,62,110084,1,2,0:2:0:0:
306,241,110200,2,0,B|337:236|337:236|344:233|344:233|392:224,2,65.7999989959717,8|0|8,0:2|0:0|0:2,0:0:0:0:
277,148,110546,6,0,B|268:142|268:142|263:117|263:117|284:135|284:135|283:148,1,65.7999989959717,4|8,0:2|0:2,0:0:0:0:
435,306,110777,5,0,0:0:0:0:
427,303,110893,1,8,0:2:0:0:
351,348,111008,5,0,0:0:0:0:
343,351,111124,1,12,0:2:0:0:
173,271,111238,5,0,0:0:0:0:
249,281,111354,1,8,0:2:0:0:
147,343,111469,2,0,B|130:349|113:350|113:350|67:325,1,65.7999989959717,4|8,0:2|0:2,0:0:0:0:
44,211,111700,5,8,0:3:0:0:
58,202,111758,1,8,0:3:0:0:
74,200,111815,1,8,0:3:0:0:
89,204,111873,1,8,0:3:0:0:
97,217,111931,2,0,L|79:257,3,32.8999994979859,8|8|8|8,0:1|0:1|0:1|0:1,0:0:0:0:
416,130,112161,6,0,B|400:123|403:97|403:97|425:114|445:123|445:123|420:195,1,144.9000002211,4|0,0:2|0:0,0:0:0:0:
336,31,112392,2,0,B|319:45|321:65|339:61|339:61|352:38|374:25|404:24,1,116.550002845459,4|0,0:2|0:0,0:0:0:0:
236,59,112623,5,2,0:2:0:0:
252,128,112738,1,0,0:0:0:0:
194,171,112854,1,0,0:0:0:0:
128,147,112969,1,0,0:0:0:0:
65,22,113084,5,10,0:2:0:0:
66,13,113200,1,0,0:0:0:0:
75,20,113315,1,0,0:0:0:0:
134,135,113431,5,0,0:0:0:0:
75,277,113546,5,2,0:2:0:0:
123,234,113661,1,0,0:0:0:0:
187,222,113777,1,0,0:0:0:0:
242,257,113892,1,0,0:0:0:0:
310,361,114008,5,10,0:2:0:0:
303,354,114124,1,0,0:0:0:0:
413,287,114238,6,0,P|440:266|446:231,1,62.9999980773926,0|0,0:0|0:0,0:0:0:0:
359,79,114469,6,0,B|343:75|335:49|340:24|358:10|358:10|391:73|378:111|344:128|320:110|294:106|294:106|259:101|227:113|205:163|218:207|243:226|286:220|305:189|303:186|299:184|310:146|372:111|416:153|469:184|462:282|398:317|336:311|310:269|305:223|310:205|360:183,1,759.4999768219,4|0,0:2|0:0,0:0:0:0:
251,350,116315,6,0,P|285:335|326:335,1,62.9999980773926,4|0,0:2|0:0,0:0:0:0:
143,310,116546,5,0,0:0:0:0:
190,246,116661,2,0,B|176:280|176:280|176:284|176:284|165:312,1,62.9999980773926,0|10,0:0|0:2,0:0:0:0:
60,187,116892,5,0,0:0:0:0:
32,161,117007,2,0,B|46:195|46:195|46:199|46:199|57:227,1,62.9999980773926,0|0,0:0|0:0,0:0:0:0:
150,91,117238,6,0,B|167:106|163:120|163:120|147:104|130:100,1,62.9999980773926,2|0,0:2|0:0,0:0:0:0:
41,53,117469,6,0,B|71:77|99:40|96:39|94:38|116:7|157:19,1,125.999996154785,0|10,0:0|0:2,0:0:0:0:
269,51,117815,5,0,0:0:0:0:
331,109,117931,1,0,0:0:0:0:
429,58,118046,1,0,0:0:0:0:
244,51,118161,6,0,P|244:84|257:124,1,62.9999980773926,2|0,0:2|0:0,0:0:0:0:
357,202,118392,5,0,0:0:0:0:
419,155,118508,2,0,B|458:175|458:175|460:203,1,62.9999980773926,0|10,0:0|0:2,0:0:0:0:
283,277,118738,5,0,0:0:0:0:
262,254,118854,2,0,B|223:274|223:274|221:302,1,62.9999980773926,0|0,0:0|0:0,0:0:0:0:
407,359,119084,5,2,0:2:0:0:
430,275,119200,1,8,0:2:0:0:
429,367,119315,6,0,B|434:374|455:356|443:327|401:340|383:365|385:367|387:369|364:393|321:374,1,125.999996154785,0|10,0:0|0:2,0:0:0:0:
180,358,119661,5,0,0:0:0:0:
64,338,119777,1,0,0:0:0:0:
170,253,119892,1,0,0:0:0:0:
52,357,120008,6,0,B|76:338|76:338|116:335,1,62.9999980773926,4|0,0:2|0:0,0:0:0:0:
269,266,120238,5,0,0:0:0:0:
333,322,120354,2,0,L|317:390,1,62.9999980773926,0|10,0:0|0:2,0:0:0:0:
429,196,120584,5,0,0:0:0:0:
408,218,120700,2,0,L|424:286,1,62.9999980773926,2|0,0:3|0:0,0:0:0:0:
286,73,120931,6,0,P|309:82|343:117,1,62.9999980773926,2|0,0:3|0:0,0:0:0:0:
462,28,121161,2,0,B|460:68|444:90|410:102|410:102|406:78|391:63,1,125.999996154785,2|10,0:3|0:2,0:0:0:0:
269,152,121508,5,0,0:0:0:0:
253,163,121623,1,0,0:0:0:0:
183,140,121738,1,0,0:0:0:0:
301,238,121854,6,0,B|329:228|329:228|331:225|331:225|366:212,1,62.9999980773926,4|0,0:2|0:0,0:0:0:0:
141,214,122084,5,2,0:2:0:0:
70,185,122200,2,0,P|42:196|21:236,1,62.9999980773926,0|8,0:0|0:2,0:0:0:0:
100,78,122431,5,0,0:0:0:0:
67,84,122547,2,0,P|39:73|18:33,1,62.9999980773926,0|0,0:0|0:0,0:0:0:0:
249,37,122777,5,4,0:2:0:0:
288,131,122892,1,8,0:2:0:0:
230,29,123008,6,0,B|273:12|273:12|306:34|306:34|355:19,1,125.999996154785,4|8,0:2|0:2,0:0:0:0:
451,124,123354,6,0,P|424:114|428:69,2,62.9999980773926,0|0|0,0:0|0:0|0:0,0:0:0:0:
443,221,123700,5,4,0:2:0:0:
426,232,123815,2,0,L|346:215,1,62.9999980773926,0|0,0:0|0:0,0:0:0:0:
239,118,124046,5,0,0:0:0:0:
170,160,124161,2,0,B|147:183|147:183|158:215,1,62.9999980773926,8|0,0:2|0:0,0:0:0:0:
118,279,124392,2,0,P|141:293|184:282,1,62.9999980773926,0|0,0:0|0:0,0:0:0:0:
345,229,124623,6,0,P|368:255|378:292,1,62.9999980773926,2|0,0:3|0:0,0:0:0:0:
287,363,124854,5,0,0:0:0:0:
454,366,124969,1,0,0:0:0:0:
286,348,125084,2,0,B|271:357|261:373|261:373|242:366|218:364,1,62.9999980773926,8|0,0:2|0:0,0:0:0:0:
19,249,125315,6,0,P|15:223|36:238,1,62.9999980773926,2|0,0:3|0:0,0:0:0:0:
58,313,125546,6,0,P|93:325|122:350,1,62.9999980773926,2|0,0:3|0:0,0:0:0:0:
192,198,125777,5,0,0:0:0:0:
231,129,125892,2,0,L|215:200,1,62.9999980773926,0|10,0:0|0:2,0:0:0:0:
307,55,126123,5,0,0:0:0:0:
342,85,126238,2,0,L|326:14,1,62.9999980773926,0|0,0:0|0:0,0:0:0:0:
369,193,126469,5,2,0:2:0:0:
405,259,126584,6,0,B|370:286|370:286|385:197,1,125.999996154785,8|0,0:2|0:0,0:0:0:0:
294,294,126931,2,0,L|280:367,1,62.9999980773926,8|0,0:2|0:0,0:0:0:0:
182,277,127161,5,0,0:0:0:0:
175,262,127277,1,0,0:0:0:0:
64,197,127392,6,0,P|88:213|110:246,1,62.9999980773926,4|0,0:2|0:0,0:0:0:0:
139,159,127623,5,0,0:0:0:0:
44,53,127738,5,0,0:0:0:0:
39,42,127854,2,0,B|19:38|19:38|68:23,1,62.9999980773926,8|0,0:2|0:0,0:0:0:0:
153,64,128084,6,0,B|171:72|171:72|174:83|174:83|139:69,1,62.9999980773926,2|0,0:3|0:0,0:0:0:0:
322,63,128315,6,0,B|355:69|355:69|402:40,1,62.9999980773926,2|0,0:3|0:0,0:0:0:0:
428,113,128546,5,0,0:0:0:0:
427,129,128661,1,0,0:0:0:0:
274,233,128777,6,0,L|258:311,1,62.9999980773926,8|0,0:2|0:0,0:0:0:0:
199,351,129008,1,0,0:0:0:0:
333,316,129123,1,0,0:0:0:0:
137,259,129238,6,0,P|100:245|65:246,1,62.9999980773926,2|0,0:2|0:0,0:0:0:0:
285,137,129469,5,0,0:0:0:0:
345,177,129584,2,0,B|350:191|350:191|326:239,1,62.9999980773926,0|8,0:0|0:2,0:0:0:0:
179,143,129815,5,0,0:0:0:0:
155,125,129931,2,0,B|144:115|144:115|145:64,1,62.9999980773926,0|0,0:0|0:0,0:0:0:0:
346,53,130161,6,0,B|317:59|317:59|310:65|310:65|279:74,1,62.9999980773926,8|0,0:2|0:0,0:0:0:0:
202,265,130392,6,0,P|188:258|184:225,1,52.5000020027161,4|0,0:2|0:0,0:0:0:0:
216,271,130623,6,0,P|197:304|154:306,1,70
214,259,130854,6,0,P|275:257|299:290,1,80.5000015354157,0|0,0:0|0:0,0:0:0:0:
438,359,131084,5,12,0:2:0:0:
454,344,131142,1,0,0:0:0:0:
466,325,131200,1,8,0:2:0:0:
474,304,131258,1,0,0:0:0:0:
472,281,131315,1,8,0:2:0:0:
462,260,131373,1,0,0:0:0:0:
445,243,131431,1,8,0:2:0:0:
424,235,131488,1,0,0:0:0:0:
401,231,131546,1,8,0:2:0:0:
379,236,131604,1,0,0:0:0:0:
360,249,131661,1,8,0:2:0:0:
347,266,131719,1,0,0:0:0:0:
338,286,131777,2,0,P|295:302|258:325,3,52.5000020027161,8|0|8|0,0:2|0:0|0:2|0:0,0:0:0:0:
220,384,132008,5,8,0:2:0:0:
199,383,132065,1,0,0:0:0:0:
179,374,132123,1,8,0:2:0:0:
163,359,132181,1,0,0:0:0:0:
154,340,132238,1,8,0:2:0:0:
151,319,132296,1,0,0:0:0:0:
153,298,132354,1,8,0:2:0:0:
163,280,132411,1,0,0:0:0:0:
179,266,132469,1,8,0:2:0:0:
199,259,132527,1,0,0:0:0:0:
219,261,132584,1,8,0:2:0:0:
239,266,132642,1,0,0:0:0:0:
255,279,132700,2,0,P|242:309|233:344,3,52.5000020027161,8|0|8|0,0:2|0:0|0:2|0:0,0:0:0:0:
333,208,132931,5,12,0:2:0:0:
356,187,132988,1,0,0:0:0:0:
361,155,133046,1,8,0:2:0:0:
351,124,133104,1,0,0:0:0:0:
327,103,133161,1,12,0:2:0:0:
296,96,133219,1,0,0:0:0:0:
265,106,133277,1,8,0:2:0:0:
244,129,133334,1,0,0:0:0:0:
216,144,133392,1,8,0:2:0:0:
184,141,133450,1,0,0:0:0:0:
156,125,133508,1,8,0:2:0:0:
141,97,133565,1,0,0:0:0:0:
146,65,133623,1,8,0:2:0:0:
165,47,133681,1,0,0:0:0:0:
185,44,133738,1,8,0:2:0:0:
200,46,133796,1,0,0:0:0:0:
208,51,133854,5,8,0:2:0:0:
205,55,133911,1,0,0:0:0:0:
202,59,133969,1,8,0:2:0:0:
200,64,134027,1,0,0:0:0:0:
198,69,134084,1,8,0:2:0:0:
197,74,134142,1,0,0:0:0:0:
196,79,134200,1,8,0:2:0:0:
195,84,134258,1,0,0:0:0:0:
194,87,134315,2,0,P|222:104|242:135,3,52.5000020027161,8|0|8|0,0:2|0:0|0:2|0:0,0:0:0:0:
278,191,134546,2,0,P|305:174|343:154,3,52.5000020027161,8|0|8|0,0:2|0:0|0:2|0:0,0:0:0:0:
415,197,134777,5,12,0:2:0:0:
443,186,134834,1,0,0:0:0:0:
459,159,134892,1,8,0:2:0:0:
462,128,134950,1,0,0:0:0:0:
452,98,135008,1,8,0:2:0:0:
429,85,135065,1,0,0:0:0:0:
414,69,135123,1,8,0:2:0:0:
411,53,135181,1,0,0:0:0:0:
413,43,135238,1,8,0:2:0:0:
420,35,135296,1,0,0:0:0:0:
429,30,135354,1,8,0:2:0:0:
439,29,135411,1,0,0:0:0:0:
449,32,135469,2,0,P|442:60|430:95,3,52.5000020027161,8|0|8|0,0:2|0:0|0:2|0:0,0:0:0:0:
327,25,135700,5,12,0:2:0:0:
285,17,135758,1,0,0:0:0:0:
246,32,135815,1,8,0:2:0:0:
221,66,135873,1,0,0:0:0:0:
214,107,135931,1,8,0:2:0:0:
195,138,135988,1,0,0:0:0:0:
165,149,136046,1,8,0:2:0:0:
138,146,136104,1,0,0:0:0:0:
121,133,136161,1,8,0:2:0:0:
115,124,136219,1,0,0:0:0:0:
113,113,136277,1,8,0:2:0:0:
115,102,136334,1,0,0:0:0:0:
120,93,136392,2,0,P|158:79|190:77,3,52.5000020027161,8|0|8|0,0:2|0:0|0:2|0:0,0:0:0:0:
220,199,136623,5,12,0:2:0:0:
263,171,136681,1,0,0:0:0:0:
315,181,136738,1,8,0:2:0:0:
359,211,136796,1,0,0:0:0:0:
386,257,136854,1,8,0:2:0:0:
428,278,136911,1,0,0:0:0:0:
467,266,136969,1,8,0:2:0:0:
491,239,137027,1,0,0:0:0:0:
495,209,137084,1,8,0:2:0:0:
484,185,137142,1,0,0:0:0:0:
469,171,137200,1,8,0:2:0:0:
456,163,137258,1,0,0:0:0:0:
445,162,137315,1,8,0:2:0:0:
434,165,137373,1,0,0:0:0:0:
425,170,137431,1,8,0:2:0:0:
418,178,137488,1,0,0:0:0:0:
414,188,137546,5,8,0:2:0:0:
418,193,137604,1,0,0:0:0:0:
421,199,137661,1,8,0:2:0:0:
424,204,137719,1,0,0:0:0:0:
429,207,137777,5,8,0:3:0:0:
434,165,137834,1,8,0:3:0:0:
410,129,137892,2,0,P|370:110|346:112,1,52.5000020027161,8|8,0:3|0:3,0:0:0:0:
328,314,138008,5,8,0:3:0:0:
350,336,138065,1,8,0:3:0:0:
381,342,138123,2,0,P|403:342|435:324,1,52.5000020027161,8|8,0:3|0:3,0:0:0:0:
266,187,138238,5,8,0:1:0:0:
246,190,138296,1,8,0:1:0:0:
229,202,138354,2,0,P|210:232|210:251,1,52.5000020027161,8|8,0:1|0:1,0:0:0:0:
83,173,138469,5,10,0:2:0:0:
58,104,138584,1,0,0:0:0:0:
180,107,138700,5,10,0:2:0:0:
232,23,138815,1,0,0:0:0:0:
296,174,138931,5,10,0:2:0:0:
180,125,139046,1,0,0:0:0:0:
334,91,139161,5,10,0:2:0:0:
459,4,139277,1,0,0:0:0:0:
393,224,139392,6,0,B|427:239|427:239|481:219,1,70,12|0,0:2|0:0,0:0:0:0:
466,207,139623,1,0,0:0:0:0:
295,346,139738,6,0,B|273:338|273:338|262:319|262:319|225:308,1,70,12|0,0:2|0:0,0:0:0:0:
216,314,139969,1,0,0:0:0:0:
425,356,140084,5,12,0:2:0:0:
425,356,140546,5,2,0:2:0:0:
480,291,140777,5,2,0:2:0:0:
416,240,141008,5,0,0:0:0:0:
424,223,141123,1,0,0:0:0:0:
332,81,141238,5,8,0:2:0:0:
273,70,141296,1,8,0:2:0:0:
213,59,141354,1,8,0:2:0:0:
155,47,141411,1,8,0:2:0:0:
96,35,141469,6,0,L|30:55,3,35
146,138,141700,2,0,L|174:146,3,17.5,0|0|0|0,0:0|0:0|0:0|0:0,0:0:0:0:
72,202,141931,5,8,0:2:0:0:
63,217,141988,1,8,0:2:0:0:
59,249,142046,1,8,0:2:0:0:
85,285,142104,1,8,0:2:0:0:
135,282,142161,5,12,0:2:0:0:
158,260,142219,1,0,0:0:0:0:
187,248,142277,1,8,0:2:0:0:
217,243,142334,1,0,0:0:0:0:
248,246,142392,1,8,0:2:0:0:
277,258,142450,1,0,0:0:0:0:
301,278,142508,1,8,0:2:0:0:
319,302,142565,1,0,0:0:0:0:
326,332,142623,2,0,P|288:340|267:354,3,52.5000020027161,8|0|8|0,0:2|0:0|0:2|0:0,0:0:0:0:
187,375,142854,2,0,P|142:363|128:349,3,52.5000020027161,8|0|8|0,0:2|0:0|0:2|0:0,0:0:0:0:
50,279,143084,5,8,0:2:0:0:
76,261,143142,1,0,0:0:0:0:
98,239,143200,1,8,0:2:0:0:
115,212,143258,1,0,0:0:0:0:
123,182,143315,1,8,0:2:0:0:
123,150,143373,1,0,0:0:0:0:
115,119,143431,1,8,0:2:0:0:
100,91,143488,1,0,0:0:0:0:
76,69,143546,2,0,P|86:100|92:124,3,52.5000020027161,8|0|8|0,0:2|0:0|0:2|0:0,0:0:0:0:
162,177,143777,2,0,P|143:211|142:237,3,52.5000020027161,8|0|8|0,0:2|0:0|0:2|0:0,0:0:0:0:
254,76,144008,5,12,0:2:0:0:
278,68,144065,1,0,0:0:0:0:
304,72,144123,1,8,0:2:0:0:
328,82,144181,1,0,0:0:0:0:
346,99,144238,1,8,0:2:0:0:
361,120,144296,1,0,0:0:0:0:
371,144,144354,1,8,0:2:0:0:
377,169,144411,1,0,0:0:0:0:
374,195,144469,2,0,P|346:188|317:173,3,52.5000020027161,8|0|8|0,0:2|0:0|0:2|0:0,0:0:0:0:
269,127,144700,2,0,P|241:132|210:145,3,52.5000020027161,8|0|8|0,0:2|0:0|0:2|0:0,0:0:0:0:
302,247,144931,6,0,P|282:263|278:296,3,52.5000020027161,8|0|8|0,0:2|0:0|0:2|0:0,0:0:0:0:
267,358,145161,2,0,P|290:367|321:354,3,52.5000020027161,8|0|8|0,0:2|0:0|0:2|0:0,0:0:0:0:
381,332,145392,2,0,P|377:306|350:286,3,52.5000020027161,8|0|8|0,0:2|0:0|0:2|0:0,0:0:0:0:
453,151,145623,5,12,0:2:0:0:
454,145,145681,1,0,0:0:0:0:
455,139,145738,1,8,0:2:0:0:
456,133,145796,1,0,0:0:0:0:
474,107,145854,6,0,B|412:72|400:115|372:156|314:110,1,157.500006008148,4|0,0:2|0:0,0:0:0:0:
232,24,146084,5,8,0:3:0:0:
239,54,146142,1,8,0:3:0:0:
246,84,146200,1,8,0:3:0:0:
253,114,146258,1,8,0:3:0:0:
282,133,146315,1,8,0:3:0:0:
277,153,146373,1,8,0:3:0:0:
273,173,146431,1,8,0:3:0:0:
269,193,146488,1,8,0:3:0:0:
245,219,146546,1,8,0:1:0:0:
248,229,146604,1,8,0:1:0:0:
251,238,146661,1,8,0:1:0:0:
254,248,146719,1,8,0:1:0:0:
285,280,146777,6,0,L|214:303,1,70,12|0,0:2|0:0,0:0:0:0:
211,322,147008,1,0,0:0:0:0:
45,210,147123,6,0,B|59:222|59:222|35:276,1,70,8|0,0:2|0:0,0:0:0:0:
2,129,147354,5,8,0:2:0:0:
39,291,147469,5,0,0:0:0:0:
90,341,147584,1,0,0:0:0:0:
171,283,147700,5,0,0:0:0:0:
166,298,147931,5,8,0:2:0:0:
221,308,147988,1,8,0:2:0:0:
277,319,148046,1,8,0:2:0:0:
333,330,148104,1,8,0:2:0:0:
388,341,148161,6,0,L|443:323,3,35
389,239,148392,2,0,L|357:228,3,17.5
303,112,148623,5,8,0:2:0:0:
316,127,148681,1,8,0:2:0:0:
341,136,148738,1,8,0:2:0:0:
400,90,148854,5,8,0:3:0:0:
334,214,148969,1,8,0:1:0:0:
393,78,149084,6,0,P|382:69|357:65,3,35,0|0|0|0,0:0|0:0|0:0|0:0,0:0:0:0:
452,27,149315,2,0,P|463:18|488:14,3,35,0|0|0|0,0:0|0:0|0:0|0:0,0:0:0:0:
334,233,149546,5,12,0:2:0:0:
298,270,149604,1,0,0:0:0:0:
247,267,149661,1,8,0:2:0:0:
210,233,149719,1,0,0:0:0:0:
209,181,149777,1,8,0:2:0:0:
238,140,149834,1,0,0:0:0:0:
287,130,149892,1,8,0:2:0:0:
335,147,149950,1,0,0:0:0:0:
365,188,150008,1,12,0:2:0:0:
401,204,150065,1,0,0:0:0:0:
431,204,150123,1,8,0:2:0:0:
447,192,150181,1,0,0:0:0:0:
452,183,150238,6,0,P|425:163|399:156,3,52.5000020027161,8|0|8|0,0:2|0:0|0:2|0:0,0:0:0:0:
257,60,150469,5,12,0:2:0:0:
210,46,150527,1,0,0:0:0:0:
165,66,150584,1,8,0:2:0:0:
140,107,150642,1,0,0:0:0:0:
144,155,150700,1,8,0:2:0:0:
169,196,150758,1,0,0:0:0:0:
212,216,150815,1,8,0:2:0:0:
234,258,150873,1,0,0:0:0:0:
231,306,150931,1,12,0:2:0:0:
206,336,150988,1,0,0:0:0:0:
176,344,151046,1,8,0:2:0:0:
153,341,151104,1,0,0:0:0:0:
143,331,151161,6,0,B|124:319|124:319|94:323,1,52.5000020027161,8|0,0:2|0:0,0:0:0:0:
211,227,151277,2,0,B|230:214|230:214|260:218,1,52.5000020027161,8|0,0:2|0:0,0:0:0:0:
351,258,151392,5,12,0:2:0:0:
402,249,151450,1,0,0:0:0:0:
426,201,151508,1,8,0:2:0:0:
429,149,151565,1,0,0:0:0:0:
399,104,151623,1,8,0:2:0:0:
348,87,151681,1,0,0:0:0:0:
296,92,151738,1,8,0:2:0:0:
254,124,151796,1,0,0:0:0:0:
217,163,151854,1,12,0:2:0:0:
170,175,151911,1,0,0:0:0:0:
126,168,151969,1,8,0:2:0:0:
99,138,152027,1,0,0:0:0:0:
94,102,152084,1,8,0:2:0:0:
107,74,152142,1,0,0:0:0:0:
128,59,152200,1,8,0:2:0:0:
150,55,152258,1,0,0:0:0:0:
160,58,152315,5,12,0:2:0:0:
165,66,152373,1,0,0:0:0:0:
167,76,152431,1,8,0:2:0:0:
166,86,152488,1,0,0:0:0:0:
161,95,152546,1,8,0:2:0:0:
155,103,152604,1,0,0:0:0:0:
147,109,152661,1,8,0:2:0:0:
136,111,152719,1,0,0:0:0:0:
125,111,152777,1,12,0:2:0:0:
114,108,152834,1,0,0:0:0:0:
104,102,152892,1,8,0:2:0:0:
96,94,152950,1,0,0:0:0:0:
92,83,153008,6,0,P|60:69|33:63,3,52.5000020027161,8|0|8|0,0:2|0:0|0:2|0:0,0:0:0:0:
99,203,153238,6,0,B|123:236|159:228|159:228|183:191|232:191,1,142.800000871582,2|0,0:2|2:0,0:0:0:0:
261,302,153584,2,0,B|272:331|266:351|266:351|219:253,1,142.800000871582,0|0,0:0|2:0,0:0:0:0:
228,168,153931,2,0,P|187:175|157:200,1,71.400000435791,0|0,0:0|2:0,0:0:0:0:
455,49,154161,6,0,B|467:44|482:32|482:32|453:82|450:112|450:112|457:128|471:140,1,142.800000871582,12|0,0:2|2:0,0:0:0:0:
394,221,154508,2,0,B|382:216|367:204|367:204|396:254|399:284|399:284|392:300|378:312,1,142.800000871582,8|0,0:2|2:0,0:0:0:0:
455,371,154854,5,0,0:0:0:0:
378,132,155084,6,0,B|338:120|309:148|311:151|315:156|284:191|250:174,1,142.800000871582,2|0,0:2|2:0,0:0:0:0:
142,92,155431,2,0,B|173:101|181:127|180:147|180:147|187:126|214:101|244:103,1,142.800000871582,0|0,0:0|2:0,0:0:0:0:
305,198,155777,2,0,P|257:201|240:188,1,71.400000435791,0|0,0:0|2:0,0:0:0:0:
158,305,155950,5,0,0:0:0:0:
151,302,156008,2,0,B|138:268|138:268|134:301|143:322|143:322|162:341|162:341|165:377,1,142.800000871582,12|0,0:2|2:0,0:0:0:0:
116,137,156354,2,0,B|129:103|129:103|133:136|124:157|124:157|105:176|105:176|102:212,1,142.800000871582,8|0,0:2|2:0,0:0:0:0:
75,48,156642,5,0,0:0:0:0:
80,51,156700,2,0,P|111:32|154:35,1,71.400000435791,0|0,0:0|2:0,0:0:0:0:
292,188,156931,6,0,B|324:183|331:146|303:146|280:157|257:206|285:257,1,142.800000871582,2|0,0:2|2:0,0:0:0:0:
392,100,157277,2,0,B|398:124|390:142|390:142|377:110|352:86|311:77,1,142.800000871582,0|0,0:0|2:0,0:0:0:0:
250,205,157623,2,0,P|256:250|287:278,1,71.400000435791,0|0,0:0|2:0,0:0:0:0:
426,363,157796,5,0,0:0:0:0:
422,357,157854,2,0,B|408:353|408:353|400:351|388:335|404:329|413:331|413:331|439:348|475:352|475:352|488:338|512:336,1,142.800000871582,12|0,0:2|2:0,0:0:0:0:
256,294,158200,2,0,B|216:283|178:287|169:327|169:327|187:361|215:349,1,142.800000871582,0|0,0:0|2:0,0:0:0:0:
311,367,158546,6,0,B|327:359|327:359|321:341|326:320|326:320|318:341|303:350|303:350|307:367,1,107.100000653687
20,207,158777,6,0,B|20:189|1:169|1:169|46:174|64:206|64:206|12:223|7:265,1,167.999994873047,4|0,0:2|2:0,0:0:0:0:
169,303,159123,2,0,B|163:327|158:350|135:346|135:346|162:214,1,167.999994873047,0|0,0:0|2:0,0:0:0:0:
102,154,159469,2,0,P|86:225|69:305,1,125.999996154785,0|0,0:0|0:0,0:0:0:0:
226,136,159700,6,0,B|257:105|280:82|251:55|235:44|225:26|231:1|232:1|232:1|175:31|152:84|160:143|195:188|256:199|256:199|298:183|326:130,1,503.999984619141,12|0,0:2|2:0,0:0:0:0:
451,49,160623,6,0,B|458:40|482:24|482:24|463:62|450:111,1,124.950000762634,8|0,0:1|0:0,0:0:0:0:
454,193,161084,5,10,0:2:0:0:
378,212,161200,1,0,0:0:0:0:
357,296,161315,5,0,0:0:0:0:
309,281,161431,1,0,0:0:0:0:
231,183,161546,6,0,B|218:211|218:211|233:260,1,52.5000020027161,2|0,0:2|0:0,0:0:0:0:
41,43,162008,6,0,P|56:67|64:102,1,52.5000020027161,8|0,0:2|0:0,0:0:0:0:
131,138,162238,2,0,P|116:162|108:197,1,52.5000020027161,0|0,0:0|0:0,0:0:0:0:
35,265,162469,6,0,P|57:264|94:280,1,52.5000020027161,2|0,0:2|0:0,0:0:0:0:
41,43,162931,6,0,P|56:67|64:102,1,52.5000020027161,8|0,0:2|0:0,0:0:0:0:
131,138,163161,2,0,P|116:162|108:197,1,52.5000020027161,0|0,0:0|0:0,0:0:0:0:
35,265,163392,6,0,P|57:264|94:280,1,52.5000020027161,2|0,0:2|0:0,0:0:0:0:
332,284,163623,6,0,B|368:296|385:334|373:357|373:357|356:344|341:344,1,125.999996154785,4|0,0:2|0:0,0:0:0:0:
208,258,163854,2,0,B|242:261|257:277|257:277|263:246|290:220,1,105,4|0,0:2|0:0,0:0:0:0:
347,274,164084,2,0,P|381:299|397:338,1,84,4|0,0:2|0:0,0:0:0:0:
435,148,164315,6,0,B|446:95|446:95|443:88|443:88|456:24,1,124.950000762634,8|0,0:1|0:0,0:0:0:0:
231,149,164777,6,0,L|179:133,1,52.5000020027161,10|0,0:2|0:0,0:0:0:0:
290,49,165008,2,0,L|238:65,1,52.5000020027161,0|0,0:0|0:0,0:0:0:0:
341,143,165238,6,0,L|359:214,1,52.5000020027161,2|0,0:2|0:0,0:0:0:0:
231,149,165700,6,0,L|179:133,1,52.5000020027161,8|0,0:2|0:0,0:0:0:0:
290,49,165931,2,0,L|238:65,2,35.0000013351441,0|0|0,0:0|0:0|0:0,0:0:0:0:
341,143,166161,6,0,L|359:214,1,52.5000020027161,2|0,0:2|0:0,0:0:0:0:
185,202,166392,6,0,B|162:199|142:209|130:235|130:235|114:267|86:268|72:257,1,136.499993751526,4|0,0:2|0:0,0:0:0:0:
187,370,166623,2,0,B|227:343|215:293|215:293|189:276|180:248,1,115.50000352478,8|0,0:2|0:0,0:0:0:0:
256,231,166854,5,0,0:0:0:0:
277,212,166931,1,0,0:0:0:0:
265,177,167008,1,0,0:0:0:0:
235,156,167084,6,0,B|223:152|223:152|217:124|217:124|238:145|238:145|235:155,1,78.7500030040742,4|0,0:2|0:0,0:0:0:0:
218,47,167315,2,0,B|176:55|154:83|154:83|141:46|93:29,1,146.999995513916,4|0,0:2|0:0,0:0:0:0:
32,181,167546,6,0,B|42:193|54:200|54:200|62:142|77:98,1,125.999996154785,12|0,0:2|0:0,0:0:0:0:
53,310,167777,5,8,0:1:0:0:
68,305,167834,1,8,0:1:0:0:
82,300,167892,1,8,0:1:0:0:
98,294,167950,1,8,0:1:0:0:
112,260,168008,6,0,P|178:272|221:324,1,122.5,8|0,0:1|0:0,0:0:0:0:
285,368,168469,5,10,0:2:0:0:
355,342,168584,1,0,0:0:0:0:
405,269,168700,5,0,0:0:0:0:
452,280,168815,1,0,0:0:0:0:
485,350,168931,6,0,B|492:338|492:338|503:263,1,52.5000020027161,2|0,0:2|0:0,0:0:0:0:
342,21,169392,6,0,P|356:47|362:70,1,52.5000020027161,8|0,0:2|0:0,0:0:0:0:
315,138,169623,2,0,P|301:164|295:187,1,52.5000020027161,0|0,0:0|0:0,0:0:0:0:
351,255,169854,6,0,B|373:251|373:251|374:249|374:249|403:245,1,52.5000020027161,2|0,0:2|0:0,0:0:0:0:
342,21,170315,6,0,P|356:47|362:70,1,52.5000020027161,8|0,0:2|0:0,0:0:0:0:
315,138,170546,2,0,P|301:164|295:187,1,52.5000020027161,0|0,0:0|0:0,0:0:0:0:
351,255,170777,6,0,B|373:251|373:251|374:249|374:249|403:245,1,52.5000020027161,2|0,0:2|0:0,0:0:0:0:
171,242,171008,6,0,B|162:273|142:298|91:293|91:293|86:275|72:263,1,125.999996154785,4|0,0:2|0:0,0:0:0:0:
27,370,171238,2,0,B|45:368|49:353|49:353|65:279,1,105,12|0,0:2|0:0,0:0:0:0:
19,217,171469,2,0,L|5:131,1,84,4|0,0:2|0:0,0:0:0:0:
139,38,171700,6,0,B|151:27|145:14|145:14|131:21|136:38,1,52.5,8|0,0:1|0:0,0:0:0:0:
18,113,171931,5,8,0:2:0:0:
39,104,171988,1,8,0:2:0:0:
85,109,172046,1,8,0:2:0:0:
112,147,172104,1,8,0:2:0:0:
109,202,172161,5,12,0:2:0:0:
236,279,172277,1,8,0:2:0:0:
141,369,172392,5,0,0:0:0:0:
139,363,172450,1,0,0:0:0:0:
137,357,172508,1,0,0:0:0:0:
135,351,172565,1,0,0:0:0:0:
132,342,172623,6,0,P|136:320|141:301,1,35,8|8,0:3|0:3,0:0:0:0:
51,280,172854,5,8,0:1:0:0:
52,275,172912,1,8,0:1:0:0:
53,271,172970,1,8,0:1:0:0:
55,266,173027,1,8,0:1:0:0:
57,260,173084,6,0,P|53:239|48:222,1,35,8|8,0:1|0:1,0:0:0:0:
113,176,173315,2,0,P|117:155|122:138,1,35,8|8,0:1|0:1,0:0:0:0:
45,366,173546,5,8,0:1:0:0:
256,192,173604,12,0,174873,0:0:0:0:
135,343,174931,6,0,P|149:328|124:338,1,73.4999977569581,8|0,0:1|0:0,0:0:0:0:
124,349,175392,5,4,0:2:0:0:
81,288,175508,1,0,0:0:0:0:
113,218,175623,1,0,0:0:0:0:
188,204,175738,1,0,0:0:0:0:
251,322,175854,6,0,P|275:345|325:350,1,70.6999985975647,8|0,0:2|0:0,0:0:0:0:
377,296,176084,1,0,0:0:0:0:
448,327,176200,1,0,0:0:0:0:
324,181,176315,6,0,B|310:164|310:164|324:118,1,70.6999985975647,8|0,0:2|0:0,0:0:0:0:
397,70,176546,1,0,0:0:0:0:
346,13,176661,1,0,0:0:0:0:
341,189,176777,5,8,0:2:0:0:
418,173,176892,2,0,B|438:183|438:183|452:202|452:202|481:216,2,70.6999985975647,0|0|0,0:0|0:0|0:0,0:0:0:0:
254,115,177238,5,8,0:2:0:0:
242,108,177354,1,0,0:0:0:0:
195,43,177469,2,0,L|123:69,1,70.6999985975647,0|0,0:0|0:0,0:0:0:0:
97,299,177700,6,0,P|140:268|153:231,1,70.6999985975647,8|0,0:2|0:0,0:0:0:0:
198,193,177931,2,0,P|165:158|115:160,1,70.6999985975647,0|0,0:0|0:0,0:0:0:0:
63,210,178161,6,0,B|46:205|38:221|38:221|35:223|35:223|39:222|39:222|59:230|67:214,1,70.6999985975647,8|0,0:2|0:0,0:0:0:0:
262,253,178392,5,0,0:0:0:0:
272,247,178508,1,0,0:0:0:0:
208,315,178623,1,8,0:2:0:0:
198,309,178739,1,0,0:0:0:0:
393,290,178854,5,0,0:0:0:0:
444,375,178970,1,0,0:0:0:0:
383,284,179084,6,0,P|342:291|304:324,1,70.6999985975647,10|0,0:2|0:0,0:0:0:0:
433,159,179315,5,0,0:0:0:0:
368,205,179431,1,0,0:0:0:0:
419,147,179546,6,0,P|466:178|477:219,1,70.6999985975647,10|0,0:2|0:0,0:0:0:0:
298,46,179777,5,0,0:0:0:0:
300,57,179892,1,0,0:0:0:0:
239,124,180008,5,8,0:2:0:0:
241,113,180123,1,0,0:0:0:0:
185,43,180238,5,0,0:0:0:0:
187,54,180353,1,0,0:0:0:0:
61,82,180469,5,8,0:2:0:0:
95,15,180584,1,0,0:0:0:0:
146,181,180700,6,0,B|116:189|116:189|107:200|107:200|78:208,1,70.6999985975647,0|0,0:0|0:0,0:0:0:0:
325,131,180931,6,0,P|356:147|377:179,1,70.6999985975647,12|0,0:2|0:0,0:0:0:0:
368,258,181161,1,0,0:0:0:0:
400,182,181277,1,0,0:0:0:0:
183,307,181392,6,0,L|87:289,1,70.6999985975647,12|0,0:2|0:0,0:0:0:0:
275,308,181623,1,0,0:0:0:0:
135,375,181738,1,0,0:0:0:0:
55,230,181854,6,0,B|54:206|69:191|69:191|110:169,1,70.6999985975647,12|0,0:2|0:0,0:0:0:0:
200,80,182084,5,0,0:0:0:0:
206,94,182200,1,0,0:0:0:0:
273,36,182315,5,12,0:2:0:0:
279,22,182431,1,0,0:0:0:0:
326,105,182546,5,0,0:0:0:0:
405,145,182661,1,0,0:0:0:0:
447,24,182777,6,0,B|466:38|466:38|452:86,1,70.6999985975647,8|0,0:2|0:0,0:0:0:0:
330,192,183008,5,0,0:0:0:0:
325,205,183123,1,0,0:0:0:0:
273,287,183238,5,8,0:2:0:0:
422,253,183354,1,0,0:0:0:0:
410,372,183469,2,0,B|389:381|368:376|368:376|357:358|317:348,1,70.6999985975647,0|0,0:0|0:0,0:0:0:0:
206,216,183700,5,10,0:2:0:0:
131,233,183815,1,0,0:0:0:0:
103,304,183931,1,0,0:0:0:0:
141,367,184046,1,0,0:0:0:0:
212,200,184161,6,0,B|221:165|221:165|218:161|218:161|229:119,1,70.6999985975647,10|0,0:2|0:0,0:0:0:0:
139,76,184392,5,0,0:0:0:0:
146,88,184508,1,0,0:0:0:0:
239,26,184623,5,8,0:2:0:0:
303,51,184738,1,0,0:0:0:0:
378,37,184854,5,0,0:0:0:0:
310,63,184969,1,0,0:0:0:0:
158,158,185084,6,0,P|112:131|75:125,1,70.6999985975647,8|0,0:2|0:0,0:0:0:0:
63,206,185315,1,0,0:0:0:0:
25,145,185431,1,0,0:0:0:0:
183,254,185546,5,10,0:2:0:0:
249,211,185661,2,0,P|280:224|328:262,1,70.6999985975647,0|0,0:0|0:0,0:0:0:0:
403,353,185892,5,0,0:0:0:0:
457,302,186008,2,0,P|479:262|471:238,1,70.6999985975647,10|0,0:2|0:0,0:0:0:0:
401,222,186238,2,0,P|379:262|387:286,1,70.6999985975647,0|0,0:0|0:0,0:0:0:0:
222,359,186469,6,0,P|157:336|104:330,1,106.049997896347,10|0,0:2|0:0,0:0:0:0:
73,275,186700,2,0,P|34:307|19:331,1,70.6999985975647,0|0,0:0|0:0,0:0:0:0:
159,247,186931,6,0,B|155:257|155:257|152:224|131:184,1,70.6999985975647,8|0,0:2|0:0,0:0:0:0:
200,133,187161,2,0,B|204:143|204:143|207:110|228:70,1,70.6999985975647,0|0,0:0|0:0,0:0:0:0:
117,36,187392,6,0,B|83:48|83:48|80:47|80:47|44:59,1,70.6999985975647,10|0,0:2|0:0,0:0:0:0:
23,126,187623,1,0,0:0:0:0:
32,137,187738,1,0,0:0:0:0:
219,72,187854,6,0,B|253:84|253:84|256:83|256:83|292:95,1,70.6999985975647,10|0,0:2|0:0,0:0:0:0:
313,162,188085,1,0,0:0:0:0:
304,173,188200,1,0,0:0:0:0:
160,273,188315,6,0,B|203:264|224:307|242:346|294:340,1,141.399997195129,10|0,0:2|0:0,0:0:0:0:
335,295,188661,1,0,0:0:0:0:
153,191,188777,6,0,P|104:211|84:242,2,47.1333323983765,12|0|0,0:2|0:0|0:0,0:0:0:0:
77,293,189008,5,0,0:0:0:0:
44,274,189084,1,0,0:0:0:0:
34,240,189161,1,0,0:0:0:0:
44,212,189238,6,0,B|65:192|70:171|53:147|53:147|29:138|18:118,1,106.049997896347,12|0,0:2|0:0,0:0:0:0:
83,82,189469,2,0,B|100:75|129:64|129:64|109:58|93:66,1,70.6999985975647,0|0,0:0|0:0,0:0:0:0:
243,141,189700,6,0,B|289:146|309:187|309:187|288:199|276:216,1,106.049997896347,8|0,0:2|0:0,0:0:0:0:
336,254,189931,2,0,B|353:259|357:282|357:282|330:271|331:250,1,70.6999985975647,0|0,0:0|0:0,0:0:0:0:
391,140,190161,6,0,B|397:123|407:116|407:116|374:78|394:25,1,106.049997896347,10|0,0:2|0:0,0:0:0:0:
462,68,190392,2,0,P|484:62|460:65,1,70.6999985975647,0|0,0:0|0:0,0:0:0:0:
207,212,190623,6,0,B|180:201|152:210|152:210|151:181|126:158,1,106.049997896347,10|0,0:2|0:0,0:0:0:0:
204,139,190854,2,0,B|216:140|217:122|225:111|225:111|213:121|198:125|204:135,1,70.6999985975647,0|0,0:0|0:0,0:0:0:0:
309,362,191084,5,8,0:2:0:0:
290,287,191200,1,0,0:0:0:0:
366,271,191315,1,0,0:0:0:0:
386,345,191431,1,0,0:0:0:0:
286,271,191546,6,0,P|237:286|210:319,1,70.6999985975647,10|0,0:2|0:0,0:0:0:0:
144,297,191777,2,0,P|134:336|149:376,1,70.6999985975647,0|0,0:0|0:0,0:0:0:0:
368,363,192008,6,0,B|413:339|465:341|465:341|438:323|427:301,1,141.399997195129,12|0,0:2|0:0,0:0:0:0:
463,248,192354,1,0,0:0:0:0:
322,140,192469,6,0,B|298:114|298:114|305:67,1,70.6999985975647,8|0,0:2|0:0,0:0:0:0:
373,57,192700,2,0,B|397:83|397:83|390:130,1,70.6999985975647,0|0,0:0|0:0,0:0:0:0:
198,184,192931,6,0,P|156:163|115:155,1,70.6999985975647,8|0,0:2|0:0,0:0:0:0:
59,117,193161,1,0,0:0:0:0:
50,127,193277,1,0,0:0:0:0:
225,21,193392,6,0,P|239:14|220:19,1,70.6999985975647,8|0,0:2|0:0,0:0:0:0:
319,57,193623,2,0,P|330:60|314:59,1,70.6999985975647,0|0,0:0|0:0,0:0:0:0:
271,204,193854,6,0,B|270:227|258:247|258:247|288:285|294:327,1,106.049997896347,10|0,0:2|0:0,0:0:0:0:
355,357,194084,2,0,P|299:372|289:385,1,70.6999985975647,0|0,0:0|0:0,0:0:0:0:
164,258,194315,6,0,B|141:247|110:253|101:280|101:280|97:313|65:320,1,106.049997896347,10|0,0:2|0:0,0:0:0:0:
16,321,194546,2,0,B|21:339|14:357|14:357|32:362|55:379,1,70.6999985975647,0|0,0:0|0:0,0:0:0:0:
59,184,194777,6,0,B|98:164|95:130|89:110|36:104|57:132|82:136,1,106.049997896347,12|0,0:2|0:0,0:0:0:0:
7,67,195008,6,0,P|44:48|84:39,1,70.6999985975647,0|0,0:0|0:0,0:0:0:0:
163,126,195238,2,0,P|153:91|145:57,1,70.6999985975647,12|0,0:2|0:0,0:0:0:0:
214,40,195469,2,0,P|223:74|231:108,1,70.6999985975647,0|0,0:0|0:0,0:0:0:0:
268,199,195700,6,0,B|292:207|311:189|309:187|328:167|346:165|368:170,1,106.049997896347,8|0,0:2|0:0,0:0:0:0:
422,109,195931,2,0,B|429:114|428:125|428:125|406:107|382:99,1,70.6999985975647,0|0,0:0|0:0,0:0:0:0:
444,250,196161,6,0,B|463:252|463:252|462:272|462:272|441:271|441:271|442:245,1,70.6999985975647,12|0,0:2|0:0,0:0:0:0:
371,329,196392,2,0,B|381:346|381:346|364:357|364:357|352:340|352:340|373:325,1,70.6999985975647,0|0,0:0|0:0,0:0:0:0:
264,289,196623,5,12,0:2:0:0:
264,279,196738,1,0,0:0:0:0:
154,268,196854,6,0,P|107:279|69:266,1,70.6999985975647,0|0,0:0|0:0,0:0:0:0:
103,379,197084,2,0,P|144:350|166:347,1,70.6999985975647,8|0,0:2|0:0,0:0:0:0:
277,288,197315,6,0,B|331:298|300:356|368:371,1,106.049997896347
226,204,197546,2,0,B|238:201|265:207|265:207|208:222|183:281,1,141.399997195129,10|0,0:2|0:0,0:0:0:0:
219,337,197892,1,0,0:0:0:0:
365,204,198008,6,0,P|394:179|404:133,1,70.6999985975647,8|0,0:2|0:0,0:0:0:0:
347,104,198238,2,0,P|328:70|285:46,1,70.6999985975647,0|0,0:0|0:0,0:0:0:0:
184,21,198469,6,0,B|148:34|148:34|134:72|134:72|95:92,1,106.049997896347,8|0,0:2|0:0,0:0:0:0:
39,94,198700,2,0,B|32:93|32:93|21:118|21:118|43:134|43:134|50:123,1,70.6999985975647,0|0,0:0|0:0,0:0:0:0:
141,217,198931,6,0,B|157:250|157:250|145:296,1,70.6999985975647,8|0,0:2|0:0,0:0:0:0:
79,286,199161,2,0,B|63:253|63:253|75:207,1,70.6999985975647,0|0,0:0|0:0,0:0:0:0:
209,121,199392,6,0,P|261:133|285:209,1,106.049997896347,12|0,0:2|0:0,0:0:0:0:
301,255,199623,6,0,P|342:250|353:216,1,70.6999985975647,0|0,0:0|0:0,0:0:0:0:
478,146,199854,6,0,P|465:88|482:43,1,106.049997896347,8|0,0:2|0:0,0:0:0:0:
363,13,200084,2,0,P|389:22|394:72,1,70.6999985975647,0|0,0:0|0:0,0:0:0:0:
482,246,200315,6,0,B|461:282|463:313|463:313|444:288|397:271,1,141.399997195129,12|0,0:2|0:0,0:0:0:0:
420,204,200661,1,0,0:0:0:0:
351,374,200777,6,0,B|325:349|325:349|282:334,1,70.6999985975647,8|0,0:2|0:0,0:0:0:0:
266,261,201008,2,0,B|223:281|223:281|211:313,1,70.6999985975647,0|0,0:0|0:0,0:0:0:0:
141,368,201238,6,0,B|114:351|114:351|103:257,1,106.049997896347,10|0,0:2|0:0,0:0:0:0:
18,378,201469,2,0,B|40:355|40:355|30:261,1,106.049997896347,2|0,0:2|0:0,0:0:0:0:
264,104,201700,6,0,P|207:113|170:178,1,125.999996154785,4|0,0:2|0:0,0:0:0:0:
194,266,201931,2,0,P|248:236|237:183,1,105,0|0,0:0|0:0,0:0:0:0:
88,121,202161,6,0,P|70:111|60:93,1,42,4|0,0:2|2:0,0:0:0:0:
88,121,203084,6,0,B|37:98|35:40|96:20|144:34|167:72|181:122|176:158|143:188|106:195|72:192|72:192|108:198|133:208|155:255,1,420,12|0,0:2|2:0,0:0:0:0:
258,352,204008,6,0,B|243:355|243:355|264:286,1,70,8|0,0:2|2:0,0:0:0:0:
319,229,204238,2,0,B|333:244|333:244|328:275,2,46.6666666666667
200,199,204469,6,0,P|155:214|131:242,1,70,0|0,0:0|2:0,0:0:0:0:
74,273,204700,2,0,P|72:320|90:352,1,70,0|0,0:0|2:0,0:0:0:0:
36,140,204931,5,2,0:2:0:0:
39,133,205277,5,0,0:0:0:0:
42,126,205623,5,0,0:0:0:0:
223,37,205854,6,0,B|222:18|222:18|227:39,1,35,12|0,0:2|0:0,0:0:0:0:
228,45,206200,5,0,0:0:0:0:
233,53,206546,5,0,0:0:0:0:
458,212,206777,6,0,B|497:227|527:167|499:134|435:124|407:156|404:209|423:242|454:247|458:244|462:242|515:251|525:306|497:354|462:376|405:376|376:318|390:284|430:252,1,420,4|0,0:2|2:0,0:0:0:0:
383,116,207700,6,0,B|379:115|379:115|379:101|379:101|388:111|388:111|385:116,1,35,12|0,0:2|0:0,0:0:0:0:
383,116,208161,5,0,0:0:0:0:
346,147,208277,1,0,0:0:0:0:
276,122,208392,1,0,0:0:0:0:
214,183,208508,1,0,0:0:0:0:
261,278,208623,5,2,0:2:0:0:
264,285,208969,5,0,0:0:0:0:
267,292,209315,5,0,0:0:0:0:
60,371,209546,6,0,B|45:377|45:377|42:369|42:369|59:362,1,35,12|0,0:2|0:0,0:0:0:0:
151,269,209777,5,2,0:2:0:0:
194,350,210238,5,2,0:2:0:0:
28,169,210469,6,0,B|-22:141|-29:107|9:52|49:65|84:75|121:147|117:190|77:239,1,280,4|0,0:2|2:0,0:0:0:0:
303,114,211161,5,0,0:0:0:0:
301,107,211219,1,0,0:0:0:0:
299,100,211277,1,0,0:0:0:0:
297,93,211334,1,0,0:0:0:0:
295,86,211392,5,12,0:2:0:0:
295,86,211854,6,0,P|335:94|363:120,1,70,0|0,0:0|0:0,0:0:0:0:
432,109,212084,2,0,P|439:143|438:175,1,59.5000011348725,0|0,0:0|0:0,0:0:0:0:
349,277,212315,6,0,B|395:262|436:295|436:295|421:246|353:225|307:235|281:297|286:301|291:302|283:353|238:390|199:375|158:335,1,420,4|0,0:2|2:0,0:0:0:0:
238,171,213238,6,0,B|235:170|235:170|237:162|237:154|237:154|238:161|243:171|243:171|240:170,1,35,10|0,0:2|0:0,0:0:0:0:
238,171,214161,6,0,P|249:115|259:66,1,105.000004005432,12|0,0:2|0:0,0:0:0:0:
115,225,214623,2,0,P|106:179|98:140,1,83.9999974365235,8|0,0:2|0:0,0:0:0:0:
238,171,215084,5,8,0:2:0:0:
246,129,215199,1,0,0:0:0:0:
254,88,215314,1,0,0:0:0:0:
263,47,215431,1,0,0:0:0:0:
115,225,215546,5,8,0:2:0:0:
109,194,215661,1,0,0:0:0:0:
132,149,215776,5,0,0:0:0:0:
133,143,215834,1,0,0:0:0:0:
134,137,215893,1,0,0:0:0:0:
135,133,215950,1,0,0:0:0:0:
134,128,216008,6,0,B|144:114|150:91|134:69|134:47|141:25|141:25|81:21|47:54|25:98|19:141|49:187|97:211,1,367.500014019013,4|0,0:2|0:0,0:0:0:0:
36,297,216469,5,0,0:0:0:0:
87,355,216584,1,0,0:0:0:0:
159,337,216700,1,0,0:0:0:0:
217,284,216815,1,0,0:0:0:0:
293,274,216931,6,0,B|328:265|361:282|362:316|362:316|333:286|283:283,1,168,12|0,0:2|2:0,0:0:0:0:
445,285,217392,5,0,0:0:0:0:
423,211,217508,1,0,0:0:0:0:
341,189,217623,5,0,0:0:0:0:
352,140,217738,1,0,0:0:0:0:
300,366,217854,6,0,B|340:330|333:281|299:257|296:260|291:265|240:236|236:198|261:146,1,245,4|0,0:2|0:0,0:0:0:0:
330,191,218315,5,0,0:0:0:0:
348,119,218431,1,0,0:0:0:0:
290,63,218546,2,0,P|235:67|203:84,1,70,0|0,0:0|0:0,0:0:0:0:
153,155,218777,6,0,B|127:174|116:196|116:196|95:179|50:172,1,105,12|0,0:2|0:0,0:0:0:0:
135,75,219008,5,0,0:0:0:0:
123,50,219084,1,0,0:0:0:0:
83,37,219161,1,0,0:0:0:0:
32,69,219238,6,0,P|76:94|108:116,1,70,0|0,0:0|2:0,0:0:0:0:
125,208,219469,6,0,P|136:208|145:210,1,21,0|0,0:0|0:0,0:0:0:0:
167,376,219700,6,0,B|135:374|104:350|108:316|111:311|117:309|111:272|67:237|7:264|7:264|33:266|48:284|64:301|91:303|75:296,1,306.25,4|0,0:2|0:0,0:0:0:0:
113,200,220161,5,0,0:0:0:0:
180,160,220277,1,0,0:0:0:0:
179,87,220392,1,0,0:0:0:0:
117,45,220508,1,0,0:0:0:0:
32,62,220623,6,0,B|28:118|72:132|93:128|93:128|70:106|56:74,1,131.25,12|0,0:2|0:0,0:0:0:0:
146,63,220854,2,0,B|177:56|188:36|184:16|184:16|174:34|155:44,1,99.7499973363877,0|0,0:0|0:0,0:0:0:0:
168,138,221084,5,0,0:0:0:0:
245,160,221200,1,0,0:0:0:0:
291,230,221315,5,0,0:0:0:0:
343,214,221431,1,0,0:0:0:0:
383,148,221546,6,0,P|406:165|436:218,1,78.7500030040742,2|0,0:2|0:0,0:0:0:0:
446,287,221777,2,0,B|426:276|399:285|383:312|383:312|384:336|363:361,1,105,0|0,0:0|0:0,0:0:0:0:
365,343,222008,2,0,P|335:318|303:310,1,62.9999980773926,0|0,0:0|0:0,0:0:0:0:
265,235,222238,5,0,0:0:0:0:
259,235,222296,1,0,0:0:0:0:
255,238,222354,1,0,0:0:0:0:
254,244,222411,1,0,0:0:0:0:
250,280,222469,6,0,B|230:267|230:267|246:207,1,70,12|0,0:2|0:0,0:0:0:0:
168,209,222700,2,0,B|154:263|154:263|149:257|149:257|163:203,1,105,0|0,0:0|0:0,0:0:0:0:
312,165,222931,6,0,B|305:151|285:137|262:144|262:144|283:151|288:165|300:175|315:168,1,105,4|0,0:2|0:0,0:0:0:0:
344,237,223161,6,0,P|375:224|379:221,1,31.4999990386963,0|0,0:0|0:0,0:0:0:0:
191,50,223392,6,0,B|206:27|233:15|233:15|195:12|170:9|129:55|142:105|162:135|230:131|230:131|251:103|277:99,1,306.25,4|0,0:2|0:0,0:0:0:0:
311,40,223854,5,0,0:0:0:0:
389,58,223969,1,0,0:0:0:0:
424,128,224084,1,0,0:0:0:0:
396,199,224200,1,0,0:0:0:0:
347,267,224315,6,0,B|305:270|289:321|289:321|285:318|285:318|297:264|277:229,1,168,12|0,0:2|2:0,0:0:0:0:
101,201,224777,5,0,0:0:0:0:
141,267,224892,1,0,0:0:0:0:
212,290,225008,5,0,0:0:0:0:
193,336,225123,1,0,0:0:0:0:
383,345,225238,6,0,B|427:347|453:313|453:313|286:356,1,245,4|0,0:2|0:0,0:0:0:0:
226,300,225700,5,0,0:0:0:0:
191,367,225815,1,0,0:0:0:0:
118,375,225931,2,0,P|100:356|68:346,3,35,0|0|0|0,0:0|0:0|0:0|0:0,0:0:0:0:
78,197,226161,6,0,B|125:201|173:178|183:134|148:95|100:83|17:116|12:197|17:241|71:281,1,342.999989532471,12|0,0:2|0:0,0:0:0:0:
131,282,226623,5,0,0:0:0:0:
202,245,226738,1,0,0:0:0:0:
262,298,226854,2,0,B|291:290|311:309|311:309|285:318|260:302,1,97.9999970092774,0|0,0:0|0:0,0:0:0:0:
233,172,227084,6,0,P|241:99|249:42,1,105.000004005432,4|0,0:2|2:0,0:0:0:0:
309,23,227392,1,0,0:0:0:0:
423,129,227546,5,12,0:2:0:0:
420,146,227623,1,0,0:0:0:0:
417,163,227700,1,0,0:0:0:0:
414,180,227777,1,0,0:0:0:0:
411,197,227854,1,0,0:0:0:0:
409,214,227931,1,0,0:0:0:0:
468,267,228008,5,12,0:2:0:0:
445,292,228084,1,0,0:0:0:0:
411,302,228161,1,0,0:0:0:0:
376,297,228238,1,0,0:0:0:0:
348,275,228315,1,0,0:0:0:0:
332,243,228392,1,0,0:0:0:0:
303,166,228469,5,12,0:2:0:0:
257,140,228546,1,0,0:0:0:0:
205,149,228623,1,0,0:0:0:0:
167,185,228700,2,0,P|212:195|221:204,1,52.5000020027161
227,281,228931,5,8,0:3:0:0:
224,288,228988,1,8,0:3:0:0:
220,295,229046,1,8,0:3:0:0:
216,302,229104,1,8,0:3:0:0:
209,308,229161,6,0,P|177:317|156:331,1,52.5000020027161,0|0,0:0|0:0,0:0:0:0:
69,367,229392,5,8,0:3:0:0:
67,362,229449,1,8,0:3:0:0:
64,358,229507,1,8,0:3:0:0:
62,353,229565,1,8,0:3:0:0:
58,349,229622,6,0,P|30:341|12:329,1,52.5000020027161,0|0,0:0|0:0,0:0:0:0:
80,254,229796,5,0,0:0:0:0:
85,249,229854,2,0,L|90:208,3,26.2500010013581
28,173,230085,2,0,L|21:118,1,52.5000020027161
74,41,230315,6,0,P|90:32|110:28,2,35.0000013351441,0|0|0,0:0|0:0|0:0,0:0:0:0:
152,88,230546,2,0,P|165:92|182:115,2,35.0000013351441,0|0|0,0:0|0:0|0:0,0:0:0:0:
147,177,230777,5,4,0:2:0:0:
147,177,232623,5,4,0:2:0:0:
188,224,232738,1,0,0:0:0:0:
250,231,232854,1,0,0:0:0:0:
301,195,232969,1,0,0:0:0:0:
347,111,233084,5,8,0:2:0:0:
410,112,233200,1,0,0:0:0:0:
452,158,233315,1,0,0:0:0:0:
452,221,233431,1,0,0:0:0:0:
419,274,233546,1,0,0:0:0:0:
321,310,233661,6,0,P|354:330|379:358,1,70,10|0,0:2|0:0,0:0:0:0:
452,364,233892,1,0,0:0:0:0:
369,197,234008,5,12,0:2:0:0:
354,194,234123,1,0,0:0:0:0:
265,136,234238,5,0,0:0:0:0:
280,128,234354,1,0,0:0:0:0:
364,117,234469,5,2,0:3:0:0:
316,56,234584,1,0,0:0:0:0:
238,53,234700,1,2,0:3:0:0:
195,116,234815,1,0,0:0:0:0:
125,187,234931,5,8,0:2:0:0:
50,167,235046,1,0,0:0:0:0:
27,93,235161,2,0,B|41:94|54:73|48:51|25:61|22:80|26:93,1,70,0|0,0:0|0:0,0:0:0:0:
213,210,235392,5,2,0:3:0:0:
294,187,235508,1,0,0:0:0:0:
376,170,235623,1,0,0:0:0:0:
457,150,235738,1,0,0:0:0:0:
487,229,235854,5,8,0:2:0:0:
469,233,235931,5,8,0:2:0:0:
439,220,236008,5,8,0:2:0:0:
427,169,236084,5,8,0:2:0:0:
456,118,236161,5,8,0:2:0:0:
447,40,236238,5,8,0:2:0:0:
375,15,236315,5,8,0:2:0:0:
260,102,236431,1,8,0:2:0:0:
324,185,236546,2,0,P|335:124|341:98,1,70,0|8,0:0|0:1,0:0:0:0:
140,48,236777,5,8,0:2:0:0:
153,70,236854,5,8,0:3:0:0:
156,95,236931,5,8,0:3:0:0:
94,137,237008,5,8,0:3:0:0:
88,153,237084,5,8,0:3:0:0:
90,169,237161,5,8,0:3:0:0:
150,216,237238,6,0,L|135:273,1,35,8|0,0:2|0:0,0:0:0:0:
59,309,237354,2,0,L|74:366,1,35,8|0,0:2|0:0,0:0:0:0:
164,211,237469,6,0,L|149:268,1,35,0|0,0:0|0:0,0:0:0:0:
68,299,237585,2,0,L|83:356,1,35,0|0,0:0|0:0,0:0:0:0:
247,313,237700,5,12,0:2:0:0:
253,313,237758,1,0,0:0:0:0:
259,314,237815,1,8,0:2:0:0:
265,315,237873,1,0,0:0:0:0:
272,316,237931,5,8,0:2:0:0:
290,310,237988,1,0,0:0:0:0:
310,290,238046,1,8,0:2:0:0:
316,253,238104,1,0,0:0:0:0:
294,224,238161,5,4,0:2:0:0:
165,299,238277,1,0,0:0:0:0:
93,260,238392,2,0,P|57:275|33:300,1,70,0|0,0:0|0:0,0:0:0:0:
237,167,238623,5,12,0:2:0:0:
252,128,238738,1,0,0:0:0:0:
234,89,238854,1,0,0:0:0:0:
160,73,238969,5,0,0:0:0:0:
258,17,239084,1,0,0:0:0:0:
386,104,239200,5,8,0:2:0:0:
334,48,239315,2,0,P|302:36|254:28,1,70,0|0,0:0|0:0,0:0:0:0:
384,117,239546,5,12,0:2:0:0:
424,105,239661,1,0,0:0:0:0:
465,94,239777,1,0,0:0:0:0:
498,27,239892,5,0,0:0:0:0:
486,172,240008,2,0,P|464:206|455:238,1,70,4|0,0:2|0:0,0:0:0:0:
390,285,240238,2,0,P|413:322|423:353,1,70,0|0,0:0|0:0,0:0:0:0:
256,365,240469,5,12,0:2:0:0:
227,334,240584,1,0,0:0:0:0:
185,329,240700,1,0,0:0:0:0:
126,365,240815,5,2,0:3:0:0:
72,315,240931,2,0,P|120:323|160:337,1,70,2|0,0:3|0:0,0:0:0:0:
207,373,241161,2,0,P|244:363|281:346,1,70,0|0,0:0|0:0,0:0:0:0:
329,225,241392,5,12,0:2:0:0:
339,184,241508,1,0,0:0:0:0:
349,142,241623,1,0,0:0:0:0:
324,104,241738,5,0,0:0:0:0:
422,29,241854,6,0,B|453:42|453:42|458:49|458:49|503:70,1,70,2|0,0:3|0:0,0:0:0:0:
330,94,242084,5,0,0:0:0:0:
256,69,242200,1,0,0:0:0:0:
186,135,242315,5,12,0:2:0:0:
109,144,242431,1,0,0:0:0:0:
79,72,242546,1,0,0:0:0:0:
89,65,242661,1,0,0:0:0:0:
147,15,242777,5,2,0:3:0:0:
233,151,242892,1,0,0:0:0:0:
138,234,243008,1,0,0:0:0:0:
48,196,243123,1,0,0:0:0:0:
228,234,243238,5,12,0:2:0:0:
254,306,243354,1,0,0:0:0:0:
347,320,243469,5,0,0:0:0:0:
330,375,243584,1,0,0:0:0:0:
310,242,243700,5,8,0:2:0:0:
467,210,243815,1,8,0:2:0:0:
447,134,243931,5,8,0:3:0:0:
388,118,244046,1,8,0:3:0:0:
309,158,244161,5,8,0:3:0:0:
255,82,244277,1,8,0:3:0:0:
328,35,244392,6,0,L|369:46,1,35
302,148,244508,2,0,L|261:159,1,35,0|0,0:0|0:0,0:0:0:0:
113,162,244623,5,8,0:1:0:0:
133,86,244738,1,8,0:1:0:0:
57,62,244854,6,0,P|64:42|74:21,1,35
45,207,244969,2,0,P|52:223|57:239,1,35
196,247,245084,5,8,0:1:0:0:
259,372,245200,1,8,0:1:0:0:
165,341,245315,1,8,0:1:0:0:
290,278,245431,1,8,0:1:0:0:
366,345,245546,6,0,L|404:335,1,28,2|2,3:2|2:2,0:0:0:0:
466,282,245777,2,0,L|426:269,1,35,2|2,2:2|2:2,0:0:0:0:
379,215,246008,5,2,2:2:0:0:
386,198,246123,2,0,P|382:172|379:158,2,35,2|2|2,2:2|2:2|2:2,0:0:0:0:
256,35,246469,6,0,L|223:43,1,28,2|2,2:2|2:2,0:0:0:0:
156,124,246700,5,10,2:2:0:0:
125,123,246777,1,8,2:2:0:0:
104,75,246854,1,8,2:2:0:0:
142,21,246931,6,0,L|153:25,1,11.6666666666667,10|8,2:2|2:2,0:2:0:0:
158,44,247046,2,0,P|185:36|204:32,2,35,2|2|2,2:2|2:2|0:2,0:0:0:0:
108,212,247392,6,0,B|135:193|166:196|187:219|191:248|189:251|184:252|195:276|214:305|242:311|272:294,2,210.000008010865,2|0|0,3:2|3:0|3:0,2:0:0:0:
116,281,248546,1,8,2:2:0:0:
114,292,248777,2,0,P|65:307|32:334,1,78.7500030040742,0|0,3:0|2:0,2:0:0:0:
111,367,249008,6,0,P|129:372|143:377,1,31.4999990386963,2|0,2:2|2:0,2:0:0:0:
269,309,249238,6,0,P|290:301|314:297,1,45.4999979171754,2|8,3:2|2:2,2:0:0:0:
410,242,249469,5,2,2:2:0:0:
389,262,249584,2,0,P|362:247|355:227,1,45.4999979171754,2|0,2:2|3:0,2:0:0:0:
281,212,249815,2,0,P|293:192|297:165,1,45.4999979171754,2|0,2:2|2:0,2:0:0:0:
381,103,250046,5,10,2:2:0:0:
359,90,250161,2,0,B|355:98|352:103|352:103|367:121|369:144,1,45.4999979171754,2|2,3:2|2:2,2:0:0:0:
441,185,250392,5,2,2:2:0:0:
416,236,250508,1,2,2:2:0:0:
450,303,250623,6,0,P|478:296|498:294,1,45.4999979171754,2|0,3:2|2:0,2:0:0:0:
506,364,250854,2,0,P|478:371|458:373,1,45.4999979171754,2|0,2:2|2:0,2:0:0:0:
332,376,251084,5,2,3:2:0:0:
285,325,251200,1,10,2:2:0:0:
256,316,251315,1,2,2:2:0:0:
245,339,251431,1,2,2:2:0:0:
158,375,251546,5,10,3:2:0:0:
94,347,251661,1,2,2:2:0:0:
131,291,251777,1,2,2:2:0:0:
111,259,251892,1,2,2:2:0:0:
39,218,252008,5,2,3:2:0:0:
42,212,252123,1,2,2:2:0:0:
109,178,252238,5,10,2:2:0:0:
101,166,252354,1,2,2:2:0:0:
159,99,252469,5,2,3:2:0:0:
135,100,252584,1,10,2:2:0:0:
89,34,252700,5,2,2:2:0:0:
72,60,252815,2,0,B|61:80|61:80|78:60,2,45.4999979171754,2|2|2,2:2|3:2|2:2,2:0:0:0:
346,82,253161,5,2,2:2:0:0:
360,78,253277,2,0,P|391:93|412:107,2,45.4999979171754,10|2|2,2:2|3:2|2:2,2:0:0:0:
425,186,253623,6,0,P|457:177|463:138,1,68.2499968757631,2|0,2:2|2:0,2:0:0:0:
349,164,253854,6,0,B|391:164|432:199|438:267|415:289|346:291|348:235,2,210.000008010865,2|0|10,3:2|3:0|3:2,2:0:0:0:
265,356,255084,6,0,P|248:348|219:341,2,35.0000013351441,2|2|2,2:2|2:2|3:2,2:0:0:0:
352,312,255354,6,0,P|359:278|369:265,1,41.9999987182618,2|0,2:2|2:0,2:0:0:0:
352,253,255527,2,0,P|377:242|396:242,1,41.9999987182618,2|0,2:2|0:0,0:0:0:0:
425,170,255700,6,0,P|446:180|463:204,1,35,2|0,3:2|2:0,2:0:0:0:
342,172,255815,2,0,B|354:135|354:135|353:133|353:133|363:106,1,70,10|0,2:2|2:0,2:0:0:0:
428,63,256046,6,0,B|437:60|437:60|444:26|444:26|423:50|423:50|424:62,1,83.9999974365235,2|0,2:2|3:0,2:0:0:0:
337,37,256277,5,2,2:2:0:0:
274,76,256392,1,2,2:2:0:0:
209,49,256508,2,0,P|160:23|125:40,1,83.9999974365235,2|10,2:2|3:2,2:0:0:0:
74,118,256738,5,2,2:2:0:0:
113,157,256854,1,2,2:2:0:0:
121,150,256969,1,10,2:2:0:0:
169,205,257084,5,2,3:2:0:0:
146,258,257200,1,2,2:2:0:0:
72,257,257315,2,0,B|60:242|60:242|119:260,1,65.1000020363618,2|0,2:2|2:0,2:0:0:0:
245,175,257517,5,2,2:2:0:0:
243,166,257546,2,0,B|235:127|182:108|133:115|133:115|118:149|94:162|69:163,1,195.999994018555,2|8,3:2|3:2,0:0:0:0:
50,95,258238,6,0,B|26:88|22:62|44:56|56:77|53:96,1,73.4999977569581,2|0,2:2|2:0,2:0:0:0:
251,48,258469,6,0,P|275:26|307:11,1,52.5000020027161,10|0,3:2|2:0,2:0:0:0:
358,58,258700,2,0,P|381:66|403:92,2,35.0000013351441,2|2|2,2:2|2:2|2:2,2:0:0:0:
390,146,258931,1,2,3:2:0:0:
243,205,259046,5,2,2:2:0:0:
220,290,259161,1,2,2:2:0:0:
281,331,259277,1,2,2:2:0:0:
379,284,259392,5,2,3:2:0:0:
402,275,259508,1,10,2:2:0:0:
478,215,259623,5,2,2:2:0:0:
464,210,259738,1,2,2:2:0:0:
381,172,259854,6,0,L|393:119,1,52.5000020027161,10|2,3:2|2:2,0:0:0:0:
283,141,260084,2,0,L|271:88,1,52.5000020027161,2|2,2:2|2:2,0:0:0:0:
307,237,260315,6,0,P|286:239|253:265,1,52.5000020027161,10|2,3:2|2:2,0:0:0:0:
227,317,260545,1,2,2:2:0:0:
221,324,260661,2,0,P|226:359|242:377,2,52.5000020027161,10|2|2,2:2|0:2|2:2,0:0:0:0:
133,327,261008,2,0,P|140:302|152:279,1,52.5000020027161,10|2,2:2|2:2,2:0:0:0:
1,186,261238,6,0,B|24:139|71:121|129:128|135:191|135:191|108:202|88:234,1,245.000002336502,2|0,3:2|3:0,2:0:0:0:
205,359,262046,5,0,3:0:0:0:
216,344,262161,2,0,P|261:352|306:361,1,83.9999974365235,2|0,3:2|2:0,2:0:0:0:
358,288,262508,5,2,3:2:0:0:
347,273,262623,2,0,P|308:279|269:287,1,62.9999980773926,0|0,3:0|2:0,2:0:0:0:
422,351,262854,6,0,P|425:323|432:290,1,41.9999987182618,2|0,2:2|3:0,2:0:0:0:
490,262,263084,6,0,P|492:222|449:186,1,83.9999974365235,2|0,3:2|2:0,2:0:0:0:
361,167,263431,2,0,P|383:166|399:141,2,41.9999987182618,2|0|8,3:2|3:0|2:3,2:0:0:0:
467,116,263777,2,0,P|446:93|425:85,1,41.9999987182618,2|0,2:2|3:0,2:0:0:0:
254,55,264008,5,0,3:0:0:0:
243,63,264123,1,8,2:2:0:0:
181,139,264238,6,0,P|175:118|160:97,1,41.9999987182618,2|0,2:2|3:0,2:0:0:0:
92,111,264469,2,0,P|64:99|39:101,1,41.9999987182618,2|0,3:2|2:0,2:0:0:0:
32,170,264700,2,0,P|12:190|2:209,1,41.9999987182618,2|0,2:2|3:0,2:0:0:0:
211,211,264931,6,0,B|234:201|256:208|256:208|252:193|264:168,1,83.9999974365235,10|2,3:2|2:2,2:0:0:0:
260,284,265277,2,0,P|264:307|281:328,1,41.9999987182618,2|8,3:2|2:3,2:0:0:0:
337,286,265508,2,0,P|332:262|315:241,1,41.9999987182618,0|2,3:0|2:2,2:0:0:0:
171,353,265739,5,0,3:0:0:0:
161,340,265854,2,0,P|121:331|76:325,1,83.9999974365235,2|0,3:2|2:0,2:0:0:0:
16,264,266200,5,2,3:2:0:0:
26,251,266315,2,0,P|61:243|100:237,1,62.9999980773926,0|0,3:0|2:0,2:0:0:0:
32,157,266546,6,0,P|5:136|5:113,1,41.9999987182618,2|0,2:2|3:0,2:0:0:0:
117,92,266777,6,0,B|123:96|127:111|127:111|95:90|60:87,1,83.9999974365235,2|0,3:2|2:0,2:0:0:0:
42,21,267123,2,0,P|15:32|4:44,2,41.9999987182618,2|0|0,3:2|3:0|3:0,0:0:0:0:
3,130,267469,2,0,P|24:140|38:154,1,41.9999987182618,2|0,2:2|3:0,2:0:0:0:
177,187,267700,5,0,3:0:0:0:
188,182,267815,1,8,2:2:0:0:
274,120,267931,6,0,P|303:145|309:159,1,41.9999987182618,2|0,2:2|3:0,2:0:0:0:
376,175,268161,2,0,P|362:209|353:220,1,41.9999987182618,10|0,3:2|2:0,2:0:0:0:
377,288,268392,2,0,P|341:291|330:288,1,41.9999987182618,2|0,2:2|3:0,2:0:0:0:
207,332,268623,6,0,B|185:323|166:346|168:348|169:350|155:368|125:365,1,83.9999974365235,2|0,3:2|2:2,2:0:0:0:
41,310,268969,2,0,P|28:293|31:265,1,41.9999987182618,2|0,3:2|3:0,2:0:0:0:
97,251,269200,2,0,P|110:268|107:296,1,41.9999987182618,4|2,2:2|2:2,2:0:0:0:
51,183,269431,5,0,3:0:0:0:
43,169,269546,2,0,P|61:108|72:86,1,83.9999974365235,2|0,3:2|2:0,2:0:0:0:
141,9,269892,5,2,3:2:0:0:
154,17,270007,2,0,P|164:71|164:93,1,62.9999980773926,0|0,3:0|2:0,2:0:0:0:
278,38,270238,6,0,P|308:30|331:25,1,41.9999987182618,2|0,2:2|3:0,2:0:0:0:
372,107,270469,6,0,B|352:161|352:161|331:164|325:173,1,83.9999974365235,2|0,3:2|2:0,2:0:0:0:
255,213,270815,2,0,P|276:226|291:245,2,41.9999987182618,2|8|0,3:2|2:3|3:0,2:0:0:0:
360,256,271161,2,0,P|371:238|387:224,1,41.9999987182618,2|0,3:2|3:0,2:0:0:0:
202,317,271392,6,0,P|157:309|108:301,1,83.9999974365235,0|2,3:2|2:2,2:0:0:0:
27,251,271738,5,0,3:2:0:0:
40,237,271854,2,0,P|62:232|87:228,1,41.9999987182618,2|0,3:2|2:2,2:0:0:0:
42,376,272084,6,0,P|35:343|33:325,1,41.9999987182618,2|0,2:2|3:0,2:0:0:0:
124,232,272315,6,0,B|135:239|143:251|143:251|127:273|119:303,1,83.9999974365235,2|2,3:2|2:2,2:0:0:0:
166,367,272661,2,0,P|184:346|197:340,2,41.9999987182618,2|0|2,3:2|3:0|2:2,2:0:0:0:
222,272,273008,2,0,P|250:283|257:292,1,41.9999987182618,2|0,2:2|3:0,2:0:0:0:
411,347,273238,6,0,P|422:278|428:248,1,83.9999974365235,2|0,3:2|2:0,2:0:0:0:
329,187,273584,5,2,3:2:0:0:
331,201,273700,2,0,P|337:234|342:269,1,62.9999980773926,0|0,3:0|2:0,2:0:0:0:
395,145,273931,6,0,P|374:120|351:108,1,41.9999987182618,2|0,2:2|3:0,2:0:0:0:
305,49,274161,6,0,B|297:61|302:70|302:70|322:42|360:35,1,83.9999974365235,2|0,3:2|2:0,2:0:0:0:
423,8,274508,2,0,P|442:20|456:40,2,41.9999987182618,2|0|8,3:2|3:0|2:2,2:0:0:0:
488,108,274854,2,0,P|482:134|471:148,1,41.9999987182618,2|0,2:2|3:0,2:0:0:0:
271,168,275084,6,0,P|207:119|127:96,1,140,2|0,3:2|2:0,2:0:0:0:
85,39,275431,5,0,3:0:0:0:
71,47,275546,1,0,3:0:0:0:
17,113,275661,5,8,2:3:0:0:
96,173,275777,5,0,3:0:0:0:
79,167,275892,1,8,2:3:0:0:
157,219,276008,5,8,2:1:0:0:
188,202,276123,1,8,2:1:0:0:
258,223,276238,1,8,2:1:0:0:
291,300,276354,1,8,2:1:0:0:
221,361,276469,5,0,3:1:0:0:
221,361,276700,5,8,2:1:0:0:
212,350,276815,2,0,P|236:339|271:335,1,35,0|0,3:0|3:0,2:0:0:0:
376,217,276931,6,0,B|331:268|336:357|336:357|314:272|235:252,1,288.750008811951,2|0,3:2|2:0,2:0:0:0:
294,191,277854,5,0,2:0:0:0:
307,186,278315,5,0,2:0:0:0:
315,159,278546,1,0,2:0:0:0:
384,113,278777,6,0,P|380:89|375:71,1,42,0|0,2:0|2:0,2:0:0:0:
361,62,279469,1,0,2:0:0:0:
444,197,279700,6,0,P|447:173|453:155,1,42,0|0,2:0|2:0,2:0:0:0:
467,146,280392,1,0,2:0:0:0:
369,275,280623,6,0,P|365:261|365:271,1,56,0|0,2:0|2:0,2:0:0:0:
367,285,281546,5,0,2:0:0:0:
350,316,281777,1,0,2:0:0:0:
310,343,282008,1,0,2:0:0:0:
250,338,282238,1,0,2:0:0:0:
194,284,282469,5,0,2:0:0:0:
170,281,282700,1,0,2:0:0:0:
160,297,282931,1,0,2:0:0:0:
174,310,283161,1,0,2:0:0:0:
81,233,283392,5,0,2:0:0:0:
93,231,283623,1,0,2:0:0:0:
98,239,283854,1,0,2:0:0:0:
94,247,284084,1,0,2:0:0:0:
32,177,284315,6,0,B|21:173|14:159|33:153|40:164|40:164|51:158|66:160|56:178|37:181,1,84,0|0,2:0|2:0,2:0:0:0:
5,251,285123,6,0,P|11:264|19:282,1,26.2500010013581,0|0,2:0|2:0,2:0:0:0:
37,347,285238,5,0,2:0:0:0:
115,367,285469,1,0,2:0:0:0:
174,319,285700,1,0,2:0:0:0:
233,294,285931,1,0,2:0:0:0:
301,334,286161,6,0,P|342:344|353:357,1,56,0|0,2:0|2:0,2:0:0:0:
354,370,286854,1,0,2:0:0:0:
455,364,287084,6,0,L|447:333,2,28,0|0|0,2:0|2:0|2:0,2:0:0:0:
312,234,287777,6,0,B|294:253|283:268|283:268|318:144,1,157.500006008148,0|0,2:0|3:0,0:0:0:0:
228,27,288008,6,0,P|308:40|360:56,1,105,2|0,0:2|0:0,0:0:0:0:
380,107,288238,2,0,P|460:94|512:78,1,105,0|0,0:2|0:0,0:0:0:0:
224,39,288469,6,0,P|304:52|356:68,1,105,2|0,0:2|0:0,0:0:0:0:
376,119,288699,2,0,P|415:112|442:104,3,35,0|0|0|0,0:0|0:0|0:0|0:0,0:0:0:0:
212,178,288931,5,10,0:2:0:0:
177,228,289046,1,0,0:0:0:0:
217,286,289161,6,0,P|244:297|271:324,2,55.9999982910157
353,331,289392,6,0,P|276:346|202:374,1,125.999996154785,2|0,0:2|0:0,0:0:0:0:
100,374,289623,5,0,0:0:0:0:
70,303,289738,1,0,0:0:0:0:
435,219,289854,6,0,B|487:223|504:300|484:332|434:333|373:297|366:221|405:171|405:171|439:157|467:127|471:95,1,367.500014019013,4|0,0:2|0:0,0:0:0:0:
385,93,290315,5,0,0:0:0:0:
319,51,290431,1,0,0:0:0:0:
250,85,290546,1,0,0:0:0:0:
223,156,290661,1,0,0:0:0:0:
164,211,290777,6,0,B|129:218|102:200|100:174|100:174|103:170|103:170|140:163|159:183|165:211,1,168,12|0,0:2|2:0,0:0:0:0:
316,139,291238,5,0,0:0:0:0:
298,215,291354,1,0,0:0:0:0:
250,285,291469,5,0,0:0:0:0:
269,334,291584,1,0,0:0:0:0:
75,298,291700,6,0,B|44:309|28:339|40:365|40:365|74:320|112:289|199:283,1,245,2|0,0:2|0:0,0:0:0:0:
266,269,292161,5,0,0:0:0:0:
297,340,292277,1,0,0:0:0:0:
376,358,292392,2,0,P|401:329|448:313,1,70,0|0,0:0|0:0,0:0:0:0:
424,151,292623,6,0,B|431:125|447:115|466:115|466:115|443:148|432:164,1,105,12|0,0:2|0:0,0:0:0:0:
453,231,292854,6,0,P|397:230|358:184,1,105,2|0,0:2|0:0,0:0:0:0:
351,123,293084,2,0,P|304:135|283:163,1,70,0|0,2:0|2:0,0:0:0:0:
211,262,293315,6,0,P|203:269|198:278,1,21,4|0,0:2|0:0,0:0:0:0:
147,88,293546,6,0,B|152:74|153:53|153:53|216:47|274:76|277:156|251:196|251:196|223:182|184:189,1,306.25,4|0,0:2|0:0,0:0:0:0:
129,171,294008,5,0,0:0:0:0:
64,210,294123,1,0,0:0:0:0:
65,283,294238,1,0,0:0:0:0:
127,328,294354,1,0,0:0:0:0:
205,305,294469,6,0,B|251:253|297:278|297:278|285:304|257:292,1,131.25,12|0,0:2|0:0,0:0:0:0:
372,284,294700,6,0,B|387:307|382:336|353:354|353:354|349:343|359:329,1,99.7499973363877,0|0,2:0|0:0,0:0:0:0:
237,378,294931,5,0,0:0:0:0:
214,307,295046,1,0,0:0:0:0:
137,275,295161,5,0,0:0:0:0:
152,221,295277,1,0,0:0:0:0:
222,170,295392,6,0,P|201:125|173:102,1,78.7500030040742,2|0,0:2|0:0,0:0:0:0:
89,106,295623,6,0,P|132:104|168:52,1,105,0|0,0:0|0:0,0:0:0:0:
191,51,295854,2,0,P|189:24|150:7,1,62.9999980773926,0|0,0:0|0:0,0:0:0:0:
60,36,296084,6,0,L|33:43,2,27.9999991455078,0|0|0,0:0|0:0|0:0,0:0:0:0:
26,181,296315,5,12,0:2:0:0:
78,231,296431,2,0,P|102:206|142:194,1,62.9999980773926,0|0,0:0|0:0,0:0:0:0:
223,310,296661,5,0,0:0:0:0:
171,360,296777,2,0,P|147:335|107:323,1,62.9999980773926,12|0,0:2|0:0,0:0:0:0:
6,264,297008,2,0,P|21:292|54:302,1,62.9999980773926,0|0,0:0|0:0,0:0:0:0:
349,236,297238,6,0,B|404:216|469:227|526:273|531:349|457:396|398:347|414:297,1,306.25,4|0,0:2|0:0,0:0:0:0:
325,318,297700,5,0,0:0:0:0:
265,266,297815,1,0,0:0:0:0:
269,186,297931,1,0,0:0:0:0:
333,146,298046,1,0,0:0:0:0:
404,108,298161,6,0,B|438:110|438:110|437:75|457:46|457:46|437:63|412:59|396:81|401:110,1,196,12|0,0:2|0:0,0:0:0:0:
511,98,298623,5,0,0:0:0:0:
494,176,298738,1,0,0:0:0:0:
420,227,298854,5,0,0:0:0:0:
441,274,298969,1,0,0:0:0:0:
273,191,299084,6,0,B|258:171|226:167|226:167|263:150|306:174|308:222|306:222|304:222|293:287|350:292,1,245,4|0,0:2|0:0,0:0:0:0:
403,223,299546,5,0,0:0:0:0:
429,298,299661,1,0,0:0:0:0:
477,361,299777,2,0,P|433:337|409:339,1,70,0|0,0:0|0:0,0:0:0:0:
216,245,300008,6,0,B|198:274|202:315|202:315|200:316|200:316|191:276|151:260,1,146.999995513916,12|0,0:2|0:0,0:0:0:0:
126,336,300238,2,0,P|187:319|274:303,1,146.999995513916,0|0,0:0|0:0,0:0:0:0:
169,191,300469,5,0,0:0:0:0:
222,130,300584,1,0,0:0:0:0:
205,50,300700,1,0,0:0:0:0:
131,25,300815,1,0,0:0:0:0:
68,95,300931,6,0,B|74:101|84:99|84:99|103:71|132:62|170:71,1,105.000004005432,4|0,0:2|2:0,0:0:0:0:
219,18,301277,2,0,P|231:29|247:51,1,26.2500010013581,0|0,0:0|0:0,0:0:0:0:
203,192,301392,6,0,P|182:159|147:144,1,78.7500030040742,10|0,0:2|0:0,0:0:0:0:
72,170,301623,2,0,P|89:188|94:217,1,47.2499985580445,0|0,0:0|0:0,0:0:0:0:
68,352,301854,5,10,0:2:0:0:
99,297,301969,1,0,0:0:0:0:
159,280,302084,1,0,0:0:0:0:
215,295,302200,1,0,0:0:0:0:
271,361,302315,5,10,0:2:0:0:
349,356,302431,1,0,0:0:0:0:
402,302,302546,2,0,B|407:277|407:277|408:275|408:275|414:245,1,35,0|0,0:0|0:0,0:0:0:0:
468,219,302661,2,0,B|462:194|462:194|461:192|461:192|455:162,1,35,0|0,0:0|0:0,0:0:0:0:
379,140,302777,5,8,0:3:0:0:
353,92,302854,1,8,0:3:0:0:
389,52,302931,1,8,0:3:0:0:
430,56,303008,6,0,P|390:33|349:27,1,70,0|0,0:0|0:0,0:0:0:0:
245,114,303238,5,8,0:3:0:0:
209,137,303315,1,8,0:3:0:0:
176,135,303392,1,8,0:3:0:0:
156,119,303469,6,0,P|165:97|173:77,1,35,0|0,0:0|0:0,0:0:0:0:
101,54,303584,2,0,P|95:31|92:16,1,35,0|0,0:0|0:0,0:0:0:0:
33,124,303700,5,8,0:1:0:0:
53,143,303777,1,8,0:1:0:0:
57,163,303854,1,8,0:1:0:0:
53,177,303931,2,0,P|22:216|14:257,1,70,0|0,0:0|0:0,0:0:0:0:
61,308,304161,6,0,P|85:298|112:291,3,35,8|8|8|8,0:1|0:1|0:1|0:1,0:0:0:0:
152,244,304392,5,0,0:0:0:0:
158,247,304450,5,0,0:0:0:0:
163,250,304508,5,0,0:0:0:0:
168,254,304565,5,0,0:0:0:0:
171,259,304623,5,4,0:2:0:0:
197,289,304738,1,0,0:0:0:0:
258,297,304854,1,0,0:0:0:0:
311,255,304969,1,0,0:0:0:0:
361,176,305084,5,12,0:2:0:0:
315,213,305200,1,0,0:0:0:0:
318,263,305315,1,0,0:0:0:0:
341,287,305431,1,0,0:0:0:0:
386,351,305546,5,12,0:2:0:0:
377,361,305661,1,0,0:0:0:0:
364,364,305777,1,0,0:0:0:0:
406,234,305892,5,8,0:2:0:0:
418,239,306008,1,4,0:2:0:0:
428,252,306123,1,0,0:0:0:0:
472,377,306238,6,0,B|466:358|466:358|490:289,1,70,8|0,0:2|0:0,0:0:0:0:
343,181,306469,5,4,0:2:0:0:
334,149,306584,1,0,0:0:0:0:
306,114,306700,1,0,0:0:0:0:
252,102,306815,1,0,0:0:0:0:
203,178,306931,5,12,0:2:0:0:
142,200,307046,1,0,0:0:0:0:
102,187,307161,1,0,0:0:0:0:
92,156,307277,1,0,0:0:0:0:
138,94,307392,5,12,0:2:0:0:
144,78,307508,1,0,0:0:0:0:
140,58,307623,1,0,0:0:0:0:
20,166,307738,5,8,0:2:0:0:
19,180,307854,1,4,0:2:0:0:
25,196,307969,1,0,0:0:0:0:
60,90,308084,6,0,B|33:86|33:86|29:84|29:84|-11:77,1,70,8|0,0:2|0:0,0:0:0:0:
209,14,308315,5,4,0:2:0:0:
241,14,308431,1,0,0:0:0:0:
280,30,308546,1,0,0:0:0:0:
307,87,308661,1,0,0:0:0:0:
235,159,308777,5,12,0:2:0:0:
256,217,308892,1,0,0:0:0:0:
308,225,309008,1,0,0:0:0:0:
333,209,309123,1,0,0:0:0:0:
336,192,309238,5,4,0:2:0:0:
307,197,309354,1,0,0:0:0:0:
282,239,309469,1,0,0:0:0:0:
295,294,309584,1,0,0:0:0:0:
372,346,309700,5,12,0:2:0:0:
434,306,309815,1,0,0:0:0:0:
446,245,309931,1,0,0:0:0:0:
421,202,310046,1,0,0:0:0:0:
403,204,310161,5,4,0:2:0:0:
384,188,310276,1,0,0:0:0:0:
373,144,310393,1,0,0:0:0:0:
405,102,310508,1,0,0:0:0:0:
325,34,310623,5,12,0:2:0:0:
263,15,310738,1,0,0:0:0:0:
225,45,310854,1,0,0:0:0:0:
220,74,310969,1,0,0:0:0:0:
226,89,311084,5,4,0:2:0:0:
235,116,311200,1,0,0:0:0:0:
222,154,311315,1,0,0:0:0:0:
168,186,311431,1,0,0:0:0:0:
80,159,311546,5,12,0:2:0:0:
149,145,311661,1,0,0:0:0:0:
189,173,311777,1,0,0:0:0:0:
192,217,311892,1,0,0:0:0:0:
177,242,312008,5,4,0:2:0:0:
136,259,312123,1,0,0:0:0:0:
121,314,312238,1,0,0:0:0:0:
167,354,312354,1,0,0:0:0:0:
301,372,312469,5,12,0:2:0:0:
260,309,312584,1,0,0:0:0:0:
197,304,312700,1,0,0:0:0:0:
167,338,312815,1,0,0:0:0:0:
130,355,312931,5,4,0:2:0:0:
102,349,313046,1,0,0:0:0:0:
94,333,313161,1,0,0:0:0:0:
97,320,313277,1,0,0:0:0:0:
48,246,313392,6,0,L|121:228,1,70,12|0,0:2|0:0,0:0:0:0:
164,170,313623,2,0,L|249:195,1,70
306,263,313854,5,4,0:2:0:0:
322,265,313969,1,0,0:0:0:0:
350,257,314084,1,0,0:0:0:0:
376,231,314200,1,0,0:0:0:0:
418,123,314315,5,12,0:2:0:0:
421,133,314430,1,0,0:0:0:0:
424,144,314546,2,0,B|437:175|437:175|412:139,1,70,0|0,0:0|0:0,0:0:0:0:
473,238,314777,5,4,0:2:0:0:
462,254,314892,1,0,0:0:0:0:
455,280,315008,1,0,0:0:0:0:
465,319,315123,1,0,0:0:0:0:
410,379,315238,5,12,0:2:0:0:
344,376,315354,1,0,0:0:0:0:
302,320,315469,1,0,0:0:0:0:
316,247,315584,1,4,0:2:0:0:
381,198,315700,5,4,0:2:0:0:
385,152,315815,1,0,0:0:0:0:
357,106,315931,1,0,0:0:0:0:
294,90,316046,1,0,0:0:0:0:
218,172,316161,5,12,0:2:0:0:
140,215,316277,1,0,0:0:0:0:
63,192,316392,1,0,0:0:0:0:
48,128,316508,1,0,0:0:0:0:
71,84,316623,5,4,0:2:0:0:
111,106,316738,1,0,0:0:0:0:
120,139,316854,1,0,0:0:0:0:
112,165,316969,1,0,0:0:0:0:
31,215,317084,6,0,P|45:249|55:296,1,70,12|0,0:2|0:0,0:0:0:0:
126,312,317315,2,0,P|113:342|103:382,1,70,0|0,0:0|0:0,0:0:0:0:
263,313,317546,5,4,0:2:0:0:
274,301,317661,1,0,0:0:0:0:
280,271,317777,1,0,0:0:0:0:
256,239,317892,1,0,0:0:0:0:
177,217,318008,5,12,0:2:0:0:
164,204,318123,1,0,0:0:0:0:
160,185,318238,2,0,B|176:143|176:143|168:190,1,70,0|0,0:0|0:0,0:0:0:0:
102,114,318469,5,4,0:2:0:0:
136,80,318584,1,0,0:0:0:0:
194,69,318700,1,0,0:0:0:0:
245,115,318815,1,0,0:0:0:0:
299,180,318931,5,12,0:2:0:0:
369,184,319046,1,0,0:0:0:0:
424,122,319161,1,0,0:0:0:0:
379,43,319277,1,0,0:0:0:0:
292,73,319392,6,0,B|258:88|243:113|241:152|241:152|200:163|155:148|132:110|122:62|178:17|178:17|172:51|176:72|208:83|203:123|187:141,1,427.35001043335,4|0,0:2|0:0,0:0:0:0:
324,148,320084,5,0,0:0:0:0:
332,152,320161,1,0,0:0:0:0:
343,157,320238,1,0,0:0:0:0:
356,187,320315,6,0,B|376:220|362:240|362:240|309:194|238:220|214:272|238:294|238:294|269:262|314:265,2,310.800007587891,4|4|4,0:2|2:2|2:2,0:0:0:0:
99,137,321469,5,0,0:0:0:0:
67,156,321546,1,0,0:0:0:0:
56,191,321623,1,0,0:0:0:0:
66,228,321700,1,4,0:2:0:0:
224,93,321931,5,0,0:0:0:0:
200,57,322008,1,0,0:0:0:0:
160,44,322084,1,0,0:0:0:0:
92,40,322161,6,0,P|152:59|235:81,1,116.550002845459,12|0,0:2|0:0,0:0:0:0:
241,134,322392,2,0,P|258:127|276:123,1,31.4999990386963,0|0,0:0|0:0,0:0:0:0:
356,31,322623,5,4,0:2:0:0:
425,92,322777,5,0,0:0:0:0:
333,197,322931,5,0,0:0:0:0:
444,369,323084,6,0,B|454:328|520:313|520:313|442:244|346:251|265:310|265:310|356:325|364:368,1,466.200011381836,4|0,0:2|0:0,0:0:0:0:
153,302,324008,6,0,B|143:280|115:267|73:281|73:281|114:249|179:261|194:311|190:312|187:314|184:341|202:377|258:380,1,310.800007587891,12|4,0:2|0:2,0:0:0:0:
258,366,324700,1,0,0:0:0:0:
459,209,324931,6,0,P|442:161|389:110,1,112,4|0,0:2|2:0,0:0:0:0:
391,38,325392,2,0,P|352:43|312:69,1,83.9999974365235,4|0,0:2|2:0,0:0:0:0:
211,264,325854,6,0,P|233:247|260:242,1,56,12|0,0:2|2:0,0:0:0:0:
310,189,326315,2,0,P|337:208|349:221,1,49,4|0,0:2|0:0,0:0:0:0:
333,326,326777,6,0,B|317:314|309:288|322:248|364:237|390:240|390:240|414:258|438:246|455:214|453:178|434:152|374:147|374:147|403:162|416:198|413:204,1,385,8|0,0:1|0:0,0:0:0:0:
379,67,327469,2,0,B|321:76|292:124|292:124|310:70|296:21,1,211.750006462097,8|0,0:1|0:0,0:0:0:0:
317,189,328161,5,8,0:2:0:0:
245,204,328238,1,8,0:2:0:0:
175,229,328315,1,8,0:2:0:0:
128,289,328392,5,8,0:3:0:0:
113,284,328469,1,8,0:3:0:0:
98,279,328546,1,8,0:3:0:0:
61,216,328623,5,8,0:2:0:0:
75,269,328700,1,8,0:2:0:0:
86,321,328777,1,8,0:2:0:0:
73,363,328854,5,8,0:3:0:0:
86,354,328931,1,8,0:3:0:0:
100,350,329008,1,8,0:3:0:0:
114,347,329084,1,8,0:3:0:0:
127,346,329161,1,8,0:3:0:0:
140,347,329238,1,8,0:3:0:0:
152,349,329315,1,8,0:3:0:0:
163,352,329392,1,8,0:3:0:0:
173,357,329469,1,8,0:3:0:0:
182,363,329546,1,8,0:3:0:0:
191,368,329623,1,8,0:3:0:0:
200,370,329700,1,8,0:3:0:0:
209,371,329777,1,8,0:3:0:0:
218,370,329854,1,8,0:3:0:0:
226,368,329931,1,8,0:3:0:0:
233,364,330008,1,8,0:1:0:0:
239,359,330084,1,8,0:1:0:0:
243,353,330161,1,8,0:1:0:0:
246,347,330238,1,8,0:1:0:0:
247,341,330315,1,8,0:1:0:0:
247,335,330392,1,8,0:1:0:0:
244,330,330469,6,0,B|214:270|259:234|288:216|322:233|392:185|392:185|334:169|278:153,1,346.49998942566,4|0,0:2|0:0,0:0:0:0:
322,311,331161,6,0,B|338:332|324:364|324:364|301:302|248:276|191:275,1,220.499993270874,4|0,0:2|0:0,0:0:0:0:
159,217,331738,2,0,P|137:225|125:236,1,24.4999992523194,0|0,0:0|0:0,0:0:0:0:
67,317,331854,5,8,0:2:0:0:
59,248,331931,1,8,0:2:0:0:
52,179,332008,1,8,0:2:0:0:
43,111,332084,2,0,L|52:70,3,35,0|0|0|0,0:0|0:0|0:0|0:0,0:0:0:0:
176,23,332315,5,8,0:3:0:0:
167,71,332392,1,8,0:3:0:0:
158,119,332469,1,8,0:3:0:0:
149,167,332546,2,0,L|144:196,3,28,0|0|0|0,0:0|0:0|0:0|0:0,0:0:0:0:
249,274,332777,5,8,0:3:0:0:
245,244,332854,1,8,0:3:0:0:
242,214,332931,1,8,0:3:0:0:
239,184,333008,2,0,L|233:145,3,20.9999993591309,0|0|0|0,0:0|0:0|0:0|0:0,0:0:0:0:
367,89,333238,5,8,0:3:0:0:
363,110,333315,1,8,0:3:0:0:
359,131,333392,1,8,0:3:0:0:
341,161,333469,5,8,0:3:0:0:
343,171,333546,1,8,0:3:0:0:
345,181,333623,1,8,0:3:0:0:
370,209,333700,5,8,0:1:0:0:
322,283,333854,5,8,0:1:0:0:
376,339,334008,5,8,0:1:0:0:
416,221,334161,6,0,B|429:174|477:160|477:160|360:189|360:189|324:200|324:271|324:271|324:338|265:355,1,385,4|0,0:2|0:0,0:0:0:0:
242,284,334854,2,0,B|223:289|215:319|215:319|188:284|210:229|248:205|315:208|346:259,1,252,4|0,0:2|0:0,0:0:0:0:
406,220,335431,2,0,P|413:237|418:263,1,28,0|0,0:0|0:0,0:0:0:0:
237,74,335546,6,0,B|219:40|173:50|173:50|160:70|142:77,1,105,2|0,0:2|0:0,0:0:0:0:
82,45,335777,5,0,0:0:0:0:
61,77,335854,1,0,0:0:0:0:
68,112,335931,1,0,0:0:0:0:
94,130,336008,2,0,B|119:135|113:158|113:158|83:175|85:217,1,94.499997116089,8|0,0:1|0:0,0:0:0:0:
40,294,336238,5,8,0:3:0:0:
69,280,336315,1,8,0:3:0:0:
94,281,336392,1,8,0:3:0:0:
115,295,336469,2,0,B|151:302|172:312|172:312|189:291|208:276,1,84,8|0,0:1|0:0,0:0:0:0:
242,220,336700,5,0,0:0:0:0:
266,216,336777,1,0,0:0:0:0:
286,227,336854,1,0,0:0:0:0:
297,245,336931,2,0,B|296:256|302:257|302:257|308:226|318:200,1,73.4999977569581,8|0,0:1|0:0,0:0:0:0:
387,142,337161,5,0,0:0:0:0:
384,128,337238,1,0,0:0:0:0:
378,116,337315,1,0,0:0:0:0:
360,106,337392,5,8,0:3:0:0:
379,65,337469,1,8,0:3:0:0:
426,53,337546,1,8,0:3:0:0:
472,84,337623,1,8,0:3:0:0:
504,82,337700,1,8,0:1:0:0:
510,72,337777,1,8,0:1:0:0:
480,17,337854,6,0,L|486:55,1,38.5,4|0,0:2|0:0,0:0:0:0:
505,144,338546,5,8,0:1:0:0:
434,360,341084,6,0,L|407:351,1,23.3333333333333,8|8,0:1|2:1,0:0:0:0:
434,360,341546,6,0,B|479:314|466:255|407:213|354:248|354:248|382:257|396:284,1,262.500010013581,4|0,0:2|0:0,0:0:0:0:
322,174,341892,2,0,B|275:205|280:266|280:266|242:216|192:216,1,209.999993591309
306,348,342238,6,0,P|315:329|333:320,1,42,0|0,0:0|0:0,0:0:0:0:
393,122,342469,6,0,B|376:129|370:117|357:105|348:103|325:100|325:100|363:79|405:91|422:128|422:128|418:129|424:155|444:184|488:175,1,262.500010013581,12|0,0:2|0:0,0:0:0:0:
230,71,342815,6,0,B|242:37|288:24|288:24|229:67|211:145,1,209.999993591309,0|0,0:0|0:0,0:0:0:0:
151,187,343161,2,0,B|152:196|165:205|165:205|162:189|161:179,1,42
371,212,343392,6,0,B|379:241|438:237|424:166|360:149|319:172|273:227|297:289|333:317,1,262.500010013581,4|0,0:2|0:0,0:0:0:0:
455,346,343738,2,0,B|482:347|494:319|494:319|390:342|390:342|379:367|345:380,1,209.999993591309,0|0,0:0|0:0,0:0:0:0:
283,371,344084,5,0,0:0:0:0:
274,366,344161,1,0,0:0:0:0:
263,361,344238,1,0,0:0:0:0:
204,369,344315,6,0,B|140:373|141:306|128:272|48:276,1,175,12|0,0:2|0:0,0:0:0:0:
71,370,344661,6,0,P|97:291|121:225,1,131.25000500679
214,295,345008,5,8,0:2:0:0:
176,170,345123,1,8,0:2:0:0:
28,95,345238,6,0,B|-8:78|-16:36|9:11|79:7|111:25|130:114|80:145,1,262.500010013581,0|0,0:0|0:0,0:0:0:0:
30,194,345584,2,0,B|43:233|102:232|102:232|123:197|152:164|231:173,1,209.999993591309,0|0,0:0|0:0,0:0:0:0:
187,266,345931,6,0,B|192:250|183:245|173:251|177:264|188:269,1,42
330,110,346161,6,0,B|337:90|367:74|367:74|353:37|284:13|229:52|229:52|259:74|273:124,1,262.500010013581,12|0,0:2|0:0,0:0:0:0:
393,152,346508,6,0,P|298:112|186:115,1,209.999993591309,0|0,0:0|0:0,0:0:0:0:
146,46,346854,2,0,B|138:53|140:66|140:66|152:53|156:50,1,42,0|0,0:0|0:0,0:0:0:0:
91,169,347084,6,0,B|64:151|32:151|32:151|126:192|118:258|118:258|86:269|67:311,1,262.500010013581,4|0,0:2|0:0,0:0:0:0:
143,333,347431,2,0,B|167:354|175:375|175:375|149:355|103:316|33:309,1,209.999993591309,0|0,0:0|0:0,0:0:0:0:
35,233,347777,6,0,P|48:217|70:203,1,42
256,213,348008,5,8,0:3:0:0:
325,223,348084,1,8,0:3:0:0:
319,283,348161,1,8,0:3:0:0:
365,292,348238,1,8,0:3:0:0:
366,321,348315,1,8,0:3:0:0:
385,329,348392,1,8,0:3:0:0:
394,353,348469,5,8,0:3:0:0:
386,357,348546,1,8,0:3:0:0:
397,344,348623,1,8,0:3:0:0:
386,343,348700,1,8,0:1:0:0:
381,348,348777,1,8,0:1:0:0:
401,350,348854,1,8,0:1:0:0:
391,353,348931,6,0,B|417:343|438:359|438:359|487:320|489:284|454:240|451:241|449:245|421:241|378:223|376:162,1,262.500010013581,4|0,0:2|0:0,0:0:0:0:
452,170,349277,2,0,B|495:175|495:139|495:139|334:212,1,209.999993591309
308,148,349623,5,0,0:0:0:0:
375,116,349738,1,0,0:0:0:0:
248,274,349854,6,0,B|257:232|231:205|231:205|287:224|299:251|304:316|263:366,1,262.500010013581,12|0,0:2|0:0,0:0:0:0:
177,256,350200,6,0,B|149:271|93:260|83:215|85:214|87:212|71:163|37:148|-11:161,1,209.999993591309
2,231,350546,2,0,P|16:241|0:236,1,42
160,187,350777,6,0,B|183:124|205:69|205:69|197:41|150:28|150:28|185:54|184:104,1,262.500010013581,4|0,0:2|0:0,0:0:0:0:
107,96,351123,2,0,B|165:68|222:99|242:137|242:137|227:181|245:204,1,209.999993591309,0|0,0:0|0:0,0:0:0:0:
308,169,351469,6,0,B|322:169|329:157|329:157|313:160|307:168,1,42
481,68,351700,6,0,P|452:94|432:156,1,96.250002937317,0|0,0:0|0:0,0:0:0:0:
383,208,352046,2,0,P|403:228|410:266,1,61.2499981307984,4|0,0:2|0:0,0:0:0:0:
441,325,352392,2,0,P|432:344|429:361,1,36.749998878479,4|0,0:2|0:0,0:0:0:0:
428,370,352854,6,0,B|401:366|374:367|374:367|354:346|326:332,1,105,0|0,0:0|0:0,0:0:0:0:
279,280,353084,2,0,B|249:289|224:312|224:312|200:302|170:301,1,105,4|0,0:2|0:0,0:0:0:0:
129,354,353315,5,0,0:0:0:0:
118,349,353392,1,0,0:0:0:0:
110,338,353469,1,0,0:0:0:0:
72,322,353546,6,0,B|121:310|149:249|141:156|12:146|-20:225|31:262|77:253,1,262.500010013581,12|0,0:2|0:0,0:0:0:0:
130,118,353892,6,0,B|162:126|172:161|172:161|104:110|15:111,1,209.999993591309
19,37,354238,2,0,P|40:35|58:18,1,42,0|0,0:0|0:0,0:0:0:0:
252,134,354469,6,0,B|302:128|353:147|378:198|371:252|371:252|330:276|304:329,1,262.500010013581,4|0,0:2|0:0,0:0:0:0:
388,339,354815,2,0,B|404:356|444:344|444:344|356:330|273:301,1,209.999993591309
277,238,355161,5,0,0:0:0:0:
274,226,355238,1,0,0:0:0:0:
272,212,355315,1,0,0:0:0:0:
267,202,355392,6,0,B|261:186|231:177|217:144|241:104|280:114|290:165|262:186|267:202,1,157.500006008148,12|0,0:2|0:0,0:0:0:0:
367,143,355623,5,0,0:0:0:0:
370,131,355700,1,0,0:0:0:0:
372,117,355777,1,0,0:0:0:0:
377,107,355854,6,0,B|382:91|412:82|426:49|402:9|363:19|353:70|381:91|376:107,1,157.500006008148,12|0,0:2|0:0,0:0:0:0:
346,212,356084,5,8,0:2:0:0:
301,76,356200,1,8,0:2:0:0:
185,43,356315,6,0,P|134:59|182:53,1,157.499995193482,0|0,0:0|0:0,0:0:0:0:
24,127,356661,2,0,P|75:143|27:137,1,157.499995193482,0|0,0:0|0:0,0:0:0:0:
99,243,357008,6,0,P|85:232|103:240,1,47.2499985580445,0|0,0:0|0:0,0:0:0:0:
321,312,357238,5,12,0:2:0:0:
324,323,357354,2,0,P|289:301|319:313,1,157.499995193482,0|0,0:0|0:0,0:0:0:0:
376,223,357700,2,0,P|411:201|381:213,1,157.499995193482,2|0,0:2|0:0,0:0:0:0:
309,162,358046,1,0,0:0:0:0:
163,359,358161,6,0,P|132:332|165:348,1,94.499997116089,12|0,0:2|0:0,0:0:0:0:
70,257,358392,6,0,P|96:248|52:248,1,157.499995193482,0|0,0:0|0:0,0:0:0:0:
171,129,358738,2,0,P|145:120|189:120,1,157.499995193482,0|0,0:0|0:0,0:0:0:0:
454,102,359084,6,0,P|491:68|444:96,1,157.499995193482,8|0,0:2|0:0,0:0:0:0:
369,211,359431,2,0,P|343:202|387:202,1,157.499995193482,0|0,0:0|0:0,0:0:0:0:
430,284,359777,6,0,P|434:279|431:292,1,31.4999990386963,0|0,0:0|0:0,0:0:0:0:
385,349,359892,2,0,P|381:344|384:357,1,31.4999990386963,0|0,0:0|0:0,0:0:0:0:
211,352,360008,6,0,P|197:343|229:352,1,157.499995193482,2|0,0:2|0:0,0:0:0:0:
324,240,360354,2,0,P|338:231|306:240,1,157.499995193482,0|0,0:0|0:0,0:0:0:0:
209,143,360700,6,0,P|199:130|213:140,1,47.2499985580445,0|0,0:0|0:0,0:0:0:0:
454,29,360931,5,12,0:2:0:0:
459,41,361046,2,0,P|475:73|454:39,1,157.499995193482,0|0,0:0|0:0,0:0:0:0:
305,152,361392,2,0,P|289:184|310:150,1,157.499995193482,2|0,0:2|0:0,0:0:0:0:
406,269,361738,1,0,0:0:0:0:
248,67,361854,6,0,P|270:77|246:61,1,94.499997116089,12|0,0:2|0:0,0:0:0:0:
128,101,362084,6,0,P|98:80|143:95,1,157.499995193482,0|0,0:0|0:0,0:0:0:0:
57,218,362431,2,0,P|77:203|46:213,1,94.499997116089,0|0,0:0|0:0,0:0:0:0:
119,280,362661,5,0,0:0:0:0:
116,289,362719,1,0,0:0:0:0:
111,299,362777,2,0,P|80:301|113:305,1,94.499997116089,12|0,0:2|0:0,0:0:0:0:
208,314,363008,2,0,P|225:325|207:303,1,94.499997116089,0|0,0:0|0:0,0:0:0:0:
241,203,363238,2,0,P|253:199|227:197,1,94.499997116089,4|0,0:2|0:0,0:0:0:0:
145,135,363469,6,0,P|137:130|143:144,1,31.4999990386963,0|0,0:0|0:0,0:0:0:0:
211,80,363584,2,0,P|221:72|211:74,1,31.4999990386963,0|0,0:0|0:0,0:0:0:0:
437,220,363700,6,0,P|466:204|426:216,1,157.499995193482,0|0,0:0|0:0,0:0:0:0:
327,317,364046,2,0,P|298:301|338:313,1,157.499995193482,0|0,0:0|0:0,0:0:0:0:
417,378,364392,6,0,P|428:360|413:375,1,47.2499985580445,0|0,0:0|0:0,0:0:0:0:
273,145,364623,5,12,0:2:0:0:
281,147,364738,2,0,P|337:167|286:175,1,157.499995193482,0|0,0:0|0:0,0:0:0:0:
195,72,365084,2,0,P|139:92|190:100,1,157.499995193482,0|0,0:0|0:0,0:0:0:0:
270,18,365431,1,0,0:0:0:0:
73,225,365546,5,12,0:2:0:0:
65,219,365661,2,0,P|45:194|95:215,1,157.499995193482,0|0,0:0|0:0,0:0:0:0:
166,323,366008,2,0,P|200:298|151:317,1,157.499995193482,4|0,0:2|0:0,0:0:0:0:
65,345,366354,1,0,0:0:0:0:
341,363,366469,6,0,P|319:359|351:348,1,94.499997116089,12|0,0:2|0:0,0:0:0:0:
451,270,366700,6,0,P|461:261|425:272,1,157.499995193482,0|0,0:0|0:0,0:0:0:0:
309,182,367046,2,0,P|304:176|335:184,1,94.499997116089,0|0,0:0|0:0,0:0:0:0:
412,112,367277,1,0,0:0:0:0:
312,74,367392,6,0,P|295:59|331:75,1,157.499995193482,0|0,0:0|0:0,0:0:0:0:
448,185,367738,2,0,P|465:170|429:186,1,157.499995193482,0|0,0:0|0:0,0:0:0:0:
311,241,368084,6,0,P|302:223|314:235,1,47.2499985580445,0|0,0:0|0:0,0:0:0:0:
466,360,368315,5,12,0:2:0:0:
455,353,368431,2,0,P|421:322|475:344,1,157.499995193482,0|0,0:0|0:0,0:0:0:0:
288,376,368777,2,0,P|324:344|264:358,1,157.499995193482,4|0,0:2|0:0,0:0:0:0:
364,255,369123,1,0,0:0:0:0:
123,338,369238,6,0,P|99:309|140:322,1,94.499997116089,12|0,0:2|0:0,0:0:0:0:
191,200,369469,6,0,P|235:182|186:195,1,157.499995193482,0|0,0:0|0:0,0:0:0:0:
96,136,369815,2,0,P|67:117|101:131,1,94.499997116089,0|0,0:0|0:0,0:0:0:0:
181,61,370046,5,0,0:0:0:0:
185,49,370104,1,0,0:0:0:0:
189,37,370161,5,12,0:2:0:0:
94,13,370277,1,0,0:0:0:0:
85,17,370623,5,12,0:2:0:0:
241,104,370738,1,0,0:0:0:0:
57,158,370854,1,0,0:0:0:0:
224,236,370969,1,0,0:0:0:0:
152,333,371084,5,4,0:2:0:0:
185,351,371200,1,0,0:0:0:0:
222,352,371315,1,0,0:0:0:0:
255,333,371431,1,0,0:0:0:0:
280,260,371546,5,12,0:2:0:0:
313,243,371661,1,0,0:0:0:0:
349,251,371777,5,0,0:0:0:0:
381,281,371892,1,0,0:0:0:0:
424,287,372008,1,4,0:2:0:0:
460,263,372123,1,0,0:0:0:0:
462,219,372238,1,0,0:0:0:0:
431,186,372354,1,0,0:0:0:0:
351,152,372469,5,12,0:2:0:0:
327,114,372584,1,0,0:0:0:0:
338,71,372700,1,0,0:0:0:0:
377,52,372815,1,0,0:0:0:0:
419,63,372931,5,4,0:2:0:0:
390,76,373046,1,0,0:0:0:0:
361,89,373161,1,0,0:0:0:0:
336,109,373277,1,0,0:0:0:0:
278,169,373392,5,12,0:2:0:0:
252,150,373508,1,0,0:0:0:0:
221,143,373623,5,0,0:0:0:0:
171,150,373738,1,0,0:0:0:0:
125,172,373854,1,4,0:2:0:0:
75,161,373969,1,0,0:0:0:0:
55,114,374084,1,0,0:0:0:0:
66,64,374200,1,0,0:0:0:0:
144,27,374315,5,12,0:2:0:0:
172,68,374431,1,0,0:0:0:0:
160,116,374546,1,0,0:0:0:0:
119,146,374661,1,0,0:0:0:0:
79,177,374777,5,4,0:2:0:0:
59,216,374892,1,0,0:0:0:0:
64,260,375008,1,0,0:0:0:0:
98,287,375123,1,0,0:0:0:0:
165,339,375238,5,12,0:2:0:0:
196,307,375354,1,0,0:0:0:0:
238,294,375469,5,0,0:0:0:0:
287,288,375584,1,0,0:0:0:0:
335,303,375700,1,4,0:2:0:0:
369,339,375815,1,0,0:0:0:0:
418,349,375931,1,0,0:0:0:0:
463,327,376046,1,0,0:0:0:0:
457,245,376161,5,12,0:2:0:0:
444,241,376277,1,0,0:0:0:0:
449,229,376392,1,0,0:0:0:0:
461,230,376508,1,0,0:0:0:0:
469,239,376623,5,4,0:2:0:0:
433,227,376738,1,0,0:0:0:0:
408,198,376854,1,0,0:0:0:0:
397,161,376969,1,0,0:0:0:0:
453,111,377084,5,12,0:2:0:0:
473,79,377200,1,0,0:0:0:0:
459,43,377315,5,0,0:0:0:0:
409,14,377431,1,0,0:0:0:0:
353,26,377546,1,4,0:2:0:0:
325,75,377661,1,0,0:0:0:0:
280,110,377777,1,0,0:0:0:0:
223,111,377892,1,0,0:0:0:0:
160,56,378008,5,12,0:2:0:0:
213,38,378123,1,0,0:0:0:0:
262,65,378238,1,0,0:0:0:0:
282,118,378354,1,0,0:0:0:0:
263,171,378469,5,4,0:2:0:0:
243,179,378546,1,0,0:0:0:0:
228,194,378623,1,0,0:0:0:0:
220,213,378700,1,0,0:0:0:0:
220,234,378777,1,0,0:0:0:0:
230,252,378854,1,0,0:0:0:0:
246,264,378931,5,12,0:2:0:0:
266,259,379008,1,0,0:0:0:0:
286,260,379084,1,0,0:0:0:0:
305,267,379161,5,0,0:0:0:0:
324,288,379238,1,0,0:0:0:0:
340,312,379315,1,0,0:0:0:0:
367,323,379392,1,4,0:2:0:0:
396,321,379469,1,0,0:0:0:0:
424,312,379546,1,0,0:0:0:0:
438,286,379623,1,0,0:0:0:0:
439,256,379700,1,0,0:0:0:0:
427,228,379777,1,0,0:0:0:0:
403,210,379854,6,0,P|380:201|354:174,2,41.9999987182618,12|0|0,0:2|0:0|0:0,0:0:0:0:
298,157,380084,2,0,P|307:131|330:110,2,41.9999987182618,0|0|0,0:0|0:0|0:0,0:0:0:0:
344,45,380315,5,4,0:2:0:0:
364,41,380392,1,0,0:0:0:0:
384,45,380469,1,0,0:0:0:0:
401,55,380546,1,0,0:0:0:0:
411,72,380623,1,0,0:0:0:0:
416,92,380700,1,0,0:0:0:0:
415,113,380777,5,12,0:2:0:0:
398,99,380854,1,0,0:0:0:0:
378,92,380931,1,0,0:0:0:0:
357,90,381008,5,0,0:0:0:0:
319,93,381084,1,0,0:0:0:0:
292,119,381161,1,0,0:0:0:0:
283,155,381238,1,4,0:2:0:0:
258,183,381315,1,0,0:0:0:0:
220,190,381392,1,0,0:0:0:0:
184,177,381469,1,0,0:0:0:0:
164,144,381546,1,0,0:0:0:0:
163,106,381623,1,0,0:0:0:0:
184,74,381700,6,0,P|190:101|200:136,2,41.9999987182618,12|0|0,0:2|0:0|0:0,0:0:0:0:
234,176,381931,2,0,P|219:210|215:227,2,41.9999987182618,0|0|0,0:0|0:0|0:0,0:0:0:0:
148,266,382161,5,4,0:2:0:0:
152,286,382238,1,0,0:0:0:0:
152,307,382315,1,0,0:0:0:0:
142,325,382392,1,0,0:0:0:0:
126,338,382469,1,0,0:0:0:0:
106,345,382546,1,0,0:0:0:0:
85,343,382623,5,12,0:2:0:0:
99,327,382700,1,0,0:0:0:0:
119,321,382777,1,0,0:0:0:0:
140,320,382854,5,0,0:0:0:0:
168,328,382931,1,0,0:0:0:0:
188,349,383008,1,0,0:0:0:0:
215,359,383084,1,4,0:2:0:0:
255,371,383161,1,0,0:0:0:0:
304,362,383238,1,0,0:0:0:0:
328,318,383315,1,0,0:0:0:0:
317,268,383392,1,0,0:0:0:0:
272,243,383469,1,0,0:0:0:0:
222,250,383546,6,0,P|196:227|186:203,2,41.9999987182618,12|0|0,0:2|0:0|0:0,0:0:0:0:
89,255,383777,2,0,P|110:219|124:207,2,41.9999987182618,0|0|0,3:0|3:0|3:0,3:0:0:0:
96,138,384008,5,4,0:2:0:0:
111,123,384084,1,0,0:0:0:0:
130,114,384161,1,0,0:0:0:0:
150,110,384238,1,0,0:0:0:0:
171,110,384315,1,0,0:0:0:0:
191,116,384392,1,0,0:0:0:0:
208,127,384469,5,12,0:2:0:0:
211,106,384546,1,0,0:0:0:0:
224,89,384623,1,0,0:0:0:0:
241,78,384700,5,0,0:0:0:0:
277,68,384777,1,0,0:0:0:0:
313,79,384854,1,0,0:0:0:0:
333,111,384931,1,4,0:2:0:0:
332,148,385008,1,0,0:0:0:0:
306,174,385084,1,0,0:0:0:0:
269,183,385161,1,0,0:0:0:0:
237,203,385238,1,0,0:0:0:0:
218,235,385315,1,0,0:0:0:0:
220,272,385392,6,0,P|239:289|260:302,2,41.9999987182618,12|0|0,0:2|0:0|0:0,0:0:0:0:
278,365,385623,2,0,P|313:351|330:337,2,41.9999987182618,0|0|0,0:0|0:0|0:0,0:0:0:0:
413,235,385854,6,0,B|419:280|456:285|492:312|493:376|441:406|387:386|367:349|374:305|418:281|411:238,1,308,8|0,0:1|0:0,0:0:0:0:
326,67,386546,6,0,B|335:64|335:64|343:63|343:63|350:61|353:61|353:61|351:61|353:61|353:61|355:61|353:61|353:61|356:61|362:61|362:61|374:61|374:61|387:62|387:62|385:62|387:62|387:62|385:62|387:62|387:62|394:63|403:65|403:65|401:64|403:65|403:65|416:70|416:70|414:69|416:70|416:70|429:75|429:75|427:74|429:75|429:75|436:78|442:82|442:82|444:83|442:82|442:82|453:89|466:101|466:101|465:100|466:101|466:101|465:100|466:101|466:101|467:102|466:101|466:101|475:110|475:110|474:109|475:110|475:110|482:117|487:125|487:125|486:123|487:125|487:125|488:127|487:125|487:125|491:130|495:137|495:137|496:139|495:137|495:137|501:148|505:160|505:160|506:162|505:160|505:160|510:175|512:189|512:189|512:187|512:189|512:189|512:191|512:189|512:189|513:196|513:202|513:202|513:200|513:202|513:202|513:213|512:224|512:224|512:222|512:224|512:224|510:238|510:238|510:236|510:238|510:238|508:246|506:254|506:254|507:252|506:254|506:254|505:256|506:254|506:254|503:262|500:270|500:270|499:272|500:270|500:270|496:278|491:285|491:285|490:287|491:285|491:285|487:292|482:298|482:298|481:300|482:298|482:298|476:306|470:312|470:312|469:313|470:312|470:312|464:318|458:323|458:323|460:322|458:323|458:323|456:324|458:323|458:323|442:336|423:344|423:344|425:343|423:344|423:344|421:345|423:344|423:344|413:348|403:351|403:351|405:350|403:351|403:351|401:352|403:351|403:351|393:354|383:355|383:355|381:355|383:355|383:355|369:357|355:356|355:356|357:356|355:356|355:356|353:356|355:356|355:356|353:356|355:356|355:356|321:354|292:337|292:337|294:338|292:337|292:337|294:338|292:337|292:337|294:338|292:337|292:337|283:332|275:326|275:326|277:327|275:326|275:326|273:325|275:326|275:326|268:321|263:316|263:316|260:313|260:313|260:313|260:313|260:313|260:313|270:317|270:317|272:318|270:317|270:317|277:320|285:322|285:322|283:322|285:322|285:322|287:322|285:322|285:322|296:325|307:325|307:325|309:325|307:325|307:325|317:325|327:324|327:324|324:324|327:324|327:324|329:324|327:324|327:324|335:323|342:321|342:321|344:320|342:321|342:321|350:319|357:316|357:316|359:315|357:316|357:316|364:313|371:309|371:309|373:308|371:309|371:309|378:305|385:299|385:299|387:298|385:299|385:299|394:292|401:283|401:283|402:281|401:283|401:283|409:274|414:263|414:263|413:265|414:263|414:263|415:261|414:263|414:263|417:256|420:249|420:249|421:247|420:249|420:249|422:242|424:235|424:235|424:232|424:235|424:235|424:232|424:235|424:235|429:211|425:188|425:188|425:190|425:188|425:188|425:186|425:188|425:188|423:177|419:167|419:167|420:169|419:167|419:167|416:159|411:151|411:151|412:153|411:151|411:151|410:149|411:151|411:151|407:144|401:137|401:137|400:135|401:137|401:137|394:128|385:121|385:121|383:120|385:121|385:121|380:117|374:113|374:113|372:112|374:113|374:113|366:108|357:104|357:104|355:103|357:104|357:104|350:101|342:99|342:99|344:99|342:99|342:99|340:99|342:99|342:99|334:97|321:96|321:96|319:96|321:96|321:96|303:93|286:99|286:99|288:98|286:99|286:99|284:100|286:99|286:99|256:109|256:109|258:108|256:109|256:109|254:110|256:109|256:109|239:113|239:113|241:113|239:113|239:113|237:113|239:113|239:113|227:115|219:123|219:123|217:124|219:123|219:123|207:133|207:133|205:134|207:133|207:133|191:145|193:143|193:143|193:143|193:143|193:143|193:143|193:144|196:144|196:144|198:144|196:144|196:144|211:146|211:146|213:146|211:146|211:146|228:149|228:149|226:149|228:149|228:149|243:152|243:152|241:152|243:152|243:152|245:152|243:152|243:152|253:154|258:154|258:154|260:154|260:155|260:155|261:155|263:158|263:158|264:160|263:158|263:158|271:171|271:171|272:173|271:171|271:171|277:180|283:187|283:187|284:189|283:187|283:187|288:193|294:198|294:198|296:199|294:198|294:198|303:205|313:210|313:210|313:210|313:210|313:210|313:210|313:210|313:210|312:210|312:210|311:210|311:210|313:210|311:210|311:210|309:210|311:210|311:210|305:209|298:208|298:208|296:208|298:208|298:208|291:208|283:208|283:208|281:208|283:208|283:208|270:209|258:212|258:212|260:211|258:212|258:212|256:213|258:212|258:212|250:214|242:218|242:218|240:219|242:218|242:218|241:218|240:218|240:218|220:208|220:208|218:207|220:208|220:208|218:207|220:208|220:208|199:197|199:197|197:196|199:197|199:197|182:187|182:187|180:186|182:187|182:187|179:185|178:185|178:185|178:185|178:185|178:185|178:185|180:200|180:200|180:198|180:200|180:200|180:202|180:200|180:200|183:225|183:225|183:223|183:225|183:225|185:244|185:244|185:242|185:244|185:244|185:246|185:244|185:244|186:252|186:252|187:255|187:256|187:256|186:257|183:261|183:261|180:264|180:264|179:265|180:264|180:264|175:270|170:276|170:276|171:274|170:276|170:276|169:278|170:276|170:276|161:289|154:304|154:304|155:302|154:304|154:304|153:306|154:304|154:304|151:312|150:319|150:319|150:321|150:319|150:319|150:321|150:321|150:321|150:321|150:321|150:321|150:321|150:321|150:321|150:321|149:312|146:302|146:302|145:300|146:302|146:302|142:288|134:275|134:275|135:277|134:275|134:275|133:273|134:275|134:275|131:270|127:265|127:265|128:267|127:265|127:265|122:259|122:259|119:257|119:255|119:255|118:254|120:249|120:249|120:247|120:247|120:245|120:247|120:247|123:229|123:229|123:231|123:229|123:229|125:215|125:215|125:217|125:215|125:215|125:213|125:215|125:215|129:194|129:194|129:192|129:194|129:194|130:188|130:188|131:184|131:184|131:184|131:184|128:185|128:185|126:186|128:185|128:185|115:192|115:192|113:193|115:192|115:192|100:199|100:199|98:200|100:199|100:199|85:205|71:213|71:213|73:212|71:213|71:213|69:214|71:213|71:213|69:214|68:214|68:214|56:208|43:203|43:203|45:204|43:203|43:203|41:202|43:203|43:203|41:202|43:203|43:203|23:196|1:198|1:198|3:198|1:198|1:198|-4:199|-5:199|-5:199|-5:199|-5:199|-5:199|-5:199|-4:199|-4:199|-3:199|0:197|0:197|-1:198|0:197|0:197|-1:198|0:197|0:197|8:193|17:186|17:186|19:185|17:186|17:186|29:177|38:166|38:166|37:168|38:166|38:166|39:164|38:166|38:166|44:159|48:151|48:151|49:149|48:151|48:151|49:150|49:150|49:150|63:148|63:148|65:148|63:148|63:148|78:146|78:146|80:146|78:146|78:146|93:144|93:144|95:144|93:144|93:144|118:141|117:142|117:142|118:141|118:141|117:140|117:140|118:142|117:140|117:140|116:138|117:140|117:140|99:121|99:121|100:123|99:121|99:121|98:119|99:121|99:121|87:107|87:107|86:105|87:107|87:107|74:93|74:93|73:92|74:93|74:93|71:90|71:89|71:89|71:88|72:77|72:77|72:79|72:77|72:77|72:75|72:77|72:77|73:62|72:47|72:47|72:49|72:47|72:47|72:45|72:47|72:47|71:39|69:32|69:32|68:30|69:32|69:32|67:23|62:15|62:15|61:13|62:15|62:15|61:14|61:14|61:14|61:14|61:14|61:14|61:14|61:14|61:14|61:14|67:21|78:29|78:29|76:28|78:29|78:29|80:30|78:29|78:29|92:39|106:45|106:45|108:46|106:45|106:45|113:48|121:50|121:50|124:51|125:51|125:51|123:50|125:51|125:51|127:52|125:51|125:51|133:65|141:82|141:82|140:80|141:82|141:82|142:84|141:82|141:82|147:94|147:94|148:96|147:94|147:94|154:110|154:110|155:112|154:110|154:110|154:111|154:111|157:115|157:115|157:115|157:115|159:115|161:110|161:110|164:103|164:103|165:101|164:103|164:103|165:101|164:103|164:103|174:84|174:84|175:82|174:84|174:84|183:68|183:68|184:65|183:68|183:68|188:58|190:54|190:54|191:52|191:52|193:51|193:51|200:50|200:50|198:50|200:50|200:50|202:50|200:50|200:50|211:48|222:44|222:44|220:45|222:44|222:44|228:42|234:39|234:39|232:40|234:39|234:39|245:33|245:33|246:33|247:32|247:32|248:31|248:31|246:32|248:31|248:31|246:32|248:31,1,2821.70008611145,8|0,0:1|0:0,0:0:0:0:
256,192,412185,12,0,423553,0:0:0:0:
375,248,424395,5,0,0:0:0:0:
378,260,424448,1,0,0:0:0:0:
381,271,424501,2,0,B|427:286|454:267|474:236|451:186|466:153|466:153|385:168|331:227|333:307|357:359,1,423.500012924195,4|0,0:2|0:0,0:0:0:0:
278,82,425448,6,0,B|302:64|329:70|351:76|357:109|322:136|289:133|257:118|246:79|247:77|248:76|236:41|207:26|173:24,1,269.500008224488,10|0,0:2|0:0,0:0:0:0:
131,120,426080,6,0,P|149:105|172:99,1,47.2499985580445,0|0,0:0|0:0,0:0:0:0:
37,75,426395,6,0,B|87:74|167:123|170:216|143:258|95:274|57:260|26:207|56:168,1,346.500010574341,2|0,0:2|0:0,0:0:0:0:
227,184,427185,5,0,0:0:0:0:
234,181,427264,1,0,0:0:0:0:
242,178,427343,2,0,P|309:213|337:277,1,115.50000352478,10|0,0:2|0:0,0:0:0:0:
262,378,427659,2,0,P|260:336|296:303,1,84,0|0,0:0|0:0,0:0:0:0:
406,326,427974,2,0,P|374:327|353:312,1,52.5,0|0,0:0|0:0,0:0:0:0:
207,209,428290,6,0,B|204:180|215:156|215:156|158:137|107:153|71:223|72:289|144:319|144:319|161:292|195:273,1,377.999988464356,2|0,0:2|0:0,0:0:0:0:
383,347,429080,5,0,0:0:0:0:
394,346,429159,1,0,0:0:0:0:
403,348,429238,6,0,B|432:377|466:376|494:326|484:277|432:250|365:269|365:269|365:231|339:209,1,293.999991027832,10|0,0:2|0:0,0:0:0:0:
398,156,429869,6,0,B|413:147|405:117|385:137|398:155,1,47.2499985580445,0|0,0:0|0:0,0:0:0:0:
266,293,430185,5,2,0:2:0:0:
272,297,430343,2,0,P|250:285|210:291,1,52.5000020027161,0|0,0:0|2:0,0:0:0:0:
201,357,430659,2,0,P|223:369|265:363,1,52.5000020027161,0|0,0:0|2:0,0:0:0:0:
326,355,430974,2,0,P|337:352|351:349,1,26.2500010013581
118,190,431132,5,8,0:2:0:0:
123,194,431211,1,0,0:0:0:0:
130,198,431290,1,0,0:0:0:0:
131,206,431369,1,0,0:0:0:0:
126,209,431448,5,8,0:3:0:0:
170,181,431527,1,8,0:3:0:0:
222,174,431606,1,8,0:3:0:0:
266,201,431685,1,8,0:3:0:0:
297,242,431764,1,8,0:3:0:0:
337,251,431843,1,8,0:3:0:0:
367,242,431922,1,8,0:3:0:0:
379,224,432001,1,8,0:3:0:0:
381,204,432080,6,0,B|335:177|320:117|347:80|386:65|448:64|450:112|450:112|388:102|357:141,1,318.499985420228,4|0,0:2|0:0,0:0:0:0:
279,80,432711,6,0,B|284:68|293:60|293:60|278:64|277:78,1,47.2499985580445,0|0,0:0|0:0,0:0:0:0:
466,294,433027,6,0,B|486:314|484:345|455:381|421:372|407:362|395:345|390:334|390:334|382:315|356:291|318:293|296:318|296:341,1,269.500008224488,10|0,0:2|0:0,0:0:0:0:
217,329,433659,2,0,P|214:353|234:372,1,47.2499985580445
132,259,433974,6,0,B|110:278|115:302|126:317|126:317|137:275|169:250|197:238|238:245,1,192.500005874634,2|0,0:2|0:0,0:0:0:0:
256,172,434448,2,0,B|238:167|225:167|225:167|245:154|267:159|283:167|301:205,1,115.50000352478,0|0,0:0|0:0,0:0:0:0:
379,211,434764,5,0,0:0:0:0:
385,222,434843,1,0,0:0:0:0:
384,231,434922,2,0,B|433:217|450:167|433:125|390:110|384:114|379:122|320:78|341:19,1,269.500008224488,12|0,0:2|0:0,0:0:0:0:
414,44,435553,6,0,P|433:52|461:68,1,47.2499985580445,0|0,0:0|0:0,0:0:0:0:
93,257,435869,6,0,B|142:242|148:219|150:167|94:157|94:157|86:163|86:163|46:161|23:141|-1:106|-11:48|53:5|115:20|115:20|137:56|109:81|68:95,1,500.499977088929,4|0,0:2|0:0,0:0:0:0:
176,376,436816,6,0,B|154:327|184:268|254:233|315:271|315:271|322:310|355:333|392:326,1,318.499985420228,12|0,0:2|0:0,0:0:0:0:
405,266,437448,6,0,B|400:258|402:243|402:243|397:257|388:263,1,47.2499985580445,0|0,0:0|0:0,0:0:0:0:
276,104,437764,6,0,B|230:77|254:50|251:20|251:20|287:41|291:70|278:101,1,175,0|0,0:0|0:0,0:0:0:0:
257,177,438238,2,0,B|287:186|309:195|309:195|321:171|342:149,1,105,0|0,0:0|0:0,0:0:0:0:
190,129,438553,5,0,0:0:0:0:
179,123,438632,1,0,0:0:0:0:
164,119,438711,2,0,P|119:147|90:206,1,105,12|0,0:2|0:0,0:0:0:0:
73,307,439027,5,0,0:0:0:0:
54,252,439185,1,8,0:3:0:0:
144,358,439343,5,0,0:0:0:0:
158,327,439501,1,8,0:3:0:0:
229,246,439659,6,0,P|266:258|285:279,1,56,4|0,0:2|2:0,0:0:0:0:
360,266,439974,2,0,P|361:298|346:324,1,56,2|0,2:2|2:0,0:0:0:0:
301,380,440290,5,2,0:2:0:0:
227,340,440448,1,0,0:0:0:0:
219,172,440606,6,0,P|178:191|161:217,1,56,10|0,0:2|2:0,0:0:0:0:
292,125,440922,5,2,2:2:0:0:
259,50,441080,1,0,2:0:0:0:
383,96,441238,5,2,0:2:0:0:
323,191,441395,1,0,2:0:0:0:
383,274,441553,6,0,P|418:285|434:310,1,56,2|0,0:2|2:0,0:0:0:0:
497,257,441869,1,2,2:2:0:0:
511,330,442027,2,0,P|483:351|466:377,1,56,0|2,0:0|2:2,0:0:0:0:
505,246,442343,1,0,0:0:0:0:
321,369,442501,6,0,B|281:381|253:346|248:327|233:276|198:270|137:296|137:296|171:295|183:322|207:325|231:307,1,318.499985420228,12|0,0:2|0:0,0:0:0:0:
379,255,443132,2,0,B|378:240|391:228|391:228|350:237|323:261|317:317,1,136.499993751526,0|0,0:0|0:0,0:0:0:0:
128,214,443448,6,0,P|90:189|84:162,1,56,4|0,0:2|2:0,0:0:0:0:
148,130,443764,2,0,P|166:91|193:78,1,56,2|0,2:2|2:0,0:0:0:0:
228,18,444080,6,0,B|257:27|257:27|258:29|258:29|288:38,1,56,2|0,0:2|0:0,0:0:0:0:
292,47,444316,1,0,0:0:0:0:
297,57,444395,5,10,0:2:0:0:
401,194,444553,1,0,2:0:0:0:
245,276,444711,1,2,2:2:0:0:
336,363,444869,1,0,2:0:0:0:
320,230,445027,6,0,P|325:195|333:158,1,56,2|0,0:2|2:0,0:0:0:0:
409,112,445343,5,2,0:2:0:0:
405,100,445501,1,0,0:0:0:0:
343,52,445659,2,0,P|317:35|282:31,1,56,2|0,2:2|0:0,0:0:0:0:
179,109,445974,2,0,P|201:93|234:88,1,56,2|0,2:2|0:0,0:0:0:0:
244,96,446211,1,0,0:0:0:0:
251,102,446290,5,10,0:2:0:0:
192,235,446448,1,0,2:0:0:0:
58,138,446606,5,2,0:2:0:0:
201,224,446764,1,0,0:0:0:0:
271,118,446922,1,2,0:2:0:0:
361,182,447080,1,0,0:0:0:0:
419,126,447238,6,0,P|461:143|481:165,1,56,4|0,0:2|2:0,0:0:0:0:
438,215,447553,2,0,P|453:251|439:290,1,56,2|0,2:2|2:0,0:0:0:0:
395,342,447869,1,2,0:2:0:0:
339,273,448027,1,0,2:0:0:0:
201,365,448185,6,0,P|168:354|137:349,1,56,12|0,0:2|2:0,0:0:0:0:
55,328,448501,5,2,2:2:0:0:
57,314,448659,1,0,2:0:0:0:
119,268,448816,5,2,0:2:0:0:
113,254,448974,1,0,2:0:0:0:
52,204,449132,6,0,P|70:168|75:134,1,56,2|0,0:2|2:0,0:0:0:0:
143,106,449448,1,2,2:2:0:0:
65,76,449606,2,0,P|24:92|5:116,1,56,0|2,0:0|2:2,0:0:0:0:
154,122,449922,5,0,0:0:0:0:
166,117,450001,1,0,0:0:0:0:
181,110,450080,1,10,0:2:0:0:
339,206,450238,1,0,2:0:0:0:
134,281,450395,1,2,2:2:0:0:
271,365,450553,1,0,2:0:0:0:
240,215,450711,6,0,P|250:167|255:141,1,56,2|0,0:2|2:0,0:0:0:0:
358,64,451027,6,0,P|395:78|409:99,1,56,4|0,0:2|2:0,0:0:0:0:
270,47,451343,2,0,P|287:17|310:2,1,56,2|0,2:2|2:0,0:0:0:0:
304,124,451659,5,2,0:2:0:0:
214,100,451816,1,0,2:0:0:0:
60,16,451974,6,0,P|23:35|15:58,1,56,12|0,0:2|2:0,0:0:0:0:
102,114,452290,5,2,2:2:0:0:
143,194,452448,1,0,2:0:0:0:
30,288,452606,5,2,0:2:0:0:
46,193,452764,1,0,2:0:0:0:
122,323,452922,6,0,B|149:317|149:317|151:316|151:316|192:308,1,56,4|0,0:2|2:0,0:0:0:0:
252,207,453238,6,0,P|299:215|340:273,1,115.50000352478,4|0,0:2|0:0,0:0:0:0:
415,296,453553,2,0,P|398:342|361:371,1,94.499997116089,4|0,0:2|0:0,0:0:0:0:
256,315,453869,6,0,L|265:281,1,31.4999990386963,4|0,0:2|0:0,0:0:0:0:
234,203,454185,5,8,0:3:0:0:
211,170,454264,1,8,0:3:0:0:
215,134,454343,1,8,0:3:0:0:
231,108,454422,1,8,0:3:0:0:
255,93,454501,1,8,0:1:0:0:
273,77,454580,1,8,0:1:0:0:
281,57,454659,1,8,0:1:0:0:
279,39,454738,1,8,0:1:0:0:
272,28,454816,5,2,0:2:0:0:
266,30,454895,1,0,0:0:0:0:
260,33,454974,1,0,0:0:0:0:
256,38,455053,1,0,0:0:0:0:
254,44,455132,1,2,0:2:0:0:
253,50,455211,1,0,0:0:0:0:
253,56,455290,1,0,0:0:0:0:
254,62,455369,1,0,0:0:0:0:
256,67,455448,1,2,0:2:0:0:
258,72,455527,1,0,0:0:0:0:
261,77,455606,1,0,0:0:0:0:
264,82,455685,1,0,0:0:0:0:
314,107,455764,5,10,0:2:0:0:
318,111,455843,1,0,0:0:0:0:
320,116,455922,1,0,0:0:0:0:
320,122,456001,1,0,0:0:0:0:
319,128,456080,1,2,0:2:0:0:
318,134,456159,1,0,0:0:0:0:
316,140,456238,1,0,0:0:0:0:
314,145,456316,1,0,0:0:0:0:
311,150,456395,1,2,0:2:0:0:
307,155,456474,1,0,0:0:0:0:
303,159,456553,1,0,0:0:0:0:
298,163,456632,1,0,0:0:0:0:
293,167,456711,5,2,0:2:0:0:
277,162,456790,1,0,0:0:0:0:
261,161,456869,1,0,0:0:0:0:
245,164,456948,1,0,0:0:0:0:
231,171,457027,1,2,0:2:0:0:
218,180,457106,1,0,0:0:0:0:
209,193,457185,1,0,0:0:0:0:
202,207,457264,1,0,0:0:0:0:
198,222,457343,1,2,0:2:0:0:
197,237,457422,1,0,0:0:0:0:
199,252,457501,1,0,0:0:0:0:
203,267,457580,1,0,0:0:0:0:
208,312,457659,5,10,0:2:0:0:
217,292,457738,1,0,0:0:0:0:
235,280,457816,1,0,0:0:0:0:
256,273,457895,1,0,0:0:0:0:
278,271,457974,1,2,0:2:0:0:
299,276,458053,1,0,0:0:0:0:
315,290,458132,1,0,0:0:0:0:
324,309,458211,1,0,0:0:0:0:
328,330,458290,1,2,0:2:0:0:
321,350,458369,1,0,0:0:0:0:
306,366,458448,1,0,0:0:0:0:
284,372,458527,1,0,0:0:0:0:
262,367,458606,5,2,0:2:0:0:
246,359,458685,1,0,0:0:0:0:
230,352,458764,1,0,0:0:0:0:
213,347,458843,1,0,0:0:0:0:
196,344,458922,1,2,0:2:0:0:
179,343,459001,1,0,0:0:0:0:
161,343,459080,1,0,0:0:0:0:
144,344,459159,1,0,0:0:0:0:
127,346,459238,1,2,0:2:0:0:
110,349,459316,1,0,0:0:0:0:
93,354,459395,1,0,0:0:0:0:
76,359,459474,1,0,0:0:0:0:
25,379,459553,5,10,0:2:0:0:
25,375,459632,1,0,0:0:0:0:
26,372,459711,1,0,0:0:0:0:
27,368,459790,1,0,0:0:0:0:
27,365,459869,1,2,0:2:0:0:
28,361,459948,1,0,0:0:0:0:
29,358,460027,1,0,0:0:0:0:
30,355,460106,1,0,0:0:0:0:
30,351,460185,1,2,0:2:0:0:
31,348,460264,1,0,0:0:0:0:
32,344,460343,1,0,0:0:0:0:
33,341,460422,1,0,0:0:0:0:
33,337,460501,1,2,0:2:0:0:
34,334,460580,1,0,0:0:0:0:
35,331,460659,1,0,0:0:0:0:
35,327,460738,1,0,0:0:0:0:
36,324,460816,1,2,0:2:0:0:
37,320,460895,1,0,0:0:0:0:
38,317,460974,1,0,0:0:0:0:
38,313,461053,1,0,0:0:0:0:
39,310,461132,1,2,0:2:0:0:
40,307,461211,1,0,0:0:0:0:
41,303,461290,1,0,0:0:0:0:
41,300,461369,1,0,0:0:0:0:
12,264,461448,5,12,0:2:0:0:
32,239,461527,1,0,0:0:0:0:
60,225,461606,1,0,0:0:0:0:
91,220,461685,1,0,0:0:0:0:
121,226,461764,1,2,0:2:0:0:
146,237,461843,1,0,0:0:0:0:
170,240,461922,1,0,0:0:0:0:
190,230,462001,1,0,0:0:0:0:
196,212,462080,1,2,0:2:0:0:
188,198,462159,1,0,0:0:0:0:
175,194,462238,1,0,0:0:0:0:
165,195,462316,1,0,0:0:0:0:
159,198,462395,5,2,0:2:0:0:
165,235,462474,1,0,0:0:0:0:
193,259,462553,1,0,0:0:0:0:
228,271,462632,1,0,0:0:0:0:
265,266,462711,1,2,0:2:0:0:
294,242,462790,1,0,0:0:0:0:
312,208,462869,1,0,0:0:0:0:
308,170,462948,1,0,0:0:0:0:
289,136,463027,1,2,0:2:0:0:
285,98,463106,1,0,0:0:0:0:
298,62,463185,1,0,0:0:0:0:
332,46,463264,1,0,0:0:0:0:
369,49,463343,5,10,0:2:0:0:
373,52,463422,1,0,0:0:0:0:
377,56,463501,1,0,0:0:0:0:
380,60,463580,1,0,0:0:0:0:
383,65,463659,1,2,0:2:0:0:
385,70,463738,1,0,0:0:0:0:
386,75,463816,1,0,0:0:0:0:
387,81,463895,1,0,0:0:0:0:
387,87,463974,1,2,0:2:0:0:
386,93,464053,1,0,0:0:0:0:
384,99,464132,1,0,0:0:0:0:
382,105,464211,1,0,0:0:0:0:
379,110,464290,5,2,0:2:0:0:
359,94,464369,1,0,0:0:0:0:
334,86,464448,1,0,0:0:0:0:
308,87,464527,1,0,0:0:0:0:
285,97,464606,5,2,0:2:0:0:
296,112,464685,1,0,0:0:0:0:
307,126,464764,1,0,0:0:0:0:
315,142,464843,1,0,0:0:0:0:
321,159,464922,5,2,0:2:0:0:
308,158,465001,1,0,0:0:0:0:
295,160,465080,1,0,0:0:0:0:
283,165,465159,1,0,0:0:0:0:
247,175,465238,5,10,0:2:0:0:
234,146,465316,1,0,0:0:0:0:
210,125,465395,1,0,0:0:0:0:
180,112,465474,1,0,0:0:0:0:
148,112,465553,5,2,0:2:0:0:
169,98,465632,1,0,0:0:0:0:
193,93,465711,1,0,0:0:0:0:
218,93,465790,1,0,0:0:0:0:
242,97,465869,5,2,0:2:0:0:
231,81,465948,1,0,0:0:0:0:
214,71,466027,1,0,0:0:0:0:
196,65,466106,1,0,0:0:0:0:
177,63,466185,5,2,0:2:0:0:
136,64,466264,1,0,0:0:0:0:
102,87,466343,1,0,0:0:0:0:
85,124,466422,1,0,0:0:0:0:
87,164,466501,1,2,0:2:0:0:
108,198,466580,1,0,0:0:0:0:
141,221,466659,1,0,0:0:0:0:
180,230,466738,1,0,0:0:0:0:
218,217,466816,1,2,0:2:0:0:
254,198,466895,1,0,0:0:0:0:
294,195,466974,1,0,0:0:0:0:
332,208,467053,1,0,0:0:0:0:
358,239,467132,5,10,0:2:0:0:
340,213,467211,1,0,0:0:0:0:
342,181,467290,1,0,0:0:0:0:
366,161,467369,1,0,0:0:0:0:
397,159,467448,1,2,0:2:0:0:
423,175,467527,1,0,0:0:0:0:
433,204,467606,1,0,0:0:0:0:
416,230,467685,1,0,0:0:0:0:
385,238,467764,1,2,0:2:0:0:
359,219,467843,1,0,0:0:0:0:
327,218,467922,1,0,0:0:0:0:
304,240,468001,1,0,0:0:0:0:
297,270,468080,5,2,0:2:0:0:
275,263,468159,1,0,0:0:0:0:
259,247,468238,1,0,0:0:0:0:
248,227,468316,1,0,0:0:0:0:
246,205,468395,1,2,0:2:0:0:
251,183,468474,1,0,0:0:0:0:
265,165,468553,1,0,0:0:0:0:
284,155,468632,1,0,0:0:0:0:
305,152,468711,1,2,0:2:0:0:
326,153,468790,1,0,0:0:0:0:
346,160,468869,1,0,0:0:0:0:
362,174,468948,1,0,0:0:0:0:
384,214,469027,5,12,0:2:0:0:
385,211,469106,1,0,0:0:0:0:
386,208,469185,1,0,0:0:0:0:
387,205,469264,1,0,0:0:0:0:
388,202,469343,6,0,P|399:181|413:139,2,41.9999987182618,8|8|8,0:3|0:3|0:3,0:0:0:0:
467,124,469659,2,0,P|445:93|436:75,2,41.9999987182618,8|8|8,0:3|0:3|0:3,0:0:0:0:
487,312,469974,5,4,0:2:0:0:
482,307,470053,1,0,0:0:0:0:
476,303,470132,1,0,0:0:0:0:
469,301,470211,1,0,0:0:0:0:
462,299,470290,1,2,0:2:0:0:
455,298,470369,1,0,0:0:0:0:
448,297,470448,1,0,0:0:0:0:
441,297,470527,1,0,0:0:0:0:
434,298,470606,1,2,0:2:0:0:
427,299,470685,1,0,0:0:0:0:
421,301,470764,1,0,0:0:0:0:
415,303,470843,1,0,0:0:0:0:
393,347,470922,5,10,0:2:0:0:
387,349,471001,1,0,0:0:0:0:
380,350,471080,1,0,0:0:0:0:
373,351,471159,1,0,0:0:0:0:
366,351,471238,1,2,0:2:0:0:
359,350,471316,1,0,0:0:0:0:
352,349,471395,1,0,0:0:0:0:
345,347,471474,1,0,0:0:0:0:
338,345,471553,1,2,0:2:0:0:
332,342,471632,1,0,0:0:0:0:
326,339,471711,1,0,0:0:0:0:
320,335,471790,1,0,0:0:0:0:
315,330,471869,5,2,0:2:0:0:
303,318,471948,1,0,0:0:0:0:
296,303,472027,1,0,0:0:0:0:
293,287,472106,1,0,0:0:0:0:
292,271,472185,1,2,0:2:0:0:
295,255,472264,1,0,0:0:0:0:
301,240,472343,1,0,0:0:0:0:
310,227,472422,1,0,0:0:0:0:
322,216,472501,1,2,0:2:0:0:
335,207,472580,1,0,0:0:0:0:
349,201,472659,1,0,0:0:0:0:
364,198,472738,1,0,0:0:0:0:
413,224,472816,5,10,0:2:0:0:
433,215,472895,1,0,0:0:0:0:
445,197,472974,1,0,0:0:0:0:
452,176,473053,1,0,0:0:0:0:
449,154,473132,1,2,0:2:0:0:
441,133,473211,1,0,0:0:0:0:
426,116,473290,1,0,0:0:0:0:
406,106,473369,1,0,0:0:0:0:
384,99,473448,1,2,0:2:0:0:
362,96,473527,1,0,0:0:0:0:
339,96,473606,1,0,0:0:0:0:
317,102,473685,1,0,0:0:0:0:
298,113,473764,5,4,0:2:0:0:
292,115,473843,1,0,0:0:0:0:
286,117,473922,1,0,0:0:0:0:
279,118,474001,1,0,0:0:0:0:
272,118,474080,1,2,0:2:0:0:
265,117,474159,1,0,0:0:0:0:
258,115,474238,1,0,0:0:0:0:
252,113,474316,1,0,0:0:0:0:
246,110,474395,1,2,0:2:0:0:
240,106,474474,1,0,0:0:0:0:
234,102,474553,1,0,0:0:0:0:
229,97,474632,1,0,0:0:0:0:
230,50,474711,5,10,0:2:0:0:
258,47,474790,1,0,0:0:0:0:
282,61,474869,1,0,0:0:0:0:
299,83,474948,1,0,0:0:0:0:
306,110,475027,1,2,0:2:0:0:
304,138,475106,1,0,0:0:0:0:
292,163,475185,1,0,0:0:0:0:
274,185,475264,1,0,0:0:0:0:
248,197,475343,1,2,0:2:0:0:
219,201,475422,1,0,0:0:0:0:
191,196,475501,1,0,0:0:0:0:
163,189,475580,1,0,0:0:0:0:
134,188,475659,5,2,0:2:0:0:
118,188,475738,1,0,0:0:0:0:
103,193,475816,1,0,0:0:0:0:
89,201,475895,1,0,0:0:0:0:
81,214,475974,1,2,0:2:0:0:
77,229,476053,1,0,0:0:0:0:
77,244,476132,1,0,0:0:0:0:
81,259,476211,1,0,0:0:0:0:
90,271,476290,1,2,0:2:0:0:
102,279,476369,1,0,0:0:0:0:
117,283,476448,1,0,0:0:0:0:
132,283,476527,1,0,0:0:0:0:
168,296,476606,5,10,0:2:0:0:
173,293,476685,1,0,0:0:0:0:
179,291,476764,1,0,0:0:0:0:
185,290,476843,1,0,0:0:0:0:
191,290,476922,1,2,0:2:0:0:
197,290,477001,1,0,0:0:0:0:
203,291,477080,1,0,0:0:0:0:
208,293,477159,1,0,0:0:0:0:
213,296,477238,1,2,0:2:0:0:
217,300,477316,1,0,0:0:0:0:
220,305,477395,1,0,0:0:0:0:
221,311,477474,1,0,0:0:0:0:
222,317,477553,5,4,0:2:0:0:
202,353,477632,1,0,0:0:0:0:
166,373,477711,1,0,0:0:0:0:
125,372,477790,1,0,0:0:0:0:
93,346,477869,1,2,0:2:0:0:
80,306,477948,1,0,0:0:0:0:
88,265,478027,1,0,0:0:0:0:
119,239,478106,1,0,0:0:0:0:
158,229,478185,1,2,0:2:0:0:
193,207,478264,1,0,0:0:0:0:
211,170,478343,1,0,0:0:0:0:
203,129,478422,1,0,0:0:0:0:
172,101,478501,5,10,0:2:0:0:
183,130,478580,1,0,0:0:0:0:
204,153,478659,1,0,0:0:0:0:
232,167,478738,1,0,0:0:0:0:
262,171,478816,1,2,0:3:0:0:
290,167,478895,1,0,0:0:0:0:
311,153,478974,1,0,0:0:0:0:
332,149,479053,1,0,0:0:0:0:
350,154,479132,1,2,0:3:0:0:
359,166,479211,1,0,0:0:0:0:
361,178,479290,1,0,0:0:0:0:
358,187,479369,1,0,0:0:0:0:
354,192,479448,5,2,0:3:0:0:
336,197,479527,1,0,0:0:0:0:
320,208,479606,1,0,0:0:0:0:
309,223,479685,1,0,0:0:0:0:
303,240,479764,1,2,0:2:0:0:
301,258,479843,1,0,0:0:0:0:
304,276,479922,1,0,0:0:0:0:
312,292,480001,1,0,0:0:0:0:
323,307,480080,1,2,0:2:0:0:
338,317,480159,1,0,0:0:0:0:
355,323,480238,1,0,0:0:0:0:
373,325,480316,1,0,0:0:0:0:
413,284,480395,5,10,0:2:0:0:
418,286,480474,1,0,0:0:0:0:
422,290,480553,1,0,0:0:0:0:
425,295,480632,1,0,0:0:0:0:
427,300,480711,1,2,0:2:0:0:
428,306,480790,1,0,0:0:0:0:
427,312,480869,1,0,0:0:0:0:
425,318,480948,1,0,0:0:0:0:
422,323,481027,1,2,0:2:0:0:
418,328,481106,1,0,0:0:0:0:
413,332,481185,1,0,0:0:0:0:
407,335,481264,1,0,0:0:0:0:
401,338,481343,5,4,0:2:0:0:
375,335,481422,1,0,0:0:0:0:
353,321,481501,1,0,0:0:0:0:
339,299,481580,1,0,0:0:0:0:
335,274,481659,1,2,0:2:0:0:
343,250,481738,1,0,0:0:0:0:
360,231,481816,1,0,0:0:0:0:
381,218,481895,1,0,0:0:0:0:
405,213,481974,1,2,0:2:0:0:
429,216,482053,1,0,0:0:0:0:
451,227,482132,1,0,0:0:0:0:
465,247,482211,1,0,0:0:0:0:
474,291,482290,5,10,0:2:0:0:
455,286,482369,1,0,0:0:0:0:
438,276,482448,1,0,0:0:0:0:
424,263,482527,1,0,0:0:0:0:
412,247,482606,1,2,0:2:0:0:
405,229,482685,1,0,0:0:0:0:
401,210,482764,1,0,0:0:0:0:
400,191,482843,1,0,0:0:0:0:
403,172,482922,1,2,0:2:0:0:
409,154,483001,1,0,0:0:0:0:
418,137,483080,1,0,0:0:0:0:
431,123,483159,1,0,0:0:0:0:
447,114,483238,5,2,0:2:0:0:
457,104,483316,1,0,0:0:0:0:
464,91,483395,1,0,0:0:0:0:
467,77,483474,1,0,0:0:0:0:
462,63,483553,1,2,0:2:0:0:
453,51,483632,1,0,0:0:0:0:
441,42,483711,1,0,0:0:0:0:
427,37,483790,1,0,0:0:0:0:
412,34,483869,1,2,0:2:0:0:
397,35,483948,1,0,0:0:0:0:
383,39,484027,1,0,0:0:0:0:
371,46,484106,1,0,0:0:0:0:
319,65,484185,5,12,0:2:0:0:
321,70,484264,1,0,0:0:0:0:
323,75,484343,1,0,0:0:0:0:
325,80,484422,1,0,0:0:0:0:
327,85,484501,6,0,P|343:106|351:131,2,41.9999987182618,8|8|8,0:3|0:3|0:3,0:0:0:0:
296,182,484816,2,0,P|284:211|265:229,2,41.9999987182618,8|8|8,0:3|0:3|0:3,0:0:0:0:
196,223,485132,1,4,0:2:0:0:
256,192,485211,12,0,504080,0:0:0:0:
