osu file format v14

[General]
AudioFilename: audio.mp3
AudioLeadIn: 0
PreviewTime: 190787
Countdown: 0
SampleSet: Normal
StackLeniency: 0.7
Mode: 1
LetterboxInBreaks: 0
WidescreenStoryboard: 0

[Editor]
Bookmarks: 45603,48129,241392
DistanceSpacing: 1
BeatDivisor: 4
GridSize: 32
TimelineZoom: 3.6

[Metadata]
Title:Tarot
TitleUnicode:Tarot
Artist:Aether Realm
ArtistUnicode:Æther Realm
Creator:Raiden
Version:Oni
Source:osu!
Tags:fa featured artist melodic folk death metal donny burbage Tyler Gresham Heinrich Arnold Vincent Jones mappers guild mg English
BeatmapID:2192453
BeatmapSetID:1030740

[Difficulty]
HPDrainRate:5
CircleSize:2
OverallDifficulty:6
ApproachRate:10
SliderMultiplier:1.4
SliderTickRate:1

[Events]
//Background and Video events
0,0,"StockSnap_dapbzs82y01.jpg",0,-75
//Break Periods
//Storyboard Layer 0 (Background)
//Storyboard Layer 1 (Fail)
//Storyboard Layer 2 (Pass)
//Storyboard Layer 3 (Foreground)
//Storyboard Layer 4 (Overlay)
//Storyboard Sound Samples

[TimingPoints]
2656,315.789473684211,4,1,0,100,1,0
2656,-66.6666666666667,4,1,0,100,0,0
6445,-100,4,1,0,80,0,0
7708,-100,4,1,0,70,0,0
10234,-100,4,1,0,80,0,0
11498,-90.9090909090909,4,1,0,100,0,1
20340,-50,4,1,0,100,0,1
21603,-100,4,1,0,90,0,0
48524,-100,4,1,0,40,0,0
49392,-100,4,1,0,90,0,0
59498,-90.9090909090909,4,1,0,100,0,1
74024,-92.5925925925926,4,1,0,100,0,1
74182,-94.3396226415094,4,1,0,100,0,1
74261,-95.2380952380952,4,1,0,100,0,1
74340,-96.1538461538461,4,1,0,100,0,1
74498,-98.0392156862745,4,1,0,100,0,1
74656,-100,4,1,0,90,0,0
99919,-100,4,1,0,70,0,0
102445,-100,4,1,0,90,0,0
112234,-133.333333333333,4,1,0,60,0,0
112550,-90.9090909090909,4,1,0,100,0,1
127077,-92.5925925925926,4,1,0,100,0,1
127234,-94.3396226415094,4,1,0,100,0,1
127313,-95.2380952380952,4,1,0,100,0,1
127392,-96.1538461538461,4,1,0,100,0,1
127550,-98.0392156862745,4,1,0,100,0,1
127708,-100,4,1,0,100,0,0
147919,-100,4,1,0,80,0,0
159919,-104.166666666667,4,1,0,80,0,0
160077,-108.695652173913,4,1,0,80,0,0
160234,-113.636363636364,4,1,0,80,0,0
160392,-119.047619047619,4,1,0,80,0,0
160550,-125,4,1,0,70,0,0
170656,-111.111111111111,4,1,0,80,0,0
172471,-55.5555555555556,4,1,0,50,0,0
172629,-111.111111111111,4,1,0,80,0,0
177524,-55.5555555555556,4,1,0,50,0,0
177682,-111.111111111111,4,1,0,80,0,0
180129,-108.695652173913,4,1,0,80,0,0
180208,-107.52688172043,4,1,0,80,0,0
180287,-106.382978723404,4,1,0,80,0,0
180366,-105.263157894737,4,1,0,80,0,0
180445,-104.166666666667,4,1,0,80,0,0
180524,-103.092783505155,4,1,0,80,0,0
180603,-102.040816326531,4,1,0,80,0,0
180682,-101.010101010101,4,1,0,80,0,0
180761,-100,4,1,0,90,0,0
190234,-98.0392156862745,4,1,0,90,0,0
190550,-95.2380952380952,4,1,0,93,0,0
190629,-94.3396226415094,4,1,0,94,0,0
190708,-93.4579439252337,4,1,0,95,0,0
190866,-90.9090909090909,4,1,0,100,0,1
199708,-90.9090909090909,4,1,0,100,0,0
200971,-83.3333333333333,4,1,0,100,0,1
209708,-84.0336134453781,4,1,0,100,0,1
209813,-85.0785340314136,4,1,0,100,0,1
210024,-87.248322147651,4,1,0,100,0,1
210129,-88.37525492862,4,1,0,100,0,1
210234,-89.5316804407714,4,1,0,100,0,1
210340,-90.7187718073971,4,1,0,100,0,1
210445,-91.9377652050919,4,1,0,100,0,1
210550,-93.1899641577061,4,1,0,100,0,1
210656,-94.4767441860465,4,1,0,100,0,1
210761,-95.7995578481946,4,1,0,100,0,1
211077,-100,4,1,0,90,0,0
222129,-100,4,1,0,30,0,0
223629,-100,4,1,0,90,0,0

[HitObjects]
256,192,2656,5,4,0:0:0:0:
256,192,6445,5,8,0:0:0:0:
256,192,6761,5,0,0:0:0:0:
256,192,7077,5,8,0:0:0:0:
256,192,7392,5,8,0:0:0:0:
256,192,7708,5,0,0:0:0:0:
256,192,7866,5,8,0:0:0:0:
256,192,7945,5,8,0:0:0:0:
256,192,8024,5,0,0:0:0:0:
256,192,8182,5,8,0:0:0:0:
256,192,8261,5,8,0:0:0:0:
256,192,8340,5,0,0:0:0:0:
256,192,8498,5,8,0:0:0:0:
256,192,8577,5,8,0:0:0:0:
256,192,8656,5,0,0:0:0:0:
256,192,8813,5,8,0:0:0:0:
256,192,8892,5,8,0:0:0:0:
256,192,8971,5,0,0:0:0:0:
256,192,9129,5,8,0:0:0:0:
256,192,9208,5,0,0:0:0:0:
256,192,9287,5,0,0:0:0:0:
256,192,9445,5,8,0:0:0:0:
256,192,9524,5,0,0:0:0:0:
256,192,9603,5,0,0:0:0:0:
256,192,9761,5,8,0:0:0:0:
256,192,9919,5,8,0:0:0:0:
256,192,10077,5,0,0:0:0:0:
256,192,10234,5,8,0:0:0:0:
256,192,10550,5,0,0:0:0:0:
256,192,10866,5,8,0:0:0:0:
256,192,11182,5,8,0:0:0:0:
256,192,11498,5,8,0:0:0:0:
256,192,11577,5,0,0:0:0:0:
256,192,11656,5,8,0:0:0:0:
256,192,11734,5,8,0:0:0:0:
256,192,11813,5,0,0:0:0:0:
256,192,11971,5,8,0:0:0:0:
256,192,12129,5,0,0:0:0:0:
256,192,12287,5,8,0:0:0:0:
256,192,12445,5,8,0:0:0:0:
256,192,12524,5,0,0:0:0:0:
256,192,12603,5,8,0:0:0:0:
256,192,12761,5,8,0:0:0:0:
256,192,12840,5,8,0:0:0:0:
256,192,12919,5,0,0:0:0:0:
256,192,13077,5,0,0:0:0:0:
256,192,13234,5,8,0:0:0:0:
256,192,13392,5,0,0:0:0:0:
256,192,13471,5,0,0:0:0:0:
256,192,13550,5,8,0:0:0:0:
256,192,13629,5,0,0:0:0:0:
256,192,13708,5,8,0:0:0:0:
256,192,13787,5,8,0:0:0:0:
256,192,13866,5,0,0:0:0:0:
256,192,14024,5,8,0:0:0:0:
256,192,14103,5,8,0:0:0:0:
256,192,14182,5,0,0:0:0:0:
256,192,14261,5,0,0:0:0:0:
256,192,14340,5,8,0:0:0:0:
256,192,14498,5,8,0:0:0:0:
256,192,14656,5,0,0:0:0:0:
256,192,14813,5,8,0:0:0:0:
256,192,14892,5,0,0:0:0:0:
256,192,14971,5,8,0:0:0:0:
256,192,15129,5,0,0:0:0:0:
256,192,15287,5,8,0:0:0:0:
256,192,15603,5,8,0:0:0:0:
256,192,15682,5,8,0:0:0:0:
256,192,15761,5,0,0:0:0:0:
256,192,15840,5,0,0:0:0:0:
256,192,15919,5,8,0:0:0:0:
256,192,16077,5,0,0:0:0:0:
256,192,16234,5,8,0:0:0:0:
256,192,16313,5,0,0:0:0:0:
256,192,16392,5,8,0:0:0:0:
256,192,16550,5,8,0:0:0:0:
256,192,16629,5,8,0:0:0:0:
256,192,16708,5,0,0:0:0:0:
256,192,16866,5,8,0:0:0:0:
256,192,17024,5,8,0:0:0:0:
256,192,17182,5,0,0:0:0:0:
256,192,17261,5,0,0:0:0:0:
256,192,17340,5,8,0:0:0:0:
256,192,17498,5,8,0:0:0:0:
256,192,17656,5,0,0:0:0:0:
256,192,17813,5,8,0:0:0:0:
256,192,17919,5,0,0:0:0:0:
256,192,18024,5,0,0:0:0:0:
256,192,18129,5,8,0:0:0:0:
256,192,18340,5,0,0:0:0:0:
256,192,18445,5,8,0:0:0:0:
256,192,18550,5,8,0:0:0:0:
256,192,18656,5,0,0:0:0:0:
256,192,18761,5,8,0:0:0:0:
256,192,18866,5,8,0:0:0:0:
256,192,18971,5,8,0:0:0:0:
256,192,19077,5,4,0:0:0:0:
256,192,19392,5,0,0:0:0:0:
256,192,19708,5,12,0:0:0:0:
256,192,20024,5,0,0:0:0:0:
256,192,20103,5,8,0:0:0:0:
256,192,20182,5,0,0:0:0:0:
256,192,20261,5,8,0:0:0:0:
96,320,20340,6,0,P|384:64|160:32,1,840
256,192,21603,5,0,0:0:0:0:
256,192,21761,5,8,0:0:0:0:
256,192,21919,5,0,0:0:0:0:
256,192,21998,5,0,0:0:0:0:
256,192,22077,5,8,0:0:0:0:
256,192,22234,5,8,0:0:0:0:
256,192,22392,5,0,0:0:0:0:
256,192,22471,5,0,0:0:0:0:
256,192,22550,5,0,0:0:0:0:
256,192,22708,5,8,0:0:0:0:
256,192,22866,5,0,0:0:0:0:
256,192,23182,5,0,0:0:0:0:
256,192,23261,5,0,0:0:0:0:
256,192,23340,5,8,0:0:0:0:
256,192,23498,5,0,0:0:0:0:
256,192,23656,5,8,0:0:0:0:
256,192,23734,5,8,0:0:0:0:
256,192,23813,5,0,0:0:0:0:
256,192,23971,5,0,0:0:0:0:
256,192,24129,5,0,0:0:0:0:
256,192,24445,5,0,0:0:0:0:
256,192,24524,5,0,0:0:0:0:
256,192,24603,5,8,0:0:0:0:
256,192,24761,5,8,0:0:0:0:
256,192,24919,5,0,0:0:0:0:
256,192,25077,5,0,0:0:0:0:
256,192,25156,5,0,0:0:0:0:
256,192,25234,5,8,0:0:0:0:
256,192,25313,5,8,0:0:0:0:
256,192,25392,5,0,0:0:0:0:
256,192,25550,5,0,0:0:0:0:
256,192,25708,5,8,0:0:0:0:
256,192,25787,5,8,0:0:0:0:
256,192,25866,5,0,0:0:0:0:
256,192,25945,5,0,0:0:0:0:
256,192,26024,5,8,0:0:0:0:
256,192,26182,5,0,0:0:0:0:
256,192,26340,5,8,0:0:0:0:
256,192,26445,5,0,0:0:0:0:
256,192,26550,5,0,0:0:0:0:
256,192,26656,5,8,0:0:0:0:
256,192,26971,5,0,0:0:0:0:
256,192,27129,5,8,0:0:0:0:
256,192,27208,5,8,0:0:0:0:
256,192,27287,5,8,0:0:0:0:
256,192,27445,5,0,0:0:0:0:
256,192,27603,5,8,0:0:0:0:
256,192,27761,5,8,0:0:0:0:
256,192,27840,5,8,0:0:0:0:
256,192,27919,5,0,0:0:0:0:
256,192,28234,5,0,0:0:0:0:
256,192,28392,5,8,0:0:0:0:
256,192,28471,5,0,0:0:0:0:
256,192,28550,5,8,0:0:0:0:
256,192,28708,5,8,0:0:0:0:
256,192,28866,5,0,0:0:0:0:
256,192,29024,5,8,0:0:0:0:
256,192,29182,5,8,0:0:0:0:
256,192,29261,5,8,0:0:0:0:
256,192,29340,5,0,0:0:0:0:
256,192,29498,5,0,0:0:0:0:
256,192,29656,5,8,0:0:0:0:
256,192,29813,5,8,0:0:0:0:
256,192,29971,5,8,0:0:0:0:
256,192,30050,5,8,0:0:0:0:
256,192,30129,5,0,0:0:0:0:
256,192,30287,5,8,0:0:0:0:
256,192,30445,5,0,0:0:0:0:
256,192,30524,5,0,0:0:0:0:
256,192,30603,5,0,0:0:0:0:
256,192,30761,5,8,0:0:0:0:
256,192,30919,5,8,0:0:0:0:
256,192,31077,5,8,0:0:0:0:
256,192,31156,5,8,0:0:0:0:
256,192,31234,5,0,0:0:0:0:
256,192,31313,5,0,0:0:0:0:
256,192,31392,5,8,0:0:0:0:
256,192,31471,5,0,0:0:0:0:
256,192,31550,5,8,0:0:0:0:
256,192,31708,5,8,0:0:0:0:
256,192,32024,5,0,0:0:0:0:
256,192,32182,5,8,0:0:0:0:
256,192,32261,5,0,0:0:0:0:
256,192,32340,5,8,0:0:0:0:
256,192,32498,5,8,0:0:0:0:
256,192,32656,5,0,0:0:0:0:
256,192,32734,5,0,0:0:0:0:
256,192,32813,5,8,0:0:0:0:
256,192,32971,5,0,0:0:0:0:
256,192,33287,5,0,0:0:0:0:
256,192,33366,5,0,0:0:0:0:
256,192,33445,5,8,0:0:0:0:
256,192,33603,5,0,0:0:0:0:
256,192,33761,5,0,0:0:0:0:
256,192,33840,5,8,0:0:0:0:
256,192,33919,5,0,0:0:0:0:
256,192,33998,5,0,0:0:0:0:
256,192,34077,5,8,0:0:0:0:
256,192,34234,5,0,0:0:0:0:
256,192,34550,5,8,0:0:0:0:
256,192,34629,5,8,0:0:0:0:
256,192,34708,5,0,0:0:0:0:
256,192,34866,5,8,0:0:0:0:
256,192,35024,5,0,0:0:0:0:
256,192,35103,5,8,0:0:0:0:
256,192,35182,5,0,0:0:0:0:
256,192,35261,5,0,0:0:0:0:
256,192,35340,5,8,0:0:0:0:
256,192,35498,5,0,0:0:0:0:
256,192,35813,5,0,0:0:0:0:
256,192,35971,5,8,0:0:0:0:
256,192,36050,5,8,0:0:0:0:
256,192,36129,5,0,0:0:0:0:
256,192,36287,5,8,0:0:0:0:
256,192,36445,5,8,0:0:0:0:
256,192,36524,5,0,0:0:0:0:
256,192,36603,5,8,0:0:0:0:
256,192,36682,5,8,0:0:0:0:
256,192,36761,5,0,0:0:0:0:
256,192,37077,5,0,0:0:0:0:
256,192,37234,5,8,0:0:0:0:
256,192,37392,5,0,0:0:0:0:
256,192,37471,5,8,0:0:0:0:
256,192,37550,5,8,0:0:0:0:
256,192,37629,5,8,0:0:0:0:
256,192,37708,5,0,0:0:0:0:
256,192,37866,5,0,0:0:0:0:
256,192,38024,5,8,0:0:0:0:
256,192,38182,5,8,0:0:0:0:
256,192,38261,5,8,0:0:0:0:
256,192,38340,5,8,0:0:0:0:
256,192,38498,5,0,0:0:0:0:
256,192,38577,5,0,0:0:0:0:
256,192,38656,5,0,0:0:0:0:
256,192,38813,5,0,0:0:0:0:
256,192,38971,5,8,0:0:0:0:
256,192,39129,5,8,0:0:0:0:
256,192,39287,5,0,0:0:0:0:
256,192,39445,5,8,0:0:0:0:
256,192,39524,5,0,0:0:0:0:
256,192,39603,5,0,0:0:0:0:
256,192,39682,5,0,0:0:0:0:
256,192,39761,5,8,0:0:0:0:
256,192,39919,5,8,0:0:0:0:
256,192,40077,5,0,0:0:0:0:
256,192,40156,5,0,0:0:0:0:
256,192,40234,5,8,0:0:0:0:
256,192,40392,5,8,0:0:0:0:
256,192,40550,5,8,0:0:0:0:
256,192,40708,5,0,0:0:0:0:
256,192,40787,5,0,0:0:0:0:
256,192,40866,5,8,0:0:0:0:
256,192,41024,5,0,0:0:0:0:
256,192,41182,5,8,0:0:0:0:
256,192,41261,5,8,0:0:0:0:
256,192,41340,5,0,0:0:0:0:
256,192,41419,5,0,0:0:0:0:
256,192,41498,5,8,0:0:0:0:
256,192,41813,5,8,0:0:0:0:
256,192,41971,5,8,0:0:0:0:
256,192,42129,5,0,0:0:0:0:
256,192,42208,5,8,0:0:0:0:
256,192,42287,5,8,0:0:0:0:
256,192,42445,5,8,0:0:0:0:
256,192,42603,5,0,0:0:0:0:
256,192,42682,5,8,0:0:0:0:
256,192,42761,5,0,0:0:0:0:
256,192,42840,5,0,0:0:0:0:
256,192,42919,5,8,0:0:0:0:
256,192,43077,5,8,0:0:0:0:
256,192,43234,5,0,0:0:0:0:
256,192,43313,5,0,0:0:0:0:
256,192,43392,5,8,0:0:0:0:
256,192,43550,5,0,0:0:0:0:
256,192,43708,5,8,0:0:0:0:
256,192,43787,5,8,0:0:0:0:
256,192,43866,5,0,0:0:0:0:
256,192,43945,5,0,0:0:0:0:
256,192,44024,5,8,0:0:0:0:
256,192,44340,5,0,0:0:0:0:
256,192,44498,5,0,0:0:0:0:
256,192,44577,5,8,0:0:0:0:
256,192,44656,5,0,0:0:0:0:
256,192,44813,5,0,0:0:0:0:
256,192,44971,5,8,0:0:0:0:
256,192,45129,5,0,0:0:0:0:
256,192,45208,5,8,0:0:0:0:
256,192,45287,5,0,0:0:0:0:
256,192,45366,5,0,0:0:0:0:
256,192,45445,5,8,0:0:0:0:
256,192,45603,5,8,0:0:0:0:
256,192,45919,5,8,0:0:0:0:
256,192,45998,5,0,0:0:0:0:
256,192,46077,5,0,0:0:0:0:
256,192,46156,5,0,0:0:0:0:
256,192,46234,5,8,0:0:0:0:
256,192,46392,5,0,0:0:0:0:
256,192,46550,5,8,0:0:0:0:
256,192,46629,5,8,0:0:0:0:
256,192,46708,5,0,0:0:0:0:
256,192,46787,5,0,0:0:0:0:
256,192,46866,5,8,0:0:0:0:
256,192,47182,5,8,0:0:0:0:
256,192,47340,5,0,0:0:0:0:
256,192,47419,5,0,0:0:0:0:
256,192,47498,5,8,0:0:0:0:
256,192,47656,5,0,0:0:0:0:
256,192,47813,5,8,0:0:0:0:
256,192,47892,5,8,0:0:0:0:
256,192,47971,5,0,0:0:0:0:
256,192,48050,5,0,0:0:0:0:
256,192,48129,5,8,0:0:0:0:
256,192,48603,12,0,49234,0:0:0:0:
256,192,49392,5,0,0:0:0:0:
256,192,49471,5,0,0:0:0:0:
256,192,49550,5,0,0:0:0:0:
256,192,49708,5,8,0:0:0:0:
256,192,49866,5,8,0:0:0:0:
256,192,49945,5,8,0:0:0:0:
256,192,50024,5,0,0:0:0:0:
256,192,50103,5,0,0:0:0:0:
256,192,50182,5,8,0:0:0:0:
256,192,50340,5,8,0:0:0:0:
256,192,50498,5,0,0:0:0:0:
256,192,50656,5,8,0:0:0:0:
256,192,50734,5,8,0:0:0:0:
256,192,50813,5,0,0:0:0:0:
256,192,50971,5,0,0:0:0:0:
256,192,51129,5,8,0:0:0:0:
256,192,51208,5,8,0:0:0:0:
256,192,51287,5,8,0:0:0:0:
256,192,51445,5,8,0:0:0:0:
256,192,51603,5,8,0:0:0:0:
256,192,51682,5,8,0:0:0:0:
256,192,51761,5,0,0:0:0:0:
256,192,51840,5,0,0:0:0:0:
256,192,51919,5,8,0:0:0:0:
256,192,52234,5,8,0:0:0:0:
256,192,52313,5,0,0:0:0:0:
256,192,52392,5,8,0:0:0:0:
256,192,52550,5,0,0:0:0:0:
256,192,52708,5,0,0:0:0:0:
256,192,52787,5,0,0:0:0:0:
256,192,52866,5,8,0:0:0:0:
256,192,52945,5,0,0:0:0:0:
256,192,53024,5,8,0:0:0:0:
256,192,53182,5,8,0:0:0:0:
256,192,53340,5,0,0:0:0:0:
256,192,53498,5,8,0:0:0:0:
256,192,53577,5,0,0:0:0:0:
256,192,53656,5,8,0:0:0:0:
256,192,53813,5,0,0:0:0:0:
256,192,53971,5,0,0:0:0:0:
256,192,54129,5,8,0:0:0:0:
256,192,54208,5,8,0:0:0:0:
256,192,54287,5,0,0:0:0:0:
256,192,54366,5,0,0:0:0:0:
256,192,54445,5,8,0:0:0:0:
256,192,54761,5,0,0:0:0:0:
256,192,54840,5,0,0:0:0:0:
256,192,54919,5,8,0:0:0:0:
256,192,55077,5,0,0:0:0:0:
256,192,55234,5,8,0:0:0:0:
256,192,55313,5,8,0:0:0:0:
256,192,55392,5,8,0:0:0:0:
256,192,55550,5,8,0:0:0:0:
256,192,55629,5,0,0:0:0:0:
256,192,55708,5,8,0:0:0:0:
256,192,55866,5,0,0:0:0:0:
256,192,56024,5,0,0:0:0:0:
256,192,56182,5,8,0:0:0:0:
256,192,56261,5,8,0:0:0:0:
256,192,56340,5,0,0:0:0:0:
256,192,56419,5,0,0:0:0:0:
256,192,56498,5,8,0:0:0:0:
256,192,56656,5,8,0:0:0:0:
256,192,56813,5,0,0:0:0:0:
256,192,56892,5,0,0:0:0:0:
256,192,56971,5,8,0:0:0:0:
256,192,57287,5,0,0:0:0:0:
256,192,57603,5,8,0:0:0:0:
256,192,57919,5,8,0:0:0:0:
256,192,58234,5,8,0:0:0:0:
256,192,58313,5,8,0:0:0:0:
256,192,58392,5,0,0:0:0:0:
256,192,58550,5,8,0:0:0:0:
256,192,58629,5,0,0:0:0:0:
256,192,58708,5,8,0:0:0:0:
256,192,58866,5,0,0:0:0:0:
256,192,59024,5,8,0:0:0:0:
256,192,59103,5,8,0:0:0:0:
256,192,59182,5,0,0:0:0:0:
256,192,59498,5,0,0:0:0:0:
256,192,59656,5,0,0:0:0:0:
256,192,59734,5,8,0:0:0:0:
256,192,59813,5,8,0:0:0:0:
256,192,59971,5,0,0:0:0:0:
256,192,60050,5,0,0:0:0:0:
256,192,60129,5,8,0:0:0:0:
256,192,60287,5,0,0:0:0:0:
256,192,60366,5,0,0:0:0:0:
256,192,60445,5,8,0:0:0:0:
256,192,60524,5,0,0:0:0:0:
256,192,60603,5,0,0:0:0:0:
256,192,60682,5,0,0:0:0:0:
256,192,60761,5,8,0:0:0:0:
256,192,60919,5,8,0:0:0:0:
256,192,61077,5,8,0:0:0:0:
256,192,61156,5,8,0:0:0:0:
256,192,61234,5,0,0:0:0:0:
256,192,61313,5,0,0:0:0:0:
256,192,61392,5,8,0:0:0:0:
256,192,61708,5,8,0:0:0:0:
256,192,61787,5,8,0:0:0:0:
256,192,61866,5,0,0:0:0:0:
256,192,61945,5,0,0:0:0:0:
256,192,62024,5,8,0:0:0:0:
256,192,62182,5,0,0:0:0:0:
256,192,62340,5,8,0:0:0:0:
256,192,62419,5,0,0:0:0:0:
256,192,62498,5,8,0:0:0:0:
256,192,62656,5,0,0:0:0:0:
256,192,62813,5,8,0:0:0:0:
256,192,62892,5,0,0:0:0:0:
256,192,62971,5,8,0:0:0:0:
256,192,63287,5,8,0:0:0:0:
256,192,63445,5,0,0:0:0:0:
256,192,63603,5,8,0:0:0:0:
256,192,63682,5,0,0:0:0:0:
256,192,63761,5,8,0:0:0:0:
256,192,63919,5,0,0:0:0:0:
256,192,64077,5,8,0:0:0:0:
256,192,64156,5,0,0:0:0:0:
256,192,64234,5,8,0:0:0:0:
256,192,64550,5,8,0:0:0:0:
256,192,64708,5,0,0:0:0:0:
256,192,64787,5,8,0:0:0:0:
256,192,64866,5,8,0:0:0:0:
256,192,65024,5,0,0:0:0:0:
256,192,65103,5,0,0:0:0:0:
256,192,65182,5,8,0:0:0:0:
256,192,65340,5,0,0:0:0:0:
256,192,65419,5,0,0:0:0:0:
256,192,65498,5,8,0:0:0:0:
256,192,65577,5,0,0:0:0:0:
256,192,65656,5,0,0:0:0:0:
256,192,65734,5,0,0:0:0:0:
256,192,65813,5,8,0:0:0:0:
256,192,65971,5,8,0:0:0:0:
256,192,66129,5,8,0:0:0:0:
256,192,66208,5,8,0:0:0:0:
256,192,66287,5,0,0:0:0:0:
256,192,66366,5,0,0:0:0:0:
256,192,66445,5,8,0:0:0:0:
256,192,66761,5,8,0:0:0:0:
256,192,66840,5,8,0:0:0:0:
256,192,66919,5,0,0:0:0:0:
256,192,67077,5,8,0:0:0:0:
256,192,67234,5,0,0:0:0:0:
256,192,67392,5,8,0:0:0:0:
256,192,67471,5,0,0:0:0:0:
256,192,67550,5,8,0:0:0:0:
256,192,67708,5,0,0:0:0:0:
256,192,67866,5,8,0:0:0:0:
256,192,67945,5,0,0:0:0:0:
256,192,68024,5,8,0:0:0:0:
256,192,68340,5,8,0:0:0:0:
256,192,68498,5,0,0:0:0:0:
256,192,68656,5,8,0:0:0:0:
256,192,68734,5,0,0:0:0:0:
256,192,68813,5,8,0:0:0:0:
256,192,68971,5,0,0:0:0:0:
256,192,69050,1,0,0:0:0:0:
256,192,69129,5,8,0:0:0:0:
256,192,69208,5,0,0:0:0:0:
256,192,69287,5,8,0:0:0:0:
256,192,69603,5,8,0:0:0:0:
256,192,69761,5,0,0:0:0:0:
256,192,69840,5,8,0:0:0:0:
256,192,69919,5,8,0:0:0:0:
256,192,70077,5,0,0:0:0:0:
256,192,70156,5,0,0:0:0:0:
256,192,70234,5,8,0:0:0:0:
256,192,70392,5,0,0:0:0:0:
256,192,70471,5,0,0:0:0:0:
256,192,70550,5,8,0:0:0:0:
256,192,70629,5,0,0:0:0:0:
256,192,70708,5,0,0:0:0:0:
256,192,70787,5,0,0:0:0:0:
256,192,70866,5,8,0:0:0:0:
256,192,71024,5,8,0:0:0:0:
256,192,71182,5,8,0:0:0:0:
256,192,71261,5,8,0:0:0:0:
256,192,71340,5,0,0:0:0:0:
256,192,71419,5,0,0:0:0:0:
256,192,71498,5,8,0:0:0:0:
256,192,71813,5,8,0:0:0:0:
256,192,71892,5,8,0:0:0:0:
256,192,71971,5,0,0:0:0:0:
256,192,72129,5,8,0:0:0:0:
256,192,72287,5,0,0:0:0:0:
256,192,72445,5,8,0:0:0:0:
256,192,72524,5,0,0:0:0:0:
256,192,72603,5,8,0:0:0:0:
256,192,72761,5,0,0:0:0:0:
256,192,72919,5,8,0:0:0:0:
256,192,72998,5,0,0:0:0:0:
256,192,73077,5,8,0:0:0:0:
256,192,73392,5,8,0:0:0:0:
256,192,73550,5,0,0:0:0:0:
256,192,73629,5,0,0:0:0:0:
256,192,73708,5,8,0:0:0:0:
256,192,73787,5,0,0:0:0:0:
256,192,73866,5,8,0:0:0:0:
256,192,74024,5,0,0:0:0:0:
256,192,74182,5,8,0:0:0:0:
256,192,74261,5,0,0:0:0:0:
256,192,74340,5,8,0:0:0:0:
256,192,74498,5,0,0:0:0:0:
256,192,74656,5,8,0:0:0:0:
256,192,74813,5,0,0:0:0:0:
256,192,74892,5,0,0:0:0:0:
256,192,75129,5,0,0:0:0:0:
256,192,75208,5,0,0:0:0:0:
256,192,75287,5,8,0:0:0:0:
256,192,75445,5,0,0:0:0:0:
256,192,75761,5,0,0:0:0:0:
256,192,75919,5,8,0:0:0:0:
256,192,76234,5,0,0:0:0:0:
256,192,76392,5,0,0:0:0:0:
256,192,76550,5,8,0:0:0:0:
256,192,76866,5,8,0:0:0:0:
256,192,77024,5,8,0:0:0:0:
256,192,77182,5,0,0:0:0:0:
256,192,77340,5,8,0:0:0:0:
256,192,77656,5,0,0:0:0:0:
256,192,77734,5,0,0:0:0:0:
256,192,77813,5,8,0:0:0:0:
256,192,77971,5,0,0:0:0:0:
256,192,78050,5,8,0:0:0:0:
256,192,78208,5,0,0:0:0:0:
256,192,78287,5,8,0:0:0:0:
256,192,78445,5,8,0:0:0:0:
256,192,78761,5,0,0:0:0:0:
256,192,78919,5,0,0:0:0:0:
256,192,79077,5,8,0:0:0:0:
256,192,79156,5,8,0:0:0:0:
256,192,79234,5,8,0:0:0:0:
256,192,79313,5,8,0:0:0:0:
256,192,79392,5,0,0:0:0:0:
256,192,79471,5,0,0:0:0:0:
256,192,79550,5,0,0:0:0:0:
256,192,79629,5,0,0:0:0:0:
256,192,79708,5,8,0:0:0:0:
256,192,80024,5,0,0:0:0:0:
256,192,80182,5,8,0:0:0:0:
256,192,80340,5,8,0:0:0:0:
256,192,80419,5,8,0:0:0:0:
256,192,80498,5,8,0:0:0:0:
256,192,80577,5,8,0:0:0:0:
256,192,80656,5,0,0:0:0:0:
256,192,80813,5,8,0:0:0:0:
256,192,80892,5,0,0:0:0:0:
256,192,80971,5,8,0:0:0:0:
256,192,81129,5,8,0:0:0:0:
256,192,81287,5,0,0:0:0:0:
256,192,81445,5,8,0:0:0:0:
256,192,81524,5,8,0:0:0:0:
256,192,81603,5,0,0:0:0:0:
256,192,81682,5,0,0:0:0:0:
256,192,81761,5,8,0:0:0:0:
256,192,81919,5,0,0:0:0:0:
256,192,82077,1,8,0:0:0:0:
256,192,82234,5,8,0:0:0:0:
256,192,82550,5,0,0:0:0:0:
256,192,82629,5,0,0:0:0:0:
256,192,82708,5,8,0:0:0:0:
256,192,82787,5,0,0:0:0:0:
256,192,82866,5,8,0:0:0:0:
256,192,83024,5,8,0:0:0:0:
256,192,83182,5,0,0:0:0:0:
256,192,83340,5,8,0:0:0:0:
256,192,83419,5,0,0:0:0:0:
256,192,83498,5,8,0:0:0:0:
256,192,83656,5,0,0:0:0:0:
256,192,83813,5,8,0:0:0:0:
256,192,83892,5,8,0:0:0:0:
256,192,83971,5,8,0:0:0:0:
256,192,84050,5,8,0:0:0:0:
256,192,84129,5,0,0:0:0:0:
256,192,84287,1,0,0:0:0:0:
256,192,84445,5,8,0:0:0:0:
256,192,84550,5,0,0:0:0:0:
256,192,84656,5,0,0:0:0:0:
256,192,84761,5,8,0:0:0:0:
256,192,85077,5,0,0:0:0:0:
256,192,85234,5,0,0:0:0:0:
256,192,85313,5,0,0:0:0:0:
256,192,85392,5,8,0:0:0:0:
256,192,85550,5,0,0:0:0:0:
256,192,85708,5,8,0:0:0:0:
256,192,85866,5,8,0:0:0:0:
256,192,85945,5,0,0:0:0:0:
256,192,86024,5,8,0:0:0:0:
256,192,86182,5,8,0:0:0:0:
256,192,86340,5,0,0:0:0:0:
256,192,86419,5,0,0:0:0:0:
256,192,86498,5,8,0:0:0:0:
256,192,86577,5,8,0:0:0:0:
256,192,86656,5,0,0:0:0:0:
256,192,86971,5,0,0:0:0:0:
256,192,87129,5,8,0:0:0:0:
256,192,87287,5,8,0:0:0:0:
256,192,87366,5,8,0:0:0:0:
256,192,87445,5,0,0:0:0:0:
256,192,87524,5,0,0:0:0:0:
256,192,87603,5,0,0:0:0:0:
256,192,87761,5,0,0:0:0:0:
256,192,87919,5,8,0:0:0:0:
256,192,87998,5,8,0:0:0:0:
256,192,88077,5,0,0:0:0:0:
256,192,88234,5,8,0:0:0:0:
256,192,88392,5,8,0:0:0:0:
256,192,88471,5,8,0:0:0:0:
256,192,88550,5,0,0:0:0:0:
256,192,88708,1,8,0:0:0:0:
256,192,88866,5,0,0:0:0:0:
256,192,89024,5,0,0:0:0:0:
256,192,89182,5,8,0:0:0:0:
256,192,89340,5,0,0:0:0:0:
256,192,89419,5,0,0:0:0:0:
256,192,89498,5,8,0:0:0:0:
256,192,89577,5,0,0:0:0:0:
256,192,89656,5,8,0:0:0:0:
256,192,89813,5,8,0:0:0:0:
256,192,90129,5,0,0:0:0:0:
256,192,90287,5,8,0:0:0:0:
256,192,90445,5,8,0:0:0:0:
256,192,90524,5,8,0:0:0:0:
256,192,90603,5,8,0:0:0:0:
256,192,90682,5,8,0:0:0:0:
256,192,90761,5,0,0:0:0:0:
256,192,90919,5,8,0:0:0:0:
256,192,90998,5,0,0:0:0:0:
256,192,91077,5,8,0:0:0:0:
256,192,91234,5,0,0:0:0:0:
256,192,91392,5,0,0:0:0:0:
256,192,91550,5,8,0:0:0:0:
256,192,91708,5,0,0:0:0:0:
256,192,91787,5,0,0:0:0:0:
256,192,91866,5,8,0:0:0:0:
256,192,91945,5,8,0:0:0:0:
256,192,92024,5,0,0:0:0:0:
256,192,92182,5,8,0:0:0:0:
256,192,92340,5,8,0:0:0:0:
256,192,92656,5,0,0:0:0:0:
256,192,92734,5,0,0:0:0:0:
256,192,92813,5,8,0:0:0:0:
256,192,92892,5,0,0:0:0:0:
256,192,92971,5,8,0:0:0:0:
256,192,93129,5,8,0:0:0:0:
256,192,93287,5,0,0:0:0:0:
256,192,93445,5,8,0:0:0:0:
256,192,93603,5,8,0:0:0:0:
256,192,93682,5,0,0:0:0:0:
256,192,93761,5,0,0:0:0:0:
256,192,93840,5,0,0:0:0:0:
256,192,93919,5,8,0:0:0:0:
256,192,94234,5,8,0:0:0:0:
256,192,94313,5,8,0:0:0:0:
256,192,94392,5,0,0:0:0:0:
256,192,94550,5,8,0:0:0:0:
256,192,94708,5,8,0:0:0:0:
256,192,94866,5,8,0:0:0:0:
256,192,94945,5,0,0:0:0:0:
256,192,95024,5,0,0:0:0:0:
256,192,95103,5,8,0:0:0:0:
256,192,95182,5,0,0:0:0:0:
256,192,95261,5,0,0:0:0:0:
256,192,95340,5,8,0:0:0:0:
256,192,95498,5,8,0:0:0:0:
256,192,95656,5,0,0:0:0:0:
256,192,95734,5,8,0:0:0:0:
256,192,95813,5,0,0:0:0:0:
256,192,95892,5,0,0:0:0:0:
256,192,95971,5,8,0:0:0:0:
256,192,96129,5,8,0:0:0:0:
256,192,96287,5,0,0:0:0:0:
256,192,96445,5,8,0:0:0:0:
256,192,96524,5,8,0:0:0:0:
256,192,96603,5,8,0:0:0:0:
256,192,96682,5,8,0:0:0:0:
256,192,96761,5,0,0:0:0:0:
256,192,96919,1,0,0:0:0:0:
256,192,97077,5,8,0:0:0:0:
256,192,97156,5,8,0:0:0:0:
256,192,97234,5,0,0:0:0:0:
256,192,97392,5,8,0:0:0:0:
256,192,97471,5,0,0:0:0:0:
256,192,97550,5,0,0:0:0:0:
256,192,97629,5,0,0:0:0:0:
256,192,97708,5,8,0:0:0:0:
256,192,97866,5,8,0:0:0:0:
256,192,97945,5,0,0:0:0:0:
256,192,98024,5,0,0:0:0:0:
256,192,98103,5,0,0:0:0:0:
256,192,98182,5,8,0:0:0:0:
256,192,98340,5,8,0:0:0:0:
256,192,98656,5,8,0:0:0:0:
256,192,98734,5,0,0:0:0:0:
256,192,98813,5,0,0:0:0:0:
256,192,98892,5,0,0:0:0:0:
256,192,98971,5,8,0:0:0:0:
256,192,99129,5,8,0:0:0:0:
256,192,99208,5,0,0:0:0:0:
256,192,99287,5,0,0:0:0:0:
256,192,99366,5,0,0:0:0:0:
256,192,99445,5,8,0:0:0:0:
256,192,99603,5,8,0:0:0:0:
256,192,99919,5,8,0:0:0:0:
256,192,99998,5,0,0:0:0:0:
256,192,100077,5,0,0:0:0:0:
256,192,100156,5,0,0:0:0:0:
256,192,100234,5,8,0:0:0:0:
256,192,100392,5,8,0:0:0:0:
256,192,100471,5,0,0:0:0:0:
256,192,100550,5,0,0:0:0:0:
256,192,100629,5,0,0:0:0:0:
256,192,100708,5,8,0:0:0:0:
256,192,100866,5,8,0:0:0:0:
256,192,101182,5,8,0:0:0:0:
256,192,101261,5,8,0:0:0:0:
256,192,101340,5,0,0:0:0:0:
256,192,101419,5,0,0:0:0:0:
256,192,101498,5,0,0:0:0:0:
256,192,101656,5,8,0:0:0:0:
256,192,101734,5,8,0:0:0:0:
256,192,101813,5,0,0:0:0:0:
256,192,101892,5,0,0:0:0:0:
256,192,101971,5,0,0:0:0:0:
256,192,102129,5,0,0:0:0:0:
256,192,102208,5,0,0:0:0:0:
256,192,102287,5,0,0:0:0:0:
256,192,102366,5,0,0:0:0:0:
256,192,102445,5,8,0:0:0:0:
256,192,102603,5,0,0:0:0:0:
256,192,102761,5,0,0:0:0:0:
256,192,102919,5,0,0:0:0:0:
256,192,102998,5,0,0:0:0:0:
256,192,103077,5,8,0:0:0:0:
256,192,103234,5,8,0:0:0:0:
256,192,103392,5,0,0:0:0:0:
256,192,103550,5,8,0:0:0:0:
256,192,103629,5,8,0:0:0:0:
256,192,103708,5,0,0:0:0:0:
256,192,103866,5,0,0:0:0:0:
256,192,104024,5,8,0:0:0:0:
256,192,104182,5,0,0:0:0:0:
256,192,104340,5,8,0:0:0:0:
256,192,104419,5,0,0:0:0:0:
256,192,104498,5,8,0:0:0:0:
256,192,104656,5,8,0:0:0:0:
256,192,104971,5,0,0:0:0:0:
256,192,105129,5,8,0:0:0:0:
256,192,105208,5,8,0:0:0:0:
256,192,105287,5,0,0:0:0:0:
256,192,105445,5,0,0:0:0:0:
256,192,105603,5,8,0:0:0:0:
256,192,105682,5,8,0:0:0:0:
256,192,105761,5,8,0:0:0:0:
256,192,105840,5,8,0:0:0:0:
256,192,105919,5,0,0:0:0:0:
256,192,106077,5,0,0:0:0:0:
256,192,106234,5,12,0:0:0:0:
256,192,106471,5,12,0:0:0:0:
256,192,106708,5,12,0:0:0:0:
256,192,106945,5,0,0:0:0:0:
256,192,107103,5,0,0:0:0:0:
256,192,107261,5,0,0:0:0:0:
256,192,107419,5,0,0:0:0:0:
256,192,107498,5,8,0:0:0:0:
256,192,107577,1,8,0:0:0:0:
256,192,107656,5,0,0:0:0:0:
256,192,107813,5,8,0:0:0:0:
256,192,107971,5,8,0:0:0:0:
256,192,108050,5,0,0:0:0:0:
256,192,108129,5,8,0:0:0:0:
256,192,108287,5,8,0:0:0:0:
256,192,108445,5,0,0:0:0:0:
256,192,108761,5,0,0:0:0:0:
256,192,108840,5,0,0:0:0:0:
256,192,108919,5,8,0:0:0:0:
256,192,108998,5,0,0:0:0:0:
256,192,109077,5,8,0:0:0:0:
256,192,109234,5,0,0:0:0:0:
256,192,109392,5,8,0:0:0:0:
256,192,109471,5,8,0:0:0:0:
256,192,109550,5,8,0:0:0:0:
256,192,109629,5,8,0:0:0:0:
256,192,109708,5,0,0:0:0:0:
256,192,109866,5,8,0:0:0:0:
256,192,110024,5,12,0:0:0:0:
256,192,110261,5,4,0:0:0:0:
256,192,110498,5,12,0:0:0:0:
256,192,110656,5,12,0:0:0:0:
256,192,110892,5,4,0:0:0:0:
256,192,111129,5,12,0:0:0:0:
256,192,111287,5,4,0:0:0:0:
256,192,112234,5,8,0:0:0:0:
256,192,112287,5,8,0:0:0:0:
256,192,112550,5,0,0:0:0:0:
256,192,112708,5,0,0:0:0:0:
256,192,112786,5,8,0:0:0:0:
256,192,112865,5,8,0:0:0:0:
256,192,113023,5,0,0:0:0:0:
256,192,113102,5,0,0:0:0:0:
256,192,113181,5,8,0:0:0:0:
256,192,113339,5,0,0:0:0:0:
256,192,113418,5,0,0:0:0:0:
256,192,113497,5,8,0:0:0:0:
256,192,113576,5,0,0:0:0:0:
256,192,113655,5,0,0:0:0:0:
256,192,113734,5,0,0:0:0:0:
256,192,113813,5,8,0:0:0:0:
256,192,113971,5,8,0:0:0:0:
256,192,114129,5,8,0:0:0:0:
256,192,114208,5,8,0:0:0:0:
256,192,114286,5,0,0:0:0:0:
256,192,114365,5,0,0:0:0:0:
256,192,114444,5,8,0:0:0:0:
256,192,114760,5,8,0:0:0:0:
256,192,114839,5,8,0:0:0:0:
256,192,114918,5,0,0:0:0:0:
256,192,114997,5,0,0:0:0:0:
256,192,115076,5,8,0:0:0:0:
256,192,115234,5,0,0:0:0:0:
256,192,115392,5,8,0:0:0:0:
256,192,115471,5,0,0:0:0:0:
256,192,115550,5,8,0:0:0:0:
256,192,115708,5,0,0:0:0:0:
256,192,115865,5,8,0:0:0:0:
256,192,115944,5,0,0:0:0:0:
256,192,116023,5,8,0:0:0:0:
256,192,116339,5,8,0:0:0:0:
256,192,116497,5,0,0:0:0:0:
256,192,116655,5,8,0:0:0:0:
256,192,116734,5,0,0:0:0:0:
256,192,116813,5,8,0:0:0:0:
256,192,116971,5,0,0:0:0:0:
256,192,117129,5,8,0:0:0:0:
256,192,117208,5,0,0:0:0:0:
256,192,117286,5,8,0:0:0:0:
256,192,117602,5,8,0:0:0:0:
256,192,117760,5,0,0:0:0:0:
256,192,117839,5,8,0:0:0:0:
256,192,117918,5,8,0:0:0:0:
256,192,118076,5,0,0:0:0:0:
256,192,118155,5,0,0:0:0:0:
256,192,118234,5,8,0:0:0:0:
256,192,118392,5,0,0:0:0:0:
256,192,118471,5,0,0:0:0:0:
256,192,118550,5,8,0:0:0:0:
256,192,118629,5,0,0:0:0:0:
256,192,118708,5,0,0:0:0:0:
256,192,118786,5,0,0:0:0:0:
256,192,118865,5,8,0:0:0:0:
256,192,119023,5,8,0:0:0:0:
256,192,119181,5,8,0:0:0:0:
256,192,119260,5,8,0:0:0:0:
256,192,119339,5,0,0:0:0:0:
256,192,119418,5,0,0:0:0:0:
256,192,119497,5,8,0:0:0:0:
256,192,119813,5,8,0:0:0:0:
256,192,119892,5,8,0:0:0:0:
256,192,119971,5,0,0:0:0:0:
256,192,120129,5,8,0:0:0:0:
256,192,120286,5,0,0:0:0:0:
256,192,120444,5,8,0:0:0:0:
256,192,120523,5,0,0:0:0:0:
256,192,120602,5,8,0:0:0:0:
256,192,120760,5,0,0:0:0:0:
256,192,120918,5,8,0:0:0:0:
256,192,120997,5,0,0:0:0:0:
256,192,121076,5,8,0:0:0:0:
256,192,121392,5,8,0:0:0:0:
256,192,121550,5,0,0:0:0:0:
256,192,121708,5,8,0:0:0:0:
256,192,121786,5,0,0:0:0:0:
256,192,121865,5,8,0:0:0:0:
256,192,122023,5,0,0:0:0:0:
256,192,122102,1,0,0:0:0:0:
256,192,122181,5,8,0:0:0:0:
256,192,122260,5,0,0:0:0:0:
256,192,122339,5,8,0:0:0:0:
256,192,122655,5,8,0:0:0:0:
256,192,122813,5,0,0:0:0:0:
256,192,122892,5,8,0:0:0:0:
256,192,122971,5,8,0:0:0:0:
256,192,123129,5,0,0:0:0:0:
256,192,123208,5,0,0:0:0:0:
256,192,123286,5,8,0:0:0:0:
256,192,123444,5,0,0:0:0:0:
256,192,123523,5,0,0:0:0:0:
256,192,123602,5,8,0:0:0:0:
256,192,123681,5,0,0:0:0:0:
256,192,123760,5,0,0:0:0:0:
256,192,123839,5,0,0:0:0:0:
256,192,123918,5,8,0:0:0:0:
256,192,124076,5,8,0:0:0:0:
256,192,124234,5,8,0:0:0:0:
256,192,124313,5,8,0:0:0:0:
256,192,124392,5,0,0:0:0:0:
256,192,124471,5,0,0:0:0:0:
256,192,124550,5,8,0:0:0:0:
256,192,124865,5,8,0:0:0:0:
256,192,124944,5,8,0:0:0:0:
256,192,125023,5,0,0:0:0:0:
256,192,125181,5,8,0:0:0:0:
256,192,125339,5,0,0:0:0:0:
256,192,125497,5,8,0:0:0:0:
256,192,125576,5,0,0:0:0:0:
256,192,125655,5,8,0:0:0:0:
256,192,125813,5,0,0:0:0:0:
256,192,125971,5,8,0:0:0:0:
256,192,126050,5,0,0:0:0:0:
256,192,126129,5,8,0:0:0:0:
256,192,126444,5,8,0:0:0:0:
256,192,126602,5,0,0:0:0:0:
256,192,126681,5,0,0:0:0:0:
256,192,126760,5,8,0:0:0:0:
256,192,126839,5,0,0:0:0:0:
256,192,126918,5,8,0:0:0:0:
256,192,127077,5,0,0:0:0:0:
256,192,127234,5,8,0:0:0:0:
256,192,127313,5,0,0:0:0:0:
256,192,127392,5,8,0:0:0:0:
256,192,127550,5,0,0:0:0:0:
256,192,127708,5,8,0:0:0:0:
256,192,128182,5,0,0:0:0:0:
256,192,128340,5,8,0:0:0:0:
256,192,128498,5,0,0:0:0:0:
256,192,128734,5,0,0:0:0:0:
256,192,128813,5,0,0:0:0:0:
256,192,129129,5,8,0:0:0:0:
256,192,129287,5,0,0:0:0:0:
256,192,129445,5,0,0:0:0:0:
256,192,129524,5,0,0:0:0:0:
256,192,129603,5,8,0:0:0:0:
256,192,129919,5,8,0:0:0:0:
256,192,130077,5,8,0:0:0:0:
256,192,130234,5,0,0:0:0:0:
256,192,130471,5,8,0:0:0:0:
256,192,130708,5,0,0:0:0:0:
256,192,130787,5,0,0:0:0:0:
256,192,130866,5,8,0:0:0:0:
256,192,131024,5,0,0:0:0:0:
256,192,131103,5,8,0:0:0:0:
256,192,131261,5,0,0:0:0:0:
256,192,131340,5,8,0:0:0:0:
256,192,131498,5,8,0:0:0:0:
256,192,131813,5,0,0:0:0:0:
256,192,131971,5,8,0:0:0:0:
256,192,132129,5,8,0:0:0:0:
256,192,132208,5,8,0:0:0:0:
256,192,132287,5,8,0:0:0:0:
256,192,132366,5,8,0:0:0:0:
256,192,132445,5,0,0:0:0:0:
256,192,132524,5,0,0:0:0:0:
256,192,132603,5,0,0:0:0:0:
256,192,132682,5,0,0:0:0:0:
256,192,132761,5,8,0:0:0:0:
256,192,133077,5,0,0:0:0:0:
256,192,133234,5,8,0:0:0:0:
256,192,133313,5,8,0:0:0:0:
256,192,133392,5,8,0:0:0:0:
256,192,133550,5,0,0:0:0:0:
256,192,133708,5,8,0:0:0:0:
256,192,133787,5,0,0:0:0:0:
256,192,133866,5,0,0:0:0:0:
256,192,134024,5,8,0:0:0:0:
256,192,134340,5,0,0:0:0:0:
256,192,134498,5,8,0:0:0:0:
256,192,134656,5,8,0:0:0:0:
256,192,134813,5,8,0:0:0:0:
256,192,134971,5,0,0:0:0:0:
256,192,135050,5,0,0:0:0:0:
256,192,135129,5,8,0:0:0:0:
256,192,135287,5,8,0:0:0:0:
256,192,135445,5,0,0:0:0:0:
256,192,135524,5,8,0:0:0:0:
256,192,135603,5,0,0:0:0:0:
256,192,135682,5,0,0:0:0:0:
256,192,135761,5,8,0:0:0:0:
256,192,135919,5,8,0:0:0:0:
256,192,135998,5,8,0:0:0:0:
256,192,136077,5,0,0:0:0:0:
256,192,136234,5,8,0:0:0:0:
256,192,136392,5,0,0:0:0:0:
256,192,136550,5,8,0:0:0:0:
256,192,136629,1,0,0:0:0:0:
256,192,136708,5,0,0:0:0:0:
256,192,136787,5,8,0:0:0:0:
256,192,136866,5,0,0:0:0:0:
256,192,136945,5,0,0:0:0:0:
256,192,137024,5,8,0:0:0:0:
256,192,137182,5,8,0:0:0:0:
256,192,137340,5,0,0:0:0:0:
256,192,137419,1,0,0:0:0:0:
256,192,137498,5,8,0:0:0:0:
256,192,137813,5,8,0:0:0:0:
256,192,137971,5,8,0:0:0:0:
256,192,138129,5,0,0:0:0:0:
256,192,138287,5,8,0:0:0:0:
256,192,138445,5,8,0:0:0:0:
256,192,138603,5,0,0:0:0:0:
256,192,138682,5,8,0:0:0:0:
256,192,138840,5,0,0:0:0:0:
256,192,138919,5,0,0:0:0:0:
256,192,139077,5,8,0:0:0:0:
256,192,139234,5,8,0:0:0:0:
256,192,139313,5,8,0:0:0:0:
256,192,139392,5,0,0:0:0:0:
256,192,139471,5,0,0:0:0:0:
256,192,139550,5,8,0:0:0:0:
256,192,139866,5,8,0:0:0:0:
256,192,139945,5,8,0:0:0:0:
256,192,140024,5,0,0:0:0:0:
256,192,140182,5,8,0:0:0:0:
256,192,140340,5,8,0:0:0:0:
256,192,140419,5,0,0:0:0:0:
256,192,140498,5,0,0:0:0:0:
256,192,140577,5,8,0:0:0:0:
256,192,140656,5,0,0:0:0:0:
256,192,140734,5,0,0:0:0:0:
256,192,140813,5,8,0:0:0:0:
256,192,140971,5,8,0:0:0:0:
256,192,141129,5,0,0:0:0:0:
256,192,141208,5,8,0:0:0:0:
256,192,141287,5,0,0:0:0:0:
256,192,141366,5,0,0:0:0:0:
256,192,141445,5,8,0:0:0:0:
256,192,141603,5,8,0:0:0:0:
256,192,141919,5,8,0:0:0:0:
256,192,141998,5,0,0:0:0:0:
256,192,142077,5,8,0:0:0:0:
256,192,142156,5,8,0:0:0:0:
256,192,142234,5,0,0:0:0:0:
256,192,142392,5,8,0:0:0:0:
256,192,142550,5,0,0:0:0:0:
256,192,142603,5,0,0:0:0:0:
256,192,142656,5,0,0:0:0:0:
256,192,142708,5,8,0:0:0:0:
256,192,142866,5,0,0:0:0:0:
256,192,143024,5,0,0:0:0:0:
256,192,143182,5,8,0:0:0:0:
256,192,143340,5,0,0:0:0:0:
256,192,143498,5,8,0:0:0:0:
256,192,143656,5,0,0:0:0:0:
256,192,143813,5,8,0:0:0:0:
256,192,143971,5,8,0:0:0:0:
256,192,144129,5,8,0:0:0:0:
256,192,144208,5,0,0:0:0:0:
256,192,144287,5,0,0:0:0:0:
256,192,144366,5,0,0:0:0:0:
256,192,144445,5,8,0:0:0:0:
256,192,144603,5,0,0:0:0:0:
256,192,144761,5,8,0:0:0:0:
256,192,144840,5,8,0:0:0:0:
256,192,144919,5,0,0:0:0:0:
256,192,145077,5,8,0:0:0:0:
256,192,145234,5,0,0:0:0:0:
256,192,145392,5,8,0:0:0:0:
256,192,145550,5,8,0:0:0:0:
256,192,145603,5,8,0:0:0:0:
256,192,145656,5,8,0:0:0:0:
256,192,145708,5,0,0:0:0:0:
256,192,145866,5,8,0:0:0:0:
256,192,146024,5,8,0:0:0:0:
256,192,146103,5,0,0:0:0:0:
256,192,146182,5,0,0:0:0:0:
256,192,146261,5,0,0:0:0:0:
256,192,146340,5,8,0:0:0:0:
256,192,146498,1,0,0:0:0:0:
256,192,146656,5,8,0:0:0:0:
256,192,146734,5,8,0:0:0:0:
256,192,146813,5,8,0:0:0:0:
256,192,146892,5,8,0:0:0:0:
256,192,146971,5,0,0:0:0:0:
256,192,147129,5,8,0:0:0:0:
256,192,147445,5,0,0:0:0:0:
256,192,147524,5,0,0:0:0:0:
256,192,147603,5,8,0:0:0:0:
256,192,147919,5,8,0:0:0:0:
256,192,147998,5,0,0:0:0:0:
256,192,148077,5,8,0:0:0:0:
256,192,148156,5,8,0:0:0:0:
256,192,148234,5,0,0:0:0:0:
256,192,148392,5,0,0:0:0:0:
256,192,148550,5,8,0:0:0:0:
256,192,148629,5,0,0:0:0:0:
256,192,148708,5,8,0:0:0:0:
256,192,148787,5,8,0:0:0:0:
256,192,148866,5,0,0:0:0:0:
256,192,149024,5,0,0:0:0:0:
256,192,149182,5,8,0:0:0:0:
256,192,149234,5,8,0:0:0:0:
256,192,149287,5,8,0:0:0:0:
256,192,149340,5,0,0:0:0:0:
256,192,149498,5,8,0:0:0:0:
256,192,149656,5,0,0:0:0:0:
256,192,149734,5,8,0:0:0:0:
256,192,149813,5,0,0:0:0:0:
256,192,149892,5,0,0:0:0:0:
256,192,149971,5,8,0:0:0:0:
256,192,150129,5,8,0:0:0:0:
256,192,150182,5,8,0:0:0:0:
256,192,150234,5,8,0:0:0:0:
256,192,150287,5,0,0:0:0:0:
256,192,150445,5,8,0:0:0:0:
256,192,150656,5,8,0:0:0:0:
256,192,150761,5,8,0:0:0:0:
256,192,150866,5,8,0:0:0:0:
256,192,150971,5,0,0:0:0:0:
256,192,151182,5,8,0:0:0:0:
256,192,151287,5,0,0:0:0:0:
256,192,151392,5,8,0:0:0:0:
256,192,151550,5,8,0:0:0:0:
256,192,151656,5,0,0:0:0:0:
256,192,151761,5,8,0:0:0:0:
256,192,152182,5,0,0:0:0:0:
256,192,152261,5,0,0:0:0:0:
256,192,152340,5,8,0:0:0:0:
256,192,152419,1,8,0:0:0:0:
256,192,152498,1,8,0:0:0:0:
256,192,152577,1,8,0:0:0:0:
256,192,152656,5,0,0:0:0:0:
256,192,152813,1,0,0:0:0:0:
256,192,152971,5,8,0:0:0:0:
256,192,153287,5,8,0:0:0:0:
256,192,153366,5,8,0:0:0:0:
256,192,153445,5,0,0:0:0:0:
256,192,153524,5,0,0:0:0:0:
256,192,153603,5,8,0:0:0:0:
256,192,153761,5,8,0:0:0:0:
256,192,153919,5,8,0:0:0:0:
256,192,154077,5,8,0:0:0:0:
256,192,154156,5,0,0:0:0:0:
256,192,154234,5,8,0:0:0:0:
256,192,154392,5,0,0:0:0:0:
256,192,154550,5,8,0:0:0:0:
256,192,154629,5,0,0:0:0:0:
256,192,154708,5,0,0:0:0:0:
256,192,154866,5,8,0:0:0:0:
256,192,154945,5,0,0:0:0:0:
256,192,155024,5,8,0:0:0:0:
256,192,155103,5,0,0:0:0:0:
256,192,155182,5,8,0:0:0:0:
256,192,155340,5,0,0:0:0:0:
256,192,155498,5,8,0:0:0:0:
256,192,155813,5,0,0:0:0:0:
256,192,155971,5,8,0:0:0:0:
256,192,156129,5,8,0:0:0:0:
256,192,156287,5,0,0:0:0:0:
256,192,156445,5,8,0:0:0:0:
256,192,156603,5,8,0:0:0:0:
256,192,156919,5,8,0:0:0:0:
256,192,157077,5,0,0:0:0:0:
256,192,157234,5,8,0:0:0:0:
256,192,157392,5,8,0:0:0:0:
256,192,157471,5,8,0:0:0:0:
256,192,157550,5,0,0:0:0:0:
256,192,157708,5,8,0:0:0:0:
256,192,157866,5,0,0:0:0:0:
256,192,158024,5,0,0:0:0:0:
256,192,158129,5,0,0:0:0:0:
256,192,158234,5,0,0:0:0:0:
256,192,158340,5,8,0:0:0:0:
256,192,158445,5,8,0:0:0:0:
256,192,158550,5,0,0:0:0:0:
256,192,158656,1,0,0:0:0:0:
256,192,158761,1,8,0:0:0:0:
256,192,159182,5,0,0:0:0:0:
256,192,159287,5,0,0:0:0:0:
256,192,159445,5,0,0:0:0:0:
256,192,159603,5,8,0:0:0:0:
256,192,159761,5,0,0:0:0:0:
256,192,159919,5,0,0:0:0:0:
256,192,160077,5,0,0:0:0:0:
256,192,160234,5,8,0:0:0:0:
256,192,160392,5,8,0:0:0:0:
256,192,160550,5,0,0:0:0:0:
256,192,160866,5,0,0:0:0:0:
256,192,161498,5,0,0:0:0:0:
256,192,162129,5,0,0:0:0:0:
256,192,162761,5,0,0:0:0:0:
256,192,163392,5,0,0:0:0:0:
256,192,164024,5,0,0:0:0:0:
256,192,164656,5,0,0:0:0:0:
256,192,165287,5,0,0:0:0:0:
256,192,165498,5,0,0:0:0:0:
256,192,165603,5,0,0:0:0:0:
256,192,165919,5,0,0:0:0:0:
256,192,166077,5,8,0:0:0:0:
256,192,166234,5,0,0:0:0:0:
256,192,166550,5,0,0:0:0:0:
256,192,166708,5,8,0:0:0:0:
256,192,166866,5,0,0:0:0:0:
256,192,167182,5,0,0:0:0:0:
256,192,167340,5,8,0:0:0:0:
256,192,167498,5,0,0:0:0:0:
256,192,167656,5,8,0:0:0:0:
256,192,167813,5,8,0:0:0:0:
256,192,167971,5,8,0:0:0:0:
256,192,168129,5,0,0:0:0:0:
256,192,168287,5,0,0:0:0:0:
256,192,168445,5,8,0:0:0:0:
256,192,168603,5,0,0:0:0:0:
256,192,168761,5,8,0:0:0:0:
256,192,168840,5,8,0:0:0:0:
256,192,168919,5,8,0:0:0:0:
256,192,168998,5,8,0:0:0:0:
256,192,169077,5,0,0:0:0:0:
256,192,169234,5,8,0:0:0:0:
256,192,169392,5,0,0:0:0:0:
256,192,170656,5,4,0:0:0:0:
256,192,170971,5,0,0:0:0:0:
256,192,171129,5,8,0:0:0:0:
256,192,171287,5,0,0:0:0:0:
256,192,171603,5,0,0:0:0:0:
256,192,171761,5,8,0:0:0:0:
256,192,171919,5,0,0:0:0:0:
256,192,172234,5,0,0:0:0:0:
256,192,172392,5,0,0:0:0:0:
256,192,172550,5,12,0:0:0:0:
256,192,173182,5,0,0:0:0:0:
256,192,173498,5,0,0:0:0:0:
256,192,173656,5,8,0:0:0:0:
256,192,173813,5,0,0:0:0:0:
256,192,173971,5,0,0:0:0:0:
256,192,174129,5,8,0:0:0:0:
256,192,174287,5,8,0:0:0:0:
256,192,174445,5,0,0:0:0:0:
256,192,174603,5,8,0:0:0:0:
256,192,174761,5,8,0:0:0:0:
256,192,174919,5,8,0:0:0:0:
256,192,175077,5,0,0:0:0:0:
256,192,175234,5,0,0:0:0:0:
256,192,175392,5,8,0:0:0:0:
256,192,175471,5,8,0:0:0:0:
256,192,175550,5,0,0:0:0:0:
256,192,175629,5,0,0:0:0:0:
256,192,175708,5,0,0:0:0:0:
256,192,175866,5,0,0:0:0:0:
256,192,176024,5,8,0:0:0:0:
256,192,176182,5,0,0:0:0:0:
256,192,176340,5,8,0:0:0:0:
256,192,176498,5,0,0:0:0:0:
256,192,176656,5,8,0:0:0:0:
256,192,176813,5,8,0:0:0:0:
256,192,176971,5,0,0:0:0:0:
256,192,177129,5,8,0:0:0:0:
256,192,177287,5,0,0:0:0:0:
256,192,177445,5,0,0:0:0:0:
256,192,177603,5,12,0:0:0:0:
256,192,178234,5,0,0:0:0:0:
256,192,178392,5,0,0:0:0:0:
256,192,178550,5,8,0:0:0:0:
256,192,178708,5,8,0:0:0:0:
256,192,178866,5,0,0:0:0:0:
256,192,179024,5,8,0:0:0:0:
256,192,179182,5,0,0:0:0:0:
256,192,179340,5,8,0:0:0:0:
256,192,179498,5,8,0:0:0:0:
256,192,179813,5,8,0:0:0:0:
256,192,179971,5,0,0:0:0:0:
256,192,180129,5,8,0:0:0:0:
256,192,180208,5,8,0:0:0:0:
256,192,180287,5,8,0:0:0:0:
256,192,180366,5,8,0:0:0:0:
256,192,180445,5,0,0:0:0:0:
256,192,180524,5,0,0:0:0:0:
256,192,180603,5,0,0:0:0:0:
256,192,180682,5,0,0:0:0:0:
256,192,180761,5,8,0:0:0:0:
256,192,180919,5,0,0:0:0:0:
256,192,180998,5,0,0:0:0:0:
256,192,181077,5,0,0:0:0:0:
256,192,181234,5,8,0:0:0:0:
256,192,181392,5,8,0:0:0:0:
256,192,181471,5,8,0:0:0:0:
256,192,181550,5,0,0:0:0:0:
256,192,181866,5,8,0:0:0:0:
256,192,181945,5,8,0:0:0:0:
256,192,182024,5,8,0:0:0:0:
256,192,182182,5,0,0:0:0:0:
256,192,182340,5,8,0:0:0:0:
256,192,182498,5,8,0:0:0:0:
256,192,182577,5,0,0:0:0:0:
256,192,182656,5,8,0:0:0:0:
256,192,182813,5,0,0:0:0:0:
256,192,182971,5,8,0:0:0:0:
256,192,183129,5,0,0:0:0:0:
256,192,183287,5,8,0:0:0:0:
256,192,183603,5,0,0:0:0:0:
256,192,183761,5,8,0:0:0:0:
256,192,183840,5,8,0:0:0:0:
256,192,183919,5,8,0:0:0:0:
256,192,184077,5,0,0:0:0:0:
256,192,184234,5,8,0:0:0:0:
256,192,184313,5,8,0:0:0:0:
256,192,184392,5,0,0:0:0:0:
256,192,184550,5,8,0:0:0:0:
256,192,184708,5,0,0:0:0:0:
256,192,184866,5,8,0:0:0:0:
256,192,184945,5,0,0:0:0:0:
256,192,185024,5,8,0:0:0:0:
256,192,185182,5,0,0:0:0:0:
256,192,185340,5,0,0:0:0:0:
256,192,185419,5,0,0:0:0:0:
256,192,185498,5,8,0:0:0:0:
256,192,185813,5,8,0:0:0:0:
256,192,185971,5,0,0:0:0:0:
256,192,186050,5,0,0:0:0:0:
256,192,186129,5,0,0:0:0:0:
256,192,186287,5,8,0:0:0:0:
256,192,186445,5,8,0:0:0:0:
256,192,186524,5,8,0:0:0:0:
256,192,186603,5,0,0:0:0:0:
256,192,186761,5,0,0:0:0:0:
256,192,186919,5,8,0:0:0:0:
256,192,186998,5,8,0:0:0:0:
256,192,187077,5,8,0:0:0:0:
256,192,187234,5,0,0:0:0:0:
256,192,187392,5,8,0:0:0:0:
256,192,187550,5,8,0:0:0:0:
256,192,187629,5,0,0:0:0:0:
256,192,187708,5,8,0:0:0:0:
256,192,187866,5,0,0:0:0:0:
256,192,188024,5,8,0:0:0:0:
256,192,188182,5,0,0:0:0:0:
256,192,188340,5,8,0:0:0:0:
256,192,188498,1,8,0:0:0:0:
256,192,188656,5,8,0:0:0:0:
256,192,188813,5,0,0:0:0:0:
256,192,188892,5,0,0:0:0:0:
256,192,188971,5,8,0:0:0:0:
256,192,189129,5,0,0:0:0:0:
256,192,189287,5,8,0:0:0:0:
256,192,189366,5,8,0:0:0:0:
256,192,189445,5,0,0:0:0:0:
256,192,189603,5,8,0:0:0:0:
256,192,189761,5,0,0:0:0:0:
256,192,189919,5,8,0:0:0:0:
256,192,189998,5,0,0:0:0:0:
256,192,190077,5,8,0:0:0:0:
256,192,190234,5,0,0:0:0:0:
256,192,190550,5,8,0:0:0:0:
256,192,190629,5,8,0:0:0:0:
256,192,190708,5,8,0:0:0:0:
256,192,190866,5,0,0:0:0:0:
256,192,191024,5,0,0:0:0:0:
256,192,191182,5,0,0:0:0:0:
256,192,191261,5,0,0:0:0:0:
256,192,191340,5,8,0:0:0:0:
256,192,191419,5,0,0:0:0:0:
256,192,191498,5,8,0:0:0:0:
256,192,191656,5,0,0:0:0:0:
256,192,191813,5,0,0:0:0:0:
256,192,191892,5,0,0:0:0:0:
256,192,191971,5,8,0:0:0:0:
256,192,192050,5,0,0:0:0:0:
256,192,192129,5,8,0:0:0:0:
256,192,192445,5,0,0:0:0:0:
256,192,192603,5,8,0:0:0:0:
256,192,192682,5,0,0:0:0:0:
256,192,192761,5,8,0:0:0:0:
256,192,192840,5,8,0:0:0:0:
256,192,192919,5,0,0:0:0:0:
256,192,193077,5,8,0:0:0:0:
256,192,193234,5,0,0:0:0:0:
256,192,193392,5,8,0:0:0:0:
256,192,193471,5,8,0:0:0:0:
256,192,193550,5,0,0:0:0:0:
256,192,193629,5,0,0:0:0:0:
256,192,193708,5,0,0:0:0:0:
256,192,193866,5,8,0:0:0:0:
256,192,193945,5,0,0:0:0:0:
256,192,194024,5,8,0:0:0:0:
256,192,194182,5,0,0:0:0:0:
256,192,194261,5,0,0:0:0:0:
256,192,194340,5,8,0:0:0:0:
256,192,194419,5,8,0:0:0:0:
256,192,194498,5,0,0:0:0:0:
256,192,194656,5,8,0:0:0:0:
256,192,194813,5,0,0:0:0:0:
256,192,194892,5,0,0:0:0:0:
256,192,194971,5,8,0:0:0:0:
256,192,195129,5,8,0:0:0:0:
256,192,195208,5,8,0:0:0:0:
256,192,195287,5,0,0:0:0:0:
256,192,195366,5,0,0:0:0:0:
256,192,195445,1,0,0:0:0:0:
256,192,195524,1,0,0:0:0:0:
256,192,195603,5,8,0:0:0:0:
256,192,195919,5,8,0:0:0:0:
256,192,196077,5,0,0:0:0:0:
256,192,196234,5,0,0:0:0:0:
256,192,196313,5,0,0:0:0:0:
256,192,196392,5,8,0:0:0:0:
256,192,196471,5,0,0:0:0:0:
256,192,196550,5,8,0:0:0:0:
256,192,196708,5,0,0:0:0:0:
256,192,196866,5,0,0:0:0:0:
256,192,196945,5,0,0:0:0:0:
256,192,197024,5,8,0:0:0:0:
256,192,197103,5,0,0:0:0:0:
256,192,197182,5,8,0:0:0:0:
256,192,197340,5,0,0:0:0:0:
256,192,197498,5,8,0:0:0:0:
256,192,197656,5,8,0:0:0:0:
256,192,197734,5,0,0:0:0:0:
256,192,197813,5,8,0:0:0:0:
256,192,197971,5,0,0:0:0:0:
256,192,198050,5,0,0:0:0:0:
256,192,198129,5,8,0:0:0:0:
256,192,198208,5,0,0:0:0:0:
256,192,198287,5,8,0:0:0:0:
256,192,198445,5,8,0:0:0:0:
256,192,198603,5,0,0:0:0:0:
256,192,198682,5,0,0:0:0:0:
256,192,198761,5,8,0:0:0:0:
256,192,198840,5,0,0:0:0:0:
256,192,198919,5,8,0:0:0:0:
256,192,199077,5,8,0:0:0:0:
256,192,199156,5,8,0:0:0:0:
256,192,199234,5,0,0:0:0:0:
256,192,199313,5,0,0:0:0:0:
256,192,199392,5,8,0:0:0:0:
256,192,199550,5,0,0:0:0:0:
256,192,199708,5,8,0:0:0:0:
256,192,199761,5,8,0:0:0:0:
256,192,199813,5,8,0:0:0:0:
256,192,199866,5,0,0:0:0:0:
256,192,200024,5,8,0:0:0:0:
256,192,200182,5,8,0:0:0:0:
256,192,200261,5,8,0:0:0:0:
256,192,200340,5,0,0:0:0:0:
256,192,200419,5,0,0:0:0:0:
256,192,200498,5,0,0:0:0:0:
256,192,200577,5,0,0:0:0:0:
256,192,200656,5,8,0:0:0:0:
256,192,200971,5,8,0:0:0:0:
256,192,201024,5,8,0:0:0:0:
256,192,201077,5,8,0:0:0:0:
256,192,201129,5,0,0:0:0:0:
256,192,201287,5,8,0:0:0:0:
256,192,201445,5,8,0:0:0:0:
256,192,201524,5,8,0:0:0:0:
256,192,201603,5,0,0:0:0:0:
256,192,201761,5,8,0:0:0:0:
256,192,201919,5,8,0:0:0:0:
256,192,201971,5,0,0:0:0:0:
256,192,202024,5,0,0:0:0:0:
256,192,202077,5,8,0:0:0:0:
256,192,202234,5,0,0:0:0:0:
256,192,202392,5,8,0:0:0:0:
256,192,202471,5,8,0:0:0:0:
256,192,202550,5,0,0:0:0:0:
256,192,202708,5,0,0:0:0:0:
256,192,202866,5,8,0:0:0:0:
256,192,202945,1,8,0:0:0:0:
256,192,203024,5,8,0:0:0:0:
256,192,203103,5,8,0:0:0:0:
256,192,203182,5,0,0:0:0:0:
256,192,203498,5,8,0:0:0:0:
256,192,203656,5,0,0:0:0:0:
256,192,203734,5,0,0:0:0:0:
256,192,203813,5,8,0:0:0:0:
256,192,203892,5,0,0:0:0:0:
256,192,203971,5,8,0:0:0:0:
256,192,204129,5,8,0:0:0:0:
256,192,204287,5,0,0:0:0:0:
256,192,204366,5,0,0:0:0:0:
256,192,204445,5,8,0:0:0:0:
256,192,204524,5,0,0:0:0:0:
256,192,204603,5,8,0:0:0:0:
256,192,204761,5,8,0:0:0:0:
256,192,204919,5,8,0:0:0:0:
256,192,204998,5,8,0:0:0:0:
256,192,205077,5,0,0:0:0:0:
256,192,205156,5,0,0:0:0:0:
256,192,205234,5,8,0:0:0:0:
256,192,205392,5,8,0:0:0:0:
256,192,205550,5,0,0:0:0:0:
256,192,205629,5,8,0:0:0:0:
256,192,205708,5,0,0:0:0:0:
256,192,206024,5,0,0:0:0:0:
256,192,206103,5,0,0:0:0:0:
256,192,206182,5,0,0:0:0:0:
256,192,206261,5,0,0:0:0:0:
256,192,206340,5,0,0:0:0:0:
256,192,206498,1,0,0:0:0:0:
256,192,206656,5,8,0:0:0:0:
256,192,206734,5,8,0:0:0:0:
256,192,206813,5,8,0:0:0:0:
256,192,206892,5,8,0:0:0:0:
256,192,206971,5,8,0:0:0:0:
256,192,207129,1,8,0:0:0:0:
256,192,207208,1,8,0:0:0:0:
256,192,207287,5,0,0:0:0:0:
256,192,207445,5,8,0:0:0:0:
256,192,207603,5,8,0:0:0:0:
256,192,207682,5,0,0:0:0:0:
256,192,207761,5,8,0:0:0:0:
256,192,207840,5,8,0:0:0:0:
256,192,207919,5,0,0:0:0:0:
256,192,208077,5,8,0:0:0:0:
256,192,208234,5,8,0:0:0:0:
256,192,208313,5,8,0:0:0:0:
256,192,208392,5,0,0:0:0:0:
256,192,208550,5,8,0:0:0:0:
256,192,208656,5,0,0:0:0:0:
256,192,208761,5,0,0:0:0:0:
256,192,208866,5,8,0:0:0:0:
256,192,208971,5,8,0:0:0:0:
256,192,209077,5,0,0:0:0:0:
256,192,209182,5,8,0:0:0:0:
256,192,209392,5,0,0:0:0:0:
256,192,209498,5,0,0:0:0:0:
256,192,209603,5,8,0:0:0:0:
256,192,209708,5,8,0:0:0:0:
256,192,209813,5,0,0:0:0:0:
256,192,210024,5,0,0:0:0:0:
256,192,210129,5,8,0:0:0:0:
256,192,210234,5,8,0:0:0:0:
256,192,210340,5,0,0:0:0:0:
256,192,210445,5,8,0:0:0:0:
256,192,210550,5,0,0:0:0:0:
256,192,210656,5,8,0:0:0:0:
256,192,210761,5,0,0:0:0:0:
256,192,211077,5,4,0:0:0:0:
256,192,211392,5,0,0:0:0:0:
256,192,211550,5,8,0:0:0:0:
256,192,211708,5,0,0:0:0:0:
256,192,212024,5,0,0:0:0:0:
256,192,212182,5,8,0:0:0:0:
256,192,212340,5,0,0:0:0:0:
256,192,212656,5,0,0:0:0:0:
256,192,212813,5,8,0:0:0:0:
256,192,212892,5,8,0:0:0:0:
256,192,212971,5,0,0:0:0:0:
256,192,213129,5,8,0:0:0:0:
256,192,213287,5,0,0:0:0:0:
256,192,213445,5,8,0:0:0:0:
256,192,213603,5,0,0:0:0:0:
256,192,213919,5,0,0:0:0:0:
256,192,214077,5,8,0:0:0:0:
256,192,214156,5,8,0:0:0:0:
256,192,214234,5,0,0:0:0:0:
256,192,214392,5,8,0:0:0:0:
256,192,214550,5,8,0:0:0:0:
256,192,214708,5,0,0:0:0:0:
256,192,214866,5,0,0:0:0:0:
256,192,215024,5,0,0:0:0:0:
256,192,215182,5,8,0:0:0:0:
256,192,215340,5,8,0:0:0:0:
256,192,215498,5,0,0:0:0:0:
256,192,215813,5,0,0:0:0:0:
256,192,215971,5,8,0:0:0:0:
256,192,216129,5,0,0:0:0:0:
256,192,216208,5,0,0:0:0:0:
256,192,216287,5,0,0:0:0:0:
256,192,216445,5,0,0:0:0:0:
256,192,216603,5,8,0:0:0:0:
256,192,216761,5,0,0:0:0:0:
256,192,217077,5,8,0:0:0:0:
256,192,217234,5,8,0:0:0:0:
256,192,217392,5,0,0:0:0:0:
256,192,217708,5,0,0:0:0:0:
256,192,217866,5,8,0:0:0:0:
256,192,217945,5,8,0:0:0:0:
256,192,218024,5,8,0:0:0:0:
256,192,218182,5,0,0:0:0:0:
256,192,218340,5,8,0:0:0:0:
256,192,218498,5,8,0:0:0:0:
256,192,218656,5,0,0:0:0:0:
256,192,218971,5,0,0:0:0:0:
256,192,219129,5,8,0:0:0:0:
256,192,219208,5,8,0:0:0:0:
256,192,219287,5,0,0:0:0:0:
256,192,219445,5,0,0:0:0:0:
256,192,219603,5,8,0:0:0:0:
256,192,219761,5,8,0:0:0:0:
256,192,219919,5,0,0:0:0:0:
256,192,220077,5,0,0:0:0:0:
256,192,220234,5,8,0:0:0:0:
256,192,220392,5,0,0:0:0:0:
256,192,220471,5,0,0:0:0:0:
256,192,220550,5,8,0:0:0:0:
256,192,220629,5,8,0:0:0:0:
256,192,220708,5,0,0:0:0:0:
256,192,220866,5,8,0:0:0:0:
256,192,220945,5,8,0:0:0:0:
256,192,221024,5,8,0:0:0:0:
256,192,221182,5,4,0:0:0:0:
256,192,222445,12,0,223550,0:0:0:0:
256,192,223708,5,8,0:0:0:0:
256,192,223866,5,0,0:0:0:0:
256,192,223945,5,0,0:0:0:0:
256,192,224024,5,8,0:0:0:0:
256,192,224103,5,0,0:0:0:0:
256,192,224182,5,8,0:0:0:0:
256,192,224340,5,0,0:0:0:0:
256,192,224419,5,0,0:0:0:0:
256,192,224498,5,8,0:0:0:0:
256,192,224577,5,0,0:0:0:0:
256,192,224656,5,8,0:0:0:0:
256,192,224971,5,8,0:0:0:0:
256,192,225129,5,8,0:0:0:0:
256,192,225208,5,8,0:0:0:0:
256,192,225287,5,0,0:0:0:0:
256,192,225366,5,0,0:0:0:0:
256,192,225445,5,8,0:0:0:0:
256,192,225603,5,8,0:0:0:0:
256,192,225761,5,0,0:0:0:0:
256,192,225840,5,0,0:0:0:0:
256,192,225919,5,8,0:0:0:0:
256,192,226234,5,8,0:0:0:0:
256,192,226392,5,0,0:0:0:0:
256,192,226471,5,0,0:0:0:0:
256,192,226550,5,8,0:0:0:0:
256,192,226629,5,0,0:0:0:0:
256,192,226708,5,8,0:0:0:0:
256,192,226866,5,0,0:0:0:0:
256,192,226945,5,0,0:0:0:0:
256,192,227024,5,8,0:0:0:0:
256,192,227103,5,0,0:0:0:0:
256,192,227182,5,8,0:0:0:0:
256,192,227340,5,0,0:0:0:0:
256,192,227498,5,0,0:0:0:0:
256,192,227577,5,0,0:0:0:0:
256,192,227656,5,8,0:0:0:0:
256,192,227734,5,8,0:0:0:0:
256,192,227813,5,0,0:0:0:0:
256,192,227971,5,8,0:0:0:0:
256,192,228129,5,8,0:0:0:0:
256,192,228208,5,8,0:0:0:0:
256,192,228287,5,0,0:0:0:0:
256,192,228366,5,0,0:0:0:0:
256,192,228445,5,8,0:0:0:0:
256,192,228761,5,8,0:0:0:0:
256,192,228919,5,0,0:0:0:0:
256,192,228998,5,0,0:0:0:0:
256,192,229077,5,8,0:0:0:0:
256,192,229234,5,0,0:0:0:0:
256,192,229313,5,0,0:0:0:0:
256,192,229392,5,8,0:0:0:0:
256,192,229550,5,0,0:0:0:0:
256,192,229629,5,0,0:0:0:0:
256,192,229708,5,8,0:0:0:0:
256,192,229787,5,8,0:0:0:0:
256,192,229866,5,8,0:0:0:0:
256,192,229945,5,8,0:0:0:0:
256,192,230024,5,0,0:0:0:0:
256,192,230340,5,8,0:0:0:0:
256,192,230498,5,0,0:0:0:0:
256,192,230656,5,0,0:0:0:0:
256,192,230734,5,0,0:0:0:0:
256,192,230813,5,0,0:0:0:0:
256,192,230892,5,0,0:0:0:0:
256,192,230971,5,8,0:0:0:0:
256,192,231050,5,8,0:0:0:0:
256,192,231129,5,8,0:0:0:0:
256,192,231208,5,8,0:0:0:0:
256,192,231287,5,0,0:0:0:0:
256,192,231919,5,8,0:0:0:0:
256,192,232550,5,0,0:0:0:0:
256,192,233024,5,0,0:0:0:0:
256,192,233103,5,0,0:0:0:0:
256,192,233182,5,8,0:0:0:0:
256,192,233498,5,0,0:0:0:0:
256,192,233656,5,0,0:0:0:0:
256,192,233734,5,8,0:0:0:0:
256,192,233813,5,8,0:0:0:0:
256,192,234445,5,8,0:0:0:0:
256,192,235077,5,0,0:0:0:0:
256,192,235550,5,0,0:0:0:0:
256,192,235629,5,0,0:0:0:0:
256,192,235708,5,8,0:0:0:0:
256,192,236024,5,0,0:0:0:0:
256,192,236182,5,0,0:0:0:0:
256,192,236340,5,8,0:0:0:0:
256,192,236971,5,8,0:0:0:0:
256,192,237603,5,0,0:0:0:0:
256,192,238077,5,0,0:0:0:0:
256,192,238156,5,0,0:0:0:0:
256,192,238234,5,8,0:0:0:0:
256,192,238550,5,0,0:0:0:0:
256,192,238708,5,0,0:0:0:0:
256,192,238866,5,8,0:0:0:0:
256,192,239182,5,0,0:0:0:0:
256,192,239340,5,8,0:0:0:0:
256,192,239656,5,0,0:0:0:0:
256,192,239813,5,8,0:0:0:0:
256,192,239971,5,8,0:0:0:0:
256,192,240287,5,0,0:0:0:0:
256,192,240366,5,0,0:0:0:0:
256,192,240445,5,0,0:0:0:0:
256,192,240603,5,0,0:0:0:0:
256,192,240761,5,0,0:0:0:0:
256,192,240919,5,8,0:0:0:0:
256,192,240998,5,8,0:0:0:0:
256,192,241077,5,0,0:0:0:0:
256,192,241156,1,0,0:0:0:0:
256,192,241234,1,0,0:0:0:0:
256,192,241392,5,8,0:0:0:0:
256,192,241708,5,0,0:0:0:0:
256,192,241866,5,8,0:0:0:0:
256,192,242024,5,8,0:0:0:0:
256,192,242103,5,8,0:0:0:0:
256,192,242182,5,8,0:0:0:0:
256,192,242261,5,8,0:0:0:0:
256,192,242340,5,0,0:0:0:0:
256,192,242497,5,8,0:0:0:0:
256,192,242576,5,0,0:0:0:0:
256,192,242655,5,8,0:0:0:0:
256,192,242813,5,8,0:0:0:0:
256,192,242971,5,0,0:0:0:0:
256,192,243129,5,8,0:0:0:0:
256,192,243208,5,8,0:0:0:0:
256,192,243287,5,0,0:0:0:0:
256,192,243366,5,0,0:0:0:0:
256,192,243445,5,8,0:0:0:0:
256,192,243603,5,0,0:0:0:0:
256,192,243761,1,8,0:0:0:0:
256,192,243918,5,8,0:0:0:0:
256,192,244234,5,0,0:0:0:0:
256,192,244313,5,0,0:0:0:0:
256,192,244392,5,8,0:0:0:0:
256,192,244471,5,0,0:0:0:0:
256,192,244550,5,8,0:0:0:0:
256,192,244708,5,8,0:0:0:0:
256,192,244866,5,0,0:0:0:0:
256,192,245024,5,8,0:0:0:0:
256,192,245103,5,0,0:0:0:0:
256,192,245182,5,8,0:0:0:0:
256,192,245340,5,0,0:0:0:0:
256,192,245497,5,8,0:0:0:0:
256,192,245576,5,8,0:0:0:0:
256,192,245655,5,8,0:0:0:0:
256,192,245734,5,8,0:0:0:0:
256,192,245813,5,0,0:0:0:0:
256,192,245971,1,0,0:0:0:0:
256,192,246129,5,8,0:0:0:0:
256,192,246234,5,0,0:0:0:0:
256,192,246340,5,0,0:0:0:0:
256,192,246445,5,8,0:0:0:0:
256,192,246761,5,0,0:0:0:0:
256,192,246918,5,0,0:0:0:0:
256,192,246997,5,0,0:0:0:0:
256,192,247076,5,8,0:0:0:0:
256,192,247234,5,0,0:0:0:0:
256,192,247392,5,8,0:0:0:0:
256,192,247550,5,8,0:0:0:0:
256,192,247629,5,0,0:0:0:0:
256,192,247708,5,8,0:0:0:0:
256,192,247866,5,8,0:0:0:0:
256,192,248024,5,0,0:0:0:0:
256,192,248103,5,0,0:0:0:0:
256,192,248182,5,8,0:0:0:0:
256,192,248261,5,8,0:0:0:0:
256,192,248340,5,0,0:0:0:0:
256,192,248655,5,0,0:0:0:0:
256,192,248813,5,8,0:0:0:0:
256,192,248971,5,8,0:0:0:0:
256,192,249050,5,8,0:0:0:0:
256,192,249129,5,0,0:0:0:0:
256,192,249208,5,0,0:0:0:0:
256,192,249287,5,0,0:0:0:0:
256,192,249445,5,0,0:0:0:0:
256,192,249603,5,8,0:0:0:0:
256,192,249682,5,8,0:0:0:0:
256,192,249761,5,0,0:0:0:0:
256,192,249918,5,8,0:0:0:0:
256,192,250076,5,8,0:0:0:0:
256,192,250155,5,8,0:0:0:0:
256,192,250234,5,0,0:0:0:0:
256,192,250392,1,8,0:0:0:0:
256,192,250550,5,0,0:0:0:0:
256,192,250708,5,0,0:0:0:0:
256,192,250866,5,8,0:0:0:0:
256,192,251024,5,0,0:0:0:0:
256,192,251103,5,0,0:0:0:0:
256,192,251182,5,8,0:0:0:0:
256,192,251261,5,0,0:0:0:0:
256,192,251340,5,8,0:0:0:0:
256,192,251497,5,8,0:0:0:0:
256,192,251813,5,0,0:0:0:0:
256,192,251971,5,8,0:0:0:0:
256,192,252129,5,8,0:0:0:0:
256,192,252208,5,8,0:0:0:0:
256,192,252287,5,8,0:0:0:0:
256,192,252366,5,8,0:0:0:0:
256,192,252445,5,0,0:0:0:0:
256,192,252603,5,8,0:0:0:0:
256,192,252682,5,0,0:0:0:0:
256,192,252761,5,8,0:0:0:0:
256,192,252918,5,0,0:0:0:0:
256,192,253076,5,0,0:0:0:0:
256,192,253234,5,8,0:0:0:0:
256,192,253392,5,0,0:0:0:0:
256,192,253471,5,0,0:0:0:0:
256,192,253550,5,8,0:0:0:0:
256,192,253629,5,8,0:0:0:0:
256,192,253708,5,0,0:0:0:0:
256,192,253866,5,8,0:0:0:0:
256,192,254024,5,8,0:0:0:0:
256,192,254340,5,0,0:0:0:0:
256,192,254418,5,0,0:0:0:0:
256,192,254497,5,8,0:0:0:0:
256,192,254576,5,0,0:0:0:0:
256,192,254655,5,8,0:0:0:0:
256,192,254813,5,8,0:0:0:0:
256,192,254971,5,0,0:0:0:0:
256,192,255129,5,8,0:0:0:0:
256,192,255287,5,8,0:0:0:0:
256,192,255366,5,0,0:0:0:0:
256,192,255445,5,0,0:0:0:0:
256,192,255524,5,0,0:0:0:0:
256,192,255603,5,8,0:0:0:0:
256,192,255918,5,8,0:0:0:0:
256,192,255997,5,8,0:0:0:0:
256,192,256076,5,0,0:0:0:0:
256,192,256234,5,8,0:0:0:0:
256,192,256392,5,8,0:0:0:0:
256,192,256550,5,8,0:0:0:0:
256,192,257024,5,0,0:0:0:0:
256,192,257182,5,8,0:0:0:0:
256,192,257656,5,0,0:0:0:0:
256,192,257813,5,0,0:0:0:0:
256,192,257971,5,0,0:0:0:0:
256,192,258050,5,0,0:0:0:0:
256,192,258129,5,8,0:0:0:0:
256,192,258287,5,8,0:0:0:0:
256,192,258445,5,0,0:0:0:0:
256,192,258603,5,8,0:0:0:0:
256,192,258682,5,8,0:0:0:0:
256,192,258761,5,0,0:0:0:0:
256,192,258919,5,0,0:0:0:0:
256,192,259077,5,12,0:0:0:0:
