osu file format v14

[General]
AudioFilename: audio.mp3
AudioLeadIn: 0
PreviewTime: 190787
Countdown: 0
SampleSet: Normal
StackLeniency: 0.7
Mode: 1
LetterboxInBreaks: 0
WidescreenStoryboard: 0

[Editor]
Bookmarks: 38971,48129,49392,102445,142866,160550,180761,241392
DistanceSpacing: 1
BeatDivisor: 4
GridSize: 32
TimelineZoom: 3.6

[Metadata]
Title:Tarot
TitleUnicode:Tarot
Artist:Aether Realm
ArtistUnicode:Æther Realm
Creator:Raiden
Version:Inner Oni
Source:osu!
Tags:fa featured artist melodic folk death metal donny burbage Tyler Gresham Heinrich Arnold Vincent Jones mappers guild mg English
BeatmapID:2155553
BeatmapSetID:1030740

[Difficulty]
HPDrainRate:5
CircleSize:2
OverallDifficulty:7
ApproachRate:10
SliderMultiplier:1.4
SliderTickRate:1

[Events]
//Background and Video events
0,0,"StockSnap_dapbzs82y01.jpg",0,-75
//Break Periods
//Storyboard Layer 0 (Background)
//Storyboard Layer 1 (Fail)
//Storyboard Layer 2 (Pass)
//Storyboard Layer 3 (Foreground)
//Storyboard Layer 4 (Overlay)
//Storyboard Sound Samples

[TimingPoints]
2656,315.789473684211,4,1,0,100,1,0
2656,-66.6666666666667,4,1,0,100,0,0
6445,-100,4,1,0,80,0,0
7708,-100,4,1,0,70,0,0
10234,-100,4,1,0,80,0,0
11498,-90.9090909090909,4,1,0,100,0,1
20340,-50,4,1,0,100,0,1
21603,-100,4,1,0,90,0,0
48524,-100,4,1,0,40,0,0
49392,-100,4,1,0,90,0,0
59498,-90.9090909090909,4,1,0,100,0,1
74024,-92.5925925925926,4,1,0,100,0,1
74103,-93.4579439252337,4,1,0,100,0,1
74182,-94.3396226415094,4,1,0,100,0,1
74261,-95.2380952380952,4,1,0,100,0,1
74340,-96.1538461538461,4,1,0,100,0,1
74419,-97.0873786407767,4,1,0,100,0,1
74498,-98.0392156862745,4,1,0,100,0,1
74577,-99.009900990099,4,1,0,100,0,1
74656,-100,4,1,0,90,0,0
99919,-100,4,1,0,70,0,0
102445,-100,4,1,0,90,0,0
112234,-133.333333333333,4,1,0,60,0,0
112550,-90.9090909090909,4,1,0,100,0,1
127077,-92.5925925925926,4,1,0,100,0,1
127156,-93.4579439252337,4,1,0,100,0,1
127234,-94.3396226415094,4,1,0,100,0,1
127313,-95.2380952380952,4,1,0,100,0,1
127392,-96.1538461538461,4,1,0,100,0,1
127471,-97.0873786407767,4,1,0,100,0,1
127550,-98.0392156862745,4,1,0,100,0,1
127629,-99.009900990099,4,1,0,100,0,1
127708,-100,4,1,0,100,0,0
147919,-100,4,1,0,80,0,0
159919,-104.166666666667,4,1,0,80,0,0
160077,-108.695652173913,4,1,0,80,0,0
160234,-113.636363636364,4,1,0,80,0,0
160392,-119.047619047619,4,1,0,80,0,0
160550,-125,4,1,0,70,0,0
170656,-111.111111111111,4,1,0,80,0,0
172471,-50,4,1,0,50,0,0
172629,-111.111111111111,4,1,0,80,0,0
177524,-50,4,1,0,50,0,0
177682,-111.111111111111,4,1,0,80,0,0
180129,-108.695652173913,4,1,0,80,0,0
180208,-107.52688172043,4,1,0,80,0,0
180287,-106.382978723404,4,1,0,80,0,0
180366,-105.263157894737,4,1,0,80,0,0
180445,-104.166666666667,4,1,0,80,0,0
180524,-103.092783505155,4,1,0,80,0,0
180603,-102.040816326531,4,1,0,80,0,0
180682,-101.010101010101,4,1,0,80,0,0
180761,-100,4,1,0,90,0,0
190234,-98.0392156862745,4,1,0,90,0,0
190392,-97.0873786407767,4,1,0,91,0,0
190471,-96.1538461538461,4,1,0,92,0,0
190550,-95.2380952380952,4,1,0,93,0,0
190629,-94.3396226415094,4,1,0,94,0,0
190708,-93.4579439252337,4,1,0,95,0,0
190787,-92.5925925925926,4,1,0,96,0,0
190866,-90.9090909090909,4,1,0,100,0,1
199708,-90.9090909090909,4,1,0,100,0,0
200971,-83.3333333333333,4,1,0,100,0,1
209813,-85.0785340314136,4,1,0,100,0,1
209919,-86.1497680583168,4,1,0,100,0,1
210024,-87.248322147651,4,1,0,100,0,1
210129,-88.37525492862,4,1,0,100,0,1
210234,-89.5316804407714,4,1,0,100,0,1
210340,-90.7187718073971,4,1,0,100,0,1
210445,-91.9377652050919,4,1,0,100,0,1
210550,-93.1899641577061,4,1,0,100,0,1
210656,-94.4767441860465,4,1,0,100,0,1
210761,-95.7995578481946,4,1,0,100,0,1
210866,-97.1599402092676,4,1,0,100,0,1
210971,-98.5595147839272,4,1,0,100,0,1
211077,-100,4,1,0,90,0,0
222129,-100,4,1,0,30,0,0
223629,-100,4,1,0,90,0,0

[HitObjects]
256,192,2656,5,4,0:0:0:0:
256,192,6445,5,8,0:0:0:0:
256,192,6761,5,0,0:0:0:0:
256,192,7077,5,8,0:0:0:0:
256,192,7392,5,8,0:0:0:0:
256,192,7708,5,0,0:0:0:0:
256,192,7866,5,8,0:0:0:0:
256,192,7945,5,8,0:0:0:0:
256,192,8024,5,0,0:0:0:0:
256,192,8182,5,8,0:0:0:0:
256,192,8261,5,8,0:0:0:0:
256,192,8340,5,0,0:0:0:0:
256,192,8419,5,8,0:0:0:0:
256,192,8498,5,8,0:0:0:0:
256,192,8577,5,8,0:0:0:0:
256,192,8656,5,0,0:0:0:0:
256,192,8813,5,8,0:0:0:0:
256,192,8892,5,8,0:0:0:0:
256,192,8971,5,0,0:0:0:0:
256,192,9050,5,0,0:0:0:0:
256,192,9129,5,8,0:0:0:0:
256,192,9208,5,0,0:0:0:0:
256,192,9287,5,0,0:0:0:0:
256,192,9445,5,8,0:0:0:0:
256,192,9524,5,8,0:0:0:0:
256,192,9603,5,0,0:0:0:0:
256,192,9761,5,8,0:0:0:0:
256,192,9919,5,8,0:0:0:0:
256,192,10077,5,0,0:0:0:0:
256,192,10234,5,8,0:0:0:0:
256,192,10550,5,0,0:0:0:0:
256,192,10866,5,8,0:0:0:0:
256,192,11182,5,8,0:0:0:0:
256,192,11498,5,8,0:0:0:0:
256,192,11577,5,0,0:0:0:0:
256,192,11656,5,8,0:0:0:0:
256,192,11734,5,8,0:0:0:0:
256,192,11813,5,0,0:0:0:0:
256,192,11892,5,0,0:0:0:0:
256,192,11971,5,8,0:0:0:0:
256,192,12050,5,8,0:0:0:0:
256,192,12129,5,0,0:0:0:0:
256,192,12208,5,0,0:0:0:0:
256,192,12287,5,8,0:0:0:0:
256,192,12366,5,8,0:0:0:0:
256,192,12445,5,8,0:0:0:0:
256,192,12524,5,0,0:0:0:0:
256,192,12603,5,8,0:0:0:0:
256,192,12682,5,0,0:0:0:0:
256,192,12761,5,8,0:0:0:0:
256,192,12840,5,8,0:0:0:0:
256,192,12919,5,0,0:0:0:0:
256,192,12998,5,0,0:0:0:0:
256,192,13077,5,0,0:0:0:0:
256,192,13156,5,0,0:0:0:0:
256,192,13234,5,8,0:0:0:0:
256,192,13313,5,8,0:0:0:0:
256,192,13392,5,0,0:0:0:0:
256,192,13471,5,0,0:0:0:0:
256,192,13550,5,8,0:0:0:0:
256,192,13629,5,0,0:0:0:0:
256,192,13708,5,8,0:0:0:0:
256,192,13787,5,8,0:0:0:0:
256,192,13866,5,0,0:0:0:0:
256,192,13945,5,0,0:0:0:0:
256,192,14024,5,8,0:0:0:0:
256,192,14103,5,8,0:0:0:0:
256,192,14182,5,8,0:0:0:0:
256,192,14261,5,0,0:0:0:0:
256,192,14340,5,8,0:0:0:0:
256,192,14419,5,0,0:0:0:0:
256,192,14498,5,8,0:0:0:0:
256,192,14577,5,8,0:0:0:0:
256,192,14656,5,0,0:0:0:0:
256,192,14734,5,0,0:0:0:0:
256,192,14813,5,8,0:0:0:0:
256,192,14892,5,0,0:0:0:0:
256,192,14971,5,8,0:0:0:0:
256,192,15050,5,0,0:0:0:0:
256,192,15129,5,0,0:0:0:0:
256,192,15208,5,0,0:0:0:0:
256,192,15287,5,8,0:0:0:0:
256,192,15366,5,8,0:0:0:0:
256,192,15445,5,0,0:0:0:0:
256,192,15524,5,0,0:0:0:0:
256,192,15603,5,8,0:0:0:0:
256,192,15682,5,8,0:0:0:0:
256,192,15761,5,0,0:0:0:0:
256,192,15840,5,8,0:0:0:0:
256,192,15919,5,8,0:0:0:0:
256,192,15998,5,8,0:0:0:0:
256,192,16077,5,0,0:0:0:0:
256,192,16156,5,0,0:0:0:0:
256,192,16234,5,8,0:0:0:0:
256,192,16313,5,0,0:0:0:0:
256,192,16392,5,8,0:0:0:0:
256,192,16471,5,8,0:0:0:0:
256,192,16550,5,8,0:0:0:0:
256,192,16629,5,0,0:0:0:0:
256,192,16708,5,0,0:0:0:0:
256,192,16787,5,0,0:0:0:0:
256,192,16866,5,8,0:0:0:0:
256,192,16945,5,0,0:0:0:0:
256,192,17024,5,8,0:0:0:0:
256,192,17103,5,8,0:0:0:0:
256,192,17182,5,8,0:0:0:0:
256,192,17261,5,0,0:0:0:0:
256,192,17340,5,8,0:0:0:0:
256,192,17419,5,8,0:0:0:0:
256,192,17498,5,0,0:0:0:0:
256,192,17577,5,0,0:0:0:0:
256,192,17656,5,0,0:0:0:0:
256,192,17734,5,0,0:0:0:0:
256,192,17813,5,8,0:0:0:0:
256,192,17919,5,0,0:0:0:0:
256,192,18024,5,0,0:0:0:0:
256,192,18129,5,8,0:0:0:0:
256,192,18234,5,8,0:0:0:0:
256,192,18340,5,0,0:0:0:0:
256,192,18445,5,8,0:0:0:0:
256,192,18550,5,8,0:0:0:0:
256,192,18656,5,0,0:0:0:0:
256,192,18761,5,8,0:0:0:0:
256,192,18866,5,8,0:0:0:0:
256,192,18971,5,8,0:0:0:0:
256,192,19077,5,4,0:0:0:0:
256,192,19392,5,0,0:0:0:0:
256,192,19708,5,12,0:0:0:0:
256,192,20024,5,0,0:0:0:0:
256,192,20103,5,8,0:0:0:0:
256,192,20182,5,0,0:0:0:0:
256,192,20261,5,8,0:0:0:0:
96,320,20340,2,0,P|384:64|160:32,1,840
256,192,21603,5,0,0:0:0:0:
256,192,21761,5,8,0:0:0:0:
256,192,21919,5,0,0:0:0:0:
256,192,21998,5,0,0:0:0:0:
256,192,22077,5,8,0:0:0:0:
256,192,22234,5,8,0:0:0:0:
256,192,22392,5,0,0:0:0:0:
256,192,22471,5,0,0:0:0:0:
256,192,22550,5,0,0:0:0:0:
256,192,22708,5,8,0:0:0:0:
256,192,22866,5,0,0:0:0:0:
256,192,23024,5,0,0:0:0:0:
256,192,23103,5,8,0:0:0:0:
256,192,23182,5,0,0:0:0:0:
256,192,23261,5,0,0:0:0:0:
256,192,23340,5,8,0:0:0:0:
256,192,23498,5,0,0:0:0:0:
256,192,23656,5,8,0:0:0:0:
256,192,23734,5,8,0:0:0:0:
256,192,23813,5,0,0:0:0:0:
256,192,23971,5,0,0:0:0:0:
256,192,24129,5,0,0:0:0:0:
256,192,24287,5,8,0:0:0:0:
256,192,24445,5,0,0:0:0:0:
256,192,24524,5,0,0:0:0:0:
256,192,24603,5,8,0:0:0:0:
256,192,24761,5,8,0:0:0:0:
256,192,24919,5,0,0:0:0:0:
256,192,25077,5,0,0:0:0:0:
256,192,25156,5,0,0:0:0:0:
256,192,25234,5,8,0:0:0:0:
256,192,25313,5,8,0:0:0:0:
256,192,25392,5,0,0:0:0:0:
256,192,25471,5,0,0:0:0:0:
256,192,25550,5,0,0:0:0:0:
256,192,25629,5,0,0:0:0:0:
256,192,25708,5,8,0:0:0:0:
256,192,25787,5,0,0:0:0:0:
256,192,25866,5,0,0:0:0:0:
256,192,25945,5,0,0:0:0:0:
256,192,26024,5,8,0:0:0:0:
256,192,26103,5,8,0:0:0:0:
256,192,26182,5,0,0:0:0:0:
256,192,26261,5,0,0:0:0:0:
256,192,26340,5,8,0:0:0:0:
256,192,26445,5,0,0:0:0:0:
256,192,26550,5,0,0:0:0:0:
256,192,26656,5,8,0:0:0:0:
256,192,26813,5,8,0:0:0:0:
256,192,26971,5,0,0:0:0:0:
256,192,27129,5,8,0:0:0:0:
256,192,27208,5,8,0:0:0:0:
256,192,27287,5,8,0:0:0:0:
256,192,27445,5,0,0:0:0:0:
256,192,27603,5,8,0:0:0:0:
256,192,27761,5,8,0:0:0:0:
256,192,27840,5,8,0:0:0:0:
256,192,27919,5,0,0:0:0:0:
256,192,28077,5,8,0:0:0:0:
256,192,28234,5,0,0:0:0:0:
256,192,28313,5,8,0:0:0:0:
256,192,28392,5,8,0:0:0:0:
256,192,28471,5,0,0:0:0:0:
256,192,28550,5,8,0:0:0:0:
256,192,28708,5,8,0:0:0:0:
256,192,28866,5,0,0:0:0:0:
256,192,29024,5,8,0:0:0:0:
256,192,29182,5,8,0:0:0:0:
256,192,29261,5,8,0:0:0:0:
256,192,29340,5,0,0:0:0:0:
256,192,29419,5,0,0:0:0:0:
256,192,29498,5,0,0:0:0:0:
256,192,29577,5,0,0:0:0:0:
256,192,29656,5,8,0:0:0:0:
256,192,29734,5,0,0:0:0:0:
256,192,29813,5,8,0:0:0:0:
256,192,29892,5,8,0:0:0:0:
256,192,29971,5,8,0:0:0:0:
256,192,30050,5,0,0:0:0:0:
256,192,30129,5,8,0:0:0:0:
256,192,30208,5,0,0:0:0:0:
256,192,30287,5,8,0:0:0:0:
256,192,30366,5,8,0:0:0:0:
256,192,30445,5,0,0:0:0:0:
256,192,30524,5,0,0:0:0:0:
256,192,30603,5,0,0:0:0:0:
256,192,30682,5,0,0:0:0:0:
256,192,30761,5,8,0:0:0:0:
256,192,30840,5,0,0:0:0:0:
256,192,30919,5,8,0:0:0:0:
256,192,30998,5,0,0:0:0:0:
256,192,31077,5,8,0:0:0:0:
256,192,31156,5,8,0:0:0:0:
256,192,31234,5,0,0:0:0:0:
256,192,31313,5,0,0:0:0:0:
256,192,31392,5,8,0:0:0:0:
256,192,31471,5,0,0:0:0:0:
256,192,31550,5,8,0:0:0:0:
256,192,31629,5,0,0:0:0:0:
256,192,31708,5,8,0:0:0:0:
256,192,31866,5,8,0:0:0:0:
256,192,32024,5,0,0:0:0:0:
256,192,32103,5,0,0:0:0:0:
256,192,32182,5,8,0:0:0:0:
256,192,32261,5,0,0:0:0:0:
256,192,32340,5,8,0:0:0:0:
256,192,32498,5,8,0:0:0:0:
256,192,32656,5,0,0:0:0:0:
256,192,32734,5,0,0:0:0:0:
256,192,32813,5,8,0:0:0:0:
256,192,32971,5,0,0:0:0:0:
256,192,33129,5,8,0:0:0:0:
256,192,33208,5,8,0:0:0:0:
256,192,33287,5,0,0:0:0:0:
256,192,33366,5,0,0:0:0:0:
256,192,33445,5,8,0:0:0:0:
256,192,33603,5,0,0:0:0:0:
256,192,33761,5,0,0:0:0:0:
256,192,33840,5,8,0:0:0:0:
256,192,33919,5,0,0:0:0:0:
256,192,33998,5,0,0:0:0:0:
256,192,34077,5,8,0:0:0:0:
256,192,34234,5,0,0:0:0:0:
256,192,34392,5,8,0:0:0:0:
256,192,34550,5,8,0:0:0:0:
256,192,34629,5,8,0:0:0:0:
256,192,34708,5,0,0:0:0:0:
256,192,34866,5,8,0:0:0:0:
256,192,35024,5,0,0:0:0:0:
256,192,35103,5,8,0:0:0:0:
256,192,35182,5,0,0:0:0:0:
256,192,35261,5,0,0:0:0:0:
256,192,35340,5,8,0:0:0:0:
256,192,35419,5,8,0:0:0:0:
256,192,35498,5,0,0:0:0:0:
256,192,35577,5,0,0:0:0:0:
256,192,35656,5,8,0:0:0:0:
256,192,35734,5,8,0:0:0:0:
256,192,35813,5,0,0:0:0:0:
256,192,35892,5,8,0:0:0:0:
256,192,35971,5,8,0:0:0:0:
256,192,36050,5,8,0:0:0:0:
256,192,36129,5,0,0:0:0:0:
256,192,36208,5,8,0:0:0:0:
256,192,36287,5,8,0:0:0:0:
256,192,36366,5,0,0:0:0:0:
256,192,36445,5,8,0:0:0:0:
256,192,36524,5,0,0:0:0:0:
256,192,36603,5,8,0:0:0:0:
256,192,36682,5,8,0:0:0:0:
256,192,36761,5,0,0:0:0:0:
256,192,36919,5,8,0:0:0:0:
256,192,36998,5,8,0:0:0:0:
256,192,37077,5,0,0:0:0:0:
256,192,37234,5,8,0:0:0:0:
256,192,37392,5,0,0:0:0:0:
256,192,37471,5,8,0:0:0:0:
256,192,37550,5,8,0:0:0:0:
256,192,37629,5,0,0:0:0:0:
256,192,37708,5,0,0:0:0:0:
256,192,37866,5,0,0:0:0:0:
256,192,38024,5,8,0:0:0:0:
256,192,38182,5,8,0:0:0:0:
256,192,38261,5,8,0:0:0:0:
256,192,38340,5,8,0:0:0:0:
256,192,38498,5,0,0:0:0:0:
256,192,38577,5,0,0:0:0:0:
256,192,38656,5,0,0:0:0:0:
256,192,38813,5,0,0:0:0:0:
256,192,38971,5,8,0:0:0:0:
256,192,39050,5,0,0:0:0:0:
256,192,39129,5,8,0:0:0:0:
256,192,39208,5,8,0:0:0:0:
256,192,39287,5,0,0:0:0:0:
256,192,39366,5,0,0:0:0:0:
256,192,39445,5,8,0:0:0:0:
256,192,39524,5,0,0:0:0:0:
256,192,39603,5,0,0:0:0:0:
256,192,39682,5,0,0:0:0:0:
256,192,39761,5,8,0:0:0:0:
256,192,39840,5,0,0:0:0:0:
256,192,39919,5,8,0:0:0:0:
256,192,39998,5,8,0:0:0:0:
256,192,40077,5,0,0:0:0:0:
256,192,40156,5,0,0:0:0:0:
256,192,40234,5,8,0:0:0:0:
256,192,40313,5,8,0:0:0:0:
256,192,40392,5,8,0:0:0:0:
256,192,40471,5,0,0:0:0:0:
256,192,40550,5,8,0:0:0:0:
256,192,40629,5,8,0:0:0:0:
256,192,40708,5,0,0:0:0:0:
256,192,40787,5,0,0:0:0:0:
256,192,40866,5,8,0:0:0:0:
256,192,40945,5,0,0:0:0:0:
256,192,41024,5,0,0:0:0:0:
256,192,41103,5,0,0:0:0:0:
256,192,41182,5,8,0:0:0:0:
256,192,41261,5,8,0:0:0:0:
256,192,41340,5,8,0:0:0:0:
256,192,41419,5,0,0:0:0:0:
256,192,41498,5,8,0:0:0:0:
256,192,41577,5,8,0:0:0:0:
256,192,41656,5,0,0:0:0:0:
256,192,41734,5,0,0:0:0:0:
256,192,41813,5,8,0:0:0:0:
256,192,41892,5,0,0:0:0:0:
256,192,41971,5,8,0:0:0:0:
256,192,42050,5,8,0:0:0:0:
256,192,42129,5,0,0:0:0:0:
256,192,42208,5,8,0:0:0:0:
256,192,42287,5,8,0:0:0:0:
256,192,42366,5,0,0:0:0:0:
256,192,42445,5,8,0:0:0:0:
256,192,42524,5,0,0:0:0:0:
256,192,42603,5,0,0:0:0:0:
256,192,42682,5,8,0:0:0:0:
256,192,42761,5,0,0:0:0:0:
256,192,42840,5,0,0:0:0:0:
256,192,42919,5,8,0:0:0:0:
256,192,42998,5,0,0:0:0:0:
256,192,43077,5,8,0:0:0:0:
256,192,43156,5,8,0:0:0:0:
256,192,43234,5,0,0:0:0:0:
256,192,43313,5,0,0:0:0:0:
256,192,43392,5,0,0:0:0:0:
256,192,43471,5,0,0:0:0:0:
256,192,43550,5,8,0:0:0:0:
256,192,43629,5,0,0:0:0:0:
256,192,43708,5,8,0:0:0:0:
256,192,43787,5,8,0:0:0:0:
256,192,43866,5,8,0:0:0:0:
256,192,43945,5,0,0:0:0:0:
256,192,44024,5,8,0:0:0:0:
256,192,44103,5,0,0:0:0:0:
256,192,44182,5,8,0:0:0:0:
256,192,44340,5,0,0:0:0:0:
256,192,44419,5,0,0:0:0:0:
256,192,44498,5,0,0:0:0:0:
256,192,44577,5,8,0:0:0:0:
256,192,44656,5,8,0:0:0:0:
256,192,44734,5,8,0:0:0:0:
256,192,44813,5,0,0:0:0:0:
256,192,44892,5,0,0:0:0:0:
256,192,44971,5,8,0:0:0:0:
256,192,45050,5,0,0:0:0:0:
256,192,45129,5,0,0:0:0:0:
256,192,45208,5,8,0:0:0:0:
256,192,45287,5,8,0:0:0:0:
256,192,45366,5,0,0:0:0:0:
256,192,45445,5,8,0:0:0:0:
256,192,45524,5,0,0:0:0:0:
256,192,45603,5,8,0:0:0:0:
256,192,45682,5,8,0:0:0:0:
256,192,45761,5,8,0:0:0:0:
256,192,45840,5,0,0:0:0:0:
256,192,45919,5,8,0:0:0:0:
256,192,45998,5,0,0:0:0:0:
256,192,46077,5,0,0:0:0:0:
256,192,46156,5,0,0:0:0:0:
256,192,46234,5,8,0:0:0:0:
256,192,46313,5,8,0:0:0:0:
256,192,46392,5,8,0:0:0:0:
256,192,46471,5,0,0:0:0:0:
256,192,46550,5,8,0:0:0:0:
256,192,46629,5,8,0:0:0:0:
256,192,46708,5,0,0:0:0:0:
256,192,46787,5,0,0:0:0:0:
256,192,46866,5,8,0:0:0:0:
256,192,46945,5,0,0:0:0:0:
256,192,47024,5,8,0:0:0:0:
256,192,47103,5,8,0:0:0:0:
256,192,47182,5,0,0:0:0:0:
256,192,47261,5,8,0:0:0:0:
256,192,47340,5,0,0:0:0:0:
256,192,47419,5,0,0:0:0:0:
256,192,47498,5,8,0:0:0:0:
256,192,47577,5,8,0:0:0:0:
256,192,47656,5,8,0:0:0:0:
256,192,47734,5,0,0:0:0:0:
256,192,47813,5,8,0:0:0:0:
256,192,47892,5,8,0:0:0:0:
256,192,47971,5,8,0:0:0:0:
256,192,48050,5,8,0:0:0:0:
256,192,48129,5,0,0:0:0:0:
256,192,48603,12,0,49234,0:0:0:0:
256,192,49392,5,0,0:0:0:0:
256,192,49471,5,0,0:0:0:0:
256,192,49550,5,0,0:0:0:0:
256,192,49629,5,8,0:0:0:0:
256,192,49708,5,0,0:0:0:0:
256,192,49787,5,0,0:0:0:0:
256,192,49866,5,8,0:0:0:0:
256,192,49945,5,8,0:0:0:0:
256,192,50024,5,0,0:0:0:0:
256,192,50103,5,0,0:0:0:0:
256,192,50182,5,8,0:0:0:0:
256,192,50261,5,8,0:0:0:0:
256,192,50340,5,8,0:0:0:0:
256,192,50419,5,0,0:0:0:0:
256,192,50498,5,8,0:0:0:0:
256,192,50577,5,0,0:0:0:0:
256,192,50656,5,8,0:0:0:0:
256,192,50734,5,8,0:0:0:0:
256,192,50813,5,0,0:0:0:0:
256,192,50892,5,8,0:0:0:0:
256,192,50971,5,0,0:0:0:0:
256,192,51050,5,0,0:0:0:0:
256,192,51129,5,8,0:0:0:0:
256,192,51208,5,8,0:0:0:0:
256,192,51287,5,8,0:0:0:0:
256,192,51366,5,0,0:0:0:0:
256,192,51445,5,8,0:0:0:0:
256,192,51524,5,0,0:0:0:0:
256,192,51603,5,8,0:0:0:0:
256,192,51682,5,8,0:0:0:0:
256,192,51761,5,0,0:0:0:0:
256,192,51840,5,0,0:0:0:0:
256,192,51919,5,8,0:0:0:0:
256,192,51998,5,0,0:0:0:0:
256,192,52077,5,0,0:0:0:0:
256,192,52156,5,0,0:0:0:0:
256,192,52234,5,8,0:0:0:0:
256,192,52313,5,0,0:0:0:0:
256,192,52392,5,8,0:0:0:0:
256,192,52471,5,8,0:0:0:0:
256,192,52550,5,0,0:0:0:0:
256,192,52629,5,8,0:0:0:0:
256,192,52708,5,0,0:0:0:0:
256,192,52787,5,0,0:0:0:0:
256,192,52866,5,8,0:0:0:0:
256,192,52945,5,0,0:0:0:0:
256,192,53024,5,8,0:0:0:0:
256,192,53103,5,0,0:0:0:0:
256,192,53182,5,8,0:0:0:0:
256,192,53261,5,8,0:0:0:0:
256,192,53340,5,0,0:0:0:0:
256,192,53419,5,8,0:0:0:0:
256,192,53498,5,8,0:0:0:0:
256,192,53577,5,0,0:0:0:0:
256,192,53656,5,8,0:0:0:0:
256,192,53734,5,8,0:0:0:0:
256,192,53813,5,0,0:0:0:0:
256,192,53892,5,8,0:0:0:0:
256,192,53971,5,0,0:0:0:0:
256,192,54050,5,0,0:0:0:0:
256,192,54129,5,8,0:0:0:0:
256,192,54208,5,8,0:0:0:0:
256,192,54287,5,0,0:0:0:0:
256,192,54366,5,0,0:0:0:0:
256,192,54445,5,8,0:0:0:0:
256,192,54524,5,0,0:0:0:0:
256,192,54603,5,0,0:0:0:0:
256,192,54682,5,8,0:0:0:0:
256,192,54761,5,0,0:0:0:0:
256,192,54840,5,0,0:0:0:0:
256,192,54919,5,8,0:0:0:0:
256,192,54998,5,8,0:0:0:0:
256,192,55077,5,0,0:0:0:0:
256,192,55156,5,0,0:0:0:0:
256,192,55234,5,8,0:0:0:0:
256,192,55313,5,8,0:0:0:0:
256,192,55392,5,8,0:0:0:0:
256,192,55471,5,0,0:0:0:0:
256,192,55550,5,8,0:0:0:0:
256,192,55629,5,0,0:0:0:0:
256,192,55708,5,8,0:0:0:0:
256,192,55787,5,8,0:0:0:0:
256,192,55866,5,0,0:0:0:0:
256,192,55945,5,8,0:0:0:0:
256,192,56024,5,0,0:0:0:0:
256,192,56103,5,0,0:0:0:0:
256,192,56182,5,8,0:0:0:0:
256,192,56261,5,8,0:0:0:0:
256,192,56340,5,8,0:0:0:0:
256,192,56419,5,0,0:0:0:0:
256,192,56498,5,8,0:0:0:0:
256,192,56577,5,0,0:0:0:0:
256,192,56656,5,8,0:0:0:0:
256,192,56734,5,8,0:0:0:0:
256,192,56813,5,8,0:0:0:0:
256,192,56892,5,0,0:0:0:0:
256,192,56971,5,8,0:0:0:0:
256,192,57287,5,0,0:0:0:0:
256,192,57603,5,8,0:0:0:0:
256,192,57919,5,8,0:0:0:0:
256,192,58234,5,8,0:0:0:0:
256,192,58313,5,8,0:0:0:0:
256,192,58392,1,0,0:0:0:0:
256,192,58471,1,0,0:0:0:0:
256,192,58550,5,8,0:0:0:0:
256,192,58629,1,0,0:0:0:0:
256,192,58708,5,8,0:0:0:0:
256,192,58787,1,0,0:0:0:0:
256,192,58866,1,0,0:0:0:0:
256,192,58945,1,0,0:0:0:0:
256,192,59024,1,8,0:0:0:0:
256,192,59103,1,8,0:0:0:0:
256,192,59182,1,0,0:0:0:0:
256,192,59261,1,0,0:0:0:0:
256,192,59340,1,8,0:0:0:0:
256,192,59498,5,0,0:0:0:0:
256,192,59577,1,0,0:0:0:0:
256,192,59656,1,0,0:0:0:0:
256,192,59734,1,8,0:0:0:0:
256,192,59813,1,8,0:0:0:0:
256,192,59892,1,8,0:0:0:0:
256,192,59971,1,0,0:0:0:0:
256,192,60050,1,0,0:0:0:0:
256,192,60129,1,8,0:0:0:0:
256,192,60208,1,8,0:0:0:0:
256,192,60287,1,0,0:0:0:0:
256,192,60366,1,0,0:0:0:0:
256,192,60445,1,8,0:0:0:0:
256,192,60524,1,0,0:0:0:0:
256,192,60603,1,0,0:0:0:0:
256,192,60682,1,0,0:0:0:0:
256,192,60761,1,8,0:0:0:0:
256,192,60840,1,8,0:0:0:0:
256,192,60919,1,8,0:0:0:0:
256,192,60998,1,0,0:0:0:0:
256,192,61077,1,8,0:0:0:0:
256,192,61156,1,8,0:0:0:0:
256,192,61234,1,0,0:0:0:0:
256,192,61313,1,8,0:0:0:0:
256,192,61392,1,8,0:0:0:0:
256,192,61471,1,0,0:0:0:0:
256,192,61550,1,8,0:0:0:0:
256,192,61629,1,0,0:0:0:0:
256,192,61708,1,8,0:0:0:0:
256,192,61787,1,8,0:0:0:0:
256,192,61866,1,0,0:0:0:0:
256,192,61945,1,0,0:0:0:0:
256,192,62024,1,8,0:0:0:0:
256,192,62103,1,8,0:0:0:0:
256,192,62182,1,8,0:0:0:0:
256,192,62261,1,0,0:0:0:0:
256,192,62340,1,8,0:0:0:0:
256,192,62419,1,0,0:0:0:0:
256,192,62498,1,8,0:0:0:0:
256,192,62577,1,8,0:0:0:0:
256,192,62656,1,0,0:0:0:0:
256,192,62734,1,0,0:0:0:0:
256,192,62813,1,8,0:0:0:0:
256,192,62892,1,0,0:0:0:0:
256,192,62971,1,8,0:0:0:0:
256,192,63050,1,8,0:0:0:0:
256,192,63129,1,0,0:0:0:0:
256,192,63208,1,8,0:0:0:0:
256,192,63287,1,8,0:0:0:0:
256,192,63366,1,0,0:0:0:0:
256,192,63445,1,0,0:0:0:0:
256,192,63524,1,0,0:0:0:0:
256,192,63603,1,8,0:0:0:0:
256,192,63682,1,0,0:0:0:0:
256,192,63761,1,8,0:0:0:0:
256,192,63840,1,8,0:0:0:0:
256,192,63919,1,0,0:0:0:0:
256,192,63998,1,8,0:0:0:0:
256,192,64077,1,8,0:0:0:0:
256,192,64156,1,0,0:0:0:0:
256,192,64234,1,8,0:0:0:0:
256,192,64313,1,8,0:0:0:0:
256,192,64392,1,8,0:0:0:0:
256,192,64471,1,0,0:0:0:0:
256,192,64550,5,8,0:0:0:0:
256,192,64629,1,0,0:0:0:0:
256,192,64708,1,0,0:0:0:0:
256,192,64787,1,8,0:0:0:0:
256,192,64866,1,8,0:0:0:0:
256,192,64945,1,8,0:0:0:0:
256,192,65024,1,0,0:0:0:0:
256,192,65103,1,0,0:0:0:0:
256,192,65182,1,8,0:0:0:0:
256,192,65261,1,8,0:0:0:0:
256,192,65340,1,0,0:0:0:0:
256,192,65419,1,0,0:0:0:0:
256,192,65498,1,8,0:0:0:0:
256,192,65577,1,0,0:0:0:0:
256,192,65656,1,0,0:0:0:0:
256,192,65734,1,0,0:0:0:0:
256,192,65813,1,8,0:0:0:0:
256,192,65892,1,8,0:0:0:0:
256,192,65971,1,8,0:0:0:0:
256,192,66050,1,0,0:0:0:0:
256,192,66129,1,8,0:0:0:0:
256,192,66208,1,8,0:0:0:0:
256,192,66287,1,0,0:0:0:0:
256,192,66366,1,8,0:0:0:0:
256,192,66445,1,8,0:0:0:0:
256,192,66524,1,0,0:0:0:0:
256,192,66603,1,8,0:0:0:0:
256,192,66682,1,0,0:0:0:0:
256,192,66761,1,8,0:0:0:0:
256,192,66840,1,8,0:0:0:0:
256,192,66919,1,0,0:0:0:0:
256,192,66998,1,0,0:0:0:0:
256,192,67077,1,8,0:0:0:0:
256,192,67156,1,8,0:0:0:0:
256,192,67234,1,8,0:0:0:0:
256,192,67313,1,0,0:0:0:0:
256,192,67392,1,8,0:0:0:0:
256,192,67471,1,0,0:0:0:0:
256,192,67550,1,8,0:0:0:0:
256,192,67629,1,8,0:0:0:0:
256,192,67708,1,8,0:0:0:0:
256,192,67787,1,0,0:0:0:0:
256,192,67866,1,8,0:0:0:0:
256,192,67945,1,0,0:0:0:0:
256,192,68024,1,8,0:0:0:0:
256,192,68103,1,8,0:0:0:0:
256,192,68182,1,8,0:0:0:0:
256,192,68261,1,0,0:0:0:0:
256,192,68340,1,8,0:0:0:0:
256,192,68419,1,8,0:0:0:0:
256,192,68498,1,0,0:0:0:0:
256,192,68577,1,0,0:0:0:0:
256,192,68656,1,8,0:0:0:0:
256,192,68734,1,0,0:0:0:0:
256,192,68813,1,8,0:0:0:0:
256,192,68892,1,8,0:0:0:0:
256,192,68971,1,0,0:0:0:0:
256,192,69050,1,8,0:0:0:0:
256,192,69129,1,8,0:0:0:0:
256,192,69208,1,0,0:0:0:0:
256,192,69287,1,8,0:0:0:0:
256,192,69366,1,8,0:0:0:0:
256,192,69445,1,8,0:0:0:0:
256,192,69524,1,0,0:0:0:0:
256,192,69603,5,8,0:0:0:0:
256,192,69682,1,0,0:0:0:0:
256,192,69761,1,0,0:0:0:0:
256,192,69840,1,8,0:0:0:0:
256,192,69919,1,8,0:0:0:0:
256,192,69998,1,8,0:0:0:0:
256,192,70077,1,0,0:0:0:0:
256,192,70156,1,0,0:0:0:0:
256,192,70234,1,8,0:0:0:0:
256,192,70313,1,8,0:0:0:0:
256,192,70392,1,0,0:0:0:0:
256,192,70471,1,0,0:0:0:0:
256,192,70550,1,8,0:0:0:0:
256,192,70629,1,0,0:0:0:0:
256,192,70708,1,0,0:0:0:0:
256,192,70787,1,0,0:0:0:0:
256,192,70866,1,8,0:0:0:0:
256,192,70945,1,8,0:0:0:0:
256,192,71024,1,8,0:0:0:0:
256,192,71103,1,0,0:0:0:0:
256,192,71182,1,8,0:0:0:0:
256,192,71261,1,8,0:0:0:0:
256,192,71340,1,0,0:0:0:0:
256,192,71419,1,8,0:0:0:0:
256,192,71498,1,8,0:0:0:0:
256,192,71577,1,0,0:0:0:0:
256,192,71656,1,8,0:0:0:0:
256,192,71734,1,0,0:0:0:0:
256,192,71813,1,8,0:0:0:0:
256,192,71892,1,8,0:0:0:0:
256,192,71971,1,0,0:0:0:0:
256,192,72050,1,0,0:0:0:0:
256,192,72129,1,8,0:0:0:0:
256,192,72208,1,8,0:0:0:0:
256,192,72287,1,8,0:0:0:0:
256,192,72366,1,0,0:0:0:0:
256,192,72445,1,8,0:0:0:0:
256,192,72524,1,0,0:0:0:0:
256,192,72603,1,8,0:0:0:0:
256,192,72682,1,8,0:0:0:0:
256,192,72761,1,0,0:0:0:0:
256,192,72840,1,0,0:0:0:0:
256,192,72919,1,8,0:0:0:0:
256,192,72998,1,0,0:0:0:0:
256,192,73077,1,8,0:0:0:0:
256,192,73156,1,8,0:0:0:0:
256,192,73234,1,0,0:0:0:0:
256,192,73313,1,8,0:0:0:0:
256,192,73392,1,8,0:0:0:0:
256,192,73471,1,0,0:0:0:0:
256,192,73550,1,0,0:0:0:0:
256,192,73629,1,0,0:0:0:0:
256,192,73708,1,8,0:0:0:0:
256,192,73787,1,0,0:0:0:0:
256,192,73866,1,8,0:0:0:0:
256,192,73945,1,8,0:0:0:0:
256,192,74024,1,0,0:0:0:0:
256,192,74103,1,8,0:0:0:0:
256,192,74182,1,8,0:0:0:0:
256,192,74261,1,0,0:0:0:0:
256,192,74340,1,8,0:0:0:0:
256,192,74419,1,8,0:0:0:0:
256,192,74498,1,8,0:0:0:0:
256,192,74577,1,0,0:0:0:0:
256,192,74656,5,8,0:0:0:0:
256,192,74813,5,0,0:0:0:0:
256,192,74892,5,0,0:0:0:0:
256,192,75129,5,0,0:0:0:0:
256,192,75208,5,0,0:0:0:0:
256,192,75287,5,8,0:0:0:0:
256,192,75445,5,0,0:0:0:0:
256,192,75761,5,0,0:0:0:0:
256,192,75919,5,8,0:0:0:0:
256,192,76234,5,0,0:0:0:0:
256,192,76392,5,0,0:0:0:0:
256,192,76550,5,8,0:0:0:0:
256,192,76866,5,8,0:0:0:0:
256,192,77024,5,8,0:0:0:0:
256,192,77182,5,0,0:0:0:0:
256,192,77340,5,8,0:0:0:0:
256,192,77656,5,0,0:0:0:0:
256,192,77734,5,0,0:0:0:0:
256,192,77813,5,8,0:0:0:0:
256,192,77971,5,0,0:0:0:0:
256,192,78050,5,8,0:0:0:0:
256,192,78208,5,0,0:0:0:0:
256,192,78287,5,8,0:0:0:0:
256,192,78445,5,8,0:0:0:0:
256,192,78761,1,0,0:0:0:0:
256,192,78919,1,0,0:0:0:0:
256,192,79077,1,8,0:0:0:0:
256,192,79156,1,8,0:0:0:0:
256,192,79234,1,8,0:0:0:0:
256,192,79313,1,8,0:0:0:0:
256,192,79392,1,0,0:0:0:0:
256,192,79471,1,0,0:0:0:0:
256,192,79550,1,0,0:0:0:0:
256,192,79629,1,0,0:0:0:0:
256,192,79708,5,8,0:0:0:0:
256,192,79787,1,0,0:0:0:0:
256,192,79866,1,0,0:0:0:0:
256,192,79945,1,0,0:0:0:0:
256,192,80024,1,8,0:0:0:0:
256,192,80103,5,0,0:0:0:0:
256,192,80182,5,8,0:0:0:0:
256,192,80261,1,0,0:0:0:0:
256,192,80340,5,8,0:0:0:0:
256,192,80419,1,8,0:0:0:0:
256,192,80498,5,8,0:0:0:0:
256,192,80577,5,0,0:0:0:0:
256,192,80656,1,8,0:0:0:0:
256,192,80734,1,0,0:0:0:0:
256,192,80813,5,8,0:0:0:0:
256,192,80892,1,0,0:0:0:0:
256,192,80971,5,8,0:0:0:0:
256,192,81050,1,8,0:0:0:0:
256,192,81129,1,8,0:0:0:0:
256,192,81208,5,8,0:0:0:0:
256,192,81287,5,0,0:0:0:0:
256,192,81366,5,0,0:0:0:0:
256,192,81445,5,8,0:0:0:0:
256,192,81524,1,8,0:0:0:0:
256,192,81603,5,0,0:0:0:0:
256,192,81682,1,0,0:0:0:0:
256,192,81761,5,8,0:0:0:0:
256,192,81840,5,8,0:0:0:0:
256,192,81919,5,0,0:0:0:0:
256,192,81998,1,8,0:0:0:0:
256,192,82077,5,8,0:0:0:0:
256,192,82156,1,0,0:0:0:0:
256,192,82234,1,8,0:0:0:0:
256,192,82313,1,0,0:0:0:0:
256,192,82392,5,8,0:0:0:0:
256,192,82471,1,8,0:0:0:0:
256,192,82550,5,0,0:0:0:0:
256,192,82629,5,0,0:0:0:0:
256,192,82708,5,8,0:0:0:0:
256,192,82787,1,0,0:0:0:0:
256,192,82866,5,8,0:0:0:0:
256,192,82945,1,8,0:0:0:0:
256,192,83024,1,8,0:0:0:0:
256,192,83103,1,8,0:0:0:0:
256,192,83182,1,0,0:0:0:0:
256,192,83261,5,0,0:0:0:0:
256,192,83340,5,8,0:0:0:0:
256,192,83419,5,0,0:0:0:0:
256,192,83498,5,8,0:0:0:0:
256,192,83577,5,0,0:0:0:0:
256,192,83656,5,0,0:0:0:0:
256,192,83734,5,0,0:0:0:0:
256,192,83813,5,8,0:0:0:0:
256,192,83892,5,8,0:0:0:0:
256,192,83971,5,8,0:0:0:0:
256,192,84050,5,0,0:0:0:0:
256,192,84129,5,8,0:0:0:0:
256,192,84208,5,8,0:0:0:0:
256,192,84287,5,0,0:0:0:0:
256,192,84366,5,0,0:0:0:0:
256,192,84445,5,8,0:0:0:0:
256,192,84550,1,0,0:0:0:0:
256,192,84656,1,0,0:0:0:0:
256,192,84761,5,8,0:0:0:0:
256,192,84840,1,0,0:0:0:0:
256,192,84919,1,0,0:0:0:0:
256,192,84998,1,0,0:0:0:0:
256,192,85077,1,8,0:0:0:0:
256,192,85156,5,0,0:0:0:0:
256,192,85234,5,8,0:0:0:0:
256,192,85313,1,0,0:0:0:0:
256,192,85392,5,8,0:0:0:0:
256,192,85471,1,8,0:0:0:0:
256,192,85550,5,8,0:0:0:0:
256,192,85629,5,0,0:0:0:0:
256,192,85708,1,8,0:0:0:0:
256,192,85787,1,0,0:0:0:0:
256,192,85866,5,8,0:0:0:0:
256,192,85945,1,0,0:0:0:0:
256,192,86024,5,8,0:0:0:0:
256,192,86103,1,8,0:0:0:0:
256,192,86182,1,8,0:0:0:0:
256,192,86261,5,8,0:0:0:0:
256,192,86340,5,0,0:0:0:0:
256,192,86419,5,0,0:0:0:0:
256,192,86498,5,8,0:0:0:0:
256,192,86577,1,8,0:0:0:0:
256,192,86656,5,0,0:0:0:0:
256,192,86734,1,0,0:0:0:0:
256,192,86813,5,8,0:0:0:0:
256,192,86892,5,8,0:0:0:0:
256,192,86971,5,0,0:0:0:0:
256,192,87050,1,8,0:0:0:0:
256,192,87129,5,8,0:0:0:0:
256,192,87208,1,0,0:0:0:0:
256,192,87287,1,8,0:0:0:0:
256,192,87366,1,8,0:0:0:0:
256,192,87445,1,0,0:0:0:0:
256,192,87524,1,0,0:0:0:0:
256,192,87603,1,0,0:0:0:0:
256,192,87682,1,0,0:0:0:0:
256,192,87761,1,0,0:0:0:0:
256,192,87840,1,0,0:0:0:0:
256,192,87919,1,8,0:0:0:0:
256,192,87998,1,8,0:0:0:0:
256,192,88077,1,0,0:0:0:0:
256,192,88156,1,0,0:0:0:0:
256,192,88234,1,8,0:0:0:0:
256,192,88313,1,0,0:0:0:0:
256,192,88392,1,8,0:0:0:0:
256,192,88471,1,8,0:0:0:0:
256,192,88550,1,0,0:0:0:0:
256,192,88629,1,0,0:0:0:0:
256,192,88708,1,0,0:0:0:0:
256,192,88787,1,0,0:0:0:0:
256,192,88866,1,0,0:0:0:0:
256,192,88945,1,0,0:0:0:0:
256,192,89024,1,0,0:0:0:0:
256,192,89103,1,0,0:0:0:0:
256,192,89182,1,8,0:0:0:0:
256,192,89261,1,8,0:0:0:0:
256,192,89340,1,0,0:0:0:0:
256,192,89419,1,0,0:0:0:0:
256,192,89498,1,8,0:0:0:0:
256,192,89577,1,0,0:0:0:0:
256,192,89656,1,8,0:0:0:0:
256,192,89813,5,8,0:0:0:0:
256,192,89892,1,0,0:0:0:0:
256,192,89971,1,0,0:0:0:0:
256,192,90050,1,0,0:0:0:0:
256,192,90129,1,8,0:0:0:0:
256,192,90208,5,0,0:0:0:0:
256,192,90287,5,8,0:0:0:0:
256,192,90366,1,0,0:0:0:0:
256,192,90445,5,8,0:0:0:0:
256,192,90524,1,8,0:0:0:0:
256,192,90603,5,8,0:0:0:0:
256,192,90682,5,0,0:0:0:0:
256,192,90761,1,8,0:0:0:0:
256,192,90840,1,0,0:0:0:0:
256,192,90919,5,8,0:0:0:0:
256,192,90998,1,0,0:0:0:0:
256,192,91077,5,8,0:0:0:0:
256,192,91156,1,8,0:0:0:0:
256,192,91234,1,8,0:0:0:0:
256,192,91313,5,8,0:0:0:0:
256,192,91392,5,0,0:0:0:0:
256,192,91471,5,0,0:0:0:0:
256,192,91550,5,8,0:0:0:0:
256,192,91629,1,8,0:0:0:0:
256,192,91708,5,0,0:0:0:0:
256,192,91787,1,0,0:0:0:0:
256,192,91866,5,8,0:0:0:0:
256,192,91945,5,8,0:0:0:0:
256,192,92024,5,0,0:0:0:0:
256,192,92103,1,8,0:0:0:0:
256,192,92182,5,8,0:0:0:0:
256,192,92261,1,0,0:0:0:0:
256,192,92340,1,8,0:0:0:0:
256,192,92419,1,0,0:0:0:0:
256,192,92498,5,8,0:0:0:0:
256,192,92577,1,8,0:0:0:0:
256,192,92656,5,0,0:0:0:0:
256,192,92734,5,0,0:0:0:0:
256,192,92813,5,8,0:0:0:0:
256,192,92892,1,0,0:0:0:0:
256,192,92971,5,8,0:0:0:0:
256,192,93050,1,8,0:0:0:0:
256,192,93129,1,8,0:0:0:0:
256,192,93208,1,8,0:0:0:0:
256,192,93287,1,0,0:0:0:0:
256,192,93366,5,0,0:0:0:0:
256,192,93445,5,8,0:0:0:0:
256,192,93524,5,0,0:0:0:0:
256,192,93603,5,8,0:0:0:0:
256,192,93682,5,0,0:0:0:0:
256,192,93761,5,0,0:0:0:0:
256,192,93840,5,0,0:0:0:0:
256,192,93919,5,8,0:0:0:0:
256,192,93998,5,8,0:0:0:0:
256,192,94077,5,8,0:0:0:0:
256,192,94156,5,0,0:0:0:0:
256,192,94234,5,8,0:0:0:0:
256,192,94313,5,8,0:0:0:0:
256,192,94392,5,0,0:0:0:0:
256,192,94471,5,0,0:0:0:0:
256,192,94550,5,8,0:0:0:0:
256,192,94629,1,8,0:0:0:0:
256,192,94708,1,0,0:0:0:0:
256,192,94787,1,0,0:0:0:0:
256,192,94866,1,8,0:0:0:0:
256,192,94945,1,0,0:0:0:0:
256,192,95024,1,0,0:0:0:0:
256,192,95103,1,8,0:0:0:0:
256,192,95182,1,0,0:0:0:0:
256,192,95261,1,0,0:0:0:0:
256,192,95340,1,8,0:0:0:0:
256,192,95419,1,0,0:0:0:0:
256,192,95498,1,8,0:0:0:0:
256,192,95577,1,8,0:0:0:0:
256,192,95656,1,0,0:0:0:0:
256,192,95734,1,8,0:0:0:0:
256,192,95813,1,0,0:0:0:0:
256,192,95892,1,0,0:0:0:0:
256,192,95971,1,8,0:0:0:0:
256,192,96050,1,0,0:0:0:0:
256,192,96129,1,8,0:0:0:0:
256,192,96208,1,0,0:0:0:0:
256,192,96287,1,0,0:0:0:0:
256,192,96366,1,0,0:0:0:0:
256,192,96445,1,8,0:0:0:0:
256,192,96524,1,8,0:0:0:0:
256,192,96603,1,8,0:0:0:0:
256,192,96682,1,8,0:0:0:0:
256,192,96761,1,0,0:0:0:0:
256,192,96840,1,8,0:0:0:0:
256,192,96919,1,8,0:0:0:0:
256,192,96998,1,8,0:0:0:0:
256,192,97077,1,0,0:0:0:0:
256,192,97156,1,8,0:0:0:0:
256,192,97234,1,0,0:0:0:0:
256,192,97313,1,0,0:0:0:0:
256,192,97392,5,8,0:0:0:0:
256,192,97471,1,0,0:0:0:0:
256,192,97550,1,0,0:0:0:0:
256,192,97629,1,0,0:0:0:0:
256,192,97708,5,8,0:0:0:0:
256,192,97787,1,0,0:0:0:0:
256,192,97866,5,8,0:0:0:0:
256,192,97945,1,0,0:0:0:0:
256,192,98024,1,0,0:0:0:0:
256,192,98103,1,0,0:0:0:0:
256,192,98182,5,8,0:0:0:0:
256,192,98261,1,0,0:0:0:0:
256,192,98340,5,8,0:0:0:0:
256,192,98656,5,8,0:0:0:0:
256,192,98734,1,0,0:0:0:0:
256,192,98813,1,0,0:0:0:0:
256,192,98892,1,0,0:0:0:0:
256,192,98971,1,8,0:0:0:0:
256,192,99050,1,0,0:0:0:0:
256,192,99129,1,8,0:0:0:0:
256,192,99208,1,0,0:0:0:0:
256,192,99287,1,0,0:0:0:0:
256,192,99366,1,0,0:0:0:0:
256,192,99445,1,8,0:0:0:0:
256,192,99524,1,0,0:0:0:0:
256,192,99603,1,8,0:0:0:0:
256,192,99919,5,8,0:0:0:0:
256,192,99998,1,0,0:0:0:0:
256,192,100077,1,0,0:0:0:0:
256,192,100156,1,0,0:0:0:0:
256,192,100234,1,8,0:0:0:0:
256,192,100313,1,0,0:0:0:0:
256,192,100392,1,8,0:0:0:0:
256,192,100471,1,0,0:0:0:0:
256,192,100550,1,0,0:0:0:0:
256,192,100629,1,0,0:0:0:0:
256,192,100708,1,8,0:0:0:0:
256,192,100787,1,0,0:0:0:0:
256,192,100866,1,8,0:0:0:0:
256,192,101182,5,8,0:0:0:0:
256,192,101261,1,8,0:0:0:0:
256,192,101340,1,0,0:0:0:0:
256,192,101419,1,0,0:0:0:0:
256,192,101498,1,0,0:0:0:0:
256,192,101577,1,0,0:0:0:0:
256,192,101656,1,8,0:0:0:0:
256,192,101734,1,8,0:0:0:0:
256,192,101813,1,0,0:0:0:0:
256,192,101892,1,0,0:0:0:0:
256,192,101971,1,0,0:0:0:0:
256,192,102050,1,0,0:0:0:0:
256,192,102129,1,0,0:0:0:0:
256,192,102208,1,0,0:0:0:0:
256,192,102287,1,0,0:0:0:0:
256,192,102366,1,0,0:0:0:0:
256,192,102445,5,8,0:0:0:0:
256,192,102524,1,8,0:0:0:0:
256,192,102603,1,0,0:0:0:0:
256,192,102682,1,0,0:0:0:0:
256,192,102761,1,0,0:0:0:0:
256,192,102919,1,0,0:0:0:0:
256,192,102998,1,0,0:0:0:0:
256,192,103077,1,8,0:0:0:0:
256,192,103156,1,8,0:0:0:0:
256,192,103234,1,8,0:0:0:0:
256,192,103313,1,8,0:0:0:0:
256,192,103392,1,0,0:0:0:0:
256,192,103550,1,8,0:0:0:0:
256,192,103629,1,8,0:0:0:0:
256,192,103708,1,0,0:0:0:0:
256,192,103787,1,0,0:0:0:0:
256,192,103866,1,0,0:0:0:0:
256,192,104024,1,8,0:0:0:0:
256,192,104182,1,0,0:0:0:0:
256,192,104261,1,0,0:0:0:0:
256,192,104340,1,8,0:0:0:0:
256,192,104419,1,0,0:0:0:0:
256,192,104498,1,8,0:0:0:0:
256,192,104577,1,0,0:0:0:0:
256,192,104656,1,8,0:0:0:0:
256,192,104813,1,0,0:0:0:0:
256,192,104892,1,0,0:0:0:0:
256,192,104971,1,8,0:0:0:0:
256,192,105050,1,8,0:0:0:0:
256,192,105129,1,8,0:0:0:0:
256,192,105208,1,8,0:0:0:0:
256,192,105287,1,0,0:0:0:0:
256,192,105445,1,0,0:0:0:0:
256,192,105524,1,8,0:0:0:0:
256,192,105603,1,8,0:0:0:0:
256,192,105682,1,8,0:0:0:0:
256,192,105761,1,8,0:0:0:0:
256,192,105840,1,8,0:0:0:0:
256,192,105919,1,0,0:0:0:0:
256,192,106077,1,0,0:0:0:0:
256,192,106234,5,12,0:0:0:0:
256,192,106471,5,12,0:0:0:0:
256,192,106708,5,12,0:0:0:0:
256,192,106945,5,0,0:0:0:0:
256,192,107103,5,0,0:0:0:0:
256,192,107261,5,0,0:0:0:0:
256,192,107419,5,0,0:0:0:0:
256,192,107498,5,0,0:0:0:0:
256,192,107577,1,8,0:0:0:0:
256,192,107656,1,0,0:0:0:0:
256,192,107734,1,0,0:0:0:0:
256,192,107813,1,8,0:0:0:0:
256,192,107892,1,0,0:0:0:0:
256,192,107971,1,8,0:0:0:0:
256,192,108050,1,0,0:0:0:0:
256,192,108129,1,8,0:0:0:0:
256,192,108208,1,8,0:0:0:0:
256,192,108287,1,8,0:0:0:0:
256,192,108366,1,0,0:0:0:0:
256,192,108445,1,0,0:0:0:0:
256,192,108524,1,8,0:0:0:0:
256,192,108603,1,8,0:0:0:0:
256,192,108682,1,8,0:0:0:0:
256,192,108761,1,0,0:0:0:0:
256,192,108840,1,0,0:0:0:0:
256,192,108919,1,8,0:0:0:0:
256,192,108998,1,0,0:0:0:0:
256,192,109077,1,8,0:0:0:0:
256,192,109156,1,8,0:0:0:0:
256,192,109234,1,0,0:0:0:0:
256,192,109313,1,0,0:0:0:0:
256,192,109392,1,8,0:0:0:0:
256,192,109471,1,8,0:0:0:0:
256,192,109550,1,8,0:0:0:0:
256,192,109629,1,0,0:0:0:0:
256,192,109708,1,8,0:0:0:0:
256,192,109787,1,0,0:0:0:0:
256,192,109866,1,8,0:0:0:0:
256,192,110024,5,12,0:0:0:0:
256,192,110261,1,4,0:0:0:0:
256,192,110498,1,12,0:0:0:0:
256,192,110656,1,12,0:0:0:0:
256,192,110892,1,4,0:0:0:0:
256,192,111129,1,12,0:0:0:0:
256,192,111287,1,4,0:0:0:0:
256,192,112234,5,8,0:0:0:0:
256,192,112287,1,8,0:0:0:0:
256,192,112550,5,0,0:0:0:0:
256,192,112629,1,0,0:0:0:0:
256,192,112708,1,0,0:0:0:0:
256,192,112787,1,8,0:0:0:0:
256,192,112866,1,8,0:0:0:0:
256,192,112945,1,8,0:0:0:0:
256,192,113024,1,0,0:0:0:0:
256,192,113103,1,0,0:0:0:0:
256,192,113182,1,8,0:0:0:0:
256,192,113261,1,8,0:0:0:0:
256,192,113340,1,0,0:0:0:0:
256,192,113419,1,0,0:0:0:0:
256,192,113498,1,8,0:0:0:0:
256,192,113577,1,0,0:0:0:0:
256,192,113656,1,0,0:0:0:0:
256,192,113734,1,0,0:0:0:0:
256,192,113813,1,8,0:0:0:0:
256,192,113892,1,8,0:0:0:0:
256,192,113971,1,8,0:0:0:0:
256,192,114050,1,0,0:0:0:0:
256,192,114129,1,8,0:0:0:0:
256,192,114208,1,8,0:0:0:0:
256,192,114287,1,0,0:0:0:0:
256,192,114366,1,8,0:0:0:0:
256,192,114445,1,8,0:0:0:0:
256,192,114524,1,0,0:0:0:0:
256,192,114603,1,8,0:0:0:0:
256,192,114682,1,0,0:0:0:0:
256,192,114761,1,8,0:0:0:0:
256,192,114840,1,8,0:0:0:0:
256,192,114919,1,0,0:0:0:0:
256,192,114998,1,0,0:0:0:0:
256,192,115077,1,8,0:0:0:0:
256,192,115156,1,8,0:0:0:0:
256,192,115234,1,8,0:0:0:0:
256,192,115313,1,0,0:0:0:0:
256,192,115392,1,8,0:0:0:0:
256,192,115471,1,0,0:0:0:0:
256,192,115550,1,8,0:0:0:0:
256,192,115629,1,8,0:0:0:0:
256,192,115708,1,0,0:0:0:0:
256,192,115787,1,0,0:0:0:0:
256,192,115866,1,8,0:0:0:0:
256,192,115945,1,0,0:0:0:0:
256,192,116024,1,8,0:0:0:0:
256,192,116103,1,8,0:0:0:0:
256,192,116182,1,0,0:0:0:0:
256,192,116261,1,8,0:0:0:0:
256,192,116340,1,8,0:0:0:0:
256,192,116419,1,0,0:0:0:0:
256,192,116498,1,0,0:0:0:0:
256,192,116577,1,0,0:0:0:0:
256,192,116656,1,8,0:0:0:0:
256,192,116734,1,0,0:0:0:0:
256,192,116813,1,8,0:0:0:0:
256,192,116892,1,8,0:0:0:0:
256,192,116971,1,0,0:0:0:0:
256,192,117050,1,8,0:0:0:0:
256,192,117129,1,8,0:0:0:0:
256,192,117208,1,0,0:0:0:0:
256,192,117287,1,8,0:0:0:0:
256,192,117366,1,8,0:0:0:0:
256,192,117445,1,8,0:0:0:0:
256,192,117524,1,0,0:0:0:0:
256,192,117603,5,8,0:0:0:0:
256,192,117682,1,0,0:0:0:0:
256,192,117761,1,0,0:0:0:0:
256,192,117840,1,8,0:0:0:0:
256,192,117919,1,8,0:0:0:0:
256,192,117998,1,8,0:0:0:0:
256,192,118077,1,0,0:0:0:0:
256,192,118156,1,0,0:0:0:0:
256,192,118234,1,8,0:0:0:0:
256,192,118313,1,8,0:0:0:0:
256,192,118392,1,0,0:0:0:0:
256,192,118471,1,0,0:0:0:0:
256,192,118550,1,8,0:0:0:0:
256,192,118629,1,0,0:0:0:0:
256,192,118708,1,0,0:0:0:0:
256,192,118787,1,0,0:0:0:0:
256,192,118866,1,8,0:0:0:0:
256,192,118945,1,8,0:0:0:0:
256,192,119024,1,8,0:0:0:0:
256,192,119103,1,0,0:0:0:0:
256,192,119182,1,8,0:0:0:0:
256,192,119261,1,8,0:0:0:0:
256,192,119340,1,0,0:0:0:0:
256,192,119419,1,8,0:0:0:0:
256,192,119498,1,8,0:0:0:0:
256,192,119577,1,0,0:0:0:0:
256,192,119656,1,8,0:0:0:0:
256,192,119734,1,0,0:0:0:0:
256,192,119813,1,8,0:0:0:0:
256,192,119892,1,8,0:0:0:0:
256,192,119971,1,0,0:0:0:0:
256,192,120050,1,0,0:0:0:0:
256,192,120129,1,8,0:0:0:0:
256,192,120208,1,8,0:0:0:0:
256,192,120287,1,8,0:0:0:0:
256,192,120366,1,0,0:0:0:0:
256,192,120445,1,8,0:0:0:0:
256,192,120524,1,0,0:0:0:0:
256,192,120603,1,8,0:0:0:0:
256,192,120682,1,8,0:0:0:0:
256,192,120761,1,8,0:0:0:0:
256,192,120840,1,0,0:0:0:0:
256,192,120919,1,8,0:0:0:0:
256,192,120998,1,0,0:0:0:0:
256,192,121077,1,8,0:0:0:0:
256,192,121156,1,8,0:0:0:0:
256,192,121234,1,8,0:0:0:0:
256,192,121313,1,0,0:0:0:0:
256,192,121392,1,8,0:0:0:0:
256,192,121471,1,8,0:0:0:0:
256,192,121550,1,0,0:0:0:0:
256,192,121629,1,0,0:0:0:0:
256,192,121708,1,8,0:0:0:0:
256,192,121787,1,0,0:0:0:0:
256,192,121866,1,8,0:0:0:0:
256,192,121945,1,8,0:0:0:0:
256,192,122024,1,0,0:0:0:0:
256,192,122103,1,8,0:0:0:0:
256,192,122182,1,8,0:0:0:0:
256,192,122261,1,0,0:0:0:0:
256,192,122340,1,8,0:0:0:0:
256,192,122419,1,8,0:0:0:0:
256,192,122498,1,8,0:0:0:0:
256,192,122577,1,0,0:0:0:0:
256,192,122656,5,8,0:0:0:0:
256,192,122734,1,0,0:0:0:0:
256,192,122813,1,0,0:0:0:0:
256,192,122892,1,8,0:0:0:0:
256,192,122971,1,8,0:0:0:0:
256,192,123050,1,8,0:0:0:0:
256,192,123129,1,0,0:0:0:0:
256,192,123208,1,0,0:0:0:0:
256,192,123287,1,8,0:0:0:0:
256,192,123366,1,8,0:0:0:0:
256,192,123445,1,0,0:0:0:0:
256,192,123524,1,0,0:0:0:0:
256,192,123603,1,8,0:0:0:0:
256,192,123682,1,0,0:0:0:0:
256,192,123761,1,0,0:0:0:0:
256,192,123840,1,0,0:0:0:0:
256,192,123919,1,8,0:0:0:0:
256,192,123998,1,8,0:0:0:0:
256,192,124077,1,8,0:0:0:0:
256,192,124156,1,0,0:0:0:0:
256,192,124234,1,8,0:0:0:0:
256,192,124313,1,8,0:0:0:0:
256,192,124392,1,0,0:0:0:0:
256,192,124471,1,8,0:0:0:0:
256,192,124550,1,8,0:0:0:0:
256,192,124629,1,0,0:0:0:0:
256,192,124708,1,8,0:0:0:0:
256,192,124787,1,0,0:0:0:0:
256,192,124866,1,8,0:0:0:0:
256,192,124945,1,8,0:0:0:0:
256,192,125024,1,0,0:0:0:0:
256,192,125103,1,0,0:0:0:0:
256,192,125182,1,8,0:0:0:0:
256,192,125261,1,8,0:0:0:0:
256,192,125340,1,8,0:0:0:0:
256,192,125419,1,0,0:0:0:0:
256,192,125498,1,8,0:0:0:0:
256,192,125577,1,0,0:0:0:0:
256,192,125656,1,8,0:0:0:0:
256,192,125734,1,8,0:0:0:0:
256,192,125813,1,0,0:0:0:0:
256,192,125892,1,0,0:0:0:0:
256,192,125971,1,8,0:0:0:0:
256,192,126050,1,0,0:0:0:0:
256,192,126129,1,8,0:0:0:0:
256,192,126208,1,8,0:0:0:0:
256,192,126287,1,0,0:0:0:0:
256,192,126366,1,8,0:0:0:0:
256,192,126445,1,8,0:0:0:0:
256,192,126524,1,0,0:0:0:0:
256,192,126603,1,0,0:0:0:0:
256,192,126682,1,0,0:0:0:0:
256,192,126761,1,8,0:0:0:0:
256,192,126840,1,0,0:0:0:0:
256,192,126919,1,8,0:0:0:0:
256,192,126998,1,8,0:0:0:0:
256,192,127077,1,0,0:0:0:0:
256,192,127156,1,8,0:0:0:0:
256,192,127234,1,8,0:0:0:0:
256,192,127313,1,0,0:0:0:0:
256,192,127392,1,8,0:0:0:0:
256,192,127471,1,8,0:0:0:0:
256,192,127550,1,8,0:0:0:0:
256,192,127629,1,0,0:0:0:0:
256,192,127708,5,8,0:0:0:0:
256,192,128182,5,0,0:0:0:0:
256,192,128340,5,8,0:0:0:0:
256,192,128498,5,0,0:0:0:0:
256,192,128734,1,0,0:0:0:0:
256,192,128813,5,0,0:0:0:0:
256,192,129129,1,8,0:0:0:0:
256,192,129287,5,0,0:0:0:0:
256,192,129445,5,0,0:0:0:0:
256,192,129524,1,0,0:0:0:0:
256,192,129603,5,8,0:0:0:0:
256,192,129919,5,8,0:0:0:0:
256,192,130077,5,8,0:0:0:0:
256,192,130234,5,0,0:0:0:0:
256,192,130471,5,8,0:0:0:0:
256,192,130708,5,0,0:0:0:0:
256,192,130787,5,0,0:0:0:0:
256,192,130866,5,8,0:0:0:0:
256,192,131024,5,0,0:0:0:0:
256,192,131103,5,8,0:0:0:0:
256,192,131261,5,0,0:0:0:0:
256,192,131340,5,8,0:0:0:0:
256,192,131498,5,8,0:0:0:0:
256,192,131813,5,0,0:0:0:0:
256,192,131971,5,8,0:0:0:0:
256,192,132050,5,0,0:0:0:0:
256,192,132129,5,8,0:0:0:0:
256,192,132208,5,8,0:0:0:0:
256,192,132287,5,8,0:0:0:0:
256,192,132366,5,8,0:0:0:0:
256,192,132445,5,0,0:0:0:0:
256,192,132524,5,0,0:0:0:0:
256,192,132603,5,0,0:0:0:0:
256,192,132682,5,0,0:0:0:0:
256,192,132761,5,8,0:0:0:0:
256,192,133077,1,0,0:0:0:0:
256,192,133234,1,8,0:0:0:0:
256,192,133313,1,8,0:0:0:0:
256,192,133392,1,8,0:0:0:0:
256,192,133550,1,0,0:0:0:0:
256,192,133708,1,8,0:0:0:0:
256,192,133787,1,0,0:0:0:0:
256,192,133866,1,0,0:0:0:0:
256,192,134024,1,8,0:0:0:0:
256,192,134103,1,8,0:0:0:0:
256,192,134182,1,0,0:0:0:0:
256,192,134340,1,0,0:0:0:0:
256,192,134498,1,8,0:0:0:0:
256,192,134577,1,8,0:0:0:0:
256,192,134656,1,8,0:0:0:0:
256,192,134813,1,8,0:0:0:0:
256,192,134971,1,0,0:0:0:0:
256,192,135050,1,0,0:0:0:0:
256,192,135129,1,8,0:0:0:0:
256,192,135287,5,8,0:0:0:0:
256,192,135366,1,0,0:0:0:0:
256,192,135445,1,0,0:0:0:0:
256,192,135524,1,8,0:0:0:0:
256,192,135603,1,0,0:0:0:0:
256,192,135682,1,0,0:0:0:0:
256,192,135761,1,8,0:0:0:0:
256,192,135840,1,0,0:0:0:0:
256,192,135919,1,8,0:0:0:0:
256,192,135998,1,8,0:0:0:0:
256,192,136077,1,0,0:0:0:0:
256,192,136156,1,8,0:0:0:0:
256,192,136234,1,8,0:0:0:0:
256,192,136313,1,0,0:0:0:0:
256,192,136392,1,8,0:0:0:0:
256,192,136471,1,0,0:0:0:0:
256,192,136550,1,8,0:0:0:0:
256,192,136708,5,0,0:0:0:0:
256,192,136787,1,8,0:0:0:0:
256,192,136866,1,0,0:0:0:0:
256,192,136945,1,0,0:0:0:0:
256,192,137024,1,8,0:0:0:0:
256,192,137103,1,0,0:0:0:0:
256,192,137182,1,8,0:0:0:0:
256,192,137340,5,0,0:0:0:0:
256,192,137419,1,8,0:0:0:0:
256,192,137498,1,8,0:0:0:0:
256,192,137577,1,0,0:0:0:0:
256,192,137656,1,8,0:0:0:0:
256,192,137734,1,0,0:0:0:0:
256,192,137813,5,8,0:0:0:0:
256,192,137971,1,8,0:0:0:0:
256,192,138129,1,0,0:0:0:0:
256,192,138287,1,8,0:0:0:0:
256,192,138445,1,8,0:0:0:0:
256,192,138603,1,0,0:0:0:0:
256,192,138682,1,8,0:0:0:0:
256,192,138840,1,0,0:0:0:0:
256,192,138919,1,0,0:0:0:0:
256,192,139077,5,8,0:0:0:0:
256,192,139156,1,0,0:0:0:0:
256,192,139234,1,8,0:0:0:0:
256,192,139313,1,8,0:0:0:0:
256,192,139392,1,8,0:0:0:0:
256,192,139471,1,0,0:0:0:0:
256,192,139550,1,8,0:0:0:0:
256,192,139629,1,0,0:0:0:0:
256,192,139708,1,0,0:0:0:0:
256,192,139787,1,0,0:0:0:0:
256,192,139866,1,8,0:0:0:0:
256,192,139945,1,8,0:0:0:0:
256,192,140024,1,0,0:0:0:0:
256,192,140103,1,0,0:0:0:0:
256,192,140182,1,8,0:0:0:0:
256,192,140261,1,0,0:0:0:0:
256,192,140340,5,8,0:0:0:0:
256,192,140419,1,8,0:0:0:0:
256,192,140498,1,0,0:0:0:0:
256,192,140577,1,8,0:0:0:0:
256,192,140656,1,0,0:0:0:0:
256,192,140734,1,0,0:0:0:0:
256,192,140813,1,0,0:0:0:0:
256,192,140892,1,0,0:0:0:0:
256,192,140971,1,8,0:0:0:0:
256,192,141050,1,8,0:0:0:0:
256,192,141129,1,0,0:0:0:0:
256,192,141208,1,8,0:0:0:0:
256,192,141287,1,0,0:0:0:0:
256,192,141366,1,0,0:0:0:0:
256,192,141445,1,8,0:0:0:0:
256,192,141524,1,0,0:0:0:0:
256,192,141603,5,8,0:0:0:0:
256,192,141682,1,8,0:0:0:0:
256,192,141761,1,0,0:0:0:0:
256,192,141840,1,0,0:0:0:0:
256,192,141919,1,8,0:0:0:0:
256,192,141998,1,8,0:0:0:0:
256,192,142077,1,8,0:0:0:0:
256,192,142156,1,0,0:0:0:0:
256,192,142234,1,8,0:0:0:0:
256,192,142313,1,8,0:0:0:0:
256,192,142392,1,8,0:0:0:0:
256,192,142471,1,8,0:0:0:0:
256,192,142550,1,0,0:0:0:0:
256,192,142603,1,0,0:0:0:0:
256,192,142656,1,0,0:0:0:0:
256,192,142708,1,8,0:0:0:0:
256,192,142761,1,8,0:0:0:0:
256,192,142813,1,8,0:0:0:0:
256,192,142866,5,0,0:0:0:0:
256,192,143024,1,0,0:0:0:0:
256,192,143182,1,8,0:0:0:0:
256,192,143340,1,0,0:0:0:0:
256,192,143498,1,8,0:0:0:0:
256,192,143656,1,8,0:0:0:0:
256,192,143813,1,8,0:0:0:0:
256,192,143892,1,0,0:0:0:0:
256,192,143971,1,0,0:0:0:0:
256,192,144050,1,0,0:0:0:0:
256,192,144129,1,8,0:0:0:0:
256,192,144208,1,0,0:0:0:0:
256,192,144287,1,8,0:0:0:0:
256,192,144366,1,0,0:0:0:0:
256,192,144445,1,8,0:0:0:0:
256,192,144524,1,8,0:0:0:0:
256,192,144603,1,0,0:0:0:0:
256,192,144682,1,8,0:0:0:0:
256,192,144761,1,8,0:0:0:0:
256,192,144840,1,8,0:0:0:0:
256,192,144919,1,0,0:0:0:0:
256,192,144998,1,0,0:0:0:0:
256,192,145077,1,8,0:0:0:0:
256,192,145156,1,8,0:0:0:0:
256,192,145234,1,0,0:0:0:0:
256,192,145313,1,0,0:0:0:0:
256,192,145392,5,8,0:0:0:0:
256,192,145550,1,8,0:0:0:0:
256,192,145603,1,8,0:0:0:0:
256,192,145656,1,8,0:0:0:0:
256,192,145708,1,0,0:0:0:0:
256,192,145787,1,8,0:0:0:0:
256,192,145866,1,8,0:0:0:0:
256,192,145945,1,0,0:0:0:0:
256,192,146024,1,8,0:0:0:0:
256,192,146103,1,0,0:0:0:0:
256,192,146182,1,0,0:0:0:0:
256,192,146261,1,0,0:0:0:0:
256,192,146340,1,8,0:0:0:0:
256,192,146419,1,8,0:0:0:0:
256,192,146498,1,8,0:0:0:0:
256,192,146577,1,0,0:0:0:0:
256,192,146656,1,8,0:0:0:0:
256,192,146734,1,8,0:0:0:0:
256,192,146813,1,8,0:0:0:0:
256,192,146892,1,0,0:0:0:0:
256,192,146971,1,8,0:0:0:0:
256,192,147050,1,8,0:0:0:0:
256,192,147129,1,0,0:0:0:0:
256,192,147208,1,0,0:0:0:0:
256,192,147287,1,8,0:0:0:0:
256,192,147366,1,8,0:0:0:0:
256,192,147445,1,0,0:0:0:0:
256,192,147524,1,0,0:0:0:0:
256,192,147603,1,8,0:0:0:0:
256,192,147682,1,8,0:0:0:0:
256,192,147761,1,0,0:0:0:0:
256,192,147919,5,8,0:0:0:0:
256,192,147998,1,0,0:0:0:0:
256,192,148077,1,8,0:0:0:0:
256,192,148156,1,8,0:0:0:0:
256,192,148234,1,0,0:0:0:0:
256,192,148313,1,8,0:0:0:0:
256,192,148392,1,0,0:0:0:0:
256,192,148471,1,0,0:0:0:0:
256,192,148550,1,8,0:0:0:0:
256,192,148629,1,0,0:0:0:0:
256,192,148708,1,8,0:0:0:0:
256,192,148787,1,8,0:0:0:0:
256,192,148866,1,0,0:0:0:0:
256,192,148945,1,8,0:0:0:0:
256,192,149024,1,0,0:0:0:0:
256,192,149103,1,0,0:0:0:0:
256,192,149182,1,8,0:0:0:0:
256,192,149234,1,8,0:0:0:0:
256,192,149287,1,8,0:0:0:0:
256,192,149340,5,0,0:0:0:0:
256,192,149419,1,0,0:0:0:0:
256,192,149498,1,8,0:0:0:0:
256,192,149577,1,0,0:0:0:0:
256,192,149656,1,0,0:0:0:0:
256,192,149734,1,8,0:0:0:0:
256,192,149813,1,0,0:0:0:0:
256,192,149892,1,8,0:0:0:0:
256,192,149971,1,8,0:0:0:0:
256,192,150050,1,0,0:0:0:0:
256,192,150129,1,8,0:0:0:0:
256,192,150182,1,8,0:0:0:0:
256,192,150234,1,8,0:0:0:0:
256,192,150287,1,0,0:0:0:0:
256,192,150366,1,0,0:0:0:0:
256,192,150445,1,8,0:0:0:0:
256,192,150656,5,8,0:0:0:0:
256,192,150761,1,8,0:0:0:0:
256,192,150866,1,8,0:0:0:0:
256,192,150971,1,0,0:0:0:0:
256,192,151182,1,8,0:0:0:0:
256,192,151287,1,0,0:0:0:0:
256,192,151392,1,8,0:0:0:0:
256,192,151550,1,8,0:0:0:0:
256,192,151656,1,0,0:0:0:0:
256,192,151761,1,8,0:0:0:0:
256,192,152182,1,0,0:0:0:0:
256,192,152234,1,0,0:0:0:0:
256,192,152287,1,0,0:0:0:0:
256,192,152340,1,8,0:0:0:0:
256,192,152419,1,8,0:0:0:0:
256,192,152498,1,0,0:0:0:0:
256,192,152577,1,8,0:0:0:0:
256,192,152656,1,0,0:0:0:0:
256,192,152734,1,0,0:0:0:0:
256,192,152813,1,8,0:0:0:0:
256,192,152892,1,8,0:0:0:0:
256,192,152971,5,8,0:0:0:0:
256,192,153129,1,0,0:0:0:0:
256,192,153287,1,8,0:0:0:0:
256,192,153366,1,8,0:0:0:0:
256,192,153445,1,0,0:0:0:0:
256,192,153524,1,0,0:0:0:0:
256,192,153603,1,8,0:0:0:0:
256,192,153682,1,0,0:0:0:0:
256,192,153761,1,8,0:0:0:0:
256,192,153840,1,8,0:0:0:0:
256,192,153919,1,8,0:0:0:0:
256,192,153998,1,0,0:0:0:0:
256,192,154077,1,8,0:0:0:0:
256,192,154156,1,0,0:0:0:0:
256,192,154234,5,8,0:0:0:0:
256,192,154313,1,8,0:0:0:0:
256,192,154392,1,0,0:0:0:0:
256,192,154550,1,8,0:0:0:0:
256,192,154629,1,0,0:0:0:0:
256,192,154708,1,0,0:0:0:0:
256,192,154866,1,8,0:0:0:0:
256,192,154945,1,0,0:0:0:0:
256,192,155024,1,8,0:0:0:0:
256,192,155103,1,0,0:0:0:0:
256,192,155182,1,8,0:0:0:0:
256,192,155340,1,0,0:0:0:0:
256,192,155498,5,8,0:0:0:0:
256,192,155813,1,0,0:0:0:0:
256,192,155971,1,8,0:0:0:0:
256,192,156129,1,8,0:0:0:0:
256,192,156287,1,0,0:0:0:0:
256,192,156445,1,8,0:0:0:0:
256,192,156603,1,8,0:0:0:0:
256,192,156919,1,8,0:0:0:0:
256,192,157077,1,0,0:0:0:0:
256,192,157234,1,8,0:0:0:0:
256,192,157392,1,8,0:0:0:0:
256,192,157471,1,8,0:0:0:0:
256,192,157550,1,0,0:0:0:0:
256,192,157708,1,8,0:0:0:0:
256,192,157787,1,8,0:0:0:0:
256,192,157866,1,0,0:0:0:0:
256,192,157945,1,0,0:0:0:0:
256,192,158024,5,8,0:0:0:0:
256,192,158129,1,0,0:0:0:0:
256,192,158234,1,0,0:0:0:0:
256,192,158340,1,8,0:0:0:0:
256,192,158445,1,8,0:0:0:0:
256,192,158550,1,0,0:0:0:0:
256,192,158656,1,0,0:0:0:0:
256,192,158761,1,8,0:0:0:0:
256,192,158866,1,8,0:0:0:0:
256,192,158971,1,8,0:0:0:0:
256,192,159077,1,8,0:0:0:0:
256,192,159182,5,0,0:0:0:0:
256,192,159234,1,0,0:0:0:0:
256,192,159287,1,0,0:0:0:0:
256,192,159445,1,0,0:0:0:0:
256,192,159603,1,8,0:0:0:0:
256,192,159761,1,0,0:0:0:0:
256,192,159919,1,0,0:0:0:0:
256,192,160077,1,0,0:0:0:0:
256,192,160234,1,8,0:0:0:0:
256,192,160392,1,8,0:0:0:0:
256,192,160550,5,0,0:0:0:0:
256,192,160866,5,0,0:0:0:0:
256,192,161498,5,0,0:0:0:0:
256,192,162129,5,0,0:0:0:0:
256,192,162761,5,0,0:0:0:0:
256,192,163392,5,0,0:0:0:0:
256,192,164024,5,0,0:0:0:0:
256,192,164656,5,0,0:0:0:0:
256,192,165287,5,0,0:0:0:0:
256,192,165498,5,0,0:0:0:0:
256,192,165550,5,0,0:0:0:0:
256,192,165603,5,0,0:0:0:0:
256,192,165919,5,0,0:0:0:0:
256,192,166077,5,8,0:0:0:0:
256,192,166234,5,0,0:0:0:0:
256,192,166550,5,0,0:0:0:0:
256,192,166708,5,8,0:0:0:0:
256,192,166866,5,0,0:0:0:0:
256,192,167182,5,0,0:0:0:0:
256,192,167340,5,8,0:0:0:0:
256,192,167498,5,0,0:0:0:0:
256,192,167656,5,8,0:0:0:0:
256,192,167813,5,8,0:0:0:0:
256,192,167971,5,8,0:0:0:0:
256,192,168129,5,0,0:0:0:0:
256,192,168287,5,0,0:0:0:0:
256,192,168445,5,8,0:0:0:0:
256,192,168603,5,0,0:0:0:0:
256,192,168761,5,8,0:0:0:0:
256,192,168840,5,8,0:0:0:0:
256,192,168919,5,8,0:0:0:0:
256,192,168998,5,8,0:0:0:0:
256,192,169077,5,0,0:0:0:0:
256,192,169156,5,0,0:0:0:0:
256,192,169234,5,8,0:0:0:0:
256,192,169392,5,0,0:0:0:0:
256,192,170656,5,4,0:0:0:0:
256,192,170971,5,0,0:0:0:0:
256,192,171129,5,8,0:0:0:0:
256,192,171287,5,0,0:0:0:0:
256,192,171603,5,0,0:0:0:0:
256,192,171761,5,8,0:0:0:0:
256,192,171919,5,0,0:0:0:0:
256,192,172234,5,0,0:0:0:0:
256,192,172392,5,0,0:0:0:0:
256,192,172550,5,12,0:0:0:0:
256,192,173182,5,0,0:0:0:0:
256,192,173498,5,0,0:0:0:0:
256,192,173656,5,8,0:0:0:0:
256,192,173813,5,0,0:0:0:0:
256,192,173971,5,0,0:0:0:0:
256,192,174129,5,8,0:0:0:0:
256,192,174287,5,8,0:0:0:0:
256,192,174445,5,0,0:0:0:0:
256,192,174603,5,8,0:0:0:0:
256,192,174761,5,8,0:0:0:0:
256,192,174919,5,8,0:0:0:0:
256,192,175077,5,0,0:0:0:0:
256,192,175234,5,0,0:0:0:0:
256,192,175392,5,8,0:0:0:0:
256,192,175471,5,8,0:0:0:0:
256,192,175550,5,0,0:0:0:0:
256,192,175629,5,0,0:0:0:0:
256,192,175708,5,0,0:0:0:0:
256,192,175866,5,0,0:0:0:0:
256,192,176024,5,8,0:0:0:0:
256,192,176182,5,0,0:0:0:0:
256,192,176340,5,8,0:0:0:0:
256,192,176498,5,0,0:0:0:0:
256,192,176656,5,8,0:0:0:0:
256,192,176813,5,8,0:0:0:0:
256,192,176971,5,0,0:0:0:0:
256,192,177129,5,8,0:0:0:0:
256,192,177287,5,0,0:0:0:0:
256,192,177445,5,0,0:0:0:0:
256,192,177603,5,12,0:0:0:0:
256,192,178234,5,0,0:0:0:0:
256,192,178392,1,0,0:0:0:0:
256,192,178550,1,8,0:0:0:0:
256,192,178708,1,8,0:0:0:0:
256,192,178866,1,0,0:0:0:0:
256,192,179024,1,8,0:0:0:0:
256,192,179182,1,0,0:0:0:0:
256,192,179340,1,8,0:0:0:0:
256,192,179498,1,8,0:0:0:0:
256,192,179656,1,0,0:0:0:0:
256,192,179813,1,8,0:0:0:0:
256,192,179971,1,0,0:0:0:0:
256,192,180024,1,0,0:0:0:0:
256,192,180077,1,0,0:0:0:0:
256,192,180129,5,8,0:0:0:0:
256,192,180208,1,8,0:0:0:0:
256,192,180287,1,8,0:0:0:0:
256,192,180366,1,8,0:0:0:0:
256,192,180445,1,0,0:0:0:0:
256,192,180524,1,0,0:0:0:0:
256,192,180603,1,0,0:0:0:0:
256,192,180682,1,0,0:0:0:0:
256,192,180761,5,8,0:0:0:0:
256,192,180919,5,0,0:0:0:0:
256,192,180998,5,0,0:0:0:0:
256,192,181077,5,0,0:0:0:0:
256,192,181234,5,8,0:0:0:0:
256,192,181392,5,8,0:0:0:0:
256,192,181471,5,8,0:0:0:0:
256,192,181550,5,0,0:0:0:0:
256,192,181708,5,0,0:0:0:0:
256,192,181866,5,8,0:0:0:0:
256,192,181945,5,8,0:0:0:0:
256,192,182024,5,8,0:0:0:0:
256,192,182182,5,0,0:0:0:0:
256,192,182340,5,8,0:0:0:0:
256,192,182498,5,8,0:0:0:0:
256,192,182577,5,0,0:0:0:0:
256,192,182656,5,8,0:0:0:0:
256,192,182734,5,8,0:0:0:0:
256,192,182813,5,0,0:0:0:0:
256,192,182971,5,8,0:0:0:0:
256,192,183129,5,0,0:0:0:0:
256,192,183287,5,8,0:0:0:0:
256,192,183366,5,0,0:0:0:0:
256,192,183445,5,0,0:0:0:0:
256,192,183603,5,0,0:0:0:0:
256,192,183761,5,8,0:0:0:0:
256,192,183840,5,8,0:0:0:0:
256,192,183919,5,8,0:0:0:0:
256,192,184077,5,0,0:0:0:0:
256,192,184234,5,8,0:0:0:0:
256,192,184313,5,8,0:0:0:0:
256,192,184392,5,0,0:0:0:0:
256,192,184471,5,8,0:0:0:0:
256,192,184550,5,8,0:0:0:0:
256,192,184708,5,0,0:0:0:0:
256,192,184866,5,8,0:0:0:0:
256,192,184945,5,0,0:0:0:0:
256,192,185024,5,8,0:0:0:0:
256,192,185182,5,0,0:0:0:0:
256,192,185340,1,0,0:0:0:0:
256,192,185419,1,0,0:0:0:0:
256,192,185498,1,8,0:0:0:0:
256,192,185656,1,8,0:0:0:0:
256,192,185813,5,8,0:0:0:0:
256,192,185971,5,0,0:0:0:0:
256,192,186050,5,0,0:0:0:0:
256,192,186129,5,0,0:0:0:0:
256,192,186287,5,8,0:0:0:0:
256,192,186445,5,8,0:0:0:0:
256,192,186524,5,8,0:0:0:0:
256,192,186603,5,0,0:0:0:0:
256,192,186761,5,0,0:0:0:0:
256,192,186919,5,8,0:0:0:0:
256,192,186998,5,8,0:0:0:0:
256,192,187077,5,8,0:0:0:0:
256,192,187234,5,0,0:0:0:0:
256,192,187392,5,8,0:0:0:0:
256,192,187550,5,8,0:0:0:0:
256,192,187629,5,0,0:0:0:0:
256,192,187708,5,8,0:0:0:0:
256,192,187787,5,0,0:0:0:0:
256,192,187866,5,0,0:0:0:0:
256,192,188024,5,8,0:0:0:0:
256,192,188182,5,0,0:0:0:0:
256,192,188340,5,8,0:0:0:0:
256,192,188419,5,0,0:0:0:0:
256,192,188498,5,0,0:0:0:0:
256,192,188656,5,8,0:0:0:0:
256,192,188813,5,0,0:0:0:0:
256,192,188892,5,0,0:0:0:0:
256,192,188971,5,8,0:0:0:0:
256,192,189129,5,0,0:0:0:0:
256,192,189287,5,8,0:0:0:0:
256,192,189366,5,8,0:0:0:0:
256,192,189445,5,0,0:0:0:0:
256,192,189524,5,0,0:0:0:0:
256,192,189603,5,8,0:0:0:0:
256,192,189761,5,0,0:0:0:0:
256,192,189919,5,8,0:0:0:0:
256,192,189998,5,0,0:0:0:0:
256,192,190077,5,8,0:0:0:0:
256,192,190234,5,0,0:0:0:0:
256,192,190392,5,0,0:0:0:0:
256,192,190471,5,0,0:0:0:0:
256,192,190550,5,8,0:0:0:0:
256,192,190629,5,8,0:0:0:0:
256,192,190708,5,8,0:0:0:0:
256,192,190787,5,8,0:0:0:0:
256,192,190866,5,0,0:0:0:0:
256,192,190945,1,0,0:0:0:0:
256,192,191024,5,0,0:0:0:0:
256,192,191103,5,0,0:0:0:0:
256,192,191182,5,0,0:0:0:0:
256,192,191261,1,0,0:0:0:0:
256,192,191340,5,8,0:0:0:0:
256,192,191419,1,0,0:0:0:0:
256,192,191498,5,8,0:0:0:0:
256,192,191577,5,8,0:0:0:0:
256,192,191656,5,0,0:0:0:0:
256,192,191734,1,0,0:0:0:0:
256,192,191813,5,0,0:0:0:0:
256,192,191892,1,0,0:0:0:0:
256,192,191971,5,8,0:0:0:0:
256,192,192050,1,0,0:0:0:0:
256,192,192129,5,8,0:0:0:0:
256,192,192208,1,8,0:0:0:0:
256,192,192287,5,8,0:0:0:0:
256,192,192366,1,8,0:0:0:0:
256,192,192445,5,0,0:0:0:0:
256,192,192524,1,0,0:0:0:0:
256,192,192603,5,8,0:0:0:0:
256,192,192682,5,0,0:0:0:0:
256,192,192761,5,8,0:0:0:0:
256,192,192840,5,8,0:0:0:0:
256,192,192919,5,0,0:0:0:0:
256,192,192998,1,0,0:0:0:0:
256,192,193077,5,8,0:0:0:0:
256,192,193156,1,0,0:0:0:0:
256,192,193234,5,0,0:0:0:0:
256,192,193313,1,0,0:0:0:0:
256,192,193392,5,8,0:0:0:0:
256,192,193471,1,8,0:0:0:0:
256,192,193550,5,0,0:0:0:0:
256,192,193629,1,0,0:0:0:0:
256,192,193708,5,0,0:0:0:0:
256,192,193787,1,0,0:0:0:0:
256,192,193866,5,8,0:0:0:0:
256,192,193945,1,0,0:0:0:0:
256,192,194024,5,8,0:0:0:0:
256,192,194103,1,8,0:0:0:0:
256,192,194182,5,0,0:0:0:0:
256,192,194261,1,0,0:0:0:0:
256,192,194340,5,8,0:0:0:0:
256,192,194419,5,8,0:0:0:0:
256,192,194498,5,0,0:0:0:0:
256,192,194577,5,8,0:0:0:0:
256,192,194656,5,8,0:0:0:0:
256,192,194734,1,8,0:0:0:0:
256,192,194813,5,0,0:0:0:0:
256,192,194892,1,0,0:0:0:0:
256,192,194971,5,8,0:0:0:0:
256,192,195050,5,0,0:0:0:0:
256,192,195129,5,8,0:0:0:0:
256,192,195208,1,8,0:0:0:0:
256,192,195287,5,0,0:0:0:0:
256,192,195366,1,0,0:0:0:0:
256,192,195445,1,0,0:0:0:0:
256,192,195524,1,0,0:0:0:0:
256,192,195603,1,8,0:0:0:0:
256,192,195682,1,0,0:0:0:0:
256,192,195761,1,8,0:0:0:0:
256,192,195840,1,0,0:0:0:0:
256,192,195919,5,8,0:0:0:0:
256,192,195998,1,8,0:0:0:0:
256,192,196077,5,0,0:0:0:0:
256,192,196156,5,0,0:0:0:0:
256,192,196234,5,0,0:0:0:0:
256,192,196313,1,0,0:0:0:0:
256,192,196392,5,8,0:0:0:0:
256,192,196471,1,0,0:0:0:0:
256,192,196550,5,8,0:0:0:0:
256,192,196629,5,8,0:0:0:0:
256,192,196708,5,8,0:0:0:0:
256,192,196787,1,8,0:0:0:0:
256,192,196866,5,0,0:0:0:0:
256,192,196945,1,0,0:0:0:0:
256,192,197024,5,8,0:0:0:0:
256,192,197103,5,0,0:0:0:0:
256,192,197182,5,8,0:0:0:0:
256,192,197261,1,8,0:0:0:0:
256,192,197340,5,8,0:0:0:0:
256,192,197419,1,8,0:0:0:0:
256,192,197498,5,0,0:0:0:0:
256,192,197577,1,0,0:0:0:0:
256,192,197656,5,8,0:0:0:0:
256,192,197734,5,0,0:0:0:0:
256,192,197813,5,8,0:0:0:0:
256,192,197892,5,0,0:0:0:0:
256,192,197971,5,0,0:0:0:0:
256,192,198050,1,0,0:0:0:0:
256,192,198129,5,8,0:0:0:0:
256,192,198208,1,0,0:0:0:0:
256,192,198287,5,8,0:0:0:0:
256,192,198366,1,0,0:0:0:0:
256,192,198445,5,8,0:0:0:0:
256,192,198524,5,0,0:0:0:0:
256,192,198603,5,0,0:0:0:0:
256,192,198682,1,0,0:0:0:0:
256,192,198761,5,8,0:0:0:0:
256,192,198840,1,0,0:0:0:0:
256,192,198919,5,8,0:0:0:0:
256,192,198998,5,0,0:0:0:0:
256,192,199077,5,8,0:0:0:0:
256,192,199156,1,8,0:0:0:0:
256,192,199234,5,0,0:0:0:0:
256,192,199313,1,8,0:0:0:0:
256,192,199392,5,8,0:0:0:0:
256,192,199471,5,8,0:0:0:0:
256,192,199550,5,0,0:0:0:0:
256,192,199629,5,0,0:0:0:0:
256,192,199708,5,8,0:0:0:0:
256,192,199761,1,8,0:0:0:0:
256,192,199813,1,8,0:0:0:0:
256,192,199866,5,0,0:0:0:0:
256,192,199945,1,0,0:0:0:0:
256,192,200024,5,8,0:0:0:0:
256,192,200103,5,8,0:0:0:0:
256,192,200182,5,8,0:0:0:0:
256,192,200261,1,8,0:0:0:0:
256,192,200340,1,0,0:0:0:0:
256,192,200419,1,0,0:0:0:0:
256,192,200498,1,0,0:0:0:0:
256,192,200577,1,0,0:0:0:0:
256,192,200656,1,8,0:0:0:0:
256,192,200971,5,8,0:0:0:0:
256,192,201024,1,8,0:0:0:0:
256,192,201077,1,8,0:0:0:0:
256,192,201129,1,0,0:0:0:0:
256,192,201208,1,0,0:0:0:0:
256,192,201287,1,8,0:0:0:0:
256,192,201366,1,0,0:0:0:0:
256,192,201445,5,8,0:0:0:0:
256,192,201498,1,8,0:0:0:0:
256,192,201550,1,8,0:0:0:0:
256,192,201603,1,0,0:0:0:0:
256,192,201682,1,0,0:0:0:0:
256,192,201761,1,8,0:0:0:0:
256,192,201840,1,0,0:0:0:0:
256,192,201919,5,8,0:0:0:0:
256,192,201971,1,0,0:0:0:0:
256,192,202024,1,0,0:0:0:0:
256,192,202077,1,8,0:0:0:0:
256,192,202156,1,0,0:0:0:0:
256,192,202234,1,8,0:0:0:0:
256,192,202313,1,0,0:0:0:0:
256,192,202392,5,8,0:0:0:0:
256,192,202445,1,8,0:0:0:0:
256,192,202498,1,8,0:0:0:0:
256,192,202550,1,0,0:0:0:0:
256,192,202629,1,0,0:0:0:0:
256,192,202708,1,8,0:0:0:0:
256,192,202787,1,0,0:0:0:0:
256,192,202866,1,8,0:0:0:0:
256,192,202945,1,8,0:0:0:0:
256,192,203024,1,8,0:0:0:0:
256,192,203103,1,8,0:0:0:0:
256,192,203182,1,0,0:0:0:0:
256,192,203261,1,0,0:0:0:0:
256,192,203340,1,8,0:0:0:0:
256,192,203419,1,8,0:0:0:0:
256,192,203498,5,8,0:0:0:0:
256,192,203577,1,8,0:0:0:0:
256,192,203656,1,0,0:0:0:0:
256,192,203734,1,8,0:0:0:0:
256,192,203813,1,8,0:0:0:0:
256,192,203892,1,0,0:0:0:0:
256,192,203971,1,8,0:0:0:0:
256,192,204050,1,0,0:0:0:0:
256,192,204129,1,8,0:0:0:0:
256,192,204208,1,8,0:0:0:0:
256,192,204287,1,0,0:0:0:0:
256,192,204366,1,0,0:0:0:0:
256,192,204445,1,8,0:0:0:0:
256,192,204524,1,8,0:0:0:0:
256,192,204603,1,8,0:0:0:0:
256,192,204682,1,0,0:0:0:0:
256,192,204761,5,8,0:0:0:0:
256,192,204840,1,0,0:0:0:0:
256,192,204919,1,8,0:0:0:0:
256,192,204998,1,8,0:0:0:0:
256,192,205077,1,0,0:0:0:0:
256,192,205156,1,0,0:0:0:0:
256,192,205234,1,8,0:0:0:0:
256,192,205313,1,0,0:0:0:0:
256,192,205392,1,8,0:0:0:0:
256,192,205471,1,8,0:0:0:0:
256,192,205550,1,0,0:0:0:0:
256,192,205629,1,8,0:0:0:0:
256,192,205708,1,0,0:0:0:0:
256,192,205787,1,8,0:0:0:0:
256,192,205866,1,8,0:0:0:0:
256,192,205945,1,8,0:0:0:0:
256,192,206024,5,0,0:0:0:0:
256,192,206103,1,0,0:0:0:0:
256,192,206182,1,0,0:0:0:0:
256,192,206261,1,0,0:0:0:0:
256,192,206340,1,0,0:0:0:0:
256,192,206419,1,0,0:0:0:0:
256,192,206498,1,0,0:0:0:0:
256,192,206577,1,0,0:0:0:0:
256,192,206656,1,8,0:0:0:0:
256,192,206734,1,8,0:0:0:0:
256,192,206813,1,8,0:0:0:0:
256,192,206892,1,8,0:0:0:0:
256,192,206971,1,0,0:0:0:0:
256,192,207050,1,0,0:0:0:0:
256,192,207129,1,8,0:0:0:0:
256,192,207208,1,8,0:0:0:0:
256,192,207287,5,0,0:0:0:0:
256,192,207366,1,0,0:0:0:0:
256,192,207445,1,8,0:0:0:0:
256,192,207524,1,0,0:0:0:0:
256,192,207603,1,8,0:0:0:0:
256,192,207682,1,0,0:0:0:0:
256,192,207761,1,8,0:0:0:0:
256,192,207840,1,8,0:0:0:0:
256,192,207919,1,8,0:0:0:0:
256,192,207998,1,0,0:0:0:0:
256,192,208077,1,8,0:0:0:0:
256,192,208156,1,0,0:0:0:0:
256,192,208234,1,8,0:0:0:0:
256,192,208313,1,8,0:0:0:0:
256,192,208392,1,0,0:0:0:0:
256,192,208471,1,0,0:0:0:0:
256,192,208550,5,8,0:0:0:0:
256,192,208656,1,0,0:0:0:0:
256,192,208761,1,0,0:0:0:0:
256,192,208866,1,8,0:0:0:0:
256,192,208971,1,8,0:0:0:0:
256,192,209077,1,0,0:0:0:0:
256,192,209182,1,8,0:0:0:0:
256,192,209287,1,0,0:0:0:0:
256,192,209392,1,8,0:0:0:0:
256,192,209498,1,8,0:0:0:0:
256,192,209603,1,0,0:0:0:0:
256,192,209708,1,8,0:0:0:0:
256,192,209813,5,0,0:0:0:0:
256,192,209919,1,0,0:0:0:0:
256,192,210024,1,0,0:0:0:0:
256,192,210129,1,8,0:0:0:0:
256,192,210234,1,8,0:0:0:0:
256,192,210340,1,0,0:0:0:0:
256,192,210445,1,8,0:0:0:0:
256,192,210550,1,0,0:0:0:0:
256,192,210656,1,8,0:0:0:0:
256,192,210761,1,8,0:0:0:0:
256,192,210866,1,0,0:0:0:0:
256,192,210971,1,8,0:0:0:0:
256,192,211077,5,4,0:0:0:0:
256,192,211392,5,0,0:0:0:0:
256,192,211550,5,8,0:0:0:0:
256,192,211708,5,0,0:0:0:0:
256,192,212024,5,0,0:0:0:0:
256,192,212182,5,8,0:0:0:0:
256,192,212340,5,0,0:0:0:0:
256,192,212498,1,0,0:0:0:0:
256,192,212656,1,0,0:0:0:0:
256,192,212813,5,8,0:0:0:0:
256,192,212892,5,8,0:0:0:0:
256,192,212971,5,0,0:0:0:0:
256,192,213129,5,8,0:0:0:0:
256,192,213287,5,0,0:0:0:0:
256,192,213445,5,8,0:0:0:0:
256,192,213603,5,0,0:0:0:0:
256,192,213682,5,0,0:0:0:0:
256,192,213761,5,0,0:0:0:0:
256,192,213919,1,0,0:0:0:0:
256,192,214077,5,8,0:0:0:0:
256,192,214156,5,8,0:0:0:0:
256,192,214234,5,0,0:0:0:0:
256,192,214392,5,8,0:0:0:0:
256,192,214550,5,8,0:0:0:0:
256,192,214708,5,0,0:0:0:0:
256,192,214866,5,0,0:0:0:0:
256,192,215024,5,0,0:0:0:0:
256,192,215182,5,8,0:0:0:0:
256,192,215340,5,8,0:0:0:0:
256,192,215498,5,0,0:0:0:0:
256,192,215656,5,0,0:0:0:0:
256,192,215813,5,0,0:0:0:0:
256,192,215971,5,8,0:0:0:0:
256,192,216129,5,0,0:0:0:0:
256,192,216208,5,0,0:0:0:0:
256,192,216287,5,0,0:0:0:0:
256,192,216445,5,0,0:0:0:0:
256,192,216603,5,8,0:0:0:0:
256,192,216761,5,0,0:0:0:0:
256,192,217077,5,8,0:0:0:0:
256,192,217234,5,8,0:0:0:0:
256,192,217392,5,0,0:0:0:0:
256,192,217550,5,0,0:0:0:0:
256,192,217708,5,0,0:0:0:0:
256,192,217866,5,8,0:0:0:0:
256,192,217945,5,8,0:0:0:0:
256,192,218024,5,8,0:0:0:0:
256,192,218182,5,0,0:0:0:0:
256,192,218340,5,8,0:0:0:0:
256,192,218498,5,8,0:0:0:0:
256,192,218656,5,0,0:0:0:0:
256,192,218734,5,0,0:0:0:0:
256,192,218813,5,0,0:0:0:0:
256,192,218971,5,0,0:0:0:0:
256,192,219129,5,8,0:0:0:0:
256,192,219208,5,8,0:0:0:0:
256,192,219287,5,0,0:0:0:0:
256,192,219445,5,0,0:0:0:0:
256,192,219603,5,8,0:0:0:0:
256,192,219761,5,8,0:0:0:0:
256,192,219919,5,0,0:0:0:0:
256,192,220077,5,0,0:0:0:0:
256,192,220234,5,8,0:0:0:0:
256,192,220392,5,0,0:0:0:0:
256,192,220471,5,0,0:0:0:0:
256,192,220550,5,8,0:0:0:0:
256,192,220629,5,8,0:0:0:0:
256,192,220708,5,0,0:0:0:0:
256,192,220787,5,0,0:0:0:0:
256,192,220866,5,8,0:0:0:0:
256,192,220945,5,8,0:0:0:0:
256,192,221024,5,8,0:0:0:0:
256,192,221103,5,8,0:0:0:0:
256,192,221182,5,4,0:0:0:0:
256,192,222445,12,0,223550,0:0:0:0:
256,192,223708,5,8,0:0:0:0:
256,192,223787,1,8,0:0:0:0:
256,192,223866,1,0,0:0:0:0:
256,192,223945,1,0,0:0:0:0:
256,192,224024,1,8,0:0:0:0:
256,192,224103,1,0,0:0:0:0:
256,192,224182,1,8,0:0:0:0:
256,192,224261,1,0,0:0:0:0:
256,192,224340,1,0,0:0:0:0:
256,192,224419,1,0,0:0:0:0:
256,192,224498,1,8,0:0:0:0:
256,192,224577,1,0,0:0:0:0:
256,192,224656,1,8,0:0:0:0:
256,192,224734,1,8,0:0:0:0:
256,192,224813,1,8,0:0:0:0:
256,192,224892,1,0,0:0:0:0:
256,192,224971,1,8,0:0:0:0:
256,192,225050,1,0,0:0:0:0:
256,192,225129,1,8,0:0:0:0:
256,192,225208,1,8,0:0:0:0:
256,192,225287,1,0,0:0:0:0:
256,192,225366,1,0,0:0:0:0:
256,192,225445,1,8,0:0:0:0:
256,192,225524,1,0,0:0:0:0:
256,192,225603,1,8,0:0:0:0:
256,192,225682,1,8,0:0:0:0:
256,192,225761,1,0,0:0:0:0:
256,192,225840,1,0,0:0:0:0:
256,192,225919,1,8,0:0:0:0:
256,192,225998,1,8,0:0:0:0:
256,192,226077,1,8,0:0:0:0:
256,192,226156,1,0,0:0:0:0:
256,192,226234,1,8,0:0:0:0:
256,192,226313,1,0,0:0:0:0:
256,192,226392,1,0,0:0:0:0:
256,192,226471,1,0,0:0:0:0:
256,192,226550,1,8,0:0:0:0:
256,192,226629,1,0,0:0:0:0:
256,192,226708,1,8,0:0:0:0:
256,192,226787,1,8,0:0:0:0:
256,192,226866,1,0,0:0:0:0:
256,192,226945,1,0,0:0:0:0:
256,192,227024,1,8,0:0:0:0:
256,192,227103,1,0,0:0:0:0:
256,192,227182,1,8,0:0:0:0:
256,192,227261,1,8,0:0:0:0:
256,192,227340,1,0,0:0:0:0:
256,192,227419,1,0,0:0:0:0:
256,192,227498,1,0,0:0:0:0:
256,192,227577,1,0,0:0:0:0:
256,192,227656,1,8,0:0:0:0:
256,192,227734,1,8,0:0:0:0:
256,192,227813,1,0,0:0:0:0:
256,192,227892,1,0,0:0:0:0:
256,192,227971,1,8,0:0:0:0:
256,192,228050,1,0,0:0:0:0:
256,192,228129,1,8,0:0:0:0:
256,192,228208,1,8,0:0:0:0:
256,192,228287,1,8,0:0:0:0:
256,192,228366,1,0,0:0:0:0:
256,192,228445,1,8,0:0:0:0:
256,192,228524,1,0,0:0:0:0:
256,192,228603,1,8,0:0:0:0:
256,192,228682,1,0,0:0:0:0:
256,192,228761,1,8,0:0:0:0:
256,192,228840,1,8,0:0:0:0:
256,192,228919,1,0,0:0:0:0:
256,192,228998,1,0,0:0:0:0:
256,192,229077,1,8,0:0:0:0:
256,192,229156,1,0,0:0:0:0:
256,192,229234,1,0,0:0:0:0:
256,192,229313,1,0,0:0:0:0:
256,192,229392,1,8,0:0:0:0:
256,192,229471,1,8,0:0:0:0:
256,192,229550,1,0,0:0:0:0:
256,192,229629,1,0,0:0:0:0:
256,192,229708,1,8,0:0:0:0:
256,192,229787,1,8,0:0:0:0:
256,192,229866,1,8,0:0:0:0:
256,192,229945,1,8,0:0:0:0:
256,192,230024,1,0,0:0:0:0:
256,192,230103,1,8,0:0:0:0:
256,192,230182,1,0,0:0:0:0:
256,192,230261,1,0,0:0:0:0:
256,192,230340,1,8,0:0:0:0:
256,192,230419,1,8,0:0:0:0:
256,192,230498,1,0,0:0:0:0:
256,192,230577,1,8,0:0:0:0:
256,192,230656,5,0,0:0:0:0:
256,192,230734,1,0,0:0:0:0:
256,192,230813,1,0,0:0:0:0:
256,192,230892,1,0,0:0:0:0:
256,192,230971,1,8,0:0:0:0:
256,192,231050,1,8,0:0:0:0:
256,192,231129,1,8,0:0:0:0:
256,192,231208,1,8,0:0:0:0:
256,192,231287,5,0,0:0:0:0:
256,192,231919,1,8,0:0:0:0:
256,192,232550,1,0,0:0:0:0:
256,192,233024,1,0,0:0:0:0:
256,192,233103,1,0,0:0:0:0:
256,192,233182,1,8,0:0:0:0:
256,192,233498,1,0,0:0:0:0:
256,192,233656,1,0,0:0:0:0:
256,192,233734,1,8,0:0:0:0:
256,192,233813,1,8,0:0:0:0:
256,192,234445,1,8,0:0:0:0:
256,192,235077,5,0,0:0:0:0:
256,192,235550,5,0,0:0:0:0:
256,192,235629,5,0,0:0:0:0:
256,192,235708,5,8,0:0:0:0:
256,192,236024,5,0,0:0:0:0:
256,192,236182,5,0,0:0:0:0:
256,192,236340,5,8,0:0:0:0:
256,192,236971,5,8,0:0:0:0:
256,192,237603,5,0,0:0:0:0:
256,192,238077,5,0,0:0:0:0:
256,192,238156,5,0,0:0:0:0:
256,192,238234,5,8,0:0:0:0:
256,192,238550,5,0,0:0:0:0:
256,192,238708,5,0,0:0:0:0:
256,192,238866,5,8,0:0:0:0:
256,192,239182,5,0,0:0:0:0:
256,192,239340,5,8,0:0:0:0:
256,192,239656,5,0,0:0:0:0:
256,192,239813,5,8,0:0:0:0:
256,192,239971,5,8,0:0:0:0:
256,192,240287,5,0,0:0:0:0:
256,192,240366,5,0,0:0:0:0:
256,192,240445,5,0,0:0:0:0:
256,192,240603,5,0,0:0:0:0:
256,192,240761,5,0,0:0:0:0:
256,192,240840,5,0,0:0:0:0:
256,192,240919,5,8,0:0:0:0:
256,192,240998,5,8,0:0:0:0:
256,192,241077,5,0,0:0:0:0:
256,192,241156,5,8,0:0:0:0:
256,192,241234,5,8,0:0:0:0:
256,192,241313,5,8,0:0:0:0:
256,192,241392,5,0,0:0:0:0:
256,192,241471,1,0,0:0:0:0:
256,192,241550,1,0,0:0:0:0:
256,192,241629,1,0,0:0:0:0:
256,192,241708,1,8,0:0:0:0:
256,192,241787,5,0,0:0:0:0:
256,192,241866,5,8,0:0:0:0:
256,192,241945,1,0,0:0:0:0:
256,192,242024,5,8,0:0:0:0:
256,192,242103,1,8,0:0:0:0:
256,192,242182,5,8,0:0:0:0:
256,192,242261,5,8,0:0:0:0:
256,192,242340,1,0,0:0:0:0:
256,192,242419,1,0,0:0:0:0:
256,192,242498,5,8,0:0:0:0:
256,192,242577,1,0,0:0:0:0:
256,192,242656,5,8,0:0:0:0:
256,192,242734,1,8,0:0:0:0:
256,192,242813,1,8,0:0:0:0:
256,192,242892,5,8,0:0:0:0:
256,192,242971,5,0,0:0:0:0:
256,192,243050,5,0,0:0:0:0:
256,192,243129,5,8,0:0:0:0:
256,192,243208,1,8,0:0:0:0:
256,192,243287,5,0,0:0:0:0:
256,192,243366,1,8,0:0:0:0:
256,192,243445,5,0,0:0:0:0:
256,192,243524,5,0,0:0:0:0:
256,192,243603,5,8,0:0:0:0:
256,192,243682,1,0,0:0:0:0:
256,192,243761,5,8,0:0:0:0:
256,192,243840,1,0,0:0:0:0:
256,192,243919,1,8,0:0:0:0:
256,192,243998,1,8,0:0:0:0:
256,192,244077,5,8,0:0:0:0:
256,192,244156,1,8,0:0:0:0:
256,192,244234,5,0,0:0:0:0:
256,192,244313,5,0,0:0:0:0:
256,192,244392,5,8,0:0:0:0:
256,192,244471,1,0,0:0:0:0:
256,192,244550,5,8,0:0:0:0:
256,192,244629,1,8,0:0:0:0:
256,192,244708,1,8,0:0:0:0:
256,192,244787,1,8,0:0:0:0:
256,192,244866,1,0,0:0:0:0:
256,192,244945,5,0,0:0:0:0:
256,192,245024,5,8,0:0:0:0:
256,192,245103,5,0,0:0:0:0:
256,192,245182,5,8,0:0:0:0:
256,192,245261,5,8,0:0:0:0:
256,192,245340,5,0,0:0:0:0:
256,192,245419,5,0,0:0:0:0:
256,192,245498,5,8,0:0:0:0:
256,192,245577,5,0,0:0:0:0:
256,192,245656,5,8,0:0:0:0:
256,192,245734,5,0,0:0:0:0:
256,192,245813,5,8,0:0:0:0:
256,192,245892,5,8,0:0:0:0:
256,192,245971,5,0,0:0:0:0:
256,192,246050,5,0,0:0:0:0:
256,192,246129,5,8,0:0:0:0:
256,192,246234,1,0,0:0:0:0:
256,192,246340,1,0,0:0:0:0:
256,192,246445,5,8,0:0:0:0:
256,192,246524,1,0,0:0:0:0:
256,192,246603,1,0,0:0:0:0:
256,192,246682,1,0,0:0:0:0:
256,192,246761,1,8,0:0:0:0:
256,192,246840,5,0,0:0:0:0:
256,192,246919,5,8,0:0:0:0:
256,192,246998,1,0,0:0:0:0:
256,192,247077,5,8,0:0:0:0:
256,192,247156,1,8,0:0:0:0:
256,192,247234,5,8,0:0:0:0:
256,192,247313,5,0,0:0:0:0:
256,192,247392,1,8,0:0:0:0:
256,192,247471,1,0,0:0:0:0:
256,192,247550,5,8,0:0:0:0:
256,192,247629,1,0,0:0:0:0:
256,192,247708,5,8,0:0:0:0:
256,192,247787,1,8,0:0:0:0:
256,192,247866,1,8,0:0:0:0:
256,192,247945,5,8,0:0:0:0:
256,192,248024,5,0,0:0:0:0:
256,192,248103,5,0,0:0:0:0:
256,192,248182,5,8,0:0:0:0:
256,192,248261,1,8,0:0:0:0:
256,192,248340,5,0,0:0:0:0:
256,192,248419,1,0,0:0:0:0:
256,192,248498,5,8,0:0:0:0:
256,192,248577,5,8,0:0:0:0:
256,192,248656,5,0,0:0:0:0:
256,192,248734,1,8,0:0:0:0:
256,192,248813,5,8,0:0:0:0:
256,192,248892,1,0,0:0:0:0:
256,192,248971,1,8,0:0:0:0:
256,192,249050,1,8,0:0:0:0:
256,192,249129,1,0,0:0:0:0:
256,192,249208,1,0,0:0:0:0:
256,192,249287,1,0,0:0:0:0:
256,192,249366,1,0,0:0:0:0:
256,192,249445,1,0,0:0:0:0:
256,192,249524,1,0,0:0:0:0:
256,192,249603,1,8,0:0:0:0:
256,192,249682,1,8,0:0:0:0:
256,192,249761,1,0,0:0:0:0:
256,192,249840,1,0,0:0:0:0:
256,192,249919,1,8,0:0:0:0:
256,192,249998,1,0,0:0:0:0:
256,192,250077,1,8,0:0:0:0:
256,192,250156,1,8,0:0:0:0:
256,192,250234,1,0,0:0:0:0:
256,192,250313,1,0,0:0:0:0:
256,192,250392,1,0,0:0:0:0:
256,192,250471,1,0,0:0:0:0:
256,192,250550,1,0,0:0:0:0:
256,192,250629,1,0,0:0:0:0:
256,192,250708,1,0,0:0:0:0:
256,192,250787,1,0,0:0:0:0:
256,192,250866,1,8,0:0:0:0:
256,192,250945,1,8,0:0:0:0:
256,192,251024,1,0,0:0:0:0:
256,192,251103,1,0,0:0:0:0:
256,192,251182,1,8,0:0:0:0:
256,192,251261,1,0,0:0:0:0:
256,192,251340,1,8,0:0:0:0:
256,192,251498,5,8,0:0:0:0:
256,192,251577,1,0,0:0:0:0:
256,192,251656,1,0,0:0:0:0:
256,192,251734,1,0,0:0:0:0:
256,192,251813,1,8,0:0:0:0:
256,192,251892,5,0,0:0:0:0:
256,192,251971,5,8,0:0:0:0:
256,192,252050,1,0,0:0:0:0:
256,192,252129,5,8,0:0:0:0:
256,192,252208,1,8,0:0:0:0:
256,192,252287,5,8,0:0:0:0:
256,192,252366,5,0,0:0:0:0:
256,192,252445,1,8,0:0:0:0:
256,192,252524,1,0,0:0:0:0:
256,192,252603,5,8,0:0:0:0:
256,192,252682,1,0,0:0:0:0:
256,192,252761,5,8,0:0:0:0:
256,192,252840,1,8,0:0:0:0:
256,192,252919,1,8,0:0:0:0:
256,192,252998,5,8,0:0:0:0:
256,192,253077,5,0,0:0:0:0:
256,192,253156,5,0,0:0:0:0:
256,192,253234,5,8,0:0:0:0:
256,192,253313,1,8,0:0:0:0:
256,192,253392,5,0,0:0:0:0:
256,192,253471,1,0,0:0:0:0:
256,192,253550,5,8,0:0:0:0:
256,192,253629,5,8,0:0:0:0:
256,192,253708,5,0,0:0:0:0:
256,192,253787,1,8,0:0:0:0:
256,192,253866,5,8,0:0:0:0:
256,192,253945,1,0,0:0:0:0:
256,192,254024,1,8,0:0:0:0:
256,192,254103,1,0,0:0:0:0:
256,192,254182,5,8,0:0:0:0:
256,192,254261,1,8,0:0:0:0:
256,192,254340,5,0,0:0:0:0:
256,192,254419,5,0,0:0:0:0:
256,192,254498,5,8,0:0:0:0:
256,192,254577,1,0,0:0:0:0:
256,192,254656,5,8,0:0:0:0:
256,192,254734,1,8,0:0:0:0:
256,192,254813,1,8,0:0:0:0:
256,192,254892,1,8,0:0:0:0:
256,192,254971,1,0,0:0:0:0:
256,192,255050,5,0,0:0:0:0:
256,192,255129,5,8,0:0:0:0:
256,192,255208,5,0,0:0:0:0:
256,192,255287,5,8,0:0:0:0:
256,192,255366,5,0,0:0:0:0:
256,192,255445,5,0,0:0:0:0:
256,192,255524,5,0,0:0:0:0:
256,192,255603,5,8,0:0:0:0:
256,192,255682,5,8,0:0:0:0:
256,192,255761,5,8,0:0:0:0:
256,192,255840,5,0,0:0:0:0:
256,192,255919,5,8,0:0:0:0:
256,192,255998,5,8,0:0:0:0:
256,192,256077,5,0,0:0:0:0:
256,192,256156,5,0,0:0:0:0:
256,192,256234,5,8,0:0:0:0:
256,192,256313,1,8,0:0:0:0:
256,192,256392,1,0,0:0:0:0:
256,192,256471,1,0,0:0:0:0:
256,192,256550,1,8,0:0:0:0:
256,192,256629,1,0,0:0:0:0:
256,192,256708,1,0,0:0:0:0:
256,192,257024,1,0,0:0:0:0:
256,192,257182,1,8,0:0:0:0:
256,192,257656,1,0,0:0:0:0:
256,192,257813,1,0,0:0:0:0:
256,192,257971,1,0,0:0:0:0:
256,192,258050,1,0,0:0:0:0:
256,192,258129,1,8,0:0:0:0:
256,192,258208,1,0,0:0:0:0:
256,192,258287,1,8,0:0:0:0:
256,192,258366,1,8,0:0:0:0:
256,192,258445,1,0,0:0:0:0:
256,192,258603,1,8,0:0:0:0:
256,192,258682,5,8,0:0:0:0:
256,192,258761,1,0,0:0:0:0:
256,192,258840,1,8,0:0:0:0:
256,192,258919,1,0,0:0:0:0:
256,192,258998,1,0,0:0:0:0:
256,192,259077,5,12,0:0:0:0:
