osu file format v14

[General]
AudioFilename: audio.mp3
AudioLeadIn: 0
PreviewTime: 252852
Countdown: 0
SampleSet: Drum
StackLeniency: 0.4
Mode: 0
LetterboxInBreaks: 0
WidescreenStoryboard: 1

[Editor]
DistanceSpacing: 0.12
BeatDivisor: 3
GridSize: 32
TimelineZoom: 2.2

[Metadata]
Title:Swampwitch
TitleUnicode:Swampwitch
Artist:Aether Realm
ArtistUnicode:Æther Realm
Creator:iamtickrate
Version:Extra
Source:
Tags:fa featured artist one chosen by the gods asheville melodic death power folk english metal kerupt blood9
BeatmapID:3317368
BeatmapSetID:1556131

[Difficulty]
HPDrainRate:5
CircleSize:4.2
OverallDifficulty:9
ApproachRate:9.3
SliderMultiplier:1.8
SliderTickRate:1

[Events]
//Background and Video events
0,0,"bg.jpg",0,0
//Break Periods
//Storyboard Layer 0 (Background)
//Storyboard Layer 1 (Fail)
//Storyboard Layer 2 (Pass)
//Storyboard Layer 3 (Foreground)
//Storyboard Layer 4 (Overlay)
//Storyboard Sound Samples

[TimingPoints]
281,285.714285714286,4,3,1,60,1,0
423,-100,4,3,2,60,0,0
566,-100,4,3,3,60,0,0
709,-100,4,3,1,60,0,0
852,-100,4,3,2,60,0,0
995,-100,4,3,3,60,0,0
1138,-100,4,3,1,60,0,0
1281,-100,4,3,2,60,0,0
1423,-100,4,3,1,60,0,0
1566,-100,4,3,2,60,0,0
1709,-100,4,3,1,60,0,0
2138,-100,4,3,2,60,0,0
2423,-100,4,3,3,60,0,0
2566,-100,4,3,1,60,0,0
4566,-66.6666666666667,4,3,1,60,0,0
4781,-66.6666666666667,4,3,1,5,0,0
4852,-66.6666666666667,4,3,1,60,0,0
6852,-133.333333333333,4,3,1,60,0,0
7066,-133.333333333333,4,3,1,5,0,0
7138,-100,4,3,1,60,0,0
16495,-100,4,3,1,5,0,0
16566,-100,4,3,1,60,0,0
20566,-100,4,3,2,60,0,0
20709,-100,4,3,1,60,0,0
29423,-333.333333333333,4,3,1,60,0,0
29923,-333.333333333333,4,3,1,5,0,0
29995,-86.9565217391304,4,3,1,60,0,0
38566,-86.9565217391304,4,3,2,60,0,0
38852,-86.9565217391304,4,3,3,60,0,0
39138,-86.9565217391304,4,3,1,60,0,0
39352,-86.9565217391304,4,3,1,5,0,0
39423,-86.9565217391304,4,3,1,60,0,0
47281,-86.9565217391304,4,3,2,60,0,0
47423,-86.9565217391304,4,3,3,60,0,0
47566,-86.9565217391304,4,3,1,60,0,0
47709,-86.9565217391304,4,3,2,60,0,0
47995,-86.9565217391304,4,3,3,60,0,0
48281,-80,4,3,1,60,0,1
48495,-80,4,3,1,5,0,1
48566,-80,4,3,1,60,0,1
51923,-80,4,3,1,5,0,1
51995,-80,4,3,1,60,0,1
53066,-80,4,3,1,5,0,1
53138,-80,4,3,1,60,0,1
55352,-80,4,3,1,5,0,1
55423,-80,4,3,1,60,0,1
57352,-80,4,3,1,5,0,1
57423,-80,4,3,1,60,0,1
57638,-80,4,3,1,5,0,1
57709,-80,4,3,1,60,0,1
62209,-80,4,3,1,5,0,1
62281,-80,4,3,1,60,0,1
67423,-80,4,3,2,60,0,1
67566,-80,4,3,3,60,0,1
67709,-100,4,3,1,60,0,0
76566,-100,4,3,2,60,0,0
76852,-100,4,3,1,60,0,0
78781,-100,4,3,1,5,0,0
78852,-100,4,3,1,60,0,0
79352,-100,4,3,1,5,0,0
79423,-100,4,3,1,60,0,0
84995,-100,4,3,2,60,0,0
85138,-100,4,3,1,45,0,0
85423,-100,4,3,1,60,0,0
85995,-76.9230769230769,4,3,1,60,0,1
94852,-76.9230769230769,4,3,2,60,0,1
94995,-76.9230769230769,4,3,3,60,0,1
95138,-76.9230769230769,4,3,1,60,0,1
95352,-76.9230769230769,4,3,1,5,0,1
95423,-76.9230769230769,4,3,1,60,0,1
104281,-111.111111111111,4,3,1,60,0,0
123709,-95.2380952380952,4,3,1,60,0,0
131852,-95.2380952380952,4,3,2,60,0,0
132281,-95.2380952380952,4,3,3,60,0,0
132852,-95.2380952380952,4,3,1,60,0,0
141042,-95.2380952380952,4,3,2,60,0,0
141138,-95.2380952380952,4,3,3,60,0,0
141423,-66.6666666666667,4,3,1,60,0,0
141519,-66.6666666666667,4,3,1,5,0,0
141614,-66.6666666666667,4,3,1,60,0,0
141710,-66.6666666666667,4,3,1,5,0,0
141804,-66.6666666666667,4,3,1,60,0,0
141900,-66.6666666666667,4,3,1,5,0,0
141995,-133.333333333333,4,3,1,60,0,0
143995,-133.333333333333,4,3,2,60,0,0
144281,-133.333333333333,4,3,1,60,0,0
146281,-133.333333333333,4,3,2,60,0,0
146376,-133.333333333333,4,3,1,60,0,0
149138,-133.333333333333,4,3,1,45,0,0
149209,-133.333333333333,4,3,1,60,0,0
150281,-133.333333333333,4,3,2,60,0,0
150423,-133.333333333333,4,3,3,60,0,0
150566,-133.333333333333,4,3,1,60,0,0
150852,-133.333333333333,4,3,2,60,0,0
150995,-133.333333333333,4,3,3,60,0,0
151138,-95.2380952380952,4,3,1,60,0,0
151709,-111.111111111111,4,3,1,60,0,0
152281,-95.2380952380952,4,3,1,60,0,0
153995,-111.111111111111,4,3,1,60,0,0
154281,-133.333333333333,4,3,1,60,0,0
154566,-95.2380952380952,4,3,1,60,0,0
156638,-95.2380952380952,4,3,1,5,0,0
156709,-95.2380952380952,4,3,1,60,0,0
156781,-95.2380952380952,4,3,1,5,0,0
156852,-95.2380952380952,4,3,1,60,0,0
157209,-95.2380952380952,4,3,1,5,0,0
157280,-95.2380952380952,4,3,1,60,0,0
157352,-95.2380952380952,4,3,1,5,0,0
157423,-95.2380952380952,4,3,1,60,0,0
160066,-95.2380952380952,4,3,1,5,0,0
160137,-95.2380952380952,4,3,1,60,0,0
160209,-95.2380952380952,4,3,1,5,0,0
160280,-95.2380952380952,4,3,1,60,0,0
163923,-95.2380952380952,4,3,1,5,0,0
163994,-95.2380952380952,4,3,1,60,0,0
169138,-333.333333333333,4,3,1,60,0,0
169352,-333.333333333333,4,3,1,5,0,0
169423,-76.9230769230769,4,3,1,60,0,1
173995,-86.9565217391304,4,3,1,60,0,0
177614,-86.9565217391304,4,3,2,60,0,0
177804,-86.9565217391304,4,3,3,60,0,0
177995,-86.9565217391304,4,3,1,60,0,0
178185,-86.9565217391304,4,3,2,60,0,0
178376,-86.9565217391304,4,3,3,60,0,0
178566,-95.2380952380952,4,3,1,60,0,0
190209,-95.2380952380952,4,3,1,5,0,0
190281,-80,4,3,1,60,0,0
190566,-95.2380952380952,4,3,1,60,0,0
190852,-111.111111111111,4,3,1,60,0,0
191138,-95.2380952380952,4,3,1,60,0,0
195352,-95.2380952380952,4,3,1,5,0,0
195423,-95.2380952380952,4,3,1,60,0,0
196566,-333.333333333333,4,3,1,60,0,0
196852,-80,4,3,1,60,0,1
205138,-80,4,3,2,60,0,1
205209,-80,4,3,1,60,0,1
205423,-333.333333333333,4,3,1,60,0,0
205923,-333.333333333333,4,3,1,5,0,0
205995,-86.9565217391304,4,3,1,60,0,0
214852,-86.9565217391304,4,3,2,60,0,0
214995,-86.9565217391304,4,3,3,60,0,0
215138,-86.9565217391304,4,3,1,60,0,0
215352,-86.9565217391304,4,3,1,5,0,0
215423,-86.9565217391304,4,3,1,60,0,0
223281,-86.9565217391304,4,3,2,60,0,0
223423,-86.9565217391304,4,3,3,60,0,0
223566,-86.9565217391304,4,3,1,60,0,0
223709,-86.9565217391304,4,3,2,60,0,0
223995,-86.9565217391304,4,3,3,60,0,0
224281,-111.111111111111,4,3,1,60,0,0
233423,-100,4,3,1,60,0,0
242566,-90.9090909090909,4,3,1,60,0,0
250709,-90.9090909090909,4,3,2,60,0,0
250852,-90.9090909090909,4,3,3,60,0,0
250995,-90.9090909090909,4,3,1,60,0,0
251138,-90.9090909090909,4,3,2,60,0,0
251281,-90.9090909090909,4,3,2,60,0,0
251424,-90.9090909090909,4,3,1,60,0,0
251566,-90.9090909090909,4,3,2,60,0,0
251709,-90.9090909090909,4,3,1,60,0,0
251852,-90.9090909090909,4,3,2,60,0,0
251995,-90.9090909090909,4,3,3,60,0,0
252138,-90.9090909090909,4,3,1,60,0,0
252281,-90.9090909090909,4,3,2,60,0,0
252566,-90.9090909090909,4,3,3,60,0,0
252852,285.714285714286,4,3,1,60,1,1
252852,-80,4,3,1,60,0,1
253066,-80,4,3,1,5,0,1
253138,-80,4,3,1,60,0,1
256495,-80,4,3,1,5,0,1
256566,-80,4,3,1,60,0,1
257638,-80,4,3,1,5,0,1
257709,-80,4,3,1,60,0,1
259923,-80,4,3,1,5,0,1
259995,-80,4,3,1,60,0,1
262209,-80,4,3,1,5,0,1
262281,-80,4,3,1,60,0,1
266781,-80,4,3,1,5,0,1
266852,-80,4,3,1,60,0,1
273423,-133.333333333333,4,3,1,60,0,0
274566,-100,4,3,1,5,0,0

[Colours]
Combo1 : 95,153,178
Combo2 : 175,175,175
Combo3 : 117,124,145
Combo4 : 144,175,141

[HitObjects]
17,347,281,5,8,0:0:0:0:
36,342,352,1,8,0:0:0:0:
55,337,423,2,0,L|123:350,3,45,8|8|8|8,0:0|0:0|0:0|0:0,0:0:0:0:
171,253,709,1,8,0:0:0:0:
152,248,780,1,8,0:0:0:0:
133,243,852,2,0,L|65:256,3,45,8|8|8|8,0:0|0:0|0:0|0:0,0:0:0:0:
27,64,1138,5,8,0:0:0:0:
29,83,1209,1,8,0:0:0:0:
31,103,1281,2,0,L|39:174,1,45,8|8,0:0|0:0,0:0:0:0:
173,11,1423,5,8,0:0:0:0:
171,30,1494,1,8,0:0:0:0:
169,50,1566,2,0,L|161:121,1,45,8|8,0:0|0:0,0:0:0:0:
230,208,1709,5,8,0:0:0:0:
269,198,1781,1,8,0:0:0:0:
309,189,1852,1,8,0:0:0:0:
348,182,1923,1,8,0:0:0:0:
389,172,1995,1,8,0:0:0:0:
428,164,2066,1,8,0:0:0:0:
468,154,2138,2,0,L|529:142,5,45,8|8|8|8|8|8,0:0|0:0|0:0|0:0|0:0|0:0,0:0:0:0:
295,39,2566,5,6,0:0:0:0:
295,39,4566,5,0,0:0:0:0:
411,231,4852,1,4,0:0:0:0:
411,231,6852,6,0,P|368:237|354:293,1,101.250003862381,4|0,0:0|0:0,0:0:0:0:
437,315,7138,6,0,B|379:303|379:303|326:345|326:345|247:325,1,180,4|2,0:0|0:0,0:0:0:0:
166,211,7566,1,8,0:0:0:0:
89,261,7709,2,0,B|94:302|94:302|98:308|98:308|103:365,1,90,2|8,0:0|0:0,0:0:0:0:
282,242,7995,6,0,B|299:197|299:197|270:161,1,90,2|8,0:0|0:0,0:0:0:0:
204,52,8281,2,0,L|214:2,2,45,2|0|8,0:0|0:0|0:0,0:0:0:0:
108,85,8566,2,0,L|118:135,2,45,2|0|8,0:0|0:0|0:0,0:0:0:0:
16,52,8852,2,0,L|26:2,2,45,2|0|8,0:0|0:0|0:0,0:0:0:0:
90,198,9138,1,2,0:0:0:0:
130,11,9281,1,8,0:0:0:0:
0,143,9423,6,0,B|-15:190|-15:190|29:330,1,180,4|2,0:0|0:0,0:0:0:0:
210,221,9852,1,8,0:0:0:0:
238,314,9995,2,0,B|193:304|193:304|189:300|189:300|148:292,1,90,2|8,0:0|0:0,0:0:0:0:
312,113,10281,2,0,B|267:123|267:123|263:127|263:127|222:135,1,90,2|8,0:0|0:0,0:0:0:0:
367,351,10566,6,0,B|349:346|342:326|342:326|369:244,1,90,2|8,0:0|0:0,0:0:0:0:
422,225,10781,1,0,0:0:0:0:
422,225,10852,2,0,L|412:174,2,45,2|0|8,0:0|0:0|0:0,0:0:0:0:
334,134,11138,2,0,L|344:83,2,45,2|0|8,0:0|0:0|0:0,0:0:0:0:
437,67,11423,2,0,L|427:16,2,45,2|0|8,0:0|0:0|0:0,0:0:0:0:
204,12,11709,6,0,B|217:-5|217:-5|308:7,1,90,4|8,0:0|0:0,0:0:0:0:
169,151,11995,1,2,0:0:0:0:
87,28,12138,1,8,0:0:0:0:
219,88,12281,2,0,B|231:122|231:122|202:220,1,135,2|0,0:0|0:0,0:0:0:0:
175,231,12566,2,0,B|163:273|163:273|189:332,1,90,2|8,0:0|0:0,0:0:0:0:
336,359,12852,5,2,0:0:0:0:
246,266,12995,2,0,B|226:259|226:259|92:304|92:304|39:294,1,180,8|8,0:0|0:0,0:0:0:0:
23,62,13423,6,0,P|67:73|65:127,1,90,2|8,0:0|0:0,0:0:0:0:
149,175,13638,1,0,0:0:0:0:
149,175,13709,2,0,P|160:131|214:134,1,90,2|8,0:0|0:0,0:0:0:0:
358,11,13995,6,0,L|344:107,1,90,4|8,0:0|0:0,0:0:0:0:
326,195,14281,1,2,0:0:0:0:
461,129,14423,2,0,L|475:225,1,90,8|2,0:0|0:0,0:0:0:0:
493,313,14709,1,8,0:0:0:0:
322,171,14852,1,2,0:0:0:0:
472,238,14995,1,8,0:0:0:0:
330,324,15138,6,0,B|241:289|251:377|150:343,1,180,2|2,0:0|0:0,0:0:0:0:
14,183,15566,2,0,P|71:206|63:320,1,180,8|8,0:0|0:0,0:0:0:0:
220,119,15995,1,2,0:0:0:0:
186,264,16138,1,8,0:0:0:0:
61,61,16281,6,0,B|124:54|124:54|128:49|128:49|208:38,1,135,6|0,0:0|0:0,0:0:0:0:
202,24,16566,2,0,L|289:44,1,90,2|8,0:0|0:0,0:0:0:0:
384,214,16852,1,2,0:0:0:0:
275,131,16995,1,8,0:0:0:0:
464,56,17138,1,2,0:0:0:0:
359,78,17281,1,8,0:0:0:0:
481,224,17423,6,0,L|467:289,2,45,2|0|8,0:0|0:0|0:0,0:0:0:0:
388,338,17709,2,0,L|374:273,2,45,2|0|8,0:0|0:0|0:0,0:0:0:0:
290,224,17995,2,0,L|276:289,2,45,2|0|8,0:0|0:0|0:0,0:0:0:0:
275,371,18281,1,2,0:0:0:0:
389,217,18423,1,0,0:0:0:0:
193,289,18566,5,2,0:0:0:0:
193,289,18638,1,0,0:0:0:0:
193,289,18709,2,0,L|201:346,1,45
293,207,18852,1,10,0:0:0:0:
293,207,18924,1,0,0:0:0:0:
293,207,18995,2,0,L|285:264,1,45
173,152,19138,6,0,P|87:192|-19:214,1,180,10|2,0:0|0:0,0:0:0:0:
10,182,19495,1,0,0:0:0:0:
18,184,19566,1,0,0:0:0:0:
26,186,19638,1,0,0:0:0:0:
34,188,19709,5,8,0:0:0:0:
76,292,19852,2,0,L|61:394,1,90
272,189,20138,6,0,L|266:150,1,30,8|8,0:0|0:0,0:0:0:0:
194,355,20281,5,0,0:0:0:0:
268,270,20423,1,0,0:0:0:0:
362,278,20566,1,8,0:0:0:0:
395,309,20709,1,0,0:0:0:0:
491,343,20852,5,12,0:0:0:0:
491,343,20923,1,0,0:0:0:0:
491,343,20995,2,0,L|500:284,1,45,8|0,0:0|0:0,0:0:0:0:
418,152,21138,2,0,P|427:209|431:255,1,90,10|8,0:0|0:0,0:0:0:0:
509,75,21423,5,10,0:0:0:0:
494,51,21495,1,0,0:0:0:0:
472,34,21566,1,8,0:0:0:0:
446,25,21638,1,0,0:0:0:0:
419,25,21709,1,10,0:0:0:0:
336,128,21852,1,8,0:0:0:0:
221,37,21995,6,0,B|199:28|199:28|168:27,3,45,10|0|8|0,0:0|0:0|0:0|0:0,0:0:0:0:
109,97,22281,2,0,B|87:106|87:106|56:107,3,45,10|0|8|0,0:0|0:0|0:0|0:0,0:0:0:0:
0,187,22566,5,10,0:0:0:0:
4,213,22638,1,0,0:0:0:0:
8,239,22709,1,8,0:0:0:0:
12,265,22781,1,0,0:0:0:0:
16,291,22852,2,0,B|81:311|81:311|120:356|120:356|191:380,1,180,10|10,0:0|0:0,0:0:0:0:
260,384,23281,5,8,0:0:0:0:
181,288,23423,1,10,0:0:0:0:
181,288,23495,1,0,0:0:0:0:
181,288,23566,2,0,L|243:296,1,45,8|0,0:0|0:0,0:0:0:0:
352,197,23709,2,0,P|293:211|246:213,1,90,10|8,0:0|0:0,0:0:0:0:
341,367,23995,2,0,P|395:323|426:334,1,90,10|8,0:0|0:0,0:0:0:0:
502,143,24281,5,10,0:0:0:0:
488,154,24352,1,0,0:0:0:0:
475,166,24423,2,0,L|495:228,1,45,8|0,0:0|0:0,0:0:0:0:
414,257,24566,1,10,0:0:0:0:
414,257,24638,1,0,0:0:0:0:
414,257,24709,2,0,L|394:319,1,45,8|0,0:0|0:0,0:0:0:0:
285,124,24852,5,14,0:0:0:0:
300,101,24923,1,0,0:0:0:0:
316,79,24995,2,0,L|378:99,1,45,8|0,0:0|0:0,0:0:0:0:
302,221,25138,1,10,0:0:0:0:
302,221,25209,1,0,0:0:0:0:
302,221,25281,2,0,L|240:241,1,45,8|0,0:0|0:0,0:0:0:0:
71,189,25423,6,0,P|90:246|107:374,1,180,14|10,0:0|0:0,0:0:0:0:
216,258,25852,1,8,0:0:0:0:
324,332,25995,2,0,L|372:325,3,45,10|0|8|0,0:0|0:0|0:0|0:0,0:0:0:0:
289,244,26281,2,0,L|241:237,3,45,10|0|8|0,0:0|0:0|0:0|0:0,0:0:0:0:
394,221,26566,2,0,P|386:190|386:160,3,45,10|0|8|0,0:0|0:0|0:0|0:0,0:0:0:0:
298,99,26852,2,0,P|290:130|290:160,3,45,10|0|8|0,0:0|0:0|0:0|0:0,0:0:0:0:
405,18,27138,5,10,0:0:0:0:
429,28,27209,1,0,0:0:0:0:
445,49,27281,1,8,0:0:0:0:
450,75,27352,1,0,0:0:0:0:
444,100,27423,5,10,0:0:0:0:
512,164,27566,2,0,P|442:137|325:100,1,180,8|8,0:0|0:0,0:0:0:0:
183,39,27995,6,0,P|173:17|156:-2,3,45,10|0|8|0,0:0|0:0|0:0|0:0,0:0:0:0:
104,120,28281,2,0,P|112:97|113:71,3,45,10|0|8|0,0:0|0:0|0:0|0:0,0:0:0:0:
8,42,28566,2,0,P|30:32|49:15,3,45,10|0|8|0,0:0|0:0|0:0|0:0,0:0:0:0:
125,116,28852,5,10,0:0:0:0:
129,124,28923,1,0,0:0:0:0:
132,132,28995,2,0,L|127:185,1,45,8|0,0:0|0:0,0:0:0:0:
31,217,29138,5,10,0:0:0:0:
23,232,29209,1,0,0:0:0:0:
17,249,29281,2,0,L|22:302,1,45,8|0,0:0|0:0,0:0:0:0:
174,310,29423,6,0,P|161:304|110:357,1,94.4999971160889,8|0,0:0|0:0,0:0:0:0:
265,382,29995,5,10,0:0:0:0:
261,356,30066,1,0,0:0:0:0:
257,330,30138,1,8,0:0:0:0:
253,304,30209,1,0,0:0:0:0:
250,278,30281,1,10,0:0:0:0:
247,252,30352,1,0,0:0:0:0:
243,226,30423,1,8,0:0:0:0:
239,200,30495,1,0,0:0:0:0:
235,174,30566,2,0,L|222:108,3,51.7500009870529,10|0|8|0,0:0|0:0|0:0|0:0,0:0:0:0:
347,225,30852,2,0,L|334:291,3,51.7500009870529,10|0|8|0,0:0|0:0|0:0|0:0,0:0:0:0:
500,140,31138,5,10,0:0:0:0:
488,150,31209,1,0,0:0:0:0:
474,157,31280,1,8,0:0:0:0:
459,158,31352,1,0,0:0:0:0:
444,155,31423,1,10,0:0:0:0:
430,148,31495,1,0,0:0:0:0:
420,136,31566,1,8,0:0:0:0:
414,122,31638,1,0,0:0:0:0:
413,107,31709,2,0,P|419:85|460:71,3,51.7500009870529,10|0|8|0,0:0|0:0|0:0|0:0,0:0:0:0:
303,1,31995,6,0,P|317:60|321:127,1,103.500001974106,10|8,0:0|0:0,0:0:0:0:
185,159,32281,5,14,0:0:0:0:
155,149,32352,1,0,0:0:0:0:
125,140,32423,1,8,0:0:0:0:
94,132,32495,1,0,0:0:0:0:
64,121,32566,2,0,L|5:103,3,51.7500009870529,10|0|8|0,0:0|0:0|0:0|0:0,0:0:0:0:
190,2,32852,5,10,0:0:0:0:
193,24,32923,1,0,0:0:0:0:
196,47,32995,1,8,0:0:0:0:
199,69,33066,1,0,0:0:0:0:
202,92,33138,1,10,0:0:0:0:
141,176,33281,1,8,0:0:0:0:
187,267,33423,6,0,L|258:248,3,51.7500009870529,10|0|8|0,0:0|0:0|0:0|0:0,0:0:0:0:
150,157,33709,2,0,L|79:138,3,51.7500009870529,10|0|8|0,0:0|0:0|0:0|0:0,0:0:0:0:
29,282,33995,2,0,L|100:263,3,51.7500009870529,10|0|8|0,0:0|0:0|0:0|0:0,0:0:0:0:
159,375,34281,6,0,P|158:333|215:300,1,103.500001974106,10|8,0:0|0:0,0:0:0:0:
246,181,34566,1,10,0:0:0:0:
320,280,34709,1,8,0:0:0:0:
320,280,34781,1,0,0:0:0:0:
320,280,34852,2,0,P|341:296|377:302,1,51.7500009870529,10|0,0:0|0:0,0:0:0:0:
512,177,34995,1,8,0:0:0:0:
490,176,35066,1,0,0:0:0:0:
471,186,35138,1,10,0:0:0:0:
460,205,35209,1,0,0:0:0:0:
455,226,35281,1,8,0:0:0:0:
461,246,35352,1,0,0:0:0:0:
472,263,35423,6,0,P|496:235|491:206,3,51.7500009870529,10|0|8|0,0:0|0:0|0:0|0:0,0:0:0:0:
361,206,35709,2,0,P|397:203|414:179,3,51.7500009870529,10|0|8|0,0:0|0:0|0:0|0:0,0:0:0:0:
380,86,35995,2,0,P|408:110|437:105,3,51.7500009870529,10|0|8|0,0:0|0:0|0:0|0:0,0:0:0:0:
503,155,36281,2,0,L|514:86,3,51.7500009870529,10|0|8|0,0:0|0:0|0:0|0:0,0:0:0:0:
399,0,36566,6,0,P|345:13|265:28,1,103.500001974106,10|8,0:0|0:0,0:0:0:0:
255,163,36852,1,10,0:0:0:0:
181,58,36995,1,8,0:0:0:0:
181,58,37066,1,0,0:0:0:0:
181,58,37138,2,0,P|199:72|203:105,1,51.7500009870529,10|0,0:0|0:0,0:0:0:0:
107,236,37281,1,8,0:0:0:0:
93,220,37352,1,0,0:0:0:0:
85,200,37424,1,10,0:0:0:0:
85,179,37495,1,0,0:0:0:0:
92,159,37567,1,8,0:0:0:0:
107,145,37638,1,0,0:0:0:0:
126,138,37709,5,10,0:0:0:0:
139,153,37781,1,0,0:0:0:0:
140,173,37852,2,0,P|131:210|112:222,1,51.7500009870529,8|0,0:0|0:0,0:0:0:0:
204,99,37995,1,10,0:0:0:0:
244,91,38066,1,0,0:0:0:0:
282,106,38138,1,8,0:0:0:0:
304,140,38209,1,0,0:0:0:0:
304,181,38281,1,10,0:0:0:0:
325,216,38352,1,0,0:0:0:0:
363,229,38423,1,8,0:0:0:0:
403,220,38495,1,0,0:0:0:0:
425,185,38566,6,0,L|407:111,3,51.7500009870529,8|8|8|8,0:0|0:0|0:0|0:0,0:0:0:0:
317,127,38852,2,0,L|335:53,3,51.7500009870529,8|8|8|8,0:0|0:0|0:0|0:0,0:0:0:0:
239,197,39138,6,0,B|188:184|188:184|184:179|184:179|129:167,1,103.500001974106,4|0,0:0|0:0,0:0:0:0:
64,49,39423,5,10,0:0:0:0:
64,49,39495,1,0,0:0:0:0:
64,49,39566,2,0,L|76:117,1,51.7500009870529,8|0,0:0|0:0,0:0:0:0:
159,149,39709,1,10,0:0:0:0:
159,149,39781,1,0,0:0:0:0:
159,149,39852,2,0,L|147:217,1,51.7500009870529,8|0,0:0|0:0,0:0:0:0:
80,265,39995,2,0,L|92:333,3,51.7500009870529,10|0|8|0,0:0|0:0|0:0|0:0,0:0:0:0:
184,373,40281,5,10,0:0:0:0:
184,373,40352,1,0,0:0:0:0:
184,373,40423,2,0,L|252:351,1,51.7500009870529,8|0,0:0|0:0,0:0:0:0:
299,249,40566,1,10,0:0:0:0:
299,249,40637,1,0,0:0:0:0:
299,249,40709,2,0,L|231:227,1,51.7500009870529,8|0,0:0|0:0,0:0:0:0:
354,348,40852,2,0,L|422:326,3,51.7500009870529,10|0|8|0,0:0|0:0|0:0|0:0,0:0:0:0:
484,172,41138,6,0,P|475:214|481:286,1,103.500001974106,14|12,0:0|0:0,0:0:0:0:
371,208,41423,1,14,0:0:0:0:
365,176,41495,1,0,0:0:0:0:
360,144,41566,1,8,0:0:0:0:
355,113,41638,1,0,0:0:0:0:
350,82,41709,2,0,L|340:23,3,51.7500009870529,10|0|8|0,0:0|0:0|0:0|0:0,0:0:0:0:
264,182,41995,5,10,0:0:0:0:
286,175,42066,1,0,0:0:0:0:
308,168,42138,1,8,0:0:0:0:
329,161,42209,1,0,0:0:0:0:
351,154,42281,1,10,0:0:0:0:
438,77,42424,1,8,0:0:0:0:
296,10,42566,6,0,L|283:82,3,51.7500009870529,10|0|8|0,0:0|0:0|0:0|0:0,0:0:0:0:
219,133,42852,2,0,L|206:60,3,51.7500009870529,10|0|8|0,0:0|0:0|0:0|0:0,0:0:0:0:
113,5,43138,2,0,L|100:77,3,51.7500009870529,10|0|8|0,0:0|0:0|0:0|0:0,0:0:0:0:
0,145,43423,6,0,B|53:138|53:138|112:182,1,103.500001974106,10|8,0:0|0:0,0:0:0:0:
190,294,43709,1,10,0:0:0:0:
166,328,43781,1,0,0:0:0:0:
126,340,43852,1,8,0:0:0:0:
85,331,43923,1,0,0:0:0:0:
55,301,43995,2,0,P|50:269|66:234,3,51.7500009870529,10|0|8|0,0:0|0:0|0:0|0:0,0:0:0:0:
134,165,44281,2,0,L|147:234,3,51.7500009870529,10|0|8|0,0:0|0:0|0:0|0:0,0:0:0:0:
245,346,44566,6,0,B|284:329|284:329|294:310|294:310|349:289,1,103.500001974106,10|8,0:0|0:0,0:0:0:0:
432,167,44852,1,10,0:0:0:0:
436,197,44923,1,0,0:0:0:0:
440,227,44995,1,8,0:0:0:0:
445,257,45066,1,0,0:0:0:0:
450,287,45138,2,0,L|461:343,3,51.7500009870529,10|0|8|0,0:0|0:0|0:0|0:0,0:0:0:0:
307,225,45423,5,10,0:0:0:0:
311,204,45495,1,0,0:0:0:0:
315,183,45566,1,8,0:0:0:0:
319,162,45638,1,0,0:0:0:0:
323,141,45709,1,10,0:0:0:0:
450,82,45852,1,8,0:0:0:0:
346,11,45995,6,0,L|337:76,3,51.7500009870529,10|0|8|0,0:0|0:0|0:0|0:0,0:0:0:0:
243,67,46281,2,0,L|252:132,3,51.7500009870529,10|0|8|0,0:0|0:0|0:0|0:0,0:0:0:0:
154,10,46566,2,0,L|147:62,3,51.7500009870529,10|0|8|0,0:0|0:0|0:0|0:0,0:0:0:0:
51,67,46852,2,0,L|59:119,3,51.7500009870529,10|0|8|0,0:0|0:0|0:0|0:0,0:0:0:0:
131,207,47138,5,8,0:0:0:0:
113,216,47209,1,8,0:0:0:0:
96,226,47280,2,0,P|66:215|32:211,3,51.7500009870529,8|8|8|8,0:0|0:0|0:0|0:0,0:0:0:0:
177,138,47566,5,8,0:0:0:0:
195,147,47637,1,8,0:0:0:0:
212,157,47709,2,0,P|242:146|276:142,3,51.7500009870529,8|8|8|8,0:0|0:0|0:0|0:0,0:0:0:0:
214,232,47995,2,0,P|242:245|269:266,3,51.7500009870529,8|8|8|8,0:0|0:0|0:0|0:0,0:0:0:0:
121,353,48281,6,0,B|82:342|82:342|98:277|98:277|95:272|95:272|116:250|116:250|114:243|114:243|133:142,1,225,4|2,0:0|0:0,0:0:0:0:
149,100,48709,1,8,0:0:0:0:
16,25,48852,2,0,L|34:150,1,112.5,2|8,0:0|0:0,0:0:0:0:
154,0,49138,5,2,0:0:0:0:
154,0,49281,1,8,0:0:0:0:
249,87,49423,2,0,B|303:75|303:75|307:66|307:66|363:54,1,112.5,2|8,0:0|0:0,0:0:0:0:
173,44,49709,5,2,0:0:0:0:
173,44,49852,1,8,0:0:0:0:
132,182,49995,2,0,B|78:170|78:170|74:161|74:161|27:151,1,112.5,2|8,0:0|0:0,0:0:0:0:
173,71,50281,5,2,0:0:0:0:
173,71,50424,1,8,0:0:0:0:
252,207,50566,2,0,B|287:223|287:223|350:189|350:189|355:175|355:175|411:141|411:141|474:160,1,225,4|2,0:0|0:0,0:0:0:0:
419,224,50995,1,8,0:0:0:0:
277,132,51138,2,0,L|290:12,1,112.5,2|8,0:0|0:0,0:0:0:0:
459,143,51423,5,2,0:0:0:0:
333,245,51566,1,8,0:0:0:0:
471,135,51709,2,0,B|482:148|499:158|499:158|483:197|500:243,1,112.5,2|8,0:0|0:0,0:0:0:0:
275,297,51995,2,0,B|258:271|270:240|270:240|293:221|331:226,1,112.5,2|8,0:0|0:0,0:0:0:0:
436,353,52281,5,2,0:0:0:0:
393,174,52423,1,8,0:0:0:0:
393,174,52495,1,0,0:0:0:0:
393,174,52566,1,2,0:0:0:0:
506,255,52709,1,8,0:0:0:0:
279,384,52852,6,0,B|229:362|229:362|222:364|222:364|177:299|177:299|178:293|178:293|94:265,1,225,4|2,0:2|0:0,0:0:0:0:
119,354,53281,1,8,0:0:0:0:
302,182,53423,2,0,L|283:298,1,112.5,2|8,0:0|0:0,0:0:0:0:
89,36,53709,5,2,0:0:0:0:
89,36,53852,1,8,0:0:0:0:
157,118,53995,2,0,B|172:129|172:129|245:106|245:106|260:81,1,112.5,2|8,0:0|0:0,0:0:0:0:
106,49,54281,5,2,0:0:0:0:
106,49,54424,1,8,0:0:0:0:
118,207,54567,2,0,B|103:218|103:218|30:195|30:195|15:170,1,112.5,2|8,0:0|0:0,0:0:0:0:
99,69,54852,5,2,0:0:0:0:
99,69,54995,1,8,0:0:0:0:
204,219,55138,2,0,B|236:261|236:261|242:253|242:253|318:227|318:227|331:230|331:230|426:198,1,225,2|2,0:0|0:0,0:0:0:0:
331,143,55566,1,8,0:0:0:0:
259,345,55709,2,0,L|126:317,1,112.5,2|8,0:0|0:0,0:0:0:0:
308,164,55995,2,0,B|331:190|331:190|309:283,1,112.5,2|8,0:0|0:0,0:0:0:0:
173,102,56281,5,2,0:0:0:0:
335,18,56423,1,8,0:0:0:0:
202,213,56566,1,2,0:0:0:0:
169,201,56638,1,0,0:0:0:0:
137,190,56709,1,0,0:0:0:0:
104,178,56781,1,0,0:0:0:0:
72,166,56852,2,0,P|93:109|159:116,1,112.5,8|0,0:0|0:0,0:0:0:0:
170,335,57138,6,0,B|124:311|124:311|121:301|121:301|45:270,1,112.5,6|0,0:2|0:0,0:0:0:0:
242,52,57423,2,0,B|246:83|262:104|262:104|241:180|241:180|246:184|246:184|267:222|265:280,1,225,0|2,0:0|0:0,0:0:0:0:
281,338,57852,1,8,0:0:0:0:
432,229,57995,2,0,P|421:283|415:360,1,112.5,2|8,0:0|0:0,0:0:0:0:
328,183,58281,5,2,0:0:0:0:
328,183,58423,1,8,0:0:0:0:
406,93,58566,2,0,B|436:95|457:114|457:114|464:109|464:109|487:115|515:101,1,112.5,2|8,0:0|0:0,0:0:0:0:
311,226,58852,5,2,0:0:0:0:
351,18,58995,1,8,0:0:0:0:
397,201,59138,1,2,0:0:0:0:
353,0,59281,1,8,0:0:0:0:
259,160,59423,2,0,B|229:156|204:167|204:167|198:160|198:160|170:155|151:139,1,112.5,2|8,0:0|0:0,0:0:0:0:
347,362,59709,6,0,B|379:329|379:329|399:222|333:151,1,225,4|2,0:0|0:0,0:0:0:0:
294,231,60138,1,8,0:0:0:0:
219,15,60281,6,0,B|244:43|261:80|261:80|252:134,1,112.5,2|8,0:0|0:0,0:0:0:0:
199,205,60495,1,0,0:0:0:0:
199,205,60566,2,0,B|162:202|124:188|124:188|92:144,1,112.5,2|8,0:0|0:0,0:0:0:0:
48,89,60781,1,0,0:0:0:0:
48,89,60852,6,0,B|115:74|115:74|278:142,1,225,2|2,0:0|0:0,0:0:0:0:
329,4,61281,2,0,B|340:26|350:54|350:54|355:50|355:50|383:56|414:67,2,112.5,8|2|8,0:0|0:0|0:0,0:0:0:0:
322,239,61709,2,0,B|322:212|332:195|332:195|326:170|326:170|340:119,1,112.5,2|8,0:0|0:0,0:0:0:0:
429,308,61995,6,0,B|412:343|370:352|370:352|365:357|365:357|290:321|290:321|273:321|273:321|218:295,1,225,4|2,0:2|0:0,0:0:0:0:
170,236,62423,1,8,0:0:0:0:
65,351,62566,2,0,P|57:285|28:231,1,112.5,2|8,0:0|0:0,0:0:0:0:
176,82,62852,5,2,0:0:0:0:
176,82,62995,1,8,0:0:0:0:
83,0,63138,2,0,B|64:23|57:45|57:45|51:51|51:51|61:81|53:114,1,112.5,2|8,0:0|0:0,0:0:0:0:
199,132,63423,5,2,0:0:0:0:
199,132,63566,1,8,0:0:0:0:
291,68,63709,2,0,B|309:91|316:113|316:113|322:119|322:119|312:149|320:182,1,112.5,2|8,0:0|0:0,0:0:0:0:
199,179,63995,5,2,0:0:0:0:
199,179,64138,1,8,0:0:0:0:
89,165,64281,2,0,B|56:181|56:181|49:179|49:179|25:212|24:250|24:250|19:254|19:254|19:302|86:353,1,225,2|2,0:0|0:0,0:0:0:0:
113,264,64709,1,8,0:0:0:0:
225,358,64852,2,0,P|239:346|329:313,1,112.5,2|8,0:0|0:0,0:0:0:0:
320,149,65138,2,0,P|252:197|270:236,1,112.5,2|8,0:0|0:0,0:0:0:0:
453,358,65423,6,0,L|429:225,2,112.5,2|8|2,0:0|0:0|0:0,0:0:0:0:
329,239,65852,2,0,L|348:128,2,112.5,8|2|8,0:0|0:0|0:0,0:0:0:0:
430,42,66281,2,0,L|447:166,1,112.5,2|8,0:0|0:0,0:0:0:0:
430,179,66495,1,0,0:0:0:0:
430,179,66566,5,10,0:0:0:0:
256,250,66709,1,0,0:0:0:0:
352,96,66852,1,0,0:0:0:0:
364,313,66995,5,8,0:0:0:0:
364,313,67066,1,8,0:0:0:0:
364,313,67138,1,0,0:0:0:0:
298,174,67281,1,0,0:0:0:0:
217,353,67424,5,8,0:0:0:0:
359,226,67566,1,8,0:0:0:0:
134,278,67709,6,0,P|119:183|86:88,1,180,4|2,0:0|0:2,0:0:0:0:
38,26,68138,1,8,0:0:0:0:
18,223,68281,2,0,P|54:200|117:183,1,90,2|8,0:2|0:0,0:0:0:0:
174,96,68566,2,0,P|210:119|273:136,1,90,2|8,0:2|0:0,0:0:0:0:
407,47,68852,6,0,B|388:62|388:62|401:130,1,90,2|8,0:2|0:0,0:0:0:0:
316,264,69138,2,0,L|331:163,1,90,2|8,0:2|0:0,0:0:0:0:
426,352,69423,5,2,0:2:0:0:
487,268,69566,1,8,0:0:0:0:
487,268,69638,1,0,0:0:0:0:
487,268,69709,2,0,B|427:244|427:244|392:257,1,90,4|8,0:2|0:0,0:0:0:0:
276,348,69995,6,0,B|291:260|291:260|289:253|289:253|306:154,1,180,4|2,0:0|0:2,0:0:0:0:
376,182,70423,1,8,0:0:0:0:
208,272,70566,2,0,L|103:244,1,90,2|8,0:2|0:0,0:0:0:0:
280,139,70852,2,0,L|385:111,1,90,2|8,0:2|0:0,0:0:0:0:
180,12,71138,6,0,B|164:27|153:49|153:49|152:71|168:97,1,90,2|8,0:2|0:0,0:0:0:0:
286,210,71423,2,0,P|261:148|234:100,1,90,2|8,0:2|0:0,0:0:0:0:
30,133,71709,6,0,B|40:157|40:157|130:172,1,90,2|8,0:2|0:0,0:0:0:0:
134,297,71995,2,0,B|144:272|144:272|234:257,1,90,2|8,0:2|0:0,0:0:0:0:
379,297,72281,6,0,B|333:280|288:316|319:335|264:381|196:341,1,180,4|2,0:2|0:2,0:0:0:0:
321,207,72709,1,8,0:0:0:0:
467,344,72852,2,0,P|456:280|452:232,1,90,2|8,0:2|0:0,0:0:0:0:
347,197,73138,2,0,P|358:133|362:85,1,90,2|8,0:2|0:0,0:0:0:0:
471,2,73423,6,0,B|500:16|509:57|509:57|494:88,1,90,2|8,0:2|0:0,0:0:0:0:
295,79,73709,2,0,P|345:57|390:30,1,90,2|8,0:2|0:0,0:0:0:0:
512,192,73995,6,0,B|473:168|473:168|402:144,1,90,2|8,0:2|0:0,0:0:0:0:
360,254,74281,2,0,B|323:269|323:269|241:271,1,90,2|8,0:2|0:0,0:0:0:0:
104,65,74566,6,0,B|155:71|157:123|157:123|113:240,1,180,4|0,0:0|0:0,0:0:0:0:
79,362,74995,1,8,0:0:0:0:
193,260,75138,2,0,B|161:278|144:303|144:303|91:275|27:282,1,180,2|2,0:2|0:2,0:0:0:0:
263,219,75566,1,8,0:0:0:0:
248,354,75709,2,0,B|346:321|275:268|388:235,1,180,2|0,0:2|0:0,0:0:0:0:
425,170,76066,1,0,0:0:0:0:
425,170,76138,2,0,P|449:197|478:211,1,45
384,380,76281,5,8,0:0:0:0:
388,372,76352,1,8,0:0:0:0:
391,364,76424,2,0,L|386:311,1,45,8|8,0:0|0:0,0:0:0:0:
290,279,76567,5,8,0:0:0:0:
282,264,76638,1,8,0:0:0:0:
276,247,76710,2,0,L|281:194,1,45,8|8,0:0|0:0,0:0:0:0:
359,9,76852,6,0,B|389:39|376:69|376:69|378:75|378:75|324:121|356:191,1,180,4|2,0:0|0:2,0:0:0:0:
427,142,77281,1,8,0:0:0:0:
279,49,77423,2,0,B|238:39|238:39|240:35|240:35|216:39|191:53,1,90,2|8,0:2|0:0,0:0:0:0:
162,143,77709,1,2,0:2:0:0:
38,71,77852,6,0,B|51:111|51:111|50:118|50:118|64:169,1,90,8|2,0:0|0:2,0:0:0:0:
187,166,78138,2,0,B|168:243|168:243|171:250|171:250|146:359,1,180,8|8,0:0|0:0,0:0:0:0:
8,247,78566,2,0,B|28:231|28:231|103:240,1,90,2|8,0:2|0:0,0:0:0:0:
241,331,78852,1,2,0:2:0:0:
64,365,78995,1,8,0:0:0:0:
64,365,79066,1,0,0:0:0:0:
64,365,79138,6,0,B|36:343|36:343|34:308|34:308|31:302|31:302|31:270|31:270|66:218,1,135,4|0,0:2|0:0,0:0:0:0:
51,224,79423,2,0,B|72:236|72:236|61:319,1,90,2|8,0:2|0:0,0:0:0:0:
182,152,79709,2,0,L|196:251,1,90,2|8,0:2|0:0,0:0:0:0:
31,128,79995,5,2,0:2:0:0:
31,128,80138,1,8,0:0:0:0:
76,22,80281,2,0,B|77:41|83:56|83:56|89:57|89:57|121:79|153:67,1,90,2|8,0:2|0:0,0:0:0:0:
268,126,80566,2,0,B|278:69|278:69|281:66|281:66|246:19,1,90,2|8,0:2|0:0,0:0:0:0:
109,172,80852,2,0,B|151:185|151:185|155:180|155:180|221:159,1,90,2|8,0:2|0:0,0:0:0:0:
390,53,81138,2,0,B|372:67|372:67|392:150,1,90,4|8,0:0|0:0,0:0:0:0:
435,307,81423,6,0,B|457:259|457:259|450:263|450:263|306:289,1,180,4|0,0:2|0:0,0:0:0:0:
266,374,81852,1,8,0:0:0:0:
175,228,81995,1,2,0:2:0:0:
100,279,82138,2,0,B|88:250|88:250|60:236|14:255,1,90,8|2,0:0|0:2,0:0:0:0:
113,370,82423,2,0,B|109:277|129:207|129:207|160:183,1,180,8|8,0:0|0:0,0:0:0:0:
169,16,82852,6,0,B|148:40|148:40|61:23,1,90,2|8,0:2|0:0,0:0:0:0:
215,137,83138,2,0,B|273:112|273:112|310:131,1,90,2|8,0:2|0:0,0:0:0:0:
467,26,83423,1,2,0:2:0:0:
386,189,83566,1,8,0:0:0:0:
346,36,83709,5,2,0:2:0:0:
423,94,83852,2,0,B|437:120|437:120|408:221|408:221|409:230|409:230|394:290,1,180,8|8,0:0|0:0,0:0:0:0:
267,248,84281,2,0,L|280:355,1,90,2|8,0:2|0:0,0:0:0:0:
332,164,84566,5,2,0:2:0:0:
405,255,84709,1,8,0:0:0:0:
241,165,84852,1,8,0:0:0:0:
241,165,84923,1,8,0:0:0:0:
241,165,84995,2,0,L|175:180,1,45,8|8,0:0|0:0,0:0:0:0:
302,70,85138,1,0,0:0:0:0:
302,70,85209,1,0,0:0:0:0:
302,70,85281,2,0,L|368:85,1,45
180,5,85423,5,10,0:0:0:0:
180,5,85995,5,10,0:0:0:0:
208,33,86066,1,0,0:0:0:0:
215,73,86138,1,8,0:0:0:0:
199,110,86209,1,0,0:0:0:0:
162,129,86281,1,10,0:0:0:0:
144,165,86352,1,0,0:0:0:0:
148,205,86423,1,8,0:0:0:0:
175,235,86495,1,0,0:0:0:0:
214,246,86566,2,0,L|223:172,3,58.4999973220826,10|0|8|0,0:0|0:0|0:0|0:0,0:0:0:0:
109,192,86852,2,0,L|100:118,3,58.4999973220826,10|0|8|0,0:0|0:0|0:0|0:0,0:0:0:0:
71,330,87138,5,10,0:0:0:0:
100,301,87209,1,0,0:0:0:0:
140,292,87281,1,8,0:0:0:0:
180,297,87352,1,0,0:0:0:0:
210,324,87423,2,0,P|224:341|232:387,3,58.4999973220826,10|0|8|0,0:0|0:0|0:0|0:0,0:0:0:0:
125,373,87709,5,10,0:0:0:0:
129,349,87781,1,0,0:0:0:0:
133,326,87852,1,8,0:0:0:0:
137,303,87923,1,0,0:0:0:0:
141,279,87995,2,0,L|154:203,3,58.4999973220826,10|0|8|0,0:0|0:0|0:0|0:0,0:0:0:0:
64,136,88281,6,0,P|43:108|39:72,3,58.4999973220826,10|0|8|0,0:0|0:0|0:0|0:0,0:0:0:0:
130,56,88566,2,0,P|134:21|157:-6,3,58.4999973220826,10|0|8|0,0:0|0:0|0:0|0:0,0:0:0:0:
238,71,88852,1,10,0:0:0:0:
272,65,88923,1,0,0:0:0:0:
306,59,88995,1,8,0:0:0:0:
340,53,89066,1,0,0:0:0:0:
374,47,89138,2,0,L|450:35,3,58.4999973220826,10|0|8|0,0:0|0:0|0:0|0:0,0:0:0:0:
436,210,89423,5,10,0:0:0:0:
395,215,89495,1,0,0:0:0:0:
356,200,89566,1,8,0:0:0:0:
332,166,89638,1,0,0:0:0:0:
325,125,89709,1,10,0:0:0:0:
306,88,89781,1,0,0:0:0:0:
272,65,89852,1,8,0:0:0:0:
231,65,89923,1,0,0:0:0:0:
195,85,89995,2,0,L|209:151,3,58.4999973220826,10|0|8|0,0:0|0:0|0:0|0:0,0:0:0:0:
302,170,90281,2,0,L|288:236,3,58.4999973220826,10|0|8|0,0:0|0:0|0:0|0:0,0:0:0:0:
182,316,90566,5,14,0:0:0:0:
185,333,90637,1,0,0:0:0:0:
194,347,90708,1,8,0:0:0:0:
208,358,90780,1,0,0:0:0:0:
224,363,90851,1,10,0:0:0:0:
242,361,90923,1,0,0:0:0:0:
257,354,90994,1,8,0:0:0:0:
269,341,91065,1,0,0:0:0:0:
275,325,91138,2,0,P|249:313|206:309,3,58.4999973220826,10|0|8|0,0:0|0:0|0:0|0:0,0:0:0:0:
202,215,91423,2,0,P|170:229|132:231,3,58.4999973220826,10|0|8|0,0:0|0:0|0:0|0:0,0:0:0:0:
56,344,91709,5,10,0:0:0:0:
50,308,91781,1,0,0:0:0:0:
45,273,91852,1,8,0:0:0:0:
41,238,91923,1,0,0:0:0:0:
37,202,91995,2,0,L|30:142,3,58.4999973220826,10|0|8|0,0:0|0:0|0:0|0:0,0:0:0:0:
140,40,92281,1,10,0:0:0:0:
157,55,92352,1,0,0:0:0:0:
166,76,92423,1,8,0:0:0:0:
168,99,92495,1,0,0:0:0:0:
163,121,92566,2,0,P|157:136|124:170,3,58.4999973220826,10|0|8|0,0:0|0:0|0:0|0:0,0:0:0:0:
3,22,92852,5,10,0:0:0:0:
3,22,92923,1,0,0:0:0:0:
3,22,92995,2,0,L|91:1,1,58.4999973220826,8|0,0:0|0:0,0:0:0:0:
100,88,93138,2,0,L|188:109,3,58.4999973220826,10|0|8|0,0:0|0:0|0:0|0:0,0:0:0:0:
251,9,93423,5,10,0:0:0:0:
251,9,93495,1,0,0:0:0:0:
251,9,93566,2,0,P|242:42|260:78,1,58.4999973220826,8|0,0:0|0:0,0:0:0:0:
326,116,93709,2,0,P|337:80|364:50,3,58.4999973220826,10|0|8|0,0:0|0:0|0:0|0:0,0:0:0:0:
490,145,93995,5,10,0:0:0:0:
449,150,94067,1,0,0:0:0:0:
415,175,94138,1,8,0:0:0:0:
400,214,94210,1,0,0:0:0:0:
404,255,94281,1,10,0:0:0:0:
396,296,94353,1,0,0:0:0:0:
369,327,94424,1,8,0:0:0:0:
329,338,94495,1,0,0:0:0:0:
289,328,94566,5,10,0:0:0:0:
282,305,94638,1,8,0:0:0:0:
277,282,94709,2,0,L|264:205,1,58.4999973220826,8|8,0:0|0:0,0:0:0:0:
361,202,94852,5,8,0:0:0:0:
363,190,94924,1,8,0:0:0:0:
365,178,94995,2,0,L|378:101,1,58.4999973220826,8|8,0:0|0:0,0:0:0:0:
306,17,95138,6,0,P|254:72|204:37,1,116.999994644165,4|0,0:0|0:0,0:0:0:0:
81,2,95423,5,10,0:0:0:0:
81,2,95495,1,0,0:0:0:0:
81,2,95566,2,0,L|95:75,1,58.4999973220826,8|0,0:0|0:0,0:0:0:0:
15,186,95709,6,0,P|25:153|22:111,3,58.4999973220826,10|0|8|0,0:0|0:0|0:0|0:0,0:0:0:0:
139,223,95995,2,0,P|125:190|130:148,3,58.4999973220826,10|0|8|0,0:0|0:0|0:0|0:0,0:0:0:0:
21,306,96281,5,10,0:0:0:0:
55,311,96352,1,0,0:0:0:0:
89,317,96423,1,8,0:0:0:0:
123,324,96495,1,0,0:0:0:0:
157,331,96566,2,0,L|225:343,3,58.4999973220826,10|0|8|0,0:0|0:0|0:0|0:0,0:0:0:0:
237,236,96852,5,10,0:0:0:0:
260,232,96923,1,0,0:0:0:0:
283,228,96995,1,8,0:0:0:0:
306,224,97066,1,0,0:0:0:0:
329,221,97138,2,0,L|397:209,3,58.4999973220826,10|0|8|0,0:0|0:0|0:0|0:0,0:0:0:0:
495,326,97423,5,10,0:0:0:0:
479,344,97495,1,0,0:0:0:0:
456,350,97566,1,8,0:0:0:0:
432,346,97638,1,0,0:0:0:0:
411,335,97709,2,0,P|392:312|388:276,3,58.4999973220826,10|0|8|0,0:0|0:0|0:0|0:0,0:0:0:0:
484,222,97995,6,0,L|493:159,3,58.4999973220826,10|0|8|0,0:0|0:0|0:0|0:0,0:0:0:0:
384,139,98281,2,0,L|375:76,3,58.4999973220826,10|0|8|0,0:0|0:0|0:0|0:0,0:0:0:0:
495,26,98566,5,10,0:0:0:0:
477,56,98638,1,0,0:0:0:0:
445,71,98709,1,8,0:0:0:0:
409,68,98781,1,0,0:0:0:0:
381,46,98852,1,10,0:0:0:0:
355,22,98923,1,0,0:0:0:0:
319,18,98995,1,8,0:0:0:0:
284,25,99066,1,0,0:0:0:0:
259,50,99138,2,0,L|277:127,3,58.4999973220826,10|0|8|0,0:0|0:0|0:0|0:0,0:0:0:0:
170,0,99423,2,0,L|156:56,3,58.4999973220826,10|0|8|0,0:0|0:0|0:0|0:0,0:0:0:0:
37,71,99709,5,14,0:0:0:0:
40,88,99781,1,0,0:0:0:0:
43,105,99852,1,8,0:0:0:0:
46,122,99923,1,0,0:0:0:0:
49,139,99995,1,10,0:0:0:0:
52,156,100066,1,0,0:0:0:0:
55,173,100138,1,8,0:0:0:0:
58,190,100209,1,0,0:0:0:0:
61,207,100281,1,10,0:0:0:0:
64,224,100352,1,0,0:0:0:0:
67,241,100423,1,8,0:0:0:0:
70,258,100495,1,0,0:0:0:0:
73,275,100566,2,0,L|87:342,3,58.4999973220826,10|0|8|0,0:0|0:0|0:0|0:0,0:0:0:0:
160,182,100852,5,10,0:0:0:0:
182,185,100923,1,0,0:0:0:0:
205,189,100995,1,8,0:0:0:0:
227,192,101066,1,0,0:0:0:0:
250,196,101138,2,0,L|319:208,3,58.4999973220826,10|0|8|0,0:0|0:0|0:0|0:0,0:0:0:0:
252,356,101423,5,10,0:0:0:0:
216,353,101495,1,0,0:0:0:0:
184,338,101566,1,8,0:0:0:0:
166,307,101638,1,0,0:0:0:0:
161,272,101709,2,0,P|168:241|211:206,3,58.4999973220826,10|0|8|0,0:0|0:0|0:0|0:0,0:0:0:0:
268,123,101995,6,0,L|277:195,3,58.4999973220826,10|0|8|0,0:0|0:0|0:0|0:0,0:0:0:0:
366,206,102281,2,0,L|357:278,3,58.4999973220826,10|0|8|0,0:0|0:0|0:0|0:0,0:0:0:0:
273,299,102566,2,0,L|282:371,3,58.4999973220826,10|0|8|0,0:0|0:0|0:0|0:0,0:0:0:0:
170,247,102852,1,10,0:0:0:0:
170,247,102923,1,0,0:0:0:0:
170,247,102995,2,0,P|138:230|105:232,1,58.4999973220826,8|0,0:0|0:0,0:0:0:0:
82,349,103138,5,10,0:0:0:0:
116,341,103209,1,0,0:0:0:0:
150,334,103281,1,8,0:0:0:0:
184,327,103352,1,0,0:0:0:0:
217,316,103423,2,0,L|299:291,3,58.4999973220826,10|0|8|0,0:0|0:0|0:0|0:0,0:0:0:0:
160,218,103709,5,10,0:0:0:0:
136,213,103781,1,0,0:0:0:0:
113,208,103852,1,8,0:0:0:0:
90,203,103923,1,0,0:0:0:0:
66,198,103995,2,0,L|3:185,3,58.4999973220826,10|0|8|0,0:0|0:0|0:0|0:0,0:0:0:0:
215,19,104281,6,0,B|221:38|233:48|233:48|226:54|226:54|206:106|206:106|202:105|202:105|222:188,1,161.999995056153,4|0,0:2|0:0,0:0:0:0:
291,121,104709,1,0,0:0:0:0:
133,46,104852,1,10,0:0:0:0:
137,49,105138,5,0,0:0:0:0:
137,49,105281,1,0,0:0:0:0:
21,156,105423,2,0,B|31:127|68:129|68:129|71:133|71:133|177:173,1,161.999995056153,2|0,0:0|0:0,0:0:0:0:
115,233,105852,1,0,0:0:0:0:
217,92,105995,2,0,B|247:86|264:119|264:119|261:124|261:124|279:235,1,161.999995056153,10|0,0:0|0:0,0:0:0:0:
203,231,106423,1,0,0:0:0:0:
383,211,106566,6,0,B|383:238|394:259|394:259|389:257|389:257|331:283|286:343,1,161.999995056153,2|0,0:0|0:0,0:0:0:0:
284,330,106923,1,0,0:0:0:0:
284,330,106995,1,0,0:0:0:0:
400,356,107138,1,10,0:0:0:0:
403,359,107424,5,0,0:0:0:0:
403,359,107567,1,0,0:0:0:0:
289,245,107709,2,0,B|255:238|225:255|225:255|225:262|225:262|200:274|188:313|188:313|189:322|189:322|148:334,1,161.999995056153,2|0,0:0|0:0,0:0:0:0:
153,339,108066,1,0,0:0:0:0:
153,339,108138,1,0,0:0:0:0:
0,210,108281,5,10,0:0:0:0:
39,289,108423,2,0,L|16:402,2,80.9999975280763
134,159,108852,6,0,B|107:184|107:184|100:186|100:186|140:195|140:195|146:199|146:199|169:192|169:192|175:195|175:195|222:203,1,161.999995056153,4|0,0:2|0:0,0:0:0:0:
286,181,109281,1,0,0:0:0:0:
211,93,109423,1,10,0:0:0:0:
215,97,109709,5,0,0:0:0:0:
215,97,109852,1,0,0:0:0:0:
283,14,109995,2,0,B|292:45|292:45|358:61|380:95|380:95|387:98|387:98|390:128,1,161.999995056153,2|0,0:0|0:0,0:0:0:0:
316,145,110423,1,0,0:0:0:0:
460,176,110566,2,0,B|446:189|446:189|457:227|433:263,1,80.9999975280763,10|0,0:0|0:0,0:0:0:0:
422,350,110852,2,0,B|435:336|435:336|473:347|509:323,1,80.9999975280763
330,270,111138,6,0,B|304:271|286:258|286:258|281:295|269:314|269:314|263:316|263:316|237:345|188:342,1,161.999995056153,2|0,0:0|0:0,0:0:0:0:
133,215,111566,1,0,0:0:0:0:
49,342,111709,1,10,0:0:0:0:
53,346,111995,5,0,0:0:0:0:
53,346,112138,1,0,0:0:0:0:
10,243,112281,2,0,B|4:232|4:232|48:127|48:127|48:120|48:120|69:70,1,161.999995056153,2|0,0:0|0:0,0:0:0:0:
24,25,112709,1,0,0:0:0:0:
144,131,112852,2,0,B|199:117|199:117|201:114|201:114|240:105,1,80.9999975280763,10|0,0:0|0:0,0:0:0:0:
433,18,113138,6,0,B|411:7|402:7|402:7|400:10|400:10|366:31|377:64,1,80.9999975280763,8|0,0:0|0:0,0:0:0:0:
319,264,113423,6,0,B|348:241|348:241|355:239|355:239|322:138|322:138|318:134|318:134|310:110,1,161.999995056153,4|0,0:0|0:0,0:0:0:0:
289,59,113852,1,0,0:0:0:0:
449,127,113995,1,10,0:0:0:0:
452,130,114281,5,0,0:0:0:0:
452,130,114424,1,0,0:0:0:0:
483,214,114566,2,0,B|475:242|446:267|446:267|454:278|454:278|417:311|435:368,1,161.999995056153,2|0,0:0|0:0,0:0:0:0:
504,333,114995,1,0,0:0:0:0:
373,202,115138,2,0,B|333:206|333:206|311:265,1,80.9999975280763,10|0,0:0|0:0,0:0:0:0:
270,336,115423,2,0,B|293:368|293:368|355:358,1,80.9999975280763
446,235,115709,6,0,B|404:222|404:222|398:223|398:223|368:179|368:179|332:167|332:167|326:162|326:162|282:152,1,161.999995056153,2|0,0:0|0:0,0:0:0:0:
241,141,116138,1,0,0:0:0:0:
451,73,116280,1,10,0:0:0:0:
455,77,116566,5,0,0:0:0:0:
455,77,116709,1,0,0:0:0:0:
319,69,116852,2,0,B|400:56|400:56|401:53|401:53|499:37,1,161.999995056153,2|0,0:0|0:0,0:0:0:0:
268,144,117281,1,0,0:0:0:0:
275,161,117423,2,0,B|309:171|309:171|313:178|313:178|360:191,1,80.9999975280763,10|0,0:0|0:0,0:0:0:0:
223,254,117709,2,0,B|203:226|203:226|197:226|197:226|172:195,1,80.9999975280763,10|0,0:0|0:0,0:0:0:0:
175,45,117995,6,0,B|171:77|136:117|71:91|71:91|65:93|65:93|41:56,1,161.999995056153,4|0,0:0|0:0,0:0:0:0:
97,7,118423,1,0,0:0:0:0:
257,129,118566,1,10,0:0:0:0:
261,133,118852,5,0,0:0:0:0:
261,133,118995,1,0,0:0:0:0:
388,12,119138,2,0,B|397:43|397:43|397:52|397:52|407:84|407:84|413:89|413:89|379:117|379:117|377:124|377:124|345:154,1,161.999995056153,2|0,0:0|0:0,0:0:0:0:
320,63,119566,1,0,0:0:0:0:
413,212,119709,2,0,B|401:223|401:223|397:225|397:225|386:238|386:238|385:242|385:242|365:234|365:234|361:235|361:235|340:228,1,80.9999975280763,10|0,0:0|0:0,0:0:0:0:
195,117,119995,2,0,B|210:112|210:112|215:112|215:112|231:107|231:107|233:104|233:104|247:121|247:121|250:122|250:122|266:138,1,80.9999975280763
212,261,120281,6,0,B|205:234|182:241|162:227|162:227|158:233|158:233|76:277,1,161.999995056153,2|0,0:0|0:0,0:0:0:0:
13,315,120709,1,0,0:0:0:0:
157,367,120852,1,10,0:0:0:0:
161,371,121138,5,0,0:0:0:0:
161,371,121281,1,0,0:0:0:0:
301,198,121423,2,0,B|328:212|328:212|320:224|320:224|310:278|310:278|298:294|298:294|299:365,1,161.999995056153,2|0,0:0|0:0,0:0:0:0:
143,254,121852,1,0,0:0:0:0:
143,254,121923,1,0,0:0:0:0:
143,254,121995,2,0,B|184:242|184:242|229:238,1,80.9999975280763,10|0,0:0|0:0,0:0:0:0:
280,360,122281,2,0,B|321:372|321:372|366:376,1,80.9999975280763
512,147,122566,5,12,0:0:0:0:
439,312,122709,1,0,0:0:0:0:
432,328,122852,1,0,0:0:0:0:
324,118,122995,5,8,0:0:0:0:
324,118,123066,1,8,0:0:0:0:
324,118,123138,1,0,0:0:0:0:
371,273,123281,1,0,0:0:0:0:
419,56,123423,5,10,0:0:0:0:
301,219,123566,1,0,0:0:0:0:
192,60,123709,6,0,B|136:37|91:86|121:101|85:153|5:130,1,188.999994232178,4|10,0:0|0:2,0:0:0:0:
38,61,124138,1,0,0:0:0:0:
176,173,124281,2,0,P|164:218|149:285,1,94.499997116089,2|0,0:2|0:0,0:0:0:0:
23,264,124566,2,0,P|35:309|50:376,1,94.499997116089,10|0,0:2|0:0,0:0:0:0:
169,258,124852,5,2,0:2:0:0:
246,337,124995,1,0,0:0:0:0:
246,337,125066,1,0,0:0:0:0:
246,337,125138,2,0,L|348:313,1,94.499997116089,10|0,0:2|0:0,0:0:0:0:
438,172,125423,6,0,L|424:94,3,47.2499985580445,2|0|0|0,0:2|0:0|0:0|0:0,0:0:0:0:
492,231,125709,2,0,L|479:324,1,94.499997116089,10|0,0:2|0:0,0:0:0:0:
278,235,125995,6,0,B|341:215|341:215|365:159|365:159|432:142,1,188.999994232178,4|10,0:2|0:2,0:0:0:0:
419,220,126423,1,0,0:0:0:0:
271,143,126566,2,0,L|289:37,1,94.499997116089,2|0,0:2|0:0,0:0:0:0:
370,0,126781,1,0,0:0:0:0:
383,18,126852,2,0,L|398:111,1,94.499997116089,10|0,0:2|0:0,0:0:0:0:
255,35,127138,5,2,0:2:0:0:
255,35,127281,1,0,0:0:0:0:
128,120,127423,2,0,P|73:99|19:86,1,94.499997116089,10|0,0:2|0:0,0:0:0:0:
231,46,127709,5,2,0:2:0:0:
303,176,127852,1,0,0:0:0:0:
303,176,127923,1,0,0:0:0:0:
303,176,127995,2,0,P|349:168|357:120,1,94.499997116089,10|0,0:2|0:0,0:0:0:0:
82,187,128281,6,0,P|101:244|134:376,1,188.999994232178,4|10,0:2|0:2,0:0:0:0:
51,355,128709,1,0,0:0:0:0:
200,286,128852,2,0,P|245:298|312:313,1,94.499997116089,2|0,0:2|0:0,0:0:0:0:
348,382,129066,1,0,0:0:0:0:
358,366,129138,2,0,P|403:354|470:339,1,94.499997116089,10|0,0:2|0:0,0:0:0:0:
376,159,129423,5,2,0:2:0:0:
376,159,129566,1,0,0:0:0:0:
475,231,129709,2,0,P|395:198|366:187,1,94.499997116089,10|0,0:2|0:0,0:0:0:0:
341,66,129995,5,2,0:2:0:0:
341,66,130138,1,0,0:0:0:0:
242,138,130281,2,0,P|322:105|351:94,1,94.499997116089,10|0,0:2|0:0,0:0:0:0:
484,7,130566,6,0,L|495:73,2,47.2499985580445,4|0|8,0:2|0:0|0:0,0:0:0:0:
420,149,130852,1,2,0:2:0:0:
420,149,130995,1,8,0:0:0:0:
327,45,131138,2,0,P|277:68|214:85,1,94.499997116089,2|8,0:2|0:0,0:0:0:0:
89,15,131423,2,0,P|121:18|144:33,3,47.2499985580445,2|0|0|0,0:2|0:0|0:0|0:0,0:0:0:0:
28,75,131709,5,8,0:0:0:0:
28,75,131781,1,8,0:0:0:0:
28,75,131852,2,0,L|18:155,1,47.2499985580445,8|8,0:0|0:0,0:0:0:0:
119,201,131995,2,0,L|109:121,3,47.2499985580445,8|8|8|8,0:0|0:0|0:0|0:0,0:0:0:0:
12,253,132281,5,8,0:0:0:0:
44,324,132423,1,8,0:0:0:0:
126,365,132566,1,8,0:0:0:0:
231,339,132709,1,8,0:0:0:0:
307,188,132852,6,0,B|300:164|268:152|268:152|225:172|205:224|238:272,1,188.999994232178,4|0,0:0|0:2,0:0:0:0:
268,331,133281,1,8,0:0:0:0:
370,249,133423,2,0,P|432:266|471:287,1,94.499997116089,2|8,0:2|0:0,0:0:0:0:
358,122,133709,2,0,P|315:141|269:152,1,94.499997116089,2|8,0:2|0:0,0:0:0:0:
467,0,133995,5,2,0:2:0:0:
467,0,134138,1,8,0:0:0:0:
394,55,134281,2,0,L|408:163,1,94.499997116089,2|8,0:2|0:0,0:0:0:0:
260,81,134566,5,2,0:2:0:0:
260,81,134709,1,8,0:0:0:0:
333,136,134852,2,0,L|319:244,1,94.499997116089,2|8,0:2|0:0,0:0:0:0:
349,347,135066,1,0,0:0:0:0:
357,359,135138,6,0,B|392:330|392:330|231:299,1,188.999994232178,4|2,0:2|0:2,0:0:0:0:
216,234,135566,1,8,0:0:0:0:
107,348,135709,2,0,L|86:242,1,94.499997116089,2|8,0:2|0:0,0:0:0:0:
247,140,135995,2,0,L|226:246,1,94.499997116089,2|8,0:2|0:0,0:0:0:0:
19,153,136281,5,2,0:2:0:0:
19,153,136423,1,8,0:0:0:0:
82,88,136566,2,0,P|117:111|176:131,1,94.499997116089,2|8,0:2|0:0,0:0:0:0:
277,222,136852,5,2,0:2:0:0:
312,68,136995,1,8,0:0:0:0:
312,68,137066,1,0,0:0:0:0:
312,68,137138,2,0,P|263:107|263:155,1,94.499997116089,4|8,0:2|0:0,0:0:0:0:
485,263,137423,6,0,B|374:228|467:184|328:137,1,188.999994232178,4|2,0:0|0:2,0:0:0:0:
344,227,137852,1,8,0:0:0:0:
475,39,137995,2,0,P|478:95|500:152,1,94.499997116089,2|8,0:2|0:0,0:0:0:0:
361,216,138281,2,0,P|358:272|336:329,1,94.499997116089,2|8,0:2|0:0,0:0:0:0:
503,380,138566,5,2,0:2:0:0:
503,380,138709,1,8,0:0:0:0:
422,319,138852,2,0,L|304:341,1,94.499997116089,2|8,0:2|0:0,0:0:0:0:
180,161,139138,5,2,0:2:0:0:
180,161,139281,1,8,0:0:0:0:
230,235,139424,2,0,L|208:353,1,94.499997116089,2|0,0:2|0:0,0:0:0:0:
189,359,139638,1,0,0:0:0:0:
193,370,139709,5,8,0:0:0:0:
230,235,139852,1,8,0:0:0:0:
230,235,140138,6,0,L|251:179,2,47.2499985580445,8|8|8,0:0|0:0|0:0,0:0:0:0:
180,140,140423,1,8,0:0:0:0:
285,290,140566,1,8,0:0:0:0:
141,247,140709,1,8,0:0:0:0:
174,372,140852,5,8,0:0:0:0:
141,338,140947,6,0,P|137:300|120:250,1,62.9999980773926,8|8,0:0|0:0,0:0:0:0:
196,215,141138,6,0,P|200:177|217:127,2,62.9999980773926,8|8|8,0:0|0:0|0:0,0:0:0:0:
119,34,141423,6,0,P|109:22|43:45,1,90.0000034332277,4|0,0:0|0:0,0:0:0:0:
35,195,141614,6,0,P|24:153|57:126,1,90.0000034332277,4|0,0:0|0:0,0:0:0:0:
136,173,141804,6,0,P|136:187|204:207,1,90.0000034332277,4|0,0:0|0:0,0:0:0:0:
215,92,141995,6,0,B|363:38|313:182|478:134,1,270.000010299683,4|4,0:2|2:3,0:0:0:0:
464,137,142852,5,2,2:3:0:0:
473,119,142947,5,2,2:3:0:0:
473,99,143042,5,2,2:3:0:0:
465,80,143138,6,0,P|392:138|420:321,1,270.000010299683,0|4,2:0|2:3,0:0:0:0:
401,301,143995,1,8,0:0:0:0:
502,172,144138,1,8,0:0:0:0:
260,215,144281,6,0,P|278:279|295:369,1,135.000005149842,4|0,0:0|0:0,0:0:0:0:
363,59,144852,2,0,B|400:92|384:144|336:166|282:136|264:91|264:91|249:53|206:10|119:50|117:112|144:143|174:165|193:166|193:166|175:116|218:91,1,540.000020599366,4|4,2:3|2:3,0:0:0:0:
86,17,146281,5,8,0:0:0:0:
12,226,146566,6,0,B|35:182|94:182|94:182|165:263|91:358,1,270.000010299683,4|4,0:2|2:3,0:0:0:0:
104,339,147423,1,0,2:0:0:0:
104,339,147709,2,0,P|168:328|260:303,2,135.000005149842,0|0|4,2:0|2:0|2:3,0:0:0:0:
262,358,148852,6,0,P|269:334|282:302,2,45.0000017166138,4|2|2,0:0|2:3|2:3,0:0:0:0:
275,358,149138,2,0,P|282:334|295:302,2,45.0000017166138,2|2|2,2:3|2:3|2:3,0:0:0:0:
383,271,149423,2,0,P|376:247|363:215,2,45.0000017166138,2|2|2,2:3|2:3|2:3,0:0:0:0:
370,271,149709,2,0,P|363:247|350:215,2,45.0000017166138,2|2|2,2:3|2:3|2:3,0:0:0:0:
260,157,149995,5,8,0:0:0:0:
260,157,150066,1,8,0:0:0:0:
260,157,150138,2,0,L|315:149,1,33.7500012874604
357,98,150281,2,0,L|412:106,3,33.7500012874604,8|8|8|8,0:0|0:0|0:0|0:0,0:0:0:0:
274,9,150566,5,8,0:0:0:0:
250,11,150638,1,8,0:0:0:0:
226,13,150709,1,8,0:0:0:0:
202,16,150781,1,8,0:0:0:0:
178,19,150852,2,0,L|134:25,3,33.7500012874604,8|8|8|8,0:0|0:0|0:0|0:0,0:0:0:0:
52,81,151138,5,4,0:0:0:0:
34,141,151233,1,2,2:3:0:0:
53,193,151328,1,2,2:3:0:0:
97,216,151423,1,2,0:3:0:0:
141,214,151519,1,2,2:3:0:0:
171,191,151614,1,2,2:3:0:0:
182,166,151709,5,2,0:3:0:0:
135,180,151804,1,2,2:3:0:0:
115,218,151900,1,2,2:3:0:0:
118,255,151995,1,2,0:3:0:0:
133,283,152090,1,2,2:3:0:0:
155,297,152185,1,2,2:3:0:0:
179,302,152281,5,2,0:3:0:0:
217,269,152376,1,2,2:3:0:0:
259,259,152471,1,2,2:3:0:0:
295,268,152566,1,2,0:3:0:0:
321,284,152661,1,2,2:3:0:0:
345,288,152757,1,2,2:3:0:0:
363,282,152852,6,0,P|356:337|353:388,1,94.499997116089,2|0,0:0|2:0,0:0:0:0:
480,273,153138,2,0,P|476:225|470:179,1,94.499997116089,2|8,0:0|0:0,0:0:0:0:
411,110,153352,5,0,0:0:0:0:
405,98,153423,2,0,P|426:47|482:52,1,94.499997116089,2|8,0:0|0:0,0:0:0:0:
282,152,153709,2,0,P|328:149|354:186,1,94.499997116089,2|8,0:0|0:0,0:0:0:0:
503,121,153995,6,0,P|420:126|340:140,1,161.999995056153,2|2,0:0|0:0,0:0:0:0:
394,210,154423,1,8,0:0:0:0:
247,29,154566,6,0,B|178:66|178:66|200:153|200:153|206:160|206:160|233:281,1,283.499991348267,2|8,0:0|0:0,0:0:0:0:
126,256,155138,2,0,B|148:296|148:296|147:301|147:301|171:343|171:343|220:351|220:351|228:348|228:348|277:356,1,188.999994232178,2|2,0:0|0:0,0:0:0:0:
247,276,155566,1,8,0:0:0:0:
340,171,155709,6,0,L|321:291,1,94.499997116089,2|8,0:0|0:0,0:0:0:0:
191,86,155995,2,0,L|210:206,1,94.499997116089,2|8,0:0|0:0,0:0:0:0:
465,45,156281,6,0,B|397:34|397:34|395:31|395:31|322:21,2,141.749995674133,2|2|10,0:0|2:3|0:0,0:0:0:0:
376,321,156852,6,0,B|398:302|398:302|418:241|354:187,2,141.749995674133,2|2|10,0:0|2:3|0:0,0:0:0:0:
180,118,157423,6,0,P|224:101|275:96,1,94.499997116089,2|8,0:0|0:0,0:0:0:0:
157,241,157709,2,0,P|108:238|86:188,1,94.499997116089,2|8,0:0|0:0,0:0:0:0:
317,28,157995,2,1,P|295:100|267:236,1,188.999994232178,2|2,0:0|0:0,0:0:0:0:
276,289,158423,1,8,0:0:0:0:
203,100,158566,5,2,0:0:0:0:
361,188,158709,1,8,0:0:0:0:
164,196,158852,1,2,0:0:0:0:
327,108,158995,1,8,0:0:0:0:
241,286,159138,2,0,P|189:259|58:214,1,188.999994232178,2|2,0:0|0:0,0:0:0:0:
47,363,159566,5,8,0:0:0:0:
47,363,159638,1,0,0:0:0:0:
47,363,159709,2,0,P|101:340|144:336,1,94.499997116089,2|8,0:0|0:0,0:0:0:0:
159,258,159923,2,0,P|213:279|246:307,1,94.499997116089,2|0,2:3|0:0,0:0:0:0:
320,270,160138,2,0,P|331:297|333:318,1,47.2499985580445,10|0,0:0|0:0,0:0:0:0:
460,380,160281,6,0,L|435:152,1,188.999994232178,4|2,0:2|0:0,0:0:0:0:
432,118,160709,1,8,0:0:0:0:
228,68,160852,6,0,B|227:37|208:18|208:18|291:38|333:112,1,188.999994232178,2|2,0:0|0:0,0:0:0:0:
345,157,161281,1,8,0:0:0:0:
214,240,161423,6,0,P|151:207|91:190,1,94.499997116089,2|8,0:0|0:0,0:0:0:0:
43,88,161709,2,0,P|110:64|153:37,1,94.499997116089,2|8,0:0|0:0,0:0:0:0:
71,285,161995,2,0,P|5:250|0:208,1,94.499997116089,2|8,0:0|0:0,0:0:0:0:
122,185,162281,1,2,0:0:0:0:
122,185,162423,1,8,0:0:0:0:
197,93,162566,6,0,B|252:121|252:121|270:363,1,283.499991348267,2|8,0:0|0:0,0:0:0:0:
181,299,163138,2,0,B|235:217|326:271|326:271|359:351|451:336,1,283.499991348267,2|8,0:0|0:0,0:0:0:0:
502,196,163709,2,0,P|452:232|411:215,1,94.499997116089,2|0,0:0|0:0,0:0:0:0:
311,22,163995,5,2,0:0:0:0:
324,34,164090,1,2,2:3:0:0:
336,62,164185,1,2,2:3:0:0:
326,105,164281,1,2,0:3:0:0:
290,140,164376,1,2,2:3:0:0:
233,136,164471,1,2,2:3:0:0:
187,92,164566,1,6,0:3:0:0:
145,77,164661,1,2,2:3:0:0:
114,84,164757,1,2,2:3:0:0:
101,98,164852,6,0,L|395:69,1,283.499991348267,4|8,0:0|0:0,0:0:0:0:
97,233,165423,2,0,P|52:198|54:137,1,94.499997116089,2|8,0:0|0:0,0:0:0:0:
221,48,165709,2,0,P|228:104|183:146,1,94.499997116089,2|8,0:0|0:0,0:0:0:0:
94,57,165995,5,2,0:0:0:0:
134,160,166138,2,0,P|116:238|96:359,1,188.999994232178,8|8,0:0|0:0,0:0:0:0:
216,260,166566,5,2,0:0:0:0:
216,260,166709,1,8,0:0:0:0:
302,330,166852,2,0,L|410:314,1,94.499997116089,2|8,0:0|0:0,0:0:0:0:
437,131,167138,5,2,0:0:0:0:
356,196,167281,1,8,0:0:0:0:
473,285,167423,2,0,P|505:241|489:204,1,94.499997116089,2|8,0:0|0:0,0:0:0:0:
350,81,167709,5,2,0:0:0:0:
350,81,167781,1,0,0:0:0:0:
350,81,167852,1,8,0:0:0:0:
426,20,167995,2,0,P|484:48|530:62,1,94.499997116089,2|8,0:0|0:0,0:0:0:0:
383,168,168281,5,2,0:0:0:0:
334,54,168423,1,8,0:0:0:0:
475,142,168566,2,0,L|456:258,1,94.499997116089,2|8,0:0|0:0,0:0:0:0:
328,77,168852,5,2,0:0:0:0:
328,77,168923,1,0,0:0:0:0:
328,77,168995,1,8,0:0:0:0:
212,160,169138,2,0,P|186:146|168:139,1,40.4999987640381
95,57,169423,5,10,0:0:0:0:
65,86,169495,1,0,0:0:0:0:
56,125,169566,1,8,0:0:0:0:
64,165,169638,1,0,0:0:0:0:
93,193,169709,1,10,0:0:0:0:
123,222,169781,1,0,0:0:0:0:
132,261,169852,1,8,0:0:0:0:
120,300,169924,1,0,0:0:0:0:
91,329,169995,2,0,L|19:316,3,58.4999973220826,10|0|8|0,0:0|0:0|0:0|0:0,0:0:0:0:
101,234,170281,2,0,L|158:223,3,58.4999973220826,10|0|8|0,0:0|0:0|0:0|0:0,0:0:0:0:
216,306,170566,6,0,L|205:385,1,58.4999973220826,10|0,0:0|0:0,0:0:0:0:
285,242,170709,2,0,L|274:163,3,58.4999973220826,8|0|10|0,0:0|0:0|0:0|0:0,0:0:0:0:
206,303,170995,2,0,L|195:382,1,58.4999973220826,8|0,0:0|0:0,0:0:0:0:
298,382,171138,5,10,0:0:0:0:
337,371,171209,1,0,0:0:0:0:
376,360,171281,1,8,0:0:0:0:
415,350,171352,1,0,0:0:0:0:
453,338,171423,2,0,L|526:319,3,58.4999973220826,10|0|8|0,0:0|0:0|0:0|0:0,0:0:0:0:
389,194,171709,6,0,B|377:204|377:204|383:256,1,58.4999973220826,10|0,0:0|0:0,0:0:0:0:
401,213,171852,2,0,B|389:223|389:223|395:275,1,58.4999973220826,8|0,0:0|0:0,0:0:0:0:
441,121,171995,6,0,B|451:133|451:133|503:127,1,58.4999973220826,10|0,0:0|0:0,0:0:0:0:
454,115,172138,2,0,B|464:127|464:127|516:121,1,58.4999973220826,8|0,0:0|0:0,0:0:0:0:
373,71,172281,6,0,B|385:61|385:61|379:9,1,58.4999973220826,10|0,0:0|0:0,0:0:0:0:
368,65,172424,2,0,B|380:55|380:55|374:3,1,58.4999973220826,8|0,0:0|0:0,0:0:0:0:
297,147,172566,6,0,L|239:157,3,58.4999973220826,10|0|8|0,0:0|0:0|0:0|0:0,0:0:0:0:
166,14,172852,5,10,0:0:0:0:
187,41,172923,1,0,0:0:0:0:
190,76,172995,1,8,0:0:0:0:
176,108,173066,1,0,0:0:0:0:
150,132,173138,2,0,P|125:142|75:129,3,58.4999973220826,10|0|8|0,0:0|0:0|0:0|0:0,0:0:0:0:
5,56,173423,5,10,0:0:0:0:
27,51,173495,1,0,0:0:0:0:
50,48,173566,1,8,0:0:0:0:
72,44,173638,1,0,0:0:0:0:
95,39,173709,2,0,L|162:25,3,58.4999973220826,10|0|8|0,0:0|0:0|0:0|0:0,0:0:0:0:
23,136,173995,6,0,B|135:181|45:238|153:284,1,207.000003948212,10|10,0:0|0:0,0:0:0:0:
13,226,174423,1,8,0:0:0:0:
172,109,174566,5,10,0:0:0:0:
172,109,174638,1,0,0:0:0:0:
172,109,174709,2,0,L|237:118,1,51.7500009870529,8|0,0:0|0:0,0:0:0:0:
277,208,174852,1,10,0:0:0:0:
277,208,174924,1,0,0:0:0:0:
277,208,174995,2,0,L|342:199,1,51.7500009870529,8|0,0:0|0:0,0:0:0:0:
492,66,175138,6,0,B|441:51|441:51|360:115|360:115|293:98,1,207.000003948212,10|10,0:0|0:0,0:0:0:0:
340,28,175566,1,8,0:0:0:0:
466,157,175709,1,10,0:0:0:0:
466,157,175781,1,0,0:0:0:0:
466,157,175852,1,8,0:0:0:0:
315,279,175995,1,10,0:0:0:0:
382,124,176138,1,8,0:0:0:0:
457,332,176281,5,10,0:0:0:0:
457,332,176352,1,0,0:0:0:0:
457,332,176423,2,0,L|389:346,1,51.7500009870529,8|0,0:0|0:0,0:0:0:0:
331,204,176566,1,10,0:0:0:0:
331,204,176637,1,0,0:0:0:0:
331,204,176709,2,0,L|399:218,1,51.7500009870529,8|0,0:0|0:0,0:0:0:0:
275,358,176852,2,0,L|263:284,3,51.7500009870529,10|0|8|0,0:0|0:0|0:0|0:0,0:0:0:0:
178,260,177138,2,0,L|190:186,3,51.7500009870529,10|0|8|0,0:0|0:0|0:0|0:0,0:0:0:0:
91,357,177423,5,8,0:0:0:0:
41,331,177519,1,8,0:0:0:0:
23,285,177614,1,8,0:0:0:0:
32,244,177709,1,8,0:0:0:0:
55,219,177804,1,8,0:0:0:0:
70,196,177900,1,8,0:0:0:0:
74,175,177995,5,8,0:0:0:0:
121,202,178090,1,8,0:0:0:0:
168,196,178185,1,8,0:0:0:0:
196,165,178281,1,8,0:0:0:0:
226,148,178376,1,8,0:0:0:0:
253,149,178471,1,8,0:0:0:0:
268,160,178566,6,0,B|237:185|237:185|74:134,1,188.999994232178,4|2,0:0|0:0,0:0:0:0:
149,77,178995,1,8,0:0:0:0:
152,241,179138,1,2,0:2:0:0:
152,241,179209,1,0,0:0:0:0:
152,241,179281,1,8,0:0:0:0:
3,165,179423,2,0,P|17:101|21:47,1,94.499997116089,2|8,0:2|0:0,0:0:0:0:
160,266,179709,5,2,0:2:0:0:
24,302,179852,1,8,0:0:0:0:
195,173,179995,2,0,L|306:205,1,94.499997116089,2|8,0:2|0:0,0:0:0:0:
334,371,180281,5,2,0:2:0:0:
238,280,180423,1,8,0:0:0:0:
382,167,180566,1,2,0:2:0:0:
333,282,180709,1,8,0:0:0:0:
333,282,180781,1,0,0:0:0:0:
333,282,180852,6,0,P|288:265|292:207,1,94.499997116089,4|8,0:2|0:0,0:0:0:0:
422,269,181138,1,0,0:0:0:0:
441,74,181281,2,0,P|430:127|425:200,1,94.499997116089,8|2,0:0|0:2,0:0:0:0:
244,16,181566,2,0,P|255:69|260:142,1,94.499997116089,8|2,0:0|0:2,0:0:0:0:
353,29,181852,1,8,0:0:0:0:
285,207,181995,6,0,B|252:220|252:220|177:192,1,94.499997116089,2|8,0:2|0:0,0:0:0:0:
138,41,182281,1,2,0:2:0:0:
259,109,182423,1,8,0:0:0:0:
86,251,182566,2,0,L|72:148,1,94.499997116089,2|8,0:2|0:0,0:0:0:0:
153,120,182781,1,0,0:0:0:0:
164,109,182852,2,0,L|178:6,1,94.499997116089,4|8,0:0|0:0,0:0:0:0:
3,194,183138,5,4,0:2:0:0:
72,78,183281,1,8,0:0:0:0:
177,202,183423,2,0,P|230:181|286:176,1,94.499997116089,0|8,0:0|0:0,0:0:0:0:
410,19,183709,5,2,0:2:0:0:
288,78,183852,1,8,0:0:0:0:
423,206,183995,1,2,0:2:0:0:
399,99,184138,1,8,0:0:0:0:
279,257,184281,6,0,P|325:269|375:290,1,94.499997116089,2|8,0:2|0:0,0:0:0:0:
200,152,184566,2,0,L|265:139,2,47.2499985580445,2|0|8,0:2|0:0|0:0,0:0:0:0:
60,228,184852,2,0,B|156:161|60:128|182:57,1,188.999994232178,2|2,0:2|0:2,0:0:0:0:
26,147,185281,1,8,0:0:0:0:
181,250,185423,6,0,P|189:292|199:353,1,94.499997116089,2|8,0:2|0:0,0:0:0:0:
332,171,185709,2,0,P|324:213|314:274,1,94.499997116089,2|8,0:2|0:0,0:0:0:0:
472,338,185995,2,0,P|400:318|251:281,1,188.999994232178,2|2,0:2|0:2,0:0:0:0:
290,368,186423,1,8,0:0:0:0:
431,242,186566,5,2,0:2:0:0:
431,242,186638,1,0,0:0:0:0:
431,242,186709,1,8,0:0:0:0:
353,175,186852,2,0,L|361:110,3,47.2499985580445,2|0|0|0,0:2|0:0|0:0|0:0,0:0:0:0:
427,42,187138,5,10,0:2:0:0:
427,42,187209,1,0,0:0:0:0:
427,42,187281,2,0,P|451:58|451:93,1,47.2499985580445
306,46,187423,1,10,0:2:0:0:
306,46,187494,1,0,0:0:0:0:
306,46,187566,2,0,P|321:21|356:22,1,47.2499985580445
426,165,187709,6,0,B|333:145|333:145|327:145|327:145|222:124,1,188.999994232178,4|0,0:2|0:0,0:0:0:0:
168,108,188138,1,8,0:0:0:0:
55,3,188281,2,0,B|70:29|89:47|89:47|51:104|58:192,1,188.999994232178,2|2,0:2|0:2,0:0:0:0:
9,232,188709,1,8,0:0:0:0:
108,357,188852,6,0,L|117:292,3,47.2499985580445,2|0|8|0,0:2|0:0|0:0|0:0,0:0:0:0:
199,294,189138,2,0,L|190:229,3,47.2499985580445,2|0|8|0,0:2|0:0|0:0|0:0,0:0:0:0:
260,354,189423,1,2,0:2:0:0:
106,236,189566,1,8,0:0:0:0:
274,179,189709,2,0,P|289:241|254:257,1,94.499997116089,2|8,0:2|0:0,0:0:0:0:
90,134,189995,2,0,P|155:123|264:93,1,141.749995674133,2|0,0:2|0:0,0:0:0:0:
235,83,190281,6,0,L|211:7,2,75,2|2|2,0:2|2:3|2:3,3:0:0:0:
320,43,190566,2,0,L|351:-16,2,62.9999980773926,2|2|2,0:2|2:3|2:3,3:0:0:0:
395,100,190852,2,0,L|458:79,2,53.9999983520508,2|2|2,0:2|2:3|2:3,0:0:0:0:
316,218,191138,6,0,B|299:147|299:147|311:108,2,94.499997116089,2|8|2,0:2|0:0|0:2,0:0:0:0:
339,329,191566,1,8,0:0:0:0:
494,196,191709,2,0,L|466:307,1,94.499997116089,2|8,0:2|0:0,0:0:0:0:
450,384,191995,1,2,0:2:0:0:
450,384,192138,1,8,0:0:0:0:
316,218,192281,6,0,B|280:209|280:209|254:218|254:218|188:202,2,94.499997116089,4|8|4,0:2|0:0|0:2,0:0:0:0:
402,234,192709,1,8,0:0:0:0:
265,312,192852,2,0,L|166:330,1,94.499997116089,2|8,0:2|0:0,0:0:0:0:
70,346,193138,1,2,0:2:0:0:
70,346,193281,1,8,0:0:0:0:
132,239,193423,6,0,P|114:217|105:182,3,47.2499985580445,2|0|8|0,0:2|0:0|0:0|0:0,0:0:0:0:
34,180,193709,2,0,P|44:153|69:128,3,47.2499985580445,2|0|8|0,0:2|0:0|0:0|0:0,0:0:0:0:
24,50,193995,2,0,P|52:45|86:55,3,47.2499985580445,2|0|8|0,0:2|0:0|0:0|0:0,0:0:0:0:
147,6,194281,2,0,P|164:28|174:63,3,47.2499985580445,2|0|8|0,0:2|3:0|3:0|3:0,3:0:0:0:
193,156,194566,5,10,0:2:0:0:
193,156,194638,1,0,0:0:0:0:
193,156,194709,2,0,L|253:145,1,47.2499985580445
311,44,194852,1,10,0:2:0:0:
311,44,194924,1,0,0:0:0:0:
311,44,194995,2,0,L|251:33,1,47.2499985580445
337,215,195138,6,0,P|376:179|355:136,1,94.499997116089,10|0,0:2|0:0,0:0:0:0:
204,252,195423,1,8,0:0:0:0:
204,252,195495,1,0,0:0:0:0:
204,252,195566,2,0,L|214:319,1,47.2499985580445
287,380,195709,5,10,0:0:0:0:
410,250,195852,2,0,P|446:236|518:249,1,94.499997116089
286,362,196138,1,10,0:0:0:0:
185,176,196281,2,0,P|149:162|77:175,1,94.499997116089
286,344,196566,6,0,L|282:295,1,40.4999987640381,10|0,0:0|0:0,0:0:0:0:
96,237,196852,5,10,0:0:0:0:
67,262,196923,1,0,0:0:0:0:
60,300,196994,1,8,0:0:0:0:
79,334,197066,1,0,0:0:0:0:
115,348,197137,1,10,0:0:0:0:
152,337,197209,1,0,0:0:0:0:
174,305,197281,2,0,P|178:278|162:247,1,56.25,8|0,0:0|0:0,0:0:0:0:
61,160,197423,6,0,L|-3:171,3,56.25,10|0|8|0,0:0|0:0|0:0|0:0,0:0:0:0:
119,77,197709,2,0,L|183:88,3,56.25,10|0|8|0,0:0|0:0|0:0|0:0,0:0:0:0:
26,0,197995,5,10,0:0:0:0:
28,39,198067,1,0,0:0:0:0:
32,77,198138,1,8,0:0:0:0:
35,116,198210,1,0,0:0:0:0:
43,154,198281,2,0,L|48:220,3,56.25,10|0|8|0,0:0|0:0|0:0|0:0,0:0:0:0:
41,321,198566,5,12,0:0:0:0:
41,321,198637,1,0,0:0:0:0:
41,321,198709,2,0,P|80:311|128:315,1,56.25,8|0,0:0|0:0,0:0:0:0:
169,236,198852,1,12,0:0:0:0:
169,236,198923,1,0,0:0:0:0:
169,236,198995,2,0,P|208:246|256:242,1,56.25,8|0,0:0|0:0,0:0:0:0:
370,353,199138,5,12,0:0:0:0:
399,328,199209,1,0,0:0:0:0:
406,290,199280,1,8,0:0:0:0:
387,256,199352,1,0,0:0:0:0:
351,242,199423,1,10,0:0:0:0:
314,253,199495,1,0,0:0:0:0:
292,285,199567,2,0,P|288:312|304:343,1,56.25,8|0,0:0|0:0,0:0:0:0:
482,304,199709,6,0,L|476:232,3,56.25,10|0|8|0,0:0|0:0|0:0|0:0,0:0:0:0:
381,209,199995,2,0,L|387:137,3,56.25,10|0|8|0,0:0|0:0|0:0|0:0,0:0:0:0:
483,24,200281,5,12,0:2:0:0:
483,24,200352,1,0,0:0:0:0:
483,24,200423,2,0,P|489:59|465:94,1,56.25,8|0,0:0|0:0,0:0:0:0:
363,134,200566,1,12,0:2:0:0:
363,134,200637,1,0,0:0:0:0:
363,134,200709,2,0,P|359:98|327:71,1,56.25,8|0,0:0|0:0,0:0:0:0:
237,23,200852,5,10,0:0:0:0:
192,28,200923,1,0,0:0:0:0:
146,33,200995,1,8,0:0:0:0:
102,38,201066,1,0,0:0:0:0:
56,43,201138,2,0,L|-8:51,3,56.25,10|0|8|0,0:0|0:0|0:0|0:0,0:0:0:0:
145,117,201423,5,12,0:2:0:0:
153,155,201495,1,0,0:0:0:0:
140,192,201566,1,8,0:0:0:0:
107,215,201638,1,0,0:0:0:0:
68,218,201709,2,0,P|37:209|16:182,3,56.25,10|0|8|0,0:0|0:0|0:0|0:0,0:0:0:0:
113,342,201995,5,10,0:0:0:0:
151,335,202066,1,0,0:0:0:0:
190,328,202138,1,8,0:0:0:0:
228,321,202209,1,0,0:0:0:0:
267,314,202281,2,0,L|344:298,3,56.25,10|0|8|0,0:0|0:0|0:0|0:0,0:0:0:0:
489,227,202566,5,10,0:0:0:0:
489,227,202638,1,0,0:0:0:0:
489,227,202709,2,0,L|476:293,1,56.25,8|0,0:0|0:0,0:0:0:0:
362,175,202852,1,10,0:0:0:0:
362,175,202924,1,0,0:0:0:0:
362,175,202995,2,0,L|375:241,1,56.25,8|0,0:0|0:0,0:0:0:0:
486,98,203138,5,10,0:0:0:0:
472,61,203209,1,0,0:0:0:0:
439,37,203281,1,8,0:0:0:0:
400,28,203352,1,0,0:0:0:0:
361,34,203423,2,0,P|339:46|316:82,3,56.25,10|0|8|0,0:0|0:0|0:0|0:0,0:0:0:0:
207,13,203709,5,10,0:0:0:0:
210,35,203781,1,0,0:0:0:0:
212,57,203852,1,8,0:0:0:0:
215,79,203923,1,0,0:0:0:0:
242,101,203995,5,10,0:0:0:0:
237,134,204066,1,0,0:0:0:0:
232,167,204138,1,8,0:0:0:0:
227,200,204209,1,0,0:0:0:0:
200,232,204281,6,0,L|210:302,3,56.25,10|0|8|0,0:0|0:0|0:0|0:0,0:0:0:0:
120,135,204566,2,0,L|130:65,3,56.25,10|0|8|0,0:0|0:0|0:0|0:0,0:0:0:0:
6,234,204852,5,8,0:0:0:0:
29,282,204923,1,8,0:0:0:0:
76,309,204995,1,8,0:0:0:0:
129,301,205066,1,8,0:0:0:0:
167,263,205138,1,8,0:0:0:0:
215,236,205209,1,0,0:0:0:0:
268,242,205281,1,0,0:0:0:0:
309,277,205352,1,0,0:0:0:0:
319,330,205423,6,0,P|294:342|248:293,1,94.4999971160889,8|0,0:0|0:0,0:0:0:0:
429,125,205995,5,10,0:0:0:0:
426,147,206067,1,0,0:0:0:0:
424,169,206138,1,8,0:0:0:0:
421,191,206209,1,0,0:0:0:0:
418,213,206281,1,10,0:0:0:0:
415,235,206352,1,0,0:0:0:0:
412,257,206424,1,8,0:0:0:0:
409,279,206495,1,0,0:0:0:0:
406,301,206566,2,0,L|396:371,3,51.7500009870529,10|0|8|0,0:0|0:0|0:0|0:0,0:0:0:0:
317,223,206852,2,0,L|307:153,3,51.7500009870529,10|0|8|0,0:0|0:0|0:0|0:0,0:0:0:0:
481,122,207138,5,10,0:0:0:0:
479,106,207209,1,0,0:0:0:0:
474,91,207280,1,8,0:0:0:0:
464,80,207352,1,0,0:0:0:0:
452,71,207423,1,10,0:0:0:0:
437,66,207495,1,0,0:0:0:0:
421,68,207566,1,8,0:0:0:0:
407,73,207638,1,0,0:0:0:0:
396,83,207709,2,0,P|384:102|403:141,3,51.7500009870529,10|0|8|0,0:0|0:0|0:0|0:0,0:0:0:0:
308,9,207995,6,0,P|249:23|182:27,1,103.500001974106,12|8,0:0|0:0,0:0:0:0:
35,126,208281,5,14,0:0:0:0:
65,132,208352,1,0,0:0:0:0:
96,137,208423,1,8,0:0:0:0:
128,141,208495,1,0,0:0:0:0:
159,148,208566,2,0,L|219:158,3,51.7500009870529,10|0|8|0,0:0|0:0|0:0|0:0,0:0:0:0:
95,3,208852,5,10,0:0:0:0:
92,25,208923,1,0,0:0:0:0:
89,48,208995,1,8,0:0:0:0:
86,70,209066,1,0,0:0:0:0:
83,93,209138,1,10,0:0:0:0:
13,169,209281,1,8,0:0:0:0:
67,256,209423,6,0,L|136:247,3,51.7500009870529,10|0|8|0,0:0|0:0|0:0|0:0,0:0:0:0:
158,167,209709,2,0,L|227:176,3,51.7500009870529,10|0|8|0,0:0|0:0|0:0|0:0,0:0:0:0:
188,326,209995,2,0,L|257:317,3,51.7500009870529,10|0|8|0,0:0|0:0|0:0|0:0,0:0:0:0:
348,199,210281,6,0,P|298:238|314:279,1,103.500001974106,10|8,0:0|0:0,0:0:0:0:
385,363,210566,1,10,0:0:0:0:
494,302,210709,1,8,0:0:0:0:
494,302,210781,1,0,0:0:0:0:
494,302,210852,2,0,L|478:232,1,51.7500009870529,10|0,0:0|0:0,0:0:0:0:
424,180,210995,1,8,0:0:0:0:
427,158,211066,1,0,0:0:0:0:
431,135,211138,1,10,0:0:0:0:
435,113,211209,1,0,0:0:0:0:
439,90,211281,1,8,0:0:0:0:
445,68,211352,1,0,0:0:0:0:
451,46,211423,6,0,L|515:58,3,51.7500009870529,10|0|8|0,0:0|0:0|0:0|0:0,0:0:0:0:
416,125,211709,2,0,L|352:137,3,51.7500009870529,10|0|8|0,0:0|0:0|0:0|0:0,0:0:0:0:
314,12,211995,2,0,L|378:24,3,51.7500009870529,10|0|8|0,0:0|0:0|0:0|0:0,0:0:0:0:
254,164,212281,2,0,P|264:129|263:99,3,51.7500009870529,10|0|8|0,0:0|0:0|0:0|0:0,0:0:0:0:
140,3,212566,6,0,P|153:57|168:137,1,103.500001974106,10|8,0:0|0:0,0:0:0:0:
117,197,212852,1,10,0:0:0:0:
27,153,212995,1,8,0:0:0:0:
27,153,213066,1,0,0:0:0:0:
27,153,213138,2,0,P|41:135|74:131,1,51.7500009870529,10|0,0:0|0:0,0:0:0:0:
155,263,213281,1,8,0:0:0:0:
139,277,213352,1,0,0:0:0:0:
119,285,213424,1,10,0:0:0:0:
98,285,213495,1,0,0:0:0:0:
78,278,213567,1,8,0:0:0:0:
64,263,213638,1,0,0:0:0:0:
57,244,213709,5,10,0:0:0:0:
72,231,213781,1,0,0:0:0:0:
92,230,213852,2,0,P|129:239|141:258,1,51.7500009870529,8|0,0:0|0:0,0:0:0:0:
252,328,213995,2,0,P|186:332|169:369,1,103.500001974106,10|8,0:0|0:0,0:0:0:0:
314,182,214281,2,0,P|323:238|339:288,1,103.500001974106,10|8,0:0|0:0,0:0:0:0:
461,381,214566,5,8,0:0:0:0:
465,344,214638,1,8,0:0:0:0:
469,308,214709,1,8,0:0:0:0:
473,271,214781,1,8,0:0:0:0:
478,235,214852,2,0,L|487:174,3,51.7500009870529,8|8|8|8,0:0|0:0|0:0|0:0,0:0:0:0:
474,79,215138,6,0,B|433:93|433:93|417:93|417:93|343:121,1,103.500001974106,4|0,0:0|0:0,0:0:0:0:
286,9,215423,5,10,0:0:0:0:
286,9,215495,1,0,0:0:0:0:
286,9,215566,2,0,P|292:48|306:70,1,51.7500009870529,8|0,0:0|0:0,0:0:0:0:
219,120,215709,1,10,0:0:0:0:
219,120,215781,1,0,0:0:0:0:
219,120,215852,2,0,P|213:159|199:181,1,51.7500009870529,8|0,0:0|0:0,0:0:0:0:
122,51,215995,2,0,P|112:27|110:1,3,51.7500009870529,10|0|8|0,0:0|0:0|0:0|0:0,0:0:0:0:
16,152,216281,5,10,0:0:0:0:
16,152,216352,1,0,0:0:0:0:
16,152,216423,2,0,P|44:136|81:142,1,51.7500009870529,8|0,0:0|0:0,0:0:0:0:
135,245,216566,1,10,0:0:0:0:
135,245,216637,1,0,0:0:0:0:
135,245,216709,2,0,P|107:229|70:235,1,51.7500009870529,8|0,0:0|0:0,0:0:0:0:
8,328,216852,2,0,P|36:312|73:318,3,51.7500009870529,10|0|8|0,0:0|0:0|0:0|0:0,0:0:0:0:
144,379,217138,6,0,P|166:326|215:327,1,103.500001974106,14|12,0:0|0:0,0:0:0:0:
333,204,217423,1,12,0:2:0:0:
327,236,217495,1,0,0:0:0:0:
322,268,217566,1,8,0:0:0:0:
317,299,217638,1,0,0:0:0:0:
312,330,217709,2,0,L|302:389,3,51.7500009870529,10|0|8|0,0:0|0:0|0:0|0:0,0:0:0:0:
226,230,217995,5,10,0:0:0:0:
248,237,218066,1,0,0:0:0:0:
270,244,218138,1,8,0:0:0:0:
291,251,218209,1,0,0:0:0:0:
313,258,218281,1,10,0:0:0:0:
400,335,218424,1,8,0:0:0:0:
491,287,218566,6,0,L|481:227,3,51.7500009870529,10|0|8|0,0:0|0:0|0:0|0:0,0:0:0:0:
404,206,218852,2,0,L|414:146,3,51.7500009870529,10|0|8|0,0:0|0:0|0:0|0:0,0:0:0:0:
505,90,219138,2,0,L|495:30,3,51.7500009870529,10|0|8|0,0:0|0:0|0:0|0:0,0:0:0:0:
370,75,219423,6,0,B|322:93|322:93|252:61,1,103.500001974106,10|8,0:0|0:0,0:0:0:0:
135,1,219709,1,10,0:0:0:0:
141,42,219781,1,0,0:0:0:0:
147,82,219852,1,8,0:0:0:0:
151,122,219923,1,0,0:0:0:0:
156,163,219995,2,0,L|165:231,3,51.7500009870529,10|0|8|0,0:0|0:0|0:0|0:0,0:0:0:0:
78,106,220281,2,0,P|88:81|91:46,3,51.7500009870529,10|0|8|0,0:0|0:0|0:0|0:0,0:0:0:0:
0,243,220566,6,0,B|39:226|39:226|49:207|49:207|104:186,1,103.500001974106,10|8,0:0|0:0,0:0:0:0:
219,348,220852,1,10,0:0:0:0:
188,342,220923,1,0,0:0:0:0:
157,336,220995,1,8,0:0:0:0:
126,329,221066,1,0,0:0:0:0:
95,320,221138,2,0,L|39:305,3,51.7500009870529,10|0|8|0,0:0|0:0|0:0|0:0,0:0:0:0:
187,234,221423,5,10,0:0:0:0:
207,230,221495,1,0,0:0:0:0:
227,226,221566,1,8,0:0:0:0:
247,222,221638,1,0,0:0:0:0:
267,218,221709,1,10,0:0:0:0:
354,274,221852,1,10,0:0:0:0:
320,372,221995,6,0,L|256:367,3,51.7500009870529,10|0|8|0,0:0|0:0|0:0|0:0,0:0:0:0:
420,323,222281,2,0,L|484:318,3,51.7500009870529,10|0|8|0,0:0|0:0|0:0|0:0,0:0:0:0:
322,244,222566,2,0,L|258:239,3,51.7500009870529,10|0|8|0,0:0|0:0|0:0|0:0,0:0:0:0:
422,195,222852,2,0,L|486:190,3,51.7500009870529,10|0|8|0,0:0|0:0|0:0|0:0,0:0:0:0:
366,37,223138,5,8,0:0:0:0:
357,55,223209,1,8,0:0:0:0:
347,72,223280,2,0,P|358:102|362:136,3,51.7500009870529,8|8|8|8,0:0|0:0|0:0|0:0,0:0:0:0:
244,206,223566,5,8,0:0:0:0:
245,185,223637,1,8,0:0:0:0:
245,166,223709,2,0,P|269:145|289:118,3,51.7500009870529,8|8|8|8,0:0|0:0|0:0|0:0,0:0:0:0:
214,76,223995,2,0,P|216:45|212:11,3,51.7500009870529,8|8|8|8,0:0|0:0|0:0|0:0,0:0:0:0:
69,162,224281,6,0,P|147:141|254:124,1,161.999995056153,4|0,0:0|0:0,0:0:0:0:
139,62,224709,1,8,0:0:0:0:
184,229,224852,2,0,P|214:238|262:261,2,80.9999975280763,2|8|2,0:2|0:0|0:2,0:0:0:0:
19,303,225281,5,8,0:0:0:0:
19,303,225352,1,0,0:0:0:0:
19,303,225423,2,0,L|41:122,1,161.999995056153,2|2,0:2|0:2,0:0:0:0:
0,71,225852,1,8,0:0:0:0:
163,11,225995,2,0,L|147:107,2,80.9999975280763,2|8|2,0:2|0:0|0:2,0:0:0:0:
261,155,226423,5,8,0:0:0:0:
261,155,226495,1,0,0:0:0:0:
261,155,226566,2,0,B|351:189|290:230|381:261,1,161.999995056153,2|2,0:2|0:2,0:0:0:0:
249,237,226995,1,8,0:0:0:0:
404,144,227138,2,0,P|398:91|399:42,2,80.9999975280763,2|8|2,0:2|0:0|0:2,0:0:0:0:
503,321,227566,5,8,0:0:0:0:
452,261,227709,2,0,B|395:284|395:284|384:322|384:322|320:354,1,161.999995056153,4|2,0:2|0:2,0:0:0:0:
256,379,228138,1,8,0:0:0:0:
285,246,228281,2,0,L|177:227,2,80.9999975280763,2|8|2,0:2|0:0|0:2,0:0:0:0:
94,384,228709,5,8,0:0:0:0:
44,311,228852,2,0,B|73:198|73:198|131:158,1,161.999995056153,4|2,0:0|0:2,0:0:0:0:
141,251,229281,1,8,0:0:0:0:
204,120,229423,2,0,L|191:31,2,80.9999975280763,2|8|2,0:2|0:0|0:2,0:0:0:0:
38,92,229852,5,8,0:0:0:0:
104,150,229995,2,0,B|148:125|186:162|186:162|191:207|245:235,1,161.999995056153,2|2,0:2|0:2,0:0:0:0:
264,152,230423,1,8,0:0:0:0:
141,251,230566,2,0,P|131:303|118:349,2,80.9999975280763,2|8|2,0:2|0:0|0:2,0:0:0:0:
242,359,230995,5,8,0:0:0:0:
304,291,231138,2,0,B|369:246|425:307|425:307|432:348,1,161.999995056153,2|2,0:2|0:2,0:0:0:0:
369,379,231566,1,8,0:0:0:0:
493,230,231709,2,0,L|506:319,2,80.9999975280763,2|8|2,0:2|0:0|0:2,0:0:0:0:
417,131,232138,5,8,0:0:0:0:
474,80,232281,2,0,B|489:68|509:61|509:61|483:-2|381:7,1,161.999995056153,2|2,0:2|0:2,0:0:0:0:
359,64,232709,1,8,0:0:0:0:
273,13,232852,2,0,L|168:33,1,80.9999975280763,2|8,0:2|0:0,0:0:0:0:
72,131,233138,6,0,L|60:73,3,40.4999987640381,2|0|8|0,0:2|0:0|0:0|0:0,0:0:0:0:
119,197,233423,2,0,B|113:239|113:239|116:247|116:247|105:308,1,90,4|8,0:0|0:0,0:0:0:0:
104,310,233638,1,0,0:0:0:0:
104,310,233709,1,2,0:0:0:0:
33,244,233852,1,8,0:0:0:0:
204,269,233995,2,0,B|210:311|210:311|207:319|207:319|218:380,1,90,2|8,0:0|0:0,0:0:0:0:
301,196,234281,5,2,0:0:0:0:
301,196,234423,1,8,0:0:0:0:
350,303,234566,2,0,B|365:285|365:285|405:265|446:293,1,90,2|8,0:0|0:0,0:0:0:0:
447,304,234781,1,0,0:0:0:0:
447,304,234852,1,2,0:0:0:0:
403,373,234995,1,8,0:0:0:0:
314,165,235138,6,0,B|329:183|329:183|369:203|410:175,1,90,2|8,0:0|0:0,0:0:0:0:
411,164,235353,1,0,0:0:0:0:
411,164,235424,1,2,0:0:0:0:
367,95,235567,1,8,0:0:0:0:
259,263,235709,6,0,B|217:264|217:264|152:207|152:207|101:210,1,180,4|2,0:0|0:0,0:0:0:0:
127,288,236138,1,8,0:0:0:0:
264,149,236281,2,0,L|242:41,1,90,2|8,0:0|0:0,0:0:0:0:
63,88,236566,2,0,L|85:-20,1,90,2|8,0:0|0:0,0:0:0:0:
260,83,236852,6,0,B|295:70|295:70|300:61|300:61|366:68,1,90,2|8,0:0|0:0,0:0:0:0:
366,83,237066,1,0,0:0:0:0:
366,83,237138,1,2,0:0:0:0:
318,148,237281,1,8,0:0:0:0:
442,14,237423,2,0,B|457:65|457:65|447:123|447:123|481:209,1,180,2|2,0:0|0:0,0:0:0:0:
494,78,237852,1,8,0:0:0:0:
373,203,237995,6,0,B|359:221|359:221|365:266|365:266|391:293,1,90,4|8,0:0|0:0,0:0:0:0:
407,298,238209,1,0,0:0:0:0:
407,298,238281,1,2,0:0:0:0:
465,216,238423,1,8,0:0:0:0:
280,281,238566,2,0,B|294:299|294:299|288:344|288:344|262:371,1,90,2|8,0:0|0:0,0:0:0:0:
216,197,238852,5,2,0:0:0:0:
216,197,238995,1,8,0:0:0:0:
128,248,239138,2,0,B|111:261|111:261|77:258|77:258|67:252|67:252|29:247,1,90,2|8,0:0|0:0,0:0:0:0:
29,233,239352,1,0,0:0:0:0:
29,233,239423,1,2,0:0:0:0:
91,173,239566,1,8,0:0:0:0:
185,322,239709,6,0,B|202:335|202:335|236:332|236:332|246:326|246:326|284:321,1,90,2|8,0:0|0:0,0:0:0:0:
344,166,239995,1,2,0:0:0:0:
229,224,240138,1,8,0:0:0:0:
406,367,240281,6,0,B|420:336|420:336|407:297|407:297|414:276,1,90,2|8,0:0|0:0,0:0:0:0:
423,272,240495,1,0,0:0:0:0:
423,272,240566,1,2,0:0:0:0:
506,311,240709,1,8,0:0:0:0:
299,249,240852,2,0,B|261:223|261:223|404:183,1,180,2|2,0:0|0:0,0:0:0:0:
465,165,241281,1,8,0:0:0:0:
342,7,241423,6,0,B|342:27|333:40|333:40|364:59|366:96,1,90,2|8,0:0|0:0,0:0:0:0:
374,102,241638,1,0,0:0:0:0:
374,102,241709,1,2,0:0:0:0:
430,23,241852,1,8,0:0:0:0:
283,123,241995,2,0,B|261:140|228:137|228:137|222:132|222:132|171:108|171:108|161:110|161:110|97:88,1,180,2|2,0:0|0:0,0:0:0:0:
166,28,242423,1,8,0:0:0:0:
40,182,242566,6,0,B|25:202|25:202|33:218|33:218|36:219|36:219|50:256|50:256|74:274|74:274|75:291|75:291|80:301|80:301|81:323,1,148.50000453186,4|0,0:2|0:0,0:0:0:0:
156,329,242852,2,0,L|137:388,3,49.5000015106202
170,312,243138,2,0,B|222:303|222:303|224:299|224:299|277:291,1,99.0000030212403,12|0,0:2|0:0,0:0:0:0:
373,369,243423,1,0,0:0:0:0:
373,369,243566,1,0,0:0:0:0:
487,287,243709,6,0,B|473:265|446:256|446:256|449:251|449:251|471:137,1,148.50000453186,4|0,0:2|0:0,0:0:0:0:
431,90,243995,2,0,L|498:79,3,49.5000015106202
278,130,244281,5,12,0:2:0:0:
402,18,244423,1,0,0:0:0:0:
310,42,244566,1,0,0:0:0:0:
310,42,244852,6,0,B|291:40|273:22|273:22|234:37|210:63|210:63|196:43|161:41,1,148.50000453186,4|0,0:2|0:0,0:0:0:0:
113,23,245138,2,0,P|87:16|64:4,3,49.5000015106202
182,61,245423,5,12,0:0:0:0:
3,149,245566,1,0,0:0:0:0:
216,182,245709,1,0,0:0:0:0:
94,95,245852,1,0,0:0:0:0:
150,223,245995,6,0,B|142:246|142:246|142:263|142:263|116:354|116:354|90:364,1,148.50000453186,4|0,0:2|0:0,0:0:0:0:
49,300,246281,2,0,L|-14:309,3,49.5000015106202
76,280,246566,2,0,B|99:279|99:279|125:295|125:295|132:293|132:293|171:300,1,99.0000030212403,12|0,0:2|0:0,0:0:0:0:
257,200,246852,1,0,0:0:0:0:
257,200,246995,1,0,0:0:0:0:
304,359,247138,6,0,B|331:337|331:337|338:336|338:336|349:267|349:267|357:266|357:266|395:238,1,148.50000453186,4|0,0:2|0:0,0:0:0:0:
426,319,247423,2,0,L|436:378,3,49.5000015106202
448,309,247709,2,0,B|464:283|464:283|454:196,1,99.0000030212403,12|0,0:2|0:0,0:0:0:0:
357,139,247995,1,0,0:0:0:0:
357,139,248138,1,0,0:0:0:0:
489,31,248281,6,0,B|504:41|507:68|507:68|512:67|512:67|499:123|419:119,1,148.50000453186,4|0,0:2|0:0,0:0:0:0:
367,162,248566,2,0,L|378:222,3,49.5000015106202
344,62,248852,5,12,0:2:0:0:
259,11,248994,1,0,0:0:0:0:
175,65,249138,2,0,L|51:78,1,99.0000030212403
257,167,249423,6,0,B|290:179|314:156|314:156|342:160|342:160|364:135|415:147,1,148.50000453186,4|0,0:2|0:0,0:0:0:0:
462,200,249709,2,0,P|469:172|479:143,3,49.5000015106202
442,228,249995,2,0,B|451:272|451:272|449:276|449:276|462:342,1,99.0000030212403,12|0,0:0|0:0,0:0:0:0:
339,197,250281,1,0,0:0:0:0:
339,197,250423,1,0,0:0:0:0:
272,318,250566,6,0,L|194:305,1,49.5000015106202,8|8,0:0|0:0,0:0:0:0:
132,260,250709,1,8,0:0:0:0:
122,262,250781,1,8,0:0:0:0:
112,264,250852,1,8,0:0:0:0:
102,266,250923,1,8,0:0:0:0:
92,268,250995,6,0,L|111:348,1,49.5000015106202,8|8,0:0|0:0,0:0:0:0:
206,193,251138,1,8,0:0:0:0:
204,183,251210,1,8,0:0:0:0:
202,173,251281,1,8,0:0:0:0:
200,163,251352,1,8,0:0:0:0:
198,153,251424,6,0,L|118:172,1,49.5000015106202,8|8,0:0|0:0,0:0:0:0:
256,260,251566,1,8,0:0:0:0:
265,257,251638,1,8,0:0:0:0:
274,254,251709,5,8,0:0:0:0:
283,272,251781,1,8,0:0:0:0:
293,289,251852,2,0,P|282:319|278:353,3,49.5000015106202,8|8|8|8,0:0|0:0|0:0|0:0,0:0:0:0:
343,164,252138,5,8,0:0:0:0:
361,173,252209,1,8,0:0:0:0:
378,183,252281,2,0,P|408:172|442:168,3,49.5000015106202,8|8|8|8,0:0|0:0|0:0|0:0,0:0:0:0:
380,258,252567,2,0,P|408:271|435:292,3,49.5000015106202,8|8|8|8,0:0|0:0|0:0|0:0,0:0:0:0:
341,384,252852,6,0,B|336:342|336:342|330:337|330:337|325:313|325:313|298:290|298:290|301:283|301:283|303:253|303:253|296:230|296:230|296:225|296:225|281:172,1,225,4|2,0:0|0:0,0:0:0:0:
262,108,253281,1,8,0:0:0:0:
428,10,253423,2,0,B|437:86|437:86|418:120,1,112.5,2|8,0:0|0:0,0:0:0:0:
280,16,253709,5,2,0:0:0:0:
280,16,253852,1,8,0:0:0:0:
396,128,253995,2,0,B|417:152|417:152|418:201|361:232,1,112.5,2|8,0:0|0:0,0:0:0:0:
262,39,254281,5,2,0:0:0:0:
262,39,254424,1,8,0:0:0:0:
266,203,254566,2,0,B|255:233|255:233|213:259|158:225,1,112.5,2|8,0:0|0:0,0:0:0:0:
239,28,254852,5,2,0:0:0:0:
120,174,254995,1,8,0:0:0:0:
120,174,255066,1,0,0:0:0:0:
120,174,255138,2,0,B|111:129|111:129|106:125|106:125|97:91|58:48|58:48|64:48|64:48|97:40|144:-11,1,225,2|2,0:0|0:0,0:0:0:0:
171,80,255566,1,8,0:0:0:0:
33,169,255709,2,0,B|21:214|21:214|26:225|26:225|12:287,1,112.5,2|8,0:0|0:0,0:0:0:0:
11,300,255923,1,0,0:0:0:0:
11,300,255995,5,2,0:0:0:0:
129,212,256138,1,8,0:0:0:0:
201,335,256281,2,0,B|218:362|218:362|323:347,1,112.5,2|8,0:0|0:0,0:0:0:0:
356,165,256566,2,0,B|323:158|304:167|304:167|304:163|304:163|282:179|271:220,1,112.5,2|8,0:0|0:0,0:0:0:0:
455,384,256852,5,2,0:0:0:0:
377,255,256995,1,8,0:0:0:0:
512,139,257138,1,2,0:0:0:0:
444,308,257281,1,8,0:0:0:0:
363,91,257423,6,0,B|266:71|266:71|262:64|262:64|136:39,1,225,4|2,0:2|0:0,0:0:0:0:
83,0,257852,1,8,0:0:0:0:
147,134,257995,2,0,B|149:189|149:189|143:192|143:192|114:253,1,112.5,2|8,0:0|0:0,0:0:0:0:
2,189,258281,5,2,0:0:0:0:
72,332,258423,1,8,0:0:0:0:
72,332,258495,1,0,0:0:0:0:
72,332,258566,2,8,B|104:327|104:327|110:322|110:322|147:306|147:306|153:308|153:308|218:302,1,112.5,2|8,0:0|0:0,0:0:0:0:
33,156,258852,5,2,0:0:0:0:
33,156,258995,1,8,0:0:0:0:
157,54,259138,2,0,B|189:59|189:59|195:63|195:63|232:80|232:80|238:78|238:78|303:84,1,112.5,2|8,0:0|0:0,0:0:0:0:
57,177,259423,5,2,0:0:0:0:
57,177,259566,1,8,0:0:0:0:
205,291,259709,2,0,B|254:271|254:271|262:271|262:271|289:224|289:224|305:227|305:227|332:191|332:191|340:192|340:192|397:177,1,225,2|2,0:0|0:0,0:0:0:0:
355,292,260138,1,8,0:0:0:0:
210,203,260281,2,0,L|230:73,1,112.5,2|8,0:0|0:0,0:0:0:0:
372,13,260566,2,0,B|390:66|390:66|337:119,1,112.5,2|8,0:0|0:0,0:0:0:0:
144,52,260852,5,2,0:0:0:0:
274,13,260995,1,8,0:0:0:0:
133,152,261138,5,2,0:0:0:0:
202,0,261281,1,8,0:0:0:0:
220,209,261423,5,4,0:0:0:0:
115,33,261566,1,8,0:0:0:0:
300,113,261709,5,4,0:0:0:0:
91,245,261852,1,8,0:0:0:0:
335,16,261995,6,0,B|364:38|364:38|387:92|390:152|390:152|394:161|394:161|378:191|359:210,1,225,4|2,0:0|0:0,0:0:0:0:
296,142,262423,1,8,0:0:0:0:
488,177,262566,2,0,B|474:203|474:203|467:208|467:208|470:250|501:297,1,112.5,2|8,0:0|0:0,0:0:0:0:
364,377,262852,5,2,0:0:0:0:
272,269,262995,1,8,0:0:0:0:
272,269,263066,1,0,0:0:0:0:
272,269,263138,2,0,B|196:260|196:260|175:267|141:289,1,112.5,2|8,0:0|0:0,0:0:0:0:
371,363,263423,5,2,0:0:0:0:
412,161,263566,1,8,0:0:0:0:
366,344,263709,1,2,0:0:0:0:
279,152,263852,1,8,0:0:0:0:
400,241,263995,2,0,B|476:232|476:232|497:239|531:261,1,112.5,2|8,0:0|0:0,0:0:0:0:
257,368,264281,6,0,B|275:272|275:272|260:254|260:254|286:114,1,225,2|2,0:0|0:0,0:0:0:0:
349,191,264709,1,8,0:0:0:0:
190,297,264852,2,0,B|172:273|172:273|83:247,1,112.5,2|8,0:0|0:0,0:0:0:0:
120,110,265138,2,0,B|102:134|102:134|13:160,1,112.5,2|8,0:0|0:0,0:0:0:0:
217,6,265423,6,0,B|210:32|244:56|244:56|244:68|244:68|303:26|406:42,1,225,2|2,0:0|0:0,0:0:0:0:
318,156,265852,2,0,B|302:182|302:182|287:282,2,112.5,8|2|8,0:0|0:0|0:0,0:0:0:0:
496,117,266281,2,0,B|481:171|481:171|412:180,1,112.5,2|8,0:0|0:0,0:0:0:0:
149,118,266566,6,0,B|192:72|192:72|202:147|202:147|206:152|206:152|217:264,1,225,4|2,0:0|0:0,0:0:0:0:
228,306,266995,1,8,0:0:0:0:
99,242,267138,2,0,B|87:293|87:293|88:298|88:298|73:361,1,112.5,2|8,0:0|0:0,0:0:0:0:
214,192,267423,5,2,0:0:0:0:
214,192,267566,1,8,0:0:0:0:
332,336,267709,2,0,B|346:325|344:306|344:306|319:275|272:242,1,112.5,2|8,0:0|0:0,0:0:0:0:
211,215,267995,5,2,0:0:0:0:
211,215,268138,1,8,0:0:0:0:
397,168,268281,2,0,B|394:150|377:142|377:142|337:148|285:172,1,112.5,2|8,0:0|0:0,0:0:0:0:
216,244,268566,5,2,0:0:0:0:
216,244,268709,1,8,0:0:0:0:
256,55,268852,2,0,B|243:21|198:25|198:25|192:21|192:21|170:51|165:87|165:87|163:90|163:90|164:124|199:165,1,225,2|2,0:0|0:0,0:0:0:0:
233,217,269281,1,8,0:0:0:0:
351,103,269423,2,0,B|404:117|404:117|408:123|408:123|463:135,1,112.5,2|8,0:0|0:0,0:0:0:0:
319,321,269709,2,0,B|342:295|342:295|341:291|341:291|374:292|374:292|446:277,1,112.5,2|8,0:0|0:0,0:0:0:0:
271,137,269995,6,0,L|248:275,2,112.5,2|8|2,0:0|0:0|0:0,0:0:0:0:
130,349,270423,2,0,L|107:211,2,112.5,8|2|8,0:0|0:0|0:0,0:0:0:0:
65,145,270852,2,0,L|175:163,1,112.5,2|8,0:0|0:0,0:0:0:0:
231,374,271138,5,10,0:0:0:0:
328,138,271281,1,0,0:0:0:0:
405,356,271423,1,0,0:0:0:0:
184,236,271566,5,12,0:0:0:0:
424,155,271709,1,0,0:0:0:0:
267,294,271852,1,0,0:0:0:0:
262,40,271995,6,0,B|292:32|318:51|318:51|325:51|325:51|336:75|324:125,1,112.5,12|0,0:2|0:0,0:0:0:0:
116,283,272281,5,12,0:0:0:0:
163,67,272423,1,0,0:0:0:0:
111,311,272566,1,0,0:0:0:0:
268,155,272709,5,10,0:0:0:0:
48,210,272852,1,0,0:0:0:0:
218,363,272995,1,0,0:0:0:0:
149,151,273138,5,8,0:0:0:0:
116,143,273209,1,0,0:0:0:0:
82,135,273281,1,0,0:0:0:0:
49,128,273352,1,0,0:0:0:0:
16,118,273423,6,0,B|25:160|54:170|54:170|61:176|61:176|102:170|123:126|123:126|136:119|146:108|146:108|194:105|234:69|234:69|241:77|241:77|288:77|316:110|316:110|314:115|314:115|334:154|298:199|298:199|305:162|275:136,1,540.000020599366,4|0,0:2|0:0,0:0:0:0:
