osu file format v14

[General]
AudioFilename: audio.mp3
AudioLeadIn: 0
PreviewTime: 145841
Countdown: 0
SampleSet: Soft
StackLeniency: 0.7
Mode: 0
LetterboxInBreaks: 0
WidescreenStoryboard: 1

[Editor]
Bookmarks: 27662,41376,73519,87448,132234,149376,159662,170956,199191,208998
DistanceSpacing: 0.4
BeatDivisor: 4
GridSize: 4
TimelineZoom: 2.599999

[Metadata]
Title:Redneck Vikings from Hell
TitleUnicode:Redneck Vikings from Hell
Artist:Aether Realm
ArtistUnicode:Æther Realm
Creator:pw384
Version:Kuth Hialbi As Salu
Source:
Tags:featured artist fa osu!fa mappers' guild mappersguild mpg english power melodic death symphonic folk metal yugu garden bellicose
BeatmapID:3339815
BeatmapSetID:1621848

[Difficulty]
HPDrainRate:6
CircleSize:4
OverallDifficulty:9
ApproachRate:9.5
SliderMultiplier:3.2
SliderTickRate:1

[Events]
//Background and Video events
0,0,"bg2.jpg",0,0
//Break Periods
2,146576,147662
//Storyboard Layer 0 (Background)
//Storyboard Layer 1 (Fail)
//Storyboard Layer 2 (Pass)
//Storyboard Layer 3 (Foreground)
Sprite,Foreground,Centre,"pw384.png",320,440 F,0,234,662,0,1 M,0,234,27234,320,440 S,0,234,27234,0.12 C,0,234,27234,240,175,110 F,0,26805,27234,1,0
Sprite,Foreground,Centre,"garden.png",320,440 F,0,27662,28091,0,1 M,0,27662,40948,320,440 S,0,27662,40948,0.12 C,0,27662,40948,240,175,110
Sprite,Foreground,Centre,"bellicose.png",320,440 F,0,41376,41805,0,1 M,0,41376,73509,320,440 S,0,41376,73509,0.12 C,0,41376,73509,240,175,110 F,0,73091,73509,1,0
Sprite,Foreground,Centre,"garden.png",320,440 F,0,73948,74376,0,1 M,0,73948,87234,320,440 S,0,73948,87234,0.12 C,0,73948,87234,240,175,110 F,0,86805,87234,1,0
Sprite,Foreground,Centre,"pw384.png",320,440 F,0,87448,87876,0,1 M,0,87448,131805,320,440 S,0,87448,131805,0.12 C,0,87448,131805,240,175,110 F,0,131376,131805,1,0
Sprite,Foreground,Centre,"garden.png",320,440 F,0,132234,132662,0,1 M,0,132234,146376,320,440 S,0,132234,146376,0.12 C,0,132234,146376,240,175,110 F,0,145948,146376,1,0
Sprite,Foreground,Centre,"garden.png",320,440 M,0,148948,149001,320,440 F,0,148948,149001,1 S,0,148948,149001,0.12 C,0,148948,149001,240,175,110
Sprite,Foreground,Centre,"pw384.png",320,440 M,0,149376,159234,320,440 S,0,149376,159234,0.12 C,0,149376,159234,240,175,110 F,0,158805,159234,1,0
Sprite,Foreground,Centre,"garden.png",320,440 F,0,159662,160014,0,1 M,0,159662,170603,320,440 S,0,159662,170603,0.12 C,0,159662,170603,240,175,110 F,0,170250,170603,1,0
Sprite,Foreground,Centre,"bellicose.png",320,440 F,0,170956,,1 M,0,170956,198838,320,440 S,0,170956,198838,0.12 C,0,170956,198838,240,175,110 F,0,198485,198838,1,0
Sprite,Foreground,Centre,"garden.png",320,440 F,0,199191,199652,0,1 M,0,199191,207930,320,440 S,0,199191,207930,0.12 C,0,199191,207930,240,175,110 F,1,207663,207930,1,0
Sprite,Foreground,Centre,"garden.png",320,440 M,0,208464,208865,320,440 F,2,208464,208865,1,0 S,0,208464,208865,0.12 C,0,208464,208865,240,175,110
Sprite,Foreground,Centre,"pw384.png",320,440 M,0,208998,214340,320,440 S,0,208998,214340,0.12 C,0,208998,214340,240,175,110 F,0,212470,214340,1,0
//Storyboard Layer 4 (Overlay)
//Storyboard Sound Samples

[TimingPoints]
234,428.571428571429,4,2,1,50,1,0
1519,-117.647058823529,4,2,1,50,0,0
1948,-117.647058823529,4,2,1,50,0,0
2591,-100,4,2,1,50,0,0
3019,-133.333333333333,4,2,1,50,0,0
3662,-100,4,2,1,50,0,0
6234,-150,4,2,1,50,0,0
7091,-200,4,2,1,50,0,0
10091,-100,4,2,1,50,0,0
10519,-133.333333333333,4,2,1,50,0,0
13091,-100,4,2,1,50,0,0
13948,-74.0740740740741,4,2,2,60,0,0
14162,-100,4,2,2,60,0,0
14805,-74.0740740740741,4,2,2,60,0,0
15019,-100,4,2,2,60,0,0
15662,-83.3333333333333,4,2,2,60,0,0
15876,-100,4,2,2,60,0,0
16519,-74.0740740740741,4,2,2,60,0,0
16734,-100,4,2,2,60,0,0
16948,-100,4,2,2,60,0,0
17376,-74.0740740740741,4,2,2,60,0,0
17591,-100,4,2,2,60,0,0
18234,-74.0740740740741,4,2,2,60,0,0
18448,-100,4,2,2,60,0,0
19091,-74.0740740740741,4,2,2,60,0,0
19305,-100,4,2,2,60,0,0
20805,-83.3333333333333,4,2,2,60,0,0
21126,-90.9090909090909,4,2,2,60,0,0
21662,-74.0740740740741,4,2,2,60,0,0
22091,-90.9090909090909,4,2,2,60,0,0
22519,-83.3333333333333,4,2,2,60,0,0
22734,-90.9090909090909,4,2,2,60,0,0
23376,-83.3333333333333,4,2,2,60,0,0
24234,-83.3333333333333,4,2,2,60,0,0
24448,-90.9090909090909,4,2,2,60,0,0
25091,-83.3333333333333,4,2,2,60,0,0
25519,-90.9090909090909,4,2,2,60,0,0
26805,-133.333333333333,4,2,2,60,0,0
27662,-133.333333333333,4,2,1,40,0,0
37519,-133.333333333333,4,2,1,60,0,0
37948,-200,4,2,1,60,0,0
38805,-100,4,2,1,60,0,0
39662,-100,4,2,2,60,0,0
41376,-100,4,2,2,60,0,0
51019,-83.3333333333333,4,2,2,60,0,0
51448,-100,4,2,2,60,0,0
53591,-90.9090909090909,4,2,2,60,0,0
54234,-83.3333333333333,4,2,2,60,0,0
55091,-90.9090909090909,4,2,2,60,0,0
58091,-90.9090909090909,4,2,2,60,0,0
65376,-83.3333333333333,4,2,2,60,0,0
66341,-200,4,2,77,60,0,0
67091,-76.9230769230769,4,2,2,60,0,0
67948,-100,4,2,78,60,0,0
68269,-200,4,2,78,60,0,0
68805,-133.333333333333,4,2,2,60,0,0
69662,-153.846153846153,4,2,2,60,0,0
70519,-111.111111111111,4,2,2,50,0,0
73519,-83.3333333333333,4,2,2,50,0,0
73948,-100,4,2,2,70,0,0
78662,-90.9090909090909,4,2,2,70,0,0
79091,-100,4,2,2,70,0,0
80805,-90.9090909090909,4,2,2,70,0,0
86162,-166.666666666667,4,2,2,70,0,0
86805,-142.857142857143,4,2,2,60,0,0
87448,-156.25,4,2,2,60,0,0
93662,-178.571428571429,4,2,2,60,0,0
93984,-208.333333333333,4,2,2,60,0,0
94305,-307.692307692308,4,2,2,60,0,0
100519,-200,4,2,2,60,0,0
101162,-194.174757281553,4,2,2,60,0,0
107376,-117.647058823529,4,2,2,60,0,0
107698,-156.25,4,2,2,60,0,0
108019,-130.718954248366,4,2,2,60,0,0
111448,-111.111111111111,4,2,2,60,0,0
113162,-74.0740740740741,4,2,2,60,0,0
113376,-74.0740740740741,4,2,3,60,0,0
113591,-66.6666666666667,4,2,3,60,0,0
115091,-100,4,2,3,70,0,0
117126,-80,4,2,3,70,0,0
117448,-66.6666666666667,4,2,3,70,0,0
118091,-100,4,2,3,70,0,0
119698,-66.6666666666667,4,2,3,70,0,0
120019,-100,4,2,3,70,0,0
121948,-100,4,2,3,60,0,0
123662,-133.333333333333,4,2,3,60,0,0
125376,-100,4,2,3,60,0,0
128805,-133.333333333333,4,2,4,60,0,0
132234,-133.333333333333,4,2,4,60,0,0
134805,-80,4,2,4,60,0,0
135126,-100,4,2,4,60,0,0
139091,-80,4,2,4,60,0,0
139305,-133.333333333333,4,2,4,60,0,0
139948,-80,4,2,4,60,0,0
140376,-100,4,2,4,60,0,0
140805,-80,4,2,4,60,0,0
141662,-66.6666666666667,4,2,4,60,0,0
143376,-80,4,2,4,60,0,0
145948,-100,4,2,2,60,0,0
148948,-100,4,2,2,70,0,0
149805,-80,4,2,2,70,0,0
150234,-100,4,2,2,70,0,0
151305,-80,4,2,2,70,0,0
151734,-100,4,2,2,70,0,0
152805,-83.3333333333333,4,2,2,70,0,0
156234,-90.9090909090909,4,2,2,70,0,0
157948,-100,4,2,2,70,0,0
158162,-83.3333333333333,4,2,2,70,0,0
158591,-100,4,2,2,70,0,0
158805,-57.1428571428571,4,2,2,70,0,0
159662,352.941176470588,4,2,5,40,1,0
159662,-333.333333333333,4,2,5,40,0,0
167603,-333.333333333333,4,2,5,30,0,0
167956,-333.333333333333,4,2,5,40,0,0
168485,-200,4,2,5,50,0,0
168838,-200,4,2,5,60,0,0
169191,-142.857142857143,4,2,5,65,0,0
170250,-142.857142857143,4,2,5,70,0,0
170956,-100,4,2,2,70,0,0
199191,461.538461538462,4,2,2,70,1,0
199191,-333.333333333333,4,2,2,70,0,0
201037,432.692328494823,4,2,2,70,1,0
201037,-200,4,2,2,70,0,0
201686,-250,4,2,2,70,0,0
202335,-333.333333333333,4,2,2,70,0,0
202983,480,4,2,2,60,1,0
203688,521.739130434783,4,2,2,50,1,0
204165,470.588235294118,4,2,2,50,1,0
204493,500,4,2,2,50,1,0
204493,-133.333333333333,4,2,2,70,0,0
204993,534.124629095968,4,2,2,70,1,0
205260,534.124630665058,4,2,2,70,1,0
205260,-133.333333333333,4,2,2,70,0,0
208464,-166.666666666667,4,2,2,70,0,0
208998,-125,4,2,2,70,0,0
212737,-116.279069767442,4,2,2,5,0,0

[Colours]
Combo1 : 106,106,106
Combo2 : 141,85,29
Combo3 : 213,128,43
Combo4 : 234,191,149
Combo5 : 212,212,212
Combo6 : 177,35,38
Combo7 : 35,35,177

[HitObjects]
260,24,234,6,0,P|251:183|245:343,1,320,12|0,0:0|0:0,0:0:0:0:
235,60,1519,6,0,P|245:147|256:267,1,204.000003890991,12|0,0:0|0:0,0:0:0:0:
117,265,1948,86,0,B|249:221|236:364|367:315,1,272.000005187988,12|0,0:0|0:0,0:0:0:0:
512,357,2591,21,8,2:3:0:0:
486,362,2662,1,8,2:3:0:0:
460,354,2734,1,8,2:3:0:0:
443,332,2805,2,0,P|442:292|470:256,1,80,8|0,2:3|0:0,0:0:0:0:
492,179,3019,86,0,P|486:88|483:-13,1,180.000006866455,0|0,1:2|0:0,0:0:0:0:
397,27,3448,1,12,0:0:0:0:
413,167,3662,86,0,B|255:114|270:285|117:228,1,320,12|0,0:0|0:0,0:0:0:0:
118,228,4519,6,0,B|270:285|255:114|413:167,1,320,12|0,0:0|0:0,0:0:0:0:
412,166,5376,6,0,P|369:170|332:223,1,80,12|0,0:0|0:0,0:0:0:0:
258,344,5591,2,0,P|255:244|254:85,1,240,12|0,0:0|0:0,0:0:0:0:
283,31,6019,1,12,0:0:0:0:
413,167,6234,70,0,B|255:114|270:285|117:228,1,320,12|0,0:0|0:0,0:0:0:0:
25,190,7091,54,0,P|19:110|12:31,1,160,10|0,0:0|0:0,0:0:0:0:
473,245,7948,2,0,P|479:165|487:86,1,160,14|0,0:0|0:0,0:0:0:0:
84,349,8805,6,0,P|91:269|99:190,1,160,14|0,0:0|0:0,0:0:0:0:
408,373,9662,2,0,P|401:313|397:254,1,120,14|0,0:0|0:0,0:0:0:0:
339,198,10091,38,0,P|299:196|263:213,1,80,0|0,1:2|1:2,0:0:0:0:
70,294,10305,2,0,P|74:252|79:200,1,80,0|0,1:2|1:2,0:0:0:0:
20,150,10519,38,0,P|17:90|12:31,1,120.000004577637,14|0,0:0|0:0,0:0:0:0:
487,86,10948,2,0,P|483:126|478:217,1,120.000004577637,12|0,0:0|0:0,0:0:0:0:
90,309,11376,6,0,P|95:249|99:190,1,120.000004577637,14|0,0:0|0:0,0:0:0:0:
397,254,11805,2,0,P|401:313|408:373,1,120,12|0,0:0|0:0,0:0:0:0:
23,372,12234,21,10,0:0:0:0:
163,129,12448,2,0,P|251:137|261:232,1,180.000006866455,14|0,0:0|0:0,0:0:0:0:
209,262,12876,1,14,0:0:0:0:
255,377,13091,5,14,0:0:0:0:
250,104,13305,2,0,P|256:61|265:3,1,80,0|0,1:2|0:0,0:0:0:0:
464,107,13519,21,0,1:2:0:0:
389,135,13626,1,0,1:2:0:0:
334,75,13734,1,0,1:2:0:0:
409,47,13841,1,0,1:2:0:0:
396,145,13948,54,0,P|382:211|280:215,1,162.000000617981,14|0,3:2|0:0,0:0:0:0:
287,220,14162,2,0,P|294:262|297:308,1,80,0|0,1:2|0:0,0:0:0:0:
377,368,14376,21,10,0:0:0:0:
386,329,14484,1,2,0:0:0:0:
414,301,14591,1,2,1:2:0:0:
452,291,14698,1,2,0:0:0:0:
490,303,14805,86,0,P|486:242|480:136,1,162.000000617981,10|0,0:0|0:0,0:0:0:0:
487,46,15019,2,0,P|489:86|490:126,1,80,2|0,1:2|0:0,0:0:0:0:
490,303,15234,5,10,0:0:0:0:
451,313,15340,1,2,0:0:0:0:
414,301,15447,1,2,1:2:0:0:
387,271,15554,1,2,0:0:0:0:
490,303,15662,70,0,P|423:313|300:332,1,191.999994140625,10|0,0:0|1:2,0:0:0:0:
300,332,16091,21,10,0:0:0:0:
227,364,16198,1,2,0:0:0:0:
265,256,16305,2,0,P|265:216|268:173,1,80,2|2,1:2|0:0,0:0:0:0:
296,0,16519,86,0,B|276:39|312:78|322:66|353:95|334:150,1,162.000000617981,10|0,0:0|0:0,0:0:0:0:
258,167,16734,2,0,P|260:146|265:127,2,40,8|8|8,2:3|2:3|2:3,0:0:0:0:
217,68,16948,5,8,2:3:0:0:
123,68,17055,1,8,2:3:0:0:
215,54,17162,5,8,2:3:0:0:
125,82,17269,1,8,2:3:0:0:
60,17,17376,54,0,P|-3:60|-1:138,1,162.000000617981,14|0,0:0|0:0,0:0:0:0:
11,154,17591,2,0,P|56:160|103:168,1,80,0|0,1:2|0:0,0:0:0:0:
228,130,17805,21,10,0:0:0:0:
219,169,17913,1,2,0:0:0:0:
191,197,18020,1,2,1:2:0:0:
153,207,18127,1,2,0:0:0:0:
115,195,18234,86,0,P|119:256|125:362,1,162.000000617981,10|0,0:0|0:0,0:0:0:0:
35,357,18448,2,0,P|75:359|113:342,1,80,2|0,1:2|0:0,0:0:0:0:
218,227,18663,5,10,0:0:0:0:
191,197,18770,1,2,0:0:0:0:
154,185,18877,1,2,1:2:0:0:
115,195,18983,1,2,0:0:0:0:
227,268,19091,70,0,P|288:264|394:258,1,162.000000617981,10|0,0:0|0:0,0:0:0:0:
365,350,19305,2,0,P|361:313|378:272,1,80,2|2,1:2|0:0,0:0:0:0:
508,182,19519,21,10,0:0:0:0:
461,195,19626,1,2,0:0:0:0:
414,180,19733,1,2,1:2:0:0:
385,140,19840,1,2,0:0:0:0:
383,91,19947,85,2,1:2:0:0:
464,114,20055,1,0,1:2:0:0:
414,180,20162,1,2,1:2:0:0:
333,157,20270,1,2,1:2:0:0:
460,103,20376,5,10,0:0:0:0:
337,169,20484,1,10,0:0:0:0:
470,121,20591,5,10,0:0:0:0:
328,145,20698,1,10,0:0:0:0:
378,65,20805,6,0,B|280:84|294:3|189:25,1,191.999994140625,14|0,3:2|0:0,0:0:0:0:
57,106,21126,1,2,0:0:0:0:
69,112,21234,2,0,P|110:108|166:96,1,88.000002685547,2|0,1:2|0:0,0:0:0:0:
253,203,21448,2,0,P|244:246|239:289,1,88.000002685547,2|0,0:0|0:0,0:0:0:0:
60,355,21662,6,0,P|61:255|159:234,1,216.000000823975,10|2,0:0|0:0,0:0:0:0:
243,300,21984,1,2,0:0:0:0:
247,310,22037,1,2,0:0:0:0:
251,320,22091,2,0,P|297:314|357:311,1,88.000002685547,0|0,1:2|0:0,0:0:0:0:
492,127,22305,2,0,P|446:133|386:136,1,88.000002685547,2|0,0:0|0:0,0:0:0:0:
329,25,22519,22,0,P|324:85|317:228,1,191.999994140625,10|0,0:0|0:0,0:0:0:0:
423,327,22841,1,2,0:0:0:0:
435,315,22948,2,0,P|445:262|430:221,1,88.000002685547,2|0,1:2|0:0,0:0:0:0:
230,78,23162,2,0,P|220:131|235:172,1,88.000002685547,2|0,0:0|0:0,0:0:0:0:
24,360,23376,6,0,P|144:336|318:305,1,287.999991210938,14|0,0:0|0:0,0:0:0:0:
422,87,23805,2,0,P|302:111|128:142,1,287.999991210938,2|0,1:2|0:0,0:0:0:0:
253,384,24234,38,0,B|234:286|315:300|293:195,1,191.999994140625,14|0,3:2|0:0,0:0:0:0:
164,29,24555,1,2,0:0:0:0:
150,42,24662,2,0,P|129:78|130:131,1,88.000002685547,2|0,1:2|0:0,0:0:0:0:
76,289,24876,2,0,P|127:275|190:262,1,88.000002685547,2|0,0:0|0:0,0:0:0:0:
356,370,25091,6,0,P|280:369|246:267,1,191.999994140625,10|2,0:0|0:0,0:0:0:0:
381,155,25412,1,2,0:0:0:0:
423,224,25519,2,0,P|416:267|412:312,1,88.000002685547,2|0,1:2|0:0,0:0:0:0:
161,267,25734,2,0,P|168:224|172:179,1,88.000002685547,2|0,0:0|0:0,0:0:0:0:
288,18,25948,21,14,3:2:0:0:
11,160,26269,5,2,1:2:0:0:
11,160,26376,2,0,P|62:172|121:187,1,88.000002685547,2|0,1:2|0:0,0:0:0:0:
501,224,26591,2,0,P|462:232|411:244,1,88.000002685547,2|0,1:2|0:0,0:0:0:0:
224,366,26805,6,0,B|185:251|283:251|250:134,1,240.000009155274,2|0,1:2|0:0,0:0:0:0:
0,0,27662,53,12,0:0:0:0:
50,59,27876,1,2,2:3:0:0:
124,32,28091,1,8,0:0:0:0:
179,87,28305,5,2,2:3:0:0:
178,98,28412,1,2,2:3:0:0:
177,109,28519,1,8,0:0:0:0:
257,61,28734,5,2,2:3:0:0:
258,50,28841,1,2,2:3:0:0:
259,39,28948,1,8,0:0:0:0:
328,112,29162,85,2,2:3:0:0:
327,123,29269,1,2,2:3:0:0:
326,134,29376,1,8,0:0:0:0:
499,80,29591,5,2,2:3:0:0:
503,43,29698,1,2,2:3:0:0:
485,12,29805,1,8,0:0:0:0:
451,0,29912,1,2,2:3:0:0:
403,80,30126,5,2,2:3:0:0:
414,75,30234,1,8,0:0:0:0:
512,265,30448,53,2,2:3:0:0:
469,265,30555,1,2,2:3:0:0:
434,242,30662,1,8,0:0:0:0:
421,201,30769,1,2,0:3:0:0:
389,173,30876,1,2,2:3:0:0:
347,165,30984,1,2,2:3:0:0:
307,181,31091,1,8,0:0:0:0:
309,291,31305,5,2,2:3:0:0:
336,287,31412,1,2,2:3:0:0:
349,262,31519,1,8,0:0:0:0:
214,288,31734,5,2,2:3:0:0:
208,315,31841,1,2,2:3:0:0:
226,335,31948,1,8,0:0:0:0:
210,195,32162,85,2,2:3:0:0:
188,176,32269,1,2,2:3:0:0:
160,178,32376,1,8,0:0:0:0:
4,151,32591,5,2,2:3:0:0:
15,107,32698,1,2,2:3:0:0:
54,86,32805,1,8,0:0:0:0:
98,90,32912,1,2,2:3:0:0:
160,178,33126,5,2,2:3:0:0:
167,157,33234,1,8,0:0:0:0:
274,56,33448,53,2,2:3:0:0:
266,88,33555,1,2,2:3:0:0:
259,120,33662,1,8,0:0:0:0:
345,188,33876,22,0,L|360:121,1,60.0000022888184,2|0,2:3|0:0,0:0:0:0:
501,4,34091,69,0,1:2:0:0:
425,21,34198,5,0,1:2:0:0:
350,40,34305,5,0,1:2:0:0:
274,56,34412,85,0,1:2:0:0:
198,73,34519,85,6,1:2:0:0:
358,129,34734,1,2,2:3:0:0:
512,183,34948,1,8,0:0:0:0:
448,125,35162,5,2,2:3:0:0:
436,159,35269,1,2,2:3:0:0:
423,192,35376,1,8,0:0:0:0:
281,183,35591,5,2,2:3:0:0:
269,217,35698,1,2,2:3:0:0:
256,250,35805,1,8,0:0:0:0:
114,241,36019,85,2,2:3:0:0:
102,275,36126,1,2,2:3:0:0:
89,308,36234,1,8,0:0:0:0:
322,384,36448,5,2,2:3:0:0:
288,349,36555,1,2,2:3:0:0:
241,337,36662,1,8,0:0:0:0:
194,350,36769,1,2,2:3:0:0:
14,194,36984,5,2,2:3:0:0:
0,207,37091,2,0,P|58:225|128:243,1,120.000004577637,10|2,0:0|2:3,0:0:0:0:
279,0,37519,53,0,1:2:0:0:
206,30,37626,5,0,1:2:0:0:
167,100,37734,5,0,1:2:0:0:
173,179,37841,5,0,1:2:0:0:
224,238,37948,6,0,P|214:274|206:326,1,80,6|0,1:2|1:2,0:0:0:0:
279,365,38269,86,0,P|275:374|274:388,2,20,0|0|0,1:2|1:2|1:2,0:0:0:0:
355,328,38484,85,0,1:2:0:0:
361,307,38591,1,0,1:2:0:0:
368,285,38698,1,0,1:2:0:0:
376,263,38805,85,0,1:2:0:0:
418,285,38912,1,0,1:2:0:0:
465,279,39019,1,8,2:0:0:0:
498,244,39126,1,8,2:0:0:0:
492,150,39234,85,8,2:0:0:0:
469,141,39341,1,8,2:3:0:0:
446,150,39448,1,8,2:3:0:0:
432,169,39555,1,8,2:3:0:0:
425,191,39662,6,0,B|428:213|428:213|268:158,1,160,14|2,0:0|2:3,0:0:0:0:
252,88,39984,6,0,B|318:78|318:78|328:89|328:89|156:41,1,240,6|6,0:0|0:0,0:0:0:0:
89,20,40519,5,6,1:2:0:0:
89,20,40948,5,0,1:2:0:0:
0,315,41376,6,0,B|11:353|11:353|180:399,1,160,14|8,3:2|0:0,0:0:0:0:
228,268,41698,1,8,0:0:0:0:
145,293,41805,2,0,B|134:255|134:255|17:223,1,160,2|8,1:2|0:0,0:0:0:0:
192,176,42126,1,10,0:0:0:0:
124,282,42234,2,0,L|96:186,1,80,10|0,0:0|0:0,0:0:0:0:
214,357,42448,1,10,0:0:0:0:
214,357,42555,1,8,0:0:0:0:
300,329,42662,2,0,L|464:374,1,160,0|10,1:2|0:0,0:0:0:0:
509,302,42984,1,8,0:0:0:0:
459,229,43091,1,10,0:0:0:0:
379,3,43305,37,10,0:0:0:0:
367,81,43412,1,8,0:0:0:0:
357,161,43519,2,0,B|469:129|469:129|519:160,1,160,2|8,1:2|0:0,0:0:0:0:
459,229,43841,1,10,0:0:0:0:
380,125,43948,2,0,L|396:25,1,80,10|0,0:0|0:0,0:0:0:0:
283,118,44162,1,10,0:0:0:0:
283,118,44269,1,8,0:0:0:0:
205,0,44376,2,0,L|166:220,1,160,0|14,1:2|0:0,0:0:0:0:
485,255,44805,70,0,B|442:264|442:264|416:245|416:245|333:259,1,160,14|8,3:2|0:0,0:0:0:0:
207,342,45126,1,8,0:0:0:0:
287,384,45234,2,0,L|326:164,1,160,2|8,1:2|0:0,0:0:0:0:
180,106,45555,1,10,0:0:0:0:
196,190,45662,2,0,L|117:203,1,80,10|0,0:0|0:0,0:0:0:0:
0,260,45876,1,10,0:0:0:0:
0,260,45984,1,8,0:0:0:0:
54,339,46091,2,0,B|172:320|172:320|222:352,1,160,0|0,1:2|1:2,0:0:0:0:
494,248,46519,21,10,0:0:0:0:
469,228,46626,1,2,0:0:0:0:
460,197,46734,1,2,0:0:0:0:
471,168,46841,1,2,0:0:0:0:
405,105,46948,5,0,1:2:0:0:
427,77,47055,1,0,1:2:0:0:
461,67,47163,1,8,2:3:0:0:
493,79,47270,1,8,2:3:0:0:
471,168,47376,69,8,2:3:0:0:
426,202,47484,1,8,2:3:0:0:
370,196,47591,1,0,1:2:0:0:
328,158,47698,1,0,1:2:0:0:
314,103,47805,1,8,2:3:0:0:
272,65,47912,1,8,0:0:0:0:
216,59,48019,1,8,0:0:0:0:
171,93,48127,1,8,0:0:0:0:
230,177,48234,5,14,3:2:0:0:
232,169,48341,1,2,0:0:0:0:
234,161,48448,1,2,1:2:0:0:
236,153,48555,1,2,0:0:0:0:
314,103,48662,5,10,0:0:0:0:
318,87,48769,1,2,0:0:0:0:
322,71,48876,1,2,1:2:0:0:
326,55,48983,1,2,0:0:0:0:
446,11,49091,5,10,0:0:0:0:
481,42,49198,1,2,0:0:0:0:
487,89,49305,1,2,1:2:0:0:
460,129,49412,1,2,0:0:0:0:
413,141,49519,1,10,0:0:0:0:
380,164,49626,1,2,0:0:0:0:
368,202,49734,1,2,1:2:0:0:
382,239,49841,1,2,0:0:0:0:
412,264,49948,70,0,L|490:250,3,80,10|2|2|2,0:0|0:0|1:2|0:0,0:0:0:0:
364,370,50376,5,10,0:0:0:0:
359,350,50484,1,2,0:0:0:0:
278,287,50591,5,2,1:2:0:0:
283,307,50699,1,2,0:0:0:0:
218,363,50805,54,0,L|139:376,1,80,10|0,0:0|0:0,0:0:0:0:
0,295,51019,2,0,B|160:268|160:268|180:239|180:239|164:212|164:212|174:154,1,287.999991210938,2|0,1:2|0:0,0:0:0:0:
253,98,51448,53,0,1:2:0:0:
112,28,51555,1,0,1:2:0:0:
253,98,51662,6,0,L|95:123,1,160,14|10,3:2|0:0,0:0:0:0:
211,14,51984,1,8,0:0:0:0:
174,153,52091,2,0,B|153:265|153:265|197:333,1,160,2|8,1:2|0:0,0:0:0:0:
361,271,52412,1,10,0:0:0:0:
261,192,52519,2,0,L|339:178,1,80,10|0,0:0|0:0,0:0:0:0:
449,125,52734,1,10,0:0:0:0:
449,125,52841,1,8,0:0:0:0:
512,276,52948,2,0,B|473:250|473:250|361:271,1,160,0|8,1:2|0:0,0:0:0:0:
305,383,53269,1,8,0:0:0:0:
145,361,53376,38,0,L|158:282,1,80,14|0,0:0|0:0,0:0:0:0:
271,214,53591,2,0,B|110:245|110:245|84:131|183:187|149:62,1,352.000010742188,14|14,0:0|0:0,0:0:0:0:
12,369,54234,6,0,B|259:323|259:323|296:332|296:332|329:309|329:309|440:287,1,383.99998828125,14|0,0:0|1:2,0:0:0:0:
497,349,54769,5,0,1:2:0:0:
420,365,54876,85,0,1:2:0:0:
434,240,54984,85,0,1:2:0:0:
504,271,55091,85,14,3:2:0:0:
318,111,55305,5,0,1:2:0:0:
334,194,55412,1,0,0:0:0:0:
329,118,55519,5,8,0:0:0:0:
345,201,55626,1,0,0:0:0:0:
412,146,55734,2,0,L|530:123,1,88.000002685547,0|0,1:2|0:0,0:0:0:0:
407,53,55948,5,8,0:0:0:0:
340,10,56055,1,0,0:0:0:0:
262,26,56162,1,0,1:2:0:0:
224,95,56269,1,0,0:0:0:0:
148,146,56376,85,10,0:0:0:0:
169,191,56484,1,2,0:0:0:0:
150,240,56591,1,2,1:2:0:0:
100,258,56698,1,2,0:0:0:0:
0,186,56805,6,0,B|14:119|14:119|52:99|52:99|67:25,1,176.000005371094,10|2,0:0|1:2,0:0:0:0:
148,146,57126,1,0,0:0:0:0:
224,95,57234,86,0,L|310:78,1,88.000002685547,10|0,0:0|0:0,0:0:0:0:
343,63,57448,2,0,L|326:149,1,88.000002685547,2|0,1:2|0:0,0:0:0:0:
498,320,57662,86,0,L|411:336,1,88.000002685547,10|0,0:0|0:0,0:0:0:0:
379,352,57876,2,0,L|396:269,2,44.0000013427735,0|0|0,1:2|0:0|1:2,0:0:0:0:
431,149,58091,85,0,1:2:0:0:
394,219,58198,1,0,1:2:0:0:
319,245,58305,1,8,2:3:0:0:
246,212,58412,1,8,2:3:0:0:
158,279,58519,5,14,0:0:0:0:
174,362,58626,1,0,0:0:0:0:
90,338,58734,2,0,L|3:354,1,88.000002685547,0|0,1:2|0:0,0:0:0:0:
169,286,58948,5,8,0:0:0:0:
185,369,59055,1,0,0:0:0:0:
70,253,59162,2,0,L|86:166,1,88.000002685547,0|0,1:2|0:0,0:0:0:0:
39,12,59376,5,8,0:0:0:0:
76,82,59483,1,0,0:0:0:0:
151,108,59590,1,0,1:2:0:0:
224,75,59697,1,0,0:0:0:0:
334,4,59805,85,10,0:0:0:0:
313,49,59913,1,2,0:0:0:0:
332,98,60020,1,2,1:2:0:0:
382,116,60126,1,2,0:0:0:0:
460,76,60234,5,10,0:0:0:0:
455,50,60341,1,0,0:0:0:0:
382,116,60448,85,2,1:2:0:0:
387,142,60555,1,0,0:0:0:0:
475,186,60662,85,10,0:0:0:0:
496,231,60770,1,0,0:0:0:0:
477,280,60877,1,2,1:2:0:0:
427,298,60984,1,0,0:0:0:0:
320,248,61091,85,10,0:0:0:0:
332,235,61198,1,0,1:2:0:0:
349,230,61305,1,8,0:0:0:0:
365,235,61412,1,8,0:0:0:0:
427,298,61519,21,8,0:0:0:0:
477,280,61626,1,8,0:0:0:0:
496,231,61733,1,8,2:3:0:0:
475,186,61841,1,8,2:3:0:0:
372,154,61948,86,0,L|405:329,1,176.000005371094,14|0,0:0|1:2,0:0:0:0:
244,189,62269,1,0,0:0:0:0:
149,243,62376,2,0,L|-16:211,1,88.000002685547,8|0,0:0|0:0,0:0:0:0:
174,349,62591,2,0,L|260:365,1,88.000002685547,0|0,1:2|0:0,0:0:0:0:
395,384,62805,6,0,B|371:257|371:257|407:215,1,176.000005371094,8|0,0:0|1:2,0:0:0:0:
471,137,63126,1,0,0:0:0:0:
512,246,63234,2,0,L|495:159,1,88.000002685547,10|0,0:0|0:0,0:0:0:0:
368,48,63448,5,2,1:2:0:0:
382,125,63555,1,0,0:0:0:0:
344,26,63662,70,0,L|377:200,1,176.000005371094,10|0,0:0|1:2,0:0:0:0:
491,272,63984,2,0,B|364:248|364:248|328:278,1,176.000005371094,2|0,0:0|0:0,0:0:0:0:
190,147,64305,2,0,L|103:130,1,88.000002685547,2|0,1:2|0:0,0:0:0:0:
11,331,64519,5,2,1:2:0:0:
70,381,64626,1,0,1:2:0:0:
144,351,64734,1,8,2:3:0:0:
146,333,64841,1,8,2:3:0:0:
194,258,64948,5,2,1:2:0:0:
268,228,65056,1,0,1:2:0:0:
328,278,65163,1,10,0:0:0:0:
325,296,65269,1,8,2:3:0:0:
407,371,65376,6,0,P|408:233|481:371,1,383.99998828125,14|0,0:0|0:0,0:0:0:0:
104,384,66341,38,0,B|145:363|145:363|168:253,1,160,2|2,0:0|2:3,0:0:0:0:
133,0,67091,54,0,B|207:8|224:112|112:197|-20:175|-67:76|8:22,1,415.999980957032,14|0,0:0|0:0,0:0:0:0:
432,131,67948,6,0,B|455:103|501:93|501:93|454:103|416:86,1,160,2|0,0:0|0:0,0:0:0:0:
340,150,68269,6,0,B|307:135|261:145|261:145|306:135|330:108,1,160,2|0,0:0|0:0,0:0:0:0:
362,16,68805,70,0,L|431:376,1,360.000013732911,12|0,0:0|1:2,0:0:0:0:
221,320,69662,38,0,B|256:137|256:137|188:154|188:154|159:132|159:132|88:149,1,363.999983337403,12|0,0:0|0:0,0:0:0:0:
9,193,70519,5,12,0:0:0:0:
108,374,70734,5,8,0:0:0:0:
86,378,70841,1,8,0:0:0:0:
64,382,70948,1,0,1:2:0:0:
232,279,71162,85,8,0:0:0:0:
205,283,71269,1,8,0:0:0:0:
179,288,71376,1,8,0:0:0:0:
358,172,71591,5,8,0:0:0:0:
326,177,71698,1,8,0:0:0:0:
294,183,71805,1,0,1:2:0:0:
430,331,72019,85,8,0:0:0:0:
468,337,72126,1,8,0:0:0:0:
506,344,72233,1,8,0:0:0:0:
294,183,72448,5,8,0:0:0:0:
339,190,72555,1,8,0:0:0:0:
385,198,72662,1,0,1:2:0:0:
120,8,72876,85,8,0:0:0:0:
174,17,72983,1,8,0:0:0:0:
229,26,73091,21,8,2:3:0:0:
231,39,73162,1,8,2:3:0:0:
233,52,73234,1,8,2:3:0:0:
235,65,73305,1,8,2:3:0:0:
237,78,73377,1,8,2:3:0:0:
239,91,73448,1,8,2:3:0:0:
241,104,73519,2,0,L|217:100,16,23.9999992675781,0|0|0|0|0|0|0|0|0|0|0|0|0|0|0|0|14,1:2|0:0|0:0|0:0|0:0|0:0|0:0|0:0|0:0|0:0|0:0|0:0|0:0|0:0|0:0|0:0|0:0,0:0:0:0:
512,310,74162,22,0,P|476:292|436:287,1,80,10|8,0:0|0:0,0:0:0:0:
338,317,74376,2,0,B|324:240|384:192|367:232|436:176|417:91,1,240,2|10,1:2|0:0,0:0:0:0:
217,0,74805,2,0,P|221:40|234:78,1,80,10|0,0:0|0:0,0:0:0:0:
418,91,75019,2,0,P|343:80|310:147,1,160,10|0,0:0|1:2,0:0:0:0:
265,229,75341,1,8,0:0:0:0:
254,244,75448,2,0,P|212:245|169:222,1,80,10|8,0:0|0:0,0:0:0:0:
395,179,75662,38,0,B|382:267|342:229|327:327,1,160,10|8,0:0|0:0,0:0:0:0:
329,342,75984,1,8,0:0:0:0:
428,306,76091,2,0,P|309:315|212:383,1,240,2|10,1:2|0:0,0:0:0:0:
112,196,76519,2,0,P|79:171|43:166,1,80,10|0,0:0|0:0,0:0:0:0:
205,383,76734,2,0,P|132:360|126:285,1,160,10|0,0:0|1:2,0:0:0:0:
136,285,77162,85,8,0:0:0:0:
215,232,77269,1,8,0:0:0:0:
193,145,77376,2,0,P|212:102|250:65,1,80,14|0,0:0|0:0,0:0:0:0:
317,40,77591,85,10,0:0:0:0:
97,3,77805,2,0,P|147:63|224:76,1,160,2|8,1:2|0:0,0:0:0:0:
413,68,78126,1,10,0:0:0:0:
400,53,78234,2,0,P|365:34|326:35,1,80,10|0,0:0|0:0,0:0:0:0:
416,207,78448,37,10,0:0:0:0:
421,188,78555,1,8,0:0:0:0:
341,136,78662,2,0,P|323:174|318:223,1,88.000002685547,0|0,1:2|0:0,0:0:0:0:
463,324,78876,2,0,P|419:305|377:303,1,88.000002685547,8|0,1:2|0:0,0:0:0:0:
194,370,79091,85,14,0:0:0:0:
221,229,79305,2,0,B|236:320|277:265|294:365,1,160,14|0,0:0|1:2,0:0:0:0:
127,260,79626,1,0,1:2:0:0:
112,251,79734,2,0,P|113:212|131:176,1,80,8|8,2:3|2:3,0:0:0:0:
226,64,79948,21,8,2:3:0:0:
161,17,80055,1,8,2:3:0:0:
86,45,80162,1,0,1:2:0:0:
68,123,80269,1,0,1:2:0:0:
210,147,80376,85,8,2:3:0:0:
242,150,80484,1,8,0:0:0:0:
270,134,80591,1,8,0:0:0:0:
301,135,80698,1,8,0:0:0:0:
366,81,80805,85,14,0:0:0:0:
366,81,81019,2,0,B|398:108|398:108|375:171,1,88.000002685547,0|0,1:2|0:0,0:0:0:0:
483,300,81234,2,0,B|443:268|443:268|440:260|440:260|485:145,1,176.000005371094,10|0,0:0|1:2,0:0:0:0:
492,133,81555,1,2,0:0:0:0:
356,237,81662,6,0,B|348:242|348:242|269:252,1,88.000002685547,10|0,0:0|0:0,0:0:0:0:
194,43,81876,2,0,B|201:34|201:34|280:27,1,88.000002685547,2|0,1:2|0:0,0:0:0:0:
353,121,82091,5,8,0:0:0:0:
311,136,82198,1,0,0:0:0:0:
267,129,82305,1,2,1:2:0:0:
229,152,82412,1,0,0:0:0:0:
185,149,82519,1,10,0:0:0:0:
46,19,82734,70,0,B|73:33|73:33|88:96,1,88.000002685547,0|0,1:2|0:0,0:0:0:0:
90,103,82948,2,0,B|66:97|66:97|3:107,1,88.000002685547,10|0,0:0|0:0,0:0:0:0:
147,311,83162,2,0,B|174:297|174:297|189:234,1,88.000002685547,0|2,1:2|0:0,0:0:0:0:
185,149,83376,5,10,0:0:0:0:
182,127,83484,1,0,0:0:0:0:
15,196,83591,2,0,B|35:207|35:207|99:198,1,88.000002685547,2|0,1:2|0:0,0:0:0:0:
340,292,83805,5,8,0:0:0:0:
410,255,83912,1,0,0:0:0:0:
442,182,84019,1,2,1:2:0:0:
422,104,84126,1,2,1:2:0:0:
360,52,84234,70,0,B|320:23|320:23|309:25|309:25|345:141,1,176.000005371094,10|2,0:0|0:0,0:0:0:0:
258,186,84555,1,0,0:0:0:0:
512,128,84662,2,0,B|446:140|446:140|428:158|428:158|407:146|407:146|262:172,1,264.000008056641,2|2,1:2|0:0,0:0:0:0:
127,76,85091,6,0,B|96:49|96:49|63:129|137:154|121:128|198:169|168:254,1,264.000008056641,10|0,0:0|0:0,0:0:0:0:
87,304,85519,6,0,B|35:360|35:360|39:362|39:362|219:332,1,264.000008056641,0|0,1:2|0:0,0:0:0:0:
420,269,85948,6,0,P|432:308|397:342,1,88.000002685547,12|0,0:0|0:0,0:0:0:0:
301,384,86162,2,0,P|315:308|349:189,1,191.999994140625,12|0,0:0|0:0,0:0:0:0:
278,70,86805,86,0,P|239:30|185:28,1,111.999996582031,12|0,0:0|0:0,0:0:0:0:
110,79,87126,70,0,P|90:135|78:186,1,111.999996582031,12|0,0:0|0:0,0:0:0:0:
3,134,87448,6,0,B|42:139|74:109|98:33|98:33|65:120|54:239|4:223|-10:346|-10:346|12:271|15:142|140:209|142:271|82:305|51:344|79:377|135:376|166:323|166:323|200:306|229:281|253:265|253:265|267:219|205:152|153:200|113:269|152:355|220:372|238:371|273:365|299:346|331:273|331:273|369:148|376:113|409:73|373:33|373:33|362:124|345:268|285:333|316:371|411:387|454:283|454:283|501:157|496:120|531:61|498:37|498:37|487:127|473:275|388:333|420:374|496:383|543:282,1,2764.8,12|2,0:0|2:3,0:0:0:0:
354,234,93448,69,8,2:3:0:0:
350,230,93519,1,8,2:3:0:0:
346,226,93591,1,8,2:3:0:0:
342,222,93662,38,0,P|302:198|247:218,1,89.60000109375,12|0,0:0|0:0,0:0:0:0:
187,248,93984,70,0,P|143:257|108:236,1,76.800001875,12|0,0:0|0:0,0:0:0:0:
42,132,94305,6,0,B|75:92|98:156|129:133|148:125|148:125|58:156|56:258|113:311|181:284|217:282|229:210|218:169|218:169|205:85|287:112|295:164|349:153|365:162|397:148|397:148|459:111|504:33|443:-30|369:-71|254:15|246:163|452:323|260:353|175:408|96:352,1,1403.99993572998,12|2,0:0|2:3,0:0:0:0:
317,252,100519,6,0,P|320:211|333:163,1,80,12|0,0:0|0:0,0:0:0:0:
348,80,100841,86,0,P|304:84|252:84,1,80,12|0,0:0|0:0,0:0:0:0:
183,59,101162,6,0,B|184:-22|58:-1|63:152|63:152|70:271|48:375|3:370|3:370|-38:353|-67:243|27:170|82:191|103:215|103:215|121:227|135:239|135:239|170:224|196:208|210:204|210:204|225:164|196:102|83:113|107:180|102:274|119:297|184:303|229:290|240:281|240:281|264:265|275:245|275:245|279:170|350:160|350:160|315:149|263:159|257:265|268:298|318:319|371:288|377:228|377:228|373:252|371:271|397:294|419:288|419:288|449:239|464:195|429:133|429:133|459:160|488:138|514:160|514:160|482:210|476:249|484:293|515:312|553:293,1,2224.79998132874,12|2,0:0|2:3,0:0:0:0:
209,348,107376,6,0,P|205:296|273:264,1,136.000002593994,12|0,0:0|0:0,0:0:0:0:
303,348,107698,86,0,P|308:298|272:264,1,102.4,12|0,0:0|0:0,0:0:0:0:
112,352,108019,6,0,B|112:288|120:252|120:252|-40:240|-36:88|4:16|4:16|-16:112|24:208|112:216|112:216|128:228|128:228|140:188|184:152|224:152|224:152|232:128|248:120|248:120|256:72|256:72|264:120|264:120|280:128|288:152|288:152|328:152|372:188|384:228|384:228|400:216|400:216|488:208|528:112|508:16|508:16|548:88|552:240|392:252|392:252|400:288|400:352,1,1836.00008264466,12|2,0:0|2:3,0:0:0:0:
256,380,111448,86,0,B|232:372|232:372|248:284|248:284|196:288|196:288|188:272|188:272|236:272|236:272|216:56|216:56|256:0|256:0|296:56|296:56|276:272|276:272|324:272|324:272|316:288|316:288|264:284|264:284|280:372|280:372|256:380,1,1007.99996923828,12|2,0:0|2:3,0:0:0:0:
116,308,113162,86,0,B|136:336|152:360|180:360|180:360|332:360|332:360|360:360|376:336|396:308,1,324.000001235962,12|0,0:0|0:0,0:0:0:0:
390,301,113591,6,0,P|390:271|405:246,3,60.0000022888184,8|8|8|0,2:1|2:1|2:1|1:2,0:0:0:0:
467,294,113805,85,0,1:2:0:0:
411,241,113912,1,0,1:2:0:0:
334,231,114019,1,8,2:3:0:0:
266,267,114126,1,8,2:3:0:0:
232,338,114234,1,0,1:2:0:0:
164,374,114341,1,0,1:2:0:0:
87,364,114448,85,8,2:3:0:0:
31,311,114555,1,8,2:3:0:0:
91,358,114662,1,8,2:3:0:0:
168,362,114769,1,2,0:0:0:0:
233,320,114876,1,8,2:3:0:0:
261,246,114984,1,2,0:0:0:0:
240,169,115091,54,0,P|245:126|248:89,1,80,14|0,3:2|0:0,0:0:0:0:
211,8,115305,21,2,0:0:0:0:
206,17,115376,1,2,0:0:0:0:
201,26,115448,1,2,0:0:0:0:
196,35,115519,6,2,P|239:40|266:66,1,80,2|0,1:1|0:0,2:1:0:0:
143,163,115734,2,0,P|125:123|134:86,1,80,14|0,0:0|0:0,0:0:0:0:
281,145,115948,2,2,P|255:179|219:190,1,80,2|0,1:1|0:0,2:1:0:0:
26,176,116162,85,10,0:0:0:0:
35,171,116233,1,10,0:0:0:0:
44,166,116305,1,10,0:0:0:0:
53,161,116376,86,0,P|51:206|56:251,1,80,2|0,1:2|0:0,0:0:0:0:
186,328,116591,2,0,P|190:288|188:249,1,80,10|0,0:0|0:0,0:0:0:0:
12,308,116805,21,8,0:0:0:0:
45,323,116876,1,2,0:0:0:0:
82,319,116948,1,2,0:0:0:0:
111,296,117019,1,10,0:0:0:0:
54,240,117126,22,2,P|54:155|174:144,1,200,2|0,1:1|0:0,2:1:0:0:
218,180,117448,5,10,0:0:0:0:
197,56,117555,1,0,0:0:0:0:
292,145,117662,70,2,B|312:199|298:246|268:255|210:271|205:367|250:422|357:390|340:316,1,360.000013732911,10|0,3:2|0:0,2:1:0:0:
335,305,118091,70,0,L|244:298,1,80,0|0,1:2|0:0,0:0:0:0:
22,363,118305,1,2,1:2:0:0:
22,363,118412,1,0,1:2:0:0:
70,294,118519,70,0,B|149:275|132:353|216:332,1,160,14|0,3:2|0:0,0:0:0:0:
220,164,118841,1,12,0:0:0:0:
205,180,118948,2,0,P|189:206|199:260,1,80,0|0,1:2|0:0,0:0:0:0:
290,376,119162,2,0,P|331:358|380:349,1,80,12|0,0:0|0:0,0:0:0:0:
371,173,119376,37,2,0:0:0:0:
264,223,119484,1,2,0:0:0:0:
342,252,119591,1,10,0:0:0:0:
292,145,119698,22,2,P|283:236|277:388,1,240.000009155274,2|0,1:1|0:0,2:1:0:0:
194,253,120019,2,0,P|186:214|204:179,1,80,10|0,0:0|0:0,0:0:0:0:
452,150,120234,37,10,0:0:0:0:
371,173,120341,1,2,0:0:0:0:
292,145,120448,1,10,0:0:0:0:
244,75,120555,1,2,0:0:0:0:
280,0,120662,21,0,1:2:0:0:
250,79,120769,1,0,1:2:0:0:
181,126,120876,1,8,2:3:0:0:
97,124,120983,1,8,2:3:0:0:
30,73,121091,5,14,0:0:0:0:
3,113,121198,1,2,0:0:0:0:
19,150,121305,1,2,0:0:0:0:
110,278,121412,5,14,0:0:0:0:
137,238,121519,1,2,0:0:0:0:
121,201,121626,1,2,0:0:0:0:
97,124,121734,6,0,P|102:81|108:27,1,80,12|0,0:0|0:0,0:0:0:0:
45,227,121948,54,0,P|141:218|283:199,1,240,8|8,0:0|0:0,0:0:0:0:
335,267,122376,5,8,0:0:0:0:
349,148,122484,1,8,0:0:0:0:
421,182,122591,5,8,0:0:0:0:
419,202,122662,1,8,0:0:0:0:
417,222,122734,1,8,0:0:0:0:
415,242,122805,5,2,1:2:0:0:
419,246,123126,1,2,1:2:0:0:
423,250,123448,1,2,1:2:0:0:
237,364,123662,54,0,P|238:336|241:300,2,60.0000022888184,10|0|0,0:0|0:0|0:0,0:0:0:0:
276,231,123984,2,0,P|275:203|272:167,2,60.0000022888184,10|0|0,0:0|0:0|0:0,0:0:0:0:
243,95,124305,2,0,P|244:67|247:31,1,60.0000022888184,2|0,0:0|0:0,0:0:0:0:
325,49,124519,5,0,1:2:0:0:
163,73,124662,1,0,1:2:0:0:
251,104,124805,1,8,2:3:0:0:
348,52,124948,5,8,2:3:0:0:
255,119,125091,1,8,2:3:0:0:
145,81,125234,1,8,2:3:0:0:
75,134,125376,70,0,B|58:172|58:172|67:215,1,80,12|0,0:0|0:0,0:0:0:0:
184,162,125591,6,0,L|144:167,1,40,8|8,2:1|2:1,0:0:0:0:
178,174,125698,2,0,L|138:179,1,40,8|0,2:1|1:0,0:0:0:0:
172,186,125805,5,0,1:0:0:0:
55,315,125948,1,0,1:0:0:0:
154,359,126091,1,0,1:0:0:0:
226,279,126234,69,12,0:0:0:0:
72,307,126376,1,8,2:3:0:0:
208,278,126519,1,8,2:3:0:0:
151,342,126662,21,8,2:3:0:0:
80,222,126805,1,8,2:3:0:0:
165,204,126948,1,8,2:3:0:0:
304,278,127091,5,0,1:2:0:0:
440,307,127234,1,8,2:3:0:0:
361,342,127377,1,8,2:3:0:0:
432,222,127520,69,8,2:3:0:0:
347,204,127663,1,8,0:3:0:0:
432,222,127805,1,8,2:3:0:0:
286,279,127948,21,8,2:3:0:0:
457,315,128091,1,8,2:3:0:0:
358,359,128234,1,8,2:3:0:0:
340,186,128376,69,0,1:2:0:0:
446,209,128519,1,8,2:3:0:0:
340,186,128662,1,8,2:3:0:0:
423,39,128805,69,8,2:3:0:0:
386,78,128912,1,8,2:3:0:0:
406,127,129019,1,8,2:3:0:0:
478,97,129234,5,10,0:0:0:0:
386,78,129341,1,8,0:0:0:0:
294,59,129448,1,8,0:0:0:0:
294,59,129662,5,2,1:2:0:0:
386,78,129769,1,8,0:0:0:0:
478,97,129876,1,8,0:0:0:0:
423,39,130091,5,10,0:0:0:0:
386,78,130198,1,8,0:0:0:0:
406,127,130305,1,8,0:0:0:0:
326,173,130412,1,8,0:0:0:0:
388,243,130519,6,0,P|392:223|394:202,2,40.000001525879,10|0|0,0:0|0:0|0:0,0:0:0:0:
465,230,130734,2,0,P|469:210|471:189,2,40.000001525879,10|0|0,0:0|0:0|0:0,0:0:0:0:
399,313,130948,70,0,P|397:293|393:273,2,40.000001525879,10|0|0,0:0|0:0|0:0,0:0:0:0:
322,300,131162,2,0,P|320:280|316:260,2,40.000001525879,10|0|0,0:0|0:0|0:0,0:0:0:0:
257,348,131376,86,0,B|153:326|189:389|79:415|28:385|23:289|91:234|159:293|196:327,1,360.000013732911,2|8,1:2|2:3,0:0:0:0:
322,300,132234,38,0,B|328:283|328:283|347:300,5,40.000001525879,10|0|0|0|0|0,0:0|0:0|0:0|0:0|0:0|0:0,0:0:0:0:
355,377,132662,85,10,0:0:0:0:
424,329,132769,1,8,0:0:0:0:
407,246,132876,2,0,P|388:221|367:200,1,60.0000022888184,8|0,0:0|0:0,0:0:0:0:
455,170,133091,85,2,1:2:0:0:
394,111,133198,1,8,0:0:0:0:
313,133,133305,2,0,P|286:142|243:166,1,60.0000022888184,8|0,0:0|0:0,0:0:0:0:
250,67,133519,85,10,0:0:0:0:
181,115,133626,1,8,0:0:0:0:
185,199,133734,2,0,P|204:227|234:264,1,60.0000022888184,8|0,0:0|0:0,0:0:0:0:
236,340,133948,5,2,1:2:0:0:
223,349,134019,1,0,1:2:0:0:
206,350,134091,1,0,1:2:0:0:
190,347,134162,1,0,1:2:0:0:
175,340,134234,1,0,1:2:0:0:
169,324,134305,1,0,1:2:0:0:
169,310,134376,5,0,1:2:0:0:
241,329,134484,1,0,1:2:0:0:
302,291,134591,1,0,1:2:0:0:
321,221,134698,1,0,1:2:0:0:
284,156,134805,6,0,B|257:209|257:209|257:212|257:212|413:173,1,200,12|0,0:0|0:0,0:0:0:0:
448,255,135126,70,0,B|476:272|476:272|487:207|458:175|434:193|381:148|408:80,1,240,12|12,0:0|0:0,0:0:0:0:
473,41,135555,70,0,B|494:47|494:47|479:68,1,40,2|0,0:0|0:0,0:0:0:0:
486,78,135662,37,8,0:0:0:0:
398,79,135769,1,8,0:0:0:0:
323,125,135876,1,8,0:0:0:0:
310,212,135984,1,8,0:0:0:0:
351,289,136091,85,8,0:0:0:0:
378,260,136198,1,8,0:0:0:0:
416,248,136305,1,8,0:0:0:0:
454,257,136412,1,8,0:0:0:0:
484,283,136519,85,8,1:2:0:0:
475,338,136626,1,8,0:0:0:0:
432,375,136734,1,8,0:0:0:0:
376,381,136841,1,8,0:0:0:0:
322,365,136948,85,8,0:0:0:0:
301,340,137055,1,8,0:0:0:0:
270,330,137162,1,8,0:0:0:0:
238,333,137269,1,8,0:0:0:0:
158,367,137376,5,8,0:0:0:0:
142,320,137484,1,8,0:0:0:0:
173,283,137591,1,8,0:0:0:0:
255,251,137698,5,8,0:0:0:0:
241,213,137805,1,8,0:0:0:0:
204,196,137912,1,8,0:0:0:0:
164,198,138019,2,0,P|128:197|92:162,1,80,8|8,0:0|0:0,0:0:0:0:
116,16,138234,85,8,1:2:0:0:
163,24,138341,1,8,0:0:0:0:
194,59,138448,1,8,0:0:0:0:
197,106,138555,85,8,0:0:0:0:
236,133,138662,1,8,0:0:0:0:
283,125,138769,1,8,2:3:0:0:
318,92,138876,5,8,2:3:0:0:
315,75,138984,1,8,2:3:0:0:
405,111,139091,54,0,B|452:107|452:107|478:151|478:151|557:115|499:28,1,200,12|8,3:2|0:0,0:0:0:0:
443,18,139412,1,8,0:0:0:0:
443,18,139519,2,0,L|357:32,1,60.0000022888184,0|0,1:2|0:0,0:0:0:0:
330,195,139734,21,8,0:0:0:0:
350,192,139841,1,8,0:0:0:0:
428,231,139948,86,0,B|471:262|471:262|325:281,1,200,12|8,3:2|0:0,0:0:0:0:
192,353,140269,1,8,0:0:0:0:
192,353,140376,2,0,B|221:336|221:336|235:274,1,80,0|0,1:2|0:0,0:0:0:0:
100,231,140591,21,8,0:0:0:0:
98,252,140698,1,8,0:0:0:0:
32,184,140805,54,0,B|-23:156|-23:156|148:133,1,200,12|8,3:2|0:0,0:0:0:0:
229,19,141126,1,8,0:0:0:0:
229,19,141234,2,0,B|202:41|202:41|191:105,1,100,0|0,1:2|0:0,0:0:0:0:
429,219,141448,53,8,0:0:0:0:
449,214,141555,1,8,0:0:0:0:
408,131,141662,54,0,B|289:104|216:181|276:200|215:287|78:248,1,360.000013732911,12|8,3:2|0:0,0:0:0:0:
3,40,142091,53,0,1:2:0:0:
78,16,142198,1,0,1:2:0:0:
154,35,142305,1,8,2:3:0:0:
191,105,142412,1,8,2:3:0:0:
198,183,142519,69,14,3:2:0:0:
203,198,142591,1,0,0:0:0:0:
214,210,142662,1,0,0:0:0:0:
229,216,142734,1,10,0:0:0:0:
245,216,142805,1,0,0:0:0:0:
260,209,142876,1,0,0:0:0:0:
278,185,142948,5,2,1:2:0:0:
286,172,143019,1,0,0:0:0:0:
299,162,143091,1,0,0:0:0:0:
313,154,143162,1,10,0:0:0:0:
329,151,143234,1,0,0:0:0:0:
345,152,143305,1,0,0:0:0:0:
379,169,143376,6,0,B|426:222|494:178|523:132|496:89,1,200,2|8,1:2|0:0,0:0:0:0:
456,10,143698,2,0,B|423:16|401:52|407:87,1,100,8|2,0:0|1:2,0:0:0:0:
336,254,143912,5,2,0:0:0:0:
327,303,144019,1,8,0:0:0:0:
369,328,144126,1,8,0:0:0:0:
512,310,144234,86,0,P|480:269|431:261,1,100,0|0,1:2|1:2,0:0:0:0:
232,335,144448,2,0,P|190:367|136:363,1,100,8|8,2:3|2:3,0:0:0:0:
6,175,144662,85,0,1:2:0:0:
28,98,144769,1,0,1:2:0:0:
100,63,144876,1,8,2:3:0:0:
178,82,144984,1,8,2:3:0:0:
228,144,145091,85,8,3:3:0:0:
225,163,145198,1,8,0:0:0:0:
221,182,145305,1,8,0:0:0:0:
218,201,145412,1,8,0:0:0:0:
276,262,145519,86,0,P|377:260|318:81,1,300,12|0,0:0|0:0,0:0:0:0:
292,78,145948,70,0,B|346:103|403:64|408:26|378:37|417:-22|488:-18|512:7|542:58|488:99,1,320,4|0,3:2|0:0,0:0:0:0:
495,92,148948,37,0,1:2:0:0:
495,92,149376,70,0,P|477:129|483:179,1,80,14|0,0:0|0:0,0:0:0:0:
494,277,149591,2,0,P|457:258|418:254,1,80,8|0,0:0|0:0,0:0:0:0:
323,335,149805,2,0,B|296:281|337:235|342:252|374:206|349:148,1,200,0|8,1:0|0:0,0:0:0:0:
261,89,150126,1,8,0:0:0:0:
255,109,150234,38,0,P|260:148|271:186,1,80,8|0,0:0|0:0,0:0:0:0:
224,350,150448,1,10,0:0:0:0:
227,330,150555,1,8,0:0:0:0:
251,260,150662,2,0,P|212:256|172:283,1,80,0|0,1:0|0:0,0:0:0:0:
109,349,150877,2,0,P|67:350|26:318,1,80,8|0,0:0|0:0,0:0:0:0:
153,98,151091,85,12,0:0:0:0:
202,348,151305,2,0,P|114:324|121:225,1,200,12|0,0:0|1:0,0:0:0:0:
153,98,151626,1,0,1:0:0:0:
82,153,151734,2,0,B|63:117|63:117|69:73,1,80,8|8,2:3|2:3,0:0:0:0:
246,0,151948,6,0,L|237:83,1,80,8|8,2:3|2:3,0:0:0:0:
304,230,152162,5,0,1:2:0:0:
304,230,152269,1,0,1:2:0:0:
227,161,152376,85,8,2:3:0:0:
259,164,152484,1,8,2:3:0:0:
287,148,152591,1,8,2:3:0:0:
318,149,152698,1,8,2:3:0:0:
383,95,152805,37,4,0:0:0:0:
146,81,153019,2,0,B|119:92|119:92|114:102|114:102|128:164,1,95.9999970703126,0|0,1:2|0:0,0:0:0:0:
15,322,153234,2,0,B|74:332|74:332|91:305|91:305|65:189,1,191.999994140625,10|0,0:0|1:2,0:0:0:0:
37,135,153555,1,2,0:0:0:0:
187,247,153662,22,0,B|201:234|201:234|211:155,1,95.9999970703126,10|0,0:0|0:0,0:0:0:0:
50,30,153876,2,0,B|36:43|36:43|26:122,1,95.9999970703126,2|0,1:2|0:0,0:0:0:0:
139,255,154091,5,8,0:0:0:0:
187,247,154198,1,2,0:0:0:0:
230,268,154305,1,2,1:2:0:0:
252,311,154412,1,2,0:0:0:0:
244,357,154519,70,0,B|226:334|226:334|230:267,1,95.9999970703126,10|0,0:0|0:0,0:0:0:0:
37,304,154734,1,0,1:2:0:0:
109,329,154841,1,0,0:0:0:0:
16,331,154948,2,0,B|-12:373|-12:373|124:337,1,191.999994140625,10|0,0:0|1:2,0:0:0:0:
307,252,155269,1,2,0:0:0:0:
315,175,155376,6,0,B|366:162|366:162|399:194|399:194|380:288,2,191.999994140625,10|2|8,0:0|1:2|0:0,0:0:0:0:
102,255,155912,5,0,1:0:0:0:
70,182,156019,1,2,1:2:0:0:
90,104,156126,1,2,1:2:0:0:
152,52,156234,22,0,B|192:23|192:23|203:25|203:25|167:141,1,176.000005371094,14|2,0:0|0:0,0:0:0:0:
254,186,156555,1,0,0:0:0:0:
0,128,156662,6,0,B|66:140|66:140|84:158|84:158|105:146|105:146|250:172,1,264.000008056641,2|2,1:2|0:0,0:0:0:0:
509,47,157091,6,0,B|443:59|443:59|425:77|425:77|404:65|404:65|259:91,1,264.000008056641,10|0,0:0|0:0,0:0:0:0:
87,238,157519,6,0,B|153:250|153:250|171:268|171:268|192:256|192:256|337:282,1,264.000008056641,0|0,1:2|0:0,0:0:0:0:
424,261,157948,22,0,P|430:300|405:340,1,80,12|0,0:0|0:0,0:0:0:0:
256,368,158162,2,0,P|264:268|288:160,1,191.999994140625,12|0,0:0|0:0,0:0:0:0:
88,261,158591,22,0,P|82:300|107:340,1,80,12|0,0:0|0:0,0:0:0:0:
256,368,158805,2,0,B|257:254|212:112|212:112|255:6|255:6|300:112|300:112|293:138|282:179,1,560.000005340576,12|0,0:0|0:0,0:0:0:0:
256,368,159662,53,12,0:0:0:0:
177,335,160014,6,0,P|153:337|130:346,1,47.9999985351563,10|0,0:0|0:0,0:0:0:0:
256,368,160367,1,2,0:0:0:0:
335,335,160720,6,0,P|358:337|381:346,1,47.9999985351563,10|0,0:0|0:0,0:0:0:0:
256,368,161073,1,2,0:0:0:0:
185,329,161426,86,0,P|174:307|173:283,1,47.9999985351563,10|0,0:0|0:0,0:0:0:0:
256,368,161779,1,2,0:0:0:0:
327,329,162132,6,0,P|337:307|338:283,1,47.9999985351563,10|0,0:0|0:0,0:0:0:0:
256,368,162485,1,2,0:0:0:0:
178,270,162838,86,0,P|152:256|128:253,1,47.9999985351563,10|0,0:0|0:0,0:0:0:0:
256,368,163191,1,2,0:0:0:0:
334,270,163544,6,0,P|360:256|384:253,1,47.9999985351563,10|0,0:0|0:0,0:0:0:0:
256,368,163897,1,0,3:2:0:0:
188,259,164250,86,0,P|176:239|173:202,1,47.9999985351563,10|2,0:0|0:0,0:0:0:0:
256,368,164603,1,2,3:2:0:0:
324,259,164956,6,0,P|336:239|339:202,1,47.9999985351563,10|0,0:0|0:0,0:0:0:0:
256,368,165309,1,8,0:0:0:0:
177,335,165485,37,2,2:3:0:0:
167,338,165573,1,2,2:3:0:0:
157,340,165662,1,10,0:0:0:0:
335,335,165838,5,2,2:3:0:0:
345,338,165926,1,2,2:3:0:0:
355,340,166014,1,8,0:0:0:0:
147,258,166191,85,2,2:3:0:0:
143,246,166279,1,2,2:3:0:0:
140,234,166367,1,10,0:0:0:0:
365,258,166544,5,2,2:3:0:0:
369,246,166632,1,2,2:3:0:0:
372,234,166720,1,8,0:0:0:0:
121,150,166897,85,2,2:3:0:0:
105,147,166985,1,2,2:3:0:0:
89,144,167073,1,10,0:0:0:0:
391,150,167250,5,2,2:3:0:0:
407,147,167338,1,2,2:3:0:0:
423,144,167426,1,8,0:0:0:0:
193,78,167603,85,2,1:3:0:0:
198,57,167691,1,2,1:3:0:0:
203,36,167779,2,0,L|209:4,1,23.9999992675781,10|0,1:2|1:2,0:0:0:0:
319,78,167956,5,2,1:3:0:0:
314,57,168044,1,2,1:3:0:0:
309,36,168132,2,0,L|303:4,3,23.9999992675781,10|0|2|2,1:2|1:2|1:3|1:3,0:0:0:0:
178,151,168485,22,0,L|187:189,3,40,10|0|2|2,1:2|1:2|1:3|1:3,0:0:0:0:
334,151,168838,2,0,L|324:189,3,40,10|0|2|2,1:2|1:2|1:3|1:3,0:0:0:0:
149,275,169191,6,0,L|94:263,1,55.9999982910157,10|0,1:2|1:2,0:0:0:0:
363,275,169367,2,0,L|417:263,1,55.9999982910157,2|2,1:3|1:3,0:0:0:0:
256,384,169544,5,8,0:0:0:0:
256,361,169632,1,0,1:2:0:0:
256,338,169720,1,2,1:3:0:0:
256,315,169808,1,2,1:3:0:0:
256,292,169896,1,10,0:0:0:0:
256,269,169985,1,0,1:2:0:0:
256,246,170073,1,2,1:3:0:0:
256,223,170161,1,0,1:0:0:0:
256,200,170250,5,8,2:3:0:0:
215,170,170338,85,0,1:2:0:0:
230,122,170426,85,2,1:3:0:0:
281,122,170514,85,8,1:3:0:0:
296,170,170603,85,8,1:3:0:0:
320,3,170956,6,0,B|248:19|248:19|239:17|239:17|155:37,1,160,14|8,0:0|0:0,0:0:0:0:
62,39,171220,1,8,0:0:0:0:
78,16,171309,2,0,B|139:3|139:3|104:120,1,160,0|8,1:0|0:0,0:0:0:0:
40,181,171573,1,8,0:0:0:0:
54,159,171662,2,0,B|128:141|128:141|138:144|138:144|164:170|164:170|216:157,1,160,10|8,0:0|0:0,0:0:0:0:
311,104,171926,1,8,0:0:0:0:
297,126,172014,2,0,B|280:197|280:197|283:207|283:207|263:291,1,160,2|8,1:2|0:0,0:0:0:0:
350,354,172279,1,8,0:0:0:0:
279,259,172367,6,0,B|166:285|166:285|131:340,1,160,14|8,0:0|0:0,0:0:0:0:
26,349,172632,1,8,0:0:0:0:
43,275,172720,1,0,1:0:0:0:
234,384,172897,1,8,0:0:0:0:
234,384,172985,1,8,0:0:0:0:
234,384,173073,2,0,B|347:358|347:358|382:303,1,160,10|8,0:0|0:0,0:0:0:0:
503,284,173338,1,8,0:0:0:0:
503,284,173426,69,2,1:2:0:0:
462,309,173514,1,0,1:0:0:0:
414,308,173603,1,8,2:3:0:0:
376,273,173691,1,8,2:3:0:0:
369,225,173779,1,14,0:0:0:0:
496,96,173956,5,8,0:0:0:0:
471,137,174044,1,8,0:0:0:0:
425,151,174132,1,2,1:2:0:0:
382,128,174220,1,0,0:0:0:0:
333,129,174309,1,8,0:0:0:0:
293,156,174397,1,8,0:0:0:0:
283,202,174485,1,10,0:0:0:0:
417,50,174662,5,8,0:0:0:0:
412,35,174750,1,8,0:0:0:0:
407,20,174838,1,2,1:2:0:0:
176,174,175014,85,8,0:0:0:0:
188,220,175103,1,8,0:0:0:0:
200,266,175191,2,0,B|177:259|177:259|152:274|152:274|17:238,1,160,14|8,0:0|0:0,0:0:0:0:
3,152,175456,1,8,0:0:0:0:
13,122,175544,2,0,B|51:98|51:98|162:127,1,160,0|10,1:0|0:0,0:0:0:0:
324,374,175897,6,0,B|311:324|311:324|292:304|292:304|297:273|297:273|284:225,1,160,10|8,0:0|0:0,0:0:0:0:
346,137,176162,1,8,0:0:0:0:
346,137,176250,5,8,2:3:0:0:
299,125,176338,1,8,2:3:0:0:
270,87,176426,1,8,2:3:0:0:
272,40,176514,1,8,2:3:0:0:
305,6,176603,1,14,0:0:0:0:
423,67,176779,53,8,0:0:0:0:
409,64,176867,1,8,0:0:0:0:
395,61,176956,1,0,1:0:0:0:
512,232,177132,5,10,0:0:0:0:
466,220,177220,1,10,0:0:0:0:
420,208,177309,2,0,B|438:278|438:278|422:299|422:299|358:281,1,160,10|8,0:0|0:0,0:0:0:0:
264,331,177573,1,8,0:0:0:0:
255,360,177662,2,0,B|342:384|342:384|365:373|365:373|416:387,1,160,2|8,1:2|0:0,0:0:0:0:
458,310,177926,1,8,0:0:0:0:
452,183,178014,6,0,B|348:154|348:154|252:178,1,160,14|8,0:0|0:0,0:0:0:0:
213,250,178279,1,8,0:0:0:0:
193,176,178367,1,0,1:0:0:0:
0,53,178544,1,8,0:0:0:0:
0,53,178632,1,8,0:0:0:0:
0,53,178720,2,0,B|73:34|73:34|87:39|87:39|188:13,1,160,6|8,1:2|0:0,0:0:0:0:
257,0,178985,1,8,0:0:0:0:
257,0,179073,69,6,1:2:0:0:
296,38,179162,1,0,1:0:0:0:
296,92,179250,1,8,2:3:0:0:
265,139,179338,1,8,2:3:0:0:
210,153,179426,5,14,0:0:0:0:
194,150,179514,1,8,0:0:0:0:
183,137,179603,1,0,1:2:0:0:
185,121,179691,1,8,0:0:0:0:
196,109,179779,1,8,0:0:0:0:
211,106,179867,1,8,0:0:0:0:
226,111,179956,1,0,1:2:0:0:
237,122,180044,1,8,0:0:0:0:
239,137,180132,5,10,0:0:0:0:
262,168,180220,1,8,0:0:0:0:
298,184,180309,1,0,1:2:0:0:
337,185,180397,1,8,0:0:0:0:
377,160,180485,5,10,0:0:0:0:
423,150,180573,1,8,0:0:0:0:
469,163,180662,1,0,1:2:0:0:
500,199,180750,1,8,0:0:0:0:
510,253,180838,69,10,0:0:0:0:
487,304,180926,1,8,0:0:0:0:
438,331,181014,1,0,1:2:0:0:
381,327,181103,1,8,0:0:0:0:
337,280,181191,5,10,0:0:0:0:
276,260,181279,1,8,0:0:0:0:
215,281,181367,1,0,1:2:0:0:
188,339,181456,1,8,0:0:0:0:
201,384,181544,5,10,0:0:0:0:
212,345,181632,1,8,0:0:0:0:
202,306,181720,1,0,1:2:0:0:
167,285,181809,1,8,0:0:0:0:
128,273,181897,1,8,0:0:0:0:
103,252,181985,1,8,0:0:0:0:
91,222,182073,1,0,1:2:0:0:
100,191,182162,1,8,0:0:0:0:
122,168,182250,70,0,B|195:149|195:149|209:154|209:154|232:65,1,160,14|8,0:0|0:0,0:0:0:0:
279,0,182514,1,8,0:0:0:0:
287,34,182603,2,0,B|215:53|215:53|202:50|202:50|70:85,1,160,0|8,1:2|0:0,0:0:0:0:
47,43,182867,1,8,0:0:0:0:
39,9,182956,2,0,B|25:60|25:60|-16:87|-16:87|3:140,1,160,10|8,0:0|0:0,0:0:0:0:
52,244,183220,1,8,0:0:0:0:
44,278,183309,2,0,B|3:249|3:249|173:207,1,160,2|8,1:2|0:0,0:0:0:0:
244,271,183573,1,8,0:0:0:0:
161,158,183662,6,0,B|146:217|146:217|167:252|167:252|138:369,1,160,10|8,0:0|0:0,0:0:0:0:
226,384,183926,1,8,0:0:0:0:
298,367,184014,1,0,1:2:0:0:
483,286,184191,1,8,0:0:0:0:
483,286,184279,1,8,0:0:0:0:
483,286,184367,2,0,B|524:315|524:315|354:357,1,160,6|8,1:2|0:0,0:0:0:0:
346,239,184632,1,8,0:0:0:0:
346,239,184720,69,10,0:0:0:0:
371,198,184808,1,8,0:0:0:0:
370,150,184897,1,8,2:3:0:0:
335,112,184985,1,8,2:3:0:0:
287,105,185073,1,14,0:0:0:0:
225,207,185250,5,8,0:0:0:0:
240,202,185338,1,8,0:0:0:0:
255,197,185426,1,0,3:2:0:0:
367,19,185603,5,8,0:0:0:0:
394,9,185691,1,8,0:0:0:0:
422,0,185779,1,10,3:2:0:0:
512,223,185956,5,8,0:0:0:0:
466,238,186044,1,8,0:0:0:0:
420,253,186132,2,0,B|445:144|445:144|413:64,1,160,2|8,3:2|0:0,0:0:0:0:
342,161,186397,1,8,0:0:0:0:
332,196,186485,2,0,B|278:208|278:208|272:213|272:213|265:211|265:211|223:221|223:221|143:189,1,160,10|8,3:2|0:0,0:0:0:0:
97,129,186750,1,8,0:0:0:0:
107,94,186838,2,0,B|161:82|161:82|167:77|167:77|174:79|174:79|216:69|216:69|296:101,1,160,0|10,1:2|0:0,0:0:0:0:
358,181,187103,1,8,0:0:0:0:
348,216,187191,1,6,1:2:0:0:
172,352,187367,85,8,0:0:0:0:
177,337,187455,1,8,0:0:0:0:
182,322,187543,1,2,1:2:0:0:
135,289,187632,1,0,1:2:0:0:
79,287,187720,1,0,1:2:0:0:
34,322,187809,1,0,1:2:0:0:
25,377,187897,1,14,3:2:0:0:
358,303,188073,5,8,0:0:0:0:
312,318,188161,1,8,0:0:0:0:
266,333,188250,2,0,B|273:293|273:293|265:280|265:280|275:234|275:234|288:224|288:224|298:184,1,160,0|10,1:2|0:0,0:0:0:0:
373,91,188514,1,10,0:0:0:0:
363,123,188603,2,0,B|303:138|303:138|285:136|285:136|271:145|271:145|190:165,1,160,10|8,0:0|0:0,0:0:0:0:
123,76,188867,1,8,0:0:0:0:
156,66,188956,2,0,B|228:47|228:47|237:56|237:56|218:129,1,160,2|8,1:2|0:0,0:0:0:0:
114,287,189220,1,8,0:0:0:0:
41,193,189309,86,0,B|22:264|22:264|30:272|30:272|103:254,1,160,10|8,3:2|0:0,0:0:0:0:
218,314,189573,1,8,0:0:0:0:
201,384,189661,1,0,1:2:0:0:
0,294,189838,1,8,0:0:0:0:
0,294,189926,1,8,0:0:0:0:
0,294,190014,2,0,B|60:279|60:279|78:281|78:281|92:272|92:272|173:252,1,160,0|8,1:2|0:0,0:0:0:0:
307,337,190279,1,8,0:0:0:0:
307,337,190367,21,0,1:2:0:0:
343,377,190456,1,0,1:2:0:0:
397,379,190544,1,8,0:0:0:0:
445,349,190632,1,8,0:0:0:0:
459,295,190720,53,14,3:2:0:0:
457,278,190808,1,8,0:0:0:0:
443,264,190897,1,0,1:2:0:0:
425,267,190985,1,8,0:0:0:0:
412,278,191073,1,8,0:0:0:0:
408,294,191161,1,8,0:0:0:0:
413,311,191250,1,0,1:2:0:0:
424,324,191338,1,8,0:0:0:0:
441,326,191426,5,10,0:0:0:0:
471,295,191514,1,8,0:0:0:0:
471,250,191603,1,0,1:2:0:0:
443,216,191691,1,8,0:0:0:0:
399,208,191779,1,10,0:0:0:0:
361,170,191867,1,8,0:0:0:0:
349,117,191956,1,0,1:2:0:0:
375,71,192044,1,8,0:0:0:0:
432,50,192132,5,10,0:0:0:0:
489,70,192220,1,8,0:0:0:0:
512,127,192309,1,0,1:2:0:0:
485,181,192397,1,8,0:0:0:0:
426,199,192485,1,10,0:0:0:0:
378,160,192573,1,8,0:0:0:0:
316,153,192661,1,0,1:2:0:0:
264,186,192750,1,8,0:0:0:0:
250,228,192838,85,10,0:0:0:0:
262,270,192926,1,8,0:0:0:0:
295,297,193014,1,0,1:2:0:0:
339,302,193103,1,8,0:0:0:0:
378,281,193191,1,8,0:0:0:0:
398,241,193279,1,8,0:0:0:0:
388,197,193367,1,0,1:2:0:0:
348,174,193456,1,8,0:0:0:0:
348,174,193544,6,0,L|242:200,1,80,12|8,3:2|0:0,0:0:0:0:
235,204,193720,2,0,L|254:126,1,80,0|8,1:2|0:0,0:0:0:0:
44,48,193897,86,0,L|150:22,1,80,8|8,0:0|0:0,0:0:0:0:
157,18,194073,2,0,L|137:95,1,80,0|8,1:2|0:0,0:0:0:0:
0,179,194250,21,8,0:0:0:0:
40,153,194338,1,8,0:0:0:0:
87,163,194426,1,0,1:2:0:0:
122,197,194515,1,8,0:0:0:0:
136,243,194603,1,8,0:0:0:0:
179,266,194691,1,8,0:0:0:0:
225,255,194779,1,0,1:2:0:0:
499,372,194956,86,0,L|393:346,1,80,8|8,3:2|0:0,0:0:0:0:
354,133,195132,2,0,L|460:159,1,80,0|8,1:2|0:0,0:0:0:0:
499,333,195309,86,0,L|393:359,1,80,8|8,0:0|0:0,0:0:0:0:
354,171,195485,2,0,L|460:145,1,80,0|8,1:2|0:0,0:0:0:0:
509,227,195661,21,8,0:0:0:0:
492,231,195750,1,8,0:0:0:0:
422,249,195838,69,0,1:2:0:0:
405,253,195927,1,8,0:0:0:0:
335,272,196014,21,8,0:0:0:0:
331,289,196103,1,8,0:0:0:0:
313,359,196191,69,8,0:0:0:0:
309,376,196280,1,8,0:0:0:0:
203,376,196367,6,0,L|183:298,1,80,12|8,3:2|0:0,0:0:0:0:
179,281,196544,2,0,L|101:261,1,80,0|8,1:2|0:0,0:0:0:0:
0,240,196720,86,0,L|19:317,1,80,8|8,0:0|0:0,0:0:0:0:
24,335,196897,2,0,L|101:354,1,80,0|8,1:2|0:0,0:0:0:0:
203,376,197073,21,8,0:0:0:0:
225,342,197161,1,8,0:0:0:0:
225,301,197250,1,0,1:2:0:0:
200,268,197338,1,8,0:0:0:0:
159,260,197426,1,8,0:0:0:0:
130,233,197514,1,8,0:0:0:0:
124,192,197603,1,0,1:2:0:0:
147,159,197691,1,8,0:0:0:0:
132,108,197779,85,8,3:2:0:0:
175,127,197867,1,8,0:0:0:0:
223,127,197956,1,0,1:2:0:0:
265,105,198044,1,8,0:0:0:0:
292,65,198132,1,8,0:0:0:0:
334,42,198220,1,8,0:0:0:0:
382,43,198309,1,0,1:2:0:0:
420,71,198397,1,8,0:0:0:0:
429,117,198485,85,8,0:0:0:0:
397,174,198573,1,8,0:0:0:0:
334,193,198661,1,0,1:2:0:0:
277,161,198750,1,8,0:0:0:0:
257,99,198838,1,8,0:0:0:0:
289,41,198926,1,8,0:0:0:0:
353,21,199014,1,0,1:2:0:0:
410,54,199103,1,8,0:0:0:0:
429,117,199191,86,0,B|437:135|437:135|406:225|406:225|431:252|431:252|401:351|401:351|360:360,1,287.999991210938,12|0,0:0|0:0,0:0:0:0:
369,358,201037,6,0,B|324:344|324:344|280:381|280:381|222:364,1,160,14|0,0:0|0:0,0:0:0:0:
102,384,201686,6,0,B|127:373|127:373|122:353|122:353|150:275,1,128,14|0,0:0|0:0,0:0:0:0:
96,195,202335,6,0,B|88:201|88:201|92:206|92:206|169:185,1,95.9999970703126,14|0,0:0|0:0,0:0:0:0:
232,0,202983,5,0,1:2:0:0:
313,70,203223,1,8,2:3:0:0:
247,128,203463,1,8,2:3:0:0:
339,246,203688,5,0,1:2:0:0:
276,312,203948,1,8,2:3:0:0:
453,331,204165,1,0,1:2:0:0:
216,379,204493,22,0,P|329:335|459:319,1,240.000009155274,14|8,0:0|0:0,0:0:0:0:
490,209,205260,2,0,P|471:265|462:324,1,120.000004577637,0|2,1:2|3:2,0:0:0:0:
416,165,205794,1,8,0:0:0:0:
341,127,206061,6,0,P|351:68|371:11,1,120.000004577637,8|0,0:0|0:0,0:0:0:0:
154,39,206595,1,8,0:0:0:0:
258,59,206862,2,0,P|139:79|25:114,1,240.000009155274,0|8,1:2|0:0,0:0:0:0:
0,210,207663,6,0,P|27:259|84:258,1,120.000004577637,12|0,0:0|0:0,0:0:0:0:
167,284,208464,86,0,P|234:302|266:365,1,143.999995605469,12|0,0:0|0:0,0:0:0:0:
255,384,208998,86,0,B|223:356|206:322|204:290|243:163|292:-6|292:-6|228:56|196:95|164:208|138:234|112:332|74:334|4:271|26:212|56:185|56:185|120:129|183:183|200:239|284:317|380:276|431:213|470:171|438:117|410:108|410:108|389:100|338:102|305:158|287:245|294:328|372:361|442:311,1,1792,12|0,0:0|0:0,0:0:0:0:
256,192,212871,12,0,214874,0:0:0:0:
