osu file format v14

[General]
AudioFilename: audio.mp3
AudioLeadIn: 0
PreviewTime: 145841
Countdown: 0
SampleSet: Soft
StackLeniency: 0.7
Mode: 0
LetterboxInBreaks: 0
WidescreenStoryboard: 1

[Editor]
DistanceSpacing: 0.45
BeatDivisor: 4
GridSize: 4
TimelineZoom: 2.299999

[Metadata]
Title:Redneck Vikings from Hell
TitleUnicode:Redneck Vikings from Hell
Artist:Aether Realm
ArtistUnicode:Æther Realm
Creator:pw384
Version:Insane
Source:
Tags:featured artist fa osu!fa mappers' guild mappersguild mpg english power melodic death symphonic folk metal yugu garden bellicose
BeatmapID:3339598
BeatmapSetID:1621848

[Difficulty]
HPDrainRate:5.5
CircleSize:3.8
OverallDifficulty:8
ApproachRate:9
SliderMultiplier:2.4
SliderTickRate:1

[Events]
//Background and Video events
0,0,"bg1.jpg",0,0
//Break Periods
2,27862,36919
2,146576,147234
2,159862,164709
//Storyboard Layer 0 (Background)
//Storyboard Layer 1 (Fail)
//Storyboard Layer 2 (Pass)
//Storyboard Layer 3 (Foreground)
//Storyboard Layer 4 (Overlay)
//Storyboard Sound Samples

[TimingPoints]
234,428.571428571429,4,2,1,50,1,0
234,-100,4,2,1,50,0,0
341,-100,4,2,1,50,0,0
1519,-100,4,2,1,50,0,0
1948,-100,4,2,1,50,0,0
2591,-100,4,2,1,50,0,0
2805,-100,4,2,1,50,0,0
3019,-100,4,2,1,50,0,0
3662,-100,4,2,1,50,0,0
5591,-100,4,2,1,50,0,0
6019,-100,4,2,1,50,0,0
6234,-100,4,2,1,50,0,0
7091,-100,4,2,1,50,0,0
10091,-100,4,2,1,50,0,0
10519,-100,4,2,1,50,0,0
13091,-100,4,2,1,50,0,0
13948,-100,4,2,2,60,0,0
14055,-100,4,2,2,60,0,0
14162,-100,4,2,2,60,0,0
14805,-100,4,2,2,60,0,0
15019,-100,4,2,2,60,0,0
15662,-100,4,2,2,60,0,0
15876,-100,4,2,2,60,0,0
16519,-100,4,2,2,60,0,0
16734,-100,4,2,2,60,0,0
16948,-100,4,2,2,60,0,0
17376,-100,4,2,2,60,0,0
17591,-100,4,2,2,60,0,0
18234,-100,4,2,2,60,0,0
18448,-100,4,2,2,60,0,0
19091,-100,4,2,2,60,0,0
19305,-100,4,2,2,60,0,0
20805,-100,4,2,2,60,0,0
21126,-100,4,2,2,60,0,0
21662,-100,4,2,2,60,0,0
21984,-100,4,2,2,60,0,0
22091,-100,4,2,2,60,0,0
22519,-100,4,2,2,60,0,0
22734,-100,4,2,2,60,0,0
23376,-100,4,2,2,60,0,0
24234,-100,4,2,2,60,0,0
24448,-100,4,2,2,60,0,0
25091,-100,4,2,2,60,0,0
25519,-100,4,2,2,60,0,0
26805,-100,4,2,2,60,0,0
27662,-100,4,2,1,40,0,0
37519,-100,4,2,1,60,0,0
37948,-100,4,2,1,60,0,0
38805,-100,4,2,1,60,0,0
39019,-100,4,2,1,60,0,0
39662,-100,4,2,2,60,0,0
40948,-100,4,2,2,60,0,1
41055,-100,4,2,2,60,0,0
41376,-100,4,2,2,60,0,0
48234,-100,4,2,2,60,0,0
51019,-100,4,2,2,60,0,0
51448,-100,4,2,2,60,0,0
53591,-100,4,2,2,60,0,0
54234,-100,4,2,2,60,0,0
55091,-100,4,2,2,60,0,1
55198,-100,4,2,2,60,0,1
57876,-100,4,2,2,60,0,1
58091,-100,4,2,2,60,0,1
65269,-100,4,2,2,60,0,0
65376,-100,4,2,2,60,0,1
65484,-100,4,2,2,60,0,0
66341,-125,4,2,77,60,0,0
67091,-100,4,2,2,60,0,1
67198,-100,4,2,2,60,0,0
67948,-125,4,2,78,60,0,0
68269,-125,4,2,78,60,0,0
68805,-125,4,2,2,60,0,1
69448,-125,4,2,2,60,0,0
69662,-125,4,2,2,60,0,1
70305,-100,4,2,2,60,0,0
70519,-100,4,2,2,50,0,1
70626,-100,4,2,2,50,0,0
73519,-100,4,2,2,50,0,0
73948,-100,4,2,2,70,0,0
74055,-100,4,2,2,70,0,0
74376,-100,4,2,2,70,0,0
74591,-100,4,2,2,70,0,0
75234,-100,4,2,2,70,0,0
75448,-100,4,2,2,70,0,0
77805,-100,4,2,2,70,0,0
78019,-100,4,2,2,70,0,0
78662,-100,4,2,2,70,0,0
79091,-100,4,2,2,70,0,0
79305,-100,4,2,2,70,0,0
80805,-100,4,2,2,70,0,0
84234,-100,4,2,2,70,0,0
85091,-100,4,2,2,70,0,1
85198,-100,4,2,2,70,0,0
85519,-100,4,2,2,70,0,1
85626,-100,4,2,2,70,0,0
85948,-100,4,2,2,70,0,1
86055,-100,4,2,2,70,0,0
86162,-100,4,2,2,70,0,1
86269,-100,4,2,2,70,0,0
86805,-100,4,2,2,60,0,0
87019,-100,4,2,2,60,0,0
87126,-100,4,2,2,60,0,0
87341,-100,4,2,2,60,0,0
87448,-100,4,2,2,60,0,0
87555,-100,4,2,2,60,0,0
88091,-133.333333333333,4,2,2,60,0,0
88948,-100,4,2,2,60,0,0
93448,-133.333333333333,4,2,2,60,0,0
93662,-100,4,2,2,60,0,0
93984,-100,4,2,2,60,0,0
94305,-100,4,2,2,60,0,0
94948,-133.333333333333,4,2,2,60,0,0
95805,-100,4,2,2,60,0,0
100519,-100,4,2,2,60,0,0
101162,-100,4,2,2,60,0,0
101805,-133.333333333333,4,2,2,60,0,0
107376,-100,4,2,2,60,0,0
107698,-100,4,2,2,60,0,0
108019,-100,4,2,2,60,0,0
108662,-133.333333333333,4,2,2,60,0,0
111448,-200,4,2,2,60,0,0
112091,-200,4,2,2,60,0,0
113162,-100,4,2,2,60,0,0
113376,-100,4,2,3,60,0,0
113591,-100,4,2,3,60,0,0
113805,-100,4,2,3,60,0,0
115091,-100,4,2,3,70,0,1
116376,-100,4,2,3,70,0,1
116805,-100,4,2,3,70,0,1
117126,-100,4,2,3,70,0,1
117448,-100,4,2,3,70,0,1
118091,-100,4,2,3,70,0,1
119698,-100,4,2,3,70,0,1
120019,-100,4,2,3,70,0,1
121734,-100,4,2,3,70,0,0
121948,-125,4,2,3,60,0,0
123662,-125,4,2,3,60,0,0
124519,-100,4,2,3,60,0,0
125376,-100,4,2,3,60,0,0
128805,-100,4,2,4,60,0,0
132234,-100,4,2,4,60,0,1
132662,-100,4,2,4,60,0,1
133948,-100,4,2,4,60,0,1
134376,-100,4,2,4,60,0,1
134805,-100,4,2,4,60,0,1
135126,-100,4,2,4,60,0,1
135662,-125,4,2,4,60,0,0
137376,-100,4,2,4,60,0,0
139091,-100,4,2,4,60,0,1
139305,-100,4,2,4,60,0,1
139948,-100,4,2,4,60,0,1
140376,-100,4,2,4,60,0,1
140805,-100,4,2,4,60,0,1
141662,-100,4,2,4,60,0,1
142519,-100,4,2,4,60,0,1
143376,-100,4,2,4,60,0,1
145519,-83.3333333333333,4,2,4,60,0,1
145841,-100,4,2,4,60,0,0
145948,-100,4,2,2,60,0,1
146055,-100,4,2,2,60,0,0
148948,-100,4,2,2,70,0,1
149055,-100,4,2,2,70,0,0
149376,-100,4,2,2,70,0,1
149484,-100,4,2,2,70,0,0
149805,-100,4,2,2,70,0,0
150234,-100,4,2,2,70,0,0
150662,-100,4,2,2,70,0,0
151091,-100,4,2,2,70,0,0
151305,-100,4,2,2,70,0,0
151734,-100,4,2,2,70,0,0
152805,-100,4,2,2,70,0,0
153662,-100,4,2,2,70,0,0
156234,-100,4,2,2,70,0,0
157091,-100,4,2,2,70,0,1
157198,-100,4,2,2,70,0,0
157519,-100,4,2,2,70,0,1
157626,-100,4,2,2,70,0,0
157948,-100,4,2,2,70,0,1
158055,-100,4,2,2,70,0,0
158162,-100,4,2,2,70,0,1
158269,-100,4,2,2,70,0,0
158591,-100,4,2,2,70,0,1
158698,-100,4,2,2,70,0,0
158805,-100,4,2,2,70,0,1
159662,352.941176470588,4,2,5,40,1,0
159662,-100,4,2,5,40,0,0
165309,-166.666666666667,4,2,5,40,0,0
167603,-166.666666666667,4,2,5,30,0,0
167956,-166.666666666667,4,2,5,40,0,0
168132,-125,4,2,5,40,0,0
168485,-125,4,2,5,50,0,0
168838,-125,4,2,5,60,0,0
169191,-125,4,2,5,65,0,0
170250,-100,4,2,5,70,0,0
170956,-125,4,2,2,70,0,1
199191,461.538461538462,4,2,2,70,1,0
199191,-133.333333333333,4,2,2,70,0,0
201037,432.692328494823,4,2,2,70,1,1
201037,-133.333333333333,4,2,2,70,0,1
201145,-133.333333333333,4,2,2,70,0,0
201686,-133.333333333333,4,2,2,70,0,1
201794,-133.333333333333,4,2,2,70,0,0
202335,-133.333333333333,4,2,2,70,0,1
202443,-133.333333333333,4,2,2,70,0,0
202983,480,4,2,2,60,1,0
202983,-133.333333333333,4,2,2,60,0,0
203463,-133.333333333333,4,2,2,60,0,0
203688,521.739130434783,4,2,2,50,1,0
203688,-133.333333333333,4,2,2,50,0,0
204165,470.588235294118,4,2,2,50,1,0
204165,-133.333333333333,4,2,2,50,0,0
204493,500,4,2,2,70,1,0
204493,-133.333333333333,4,2,2,70,0,1
204993,534.124629095968,4,2,2,70,1,1
205260,534.124630665058,4,2,2,70,1,1
205260,-133.333333333333,4,2,2,70,0,1
206595,-133.333333333333,4,2,2,70,0,1
207396,-133.333333333333,4,2,2,70,0,0
207663,-133.333333333333,4,2,2,70,0,1
207930,-133.333333333333,4,2,2,70,0,0
208464,-133.333333333333,4,2,2,70,0,1
208731,-133.333333333333,4,2,2,70,0,0
208998,-133.333333333333,4,2,2,70,0,1
209132,-133.333333333333,4,2,2,50,0,1
212737,-133.333333333333,4,2,2,5,0,0

[Colours]
Combo1 : 207,187,118
Combo2 : 170,105,74
Combo3 : 120,89,54

[HitObjects]
262,91,234,6,0,P|255:171|245:346,1,240,12|0,0:0|0:0,0:0:0:0:
215,240,1519,2,0,P|289:246|294:148,1,180,12|0,0:0|0:0,0:0:0:0:
262,91,1948,2,0,P|255:171|245:346,1,240,12|0,0:0|0:0,0:0:0:0:
99,209,2591,6,0,L|60:218,2,40,8|8|8,2:3|2:3|2:3,0:0:0:0:
115,194,2805,1,8,2:3:0:0:
215,240,3019,2,0,P|289:246|294:148,1,180,0|0,1:2|0:0,0:0:0:0:
262,91,3448,1,12,0:0:0:0:
419,39,3662,6,0,P|412:119|402:294,1,240,12|0,0:0|0:0,0:0:0:0:
262,91,4519,2,0,P|255:171|245:346,1,240,12|0,0:0|0:0,0:0:0:0:
269,31,5376,6,0,P|264:60|261:93,1,60,12|0,0:0|0:0,0:0:0:0:
303,158,5591,2,0,P|297:239|215:240,1,180,12|0,0:0|0:0,0:0:0:0:
180,166,6019,2,0,P|182:136|188:107,1,60,12|0,0:0|0:0,0:0:0:0:
105,143,6234,2,0,P|98:223|88:398,1,240,12|0,0:0|0:0,0:0:0:0:
40,97,7091,5,10,0:0:0:0:
105,143,7948,1,14,0:0:0:0:
177,108,8805,1,14,0:0:0:0:
242,154,9662,1,14,0:0:0:0:
67,342,10091,6,0,P|74:312|80:283,1,60,0|0,1:2|1:2,0:0:0:0:
18,229,10305,2,0,P|10:199|4:170,1,60,0|0,1:2|1:2,0:0:0:0:
40,97,10519,5,14,0:0:0:0:
105,143,10948,1,12,0:0:0:0:
177,108,11376,1,14,0:0:0:0:
242,154,11805,5,12,0:0:0:0:
192,347,12019,1,0,0:0:0:0:
315,306,12234,6,0,P|326:274|337:235,1,60,10|0,0:0|0:0,0:0:0:0:
327,222,12448,2,0,P|394:211|466:198,1,120,14|0,0:0|0:0,0:0:0:0:
163,187,12876,6,0,P|152:155|141:116,1,60,14|0,0:0|0:0,0:0:0:0:
32,82,13090,2,0,P|91:93|150:103,1,120,14|0,0:0|1:2,0:0:0:0:
342,72,13519,5,0,1:2:0:0:
380,50,13626,1,0,1:2:0:0:
423,59,13733,1,0,1:2:0:0:
450,94,13840,1,0,1:2:0:0:
449,138,13948,6,0,P|438:178|433:216,1,60,14|0,3:2|0:0,0:0:0:0:
473,270,14162,1,0,1:2:0:0:
241,366,14376,5,10,0:0:0:0:
236,322,14483,1,2,0:0:0:0:
256,282,14590,1,2,1:2:0:0:
276,242,14698,1,2,0:0:0:0:
271,198,14805,6,0,P|265:168|256:139,1,60,10|0,0:0|0:0,0:0:0:0:
331,110,15019,2,0,P|302:118|272:124,1,60,2|0,1:2|0:0,0:0:0:0:
170,72,15234,5,10,0:0:0:0:
132,50,15341,1,2,0:0:0:0:
89,59,15448,1,2,1:2:0:0:
62,94,15555,1,2,0:0:0:0:
63,138,15663,6,0,P|74:178|79:216,1,60,10|0,0:0|0:0,0:0:0:0:
77,196,16091,6,0,P|106:201|135:210,1,60,10|2,0:0|0:0,0:0:0:0:
217,275,16305,2,0,P|187:280|158:289,1,60,2|2,1:2|0:0,0:0:0:0:
111,354,16519,1,10,0:0:0:0:
0,271,16734,6,0,L|5:242,2,30,8|8|8,2:3|2:3|2:3,0:0:0:0:
0,221,16948,5,8,2:3:0:0:
2,173,17055,1,8,2:3:0:0:
26,132,17162,1,8,2:3:0:0:
50,91,17269,1,8,2:3:0:0:
52,43,17376,6,0,P|76:27|120:29,1,60,14|0,0:0|0:0,0:0:0:0:
172,70,17591,1,0,1:2:0:0:
132,225,17805,5,10,0:0:0:0:
176,230,17912,1,2,0:0:0:0:
216,210,18019,1,2,1:2:0:0:
256,190,18127,1,2,0:0:0:0:
300,195,18234,6,0,P|330:201|359:210,1,60,10|0,0:0|0:0,0:0:0:0:
388,135,18448,2,0,P|380:164|374:194,1,60,2|0,1:2|0:0,0:0:0:0:
406,327,18662,5,10,0:0:0:0:
362,332,18769,1,2,0:0:0:0:
322,312,18876,1,2,1:2:0:0:
282,292,18984,1,2,0:0:0:0:
238,297,19091,6,0,P|208:303|179:312,1,60,10|0,0:0|0:0,0:0:0:0:
107,361,19305,2,0,P|101:331|93:302,1,60,2|2,1:2|0:0,0:0:0:0:
27,251,19519,5,10,0:0:0:0:
34,223,19626,1,2,0:0:0:0:
41,195,19734,1,2,1:2:0:0:
48,167,19841,1,2,0:0:0:0:
55,139,19948,6,0,P|89:119|123:119,1,60,2|0,1:2|1:2,0:0:0:0:
171,191,20162,2,0,P|203:196|240:206,1,60,2|2,1:2|1:2,0:0:0:0:
312,250,20376,6,0,P|316:221|323:192,1,60,10|10,0:0|0:0,0:0:0:0:
291,60,20590,2,0,P|274:85|268:114,1,60,10|10,0:0|0:0,0:0:0:0:
407,221,20805,6,0,P|419:158|455:22,1,180,14|2,3:2|0:0,0:0:0:0:
379,6,21234,1,2,1:2:0:0:
492,193,21448,1,2,0:0:0:0:
408,339,21662,6,0,P|346:320|290:305,1,120,10|2,0:0|0:0,0:0:0:0:
222,339,21984,1,10,0:0:0:0:
151,371,22091,2,0,P|109:381|46:319,1,120,0|2,1:2|0:0,0:0:0:0:
105,221,22519,6,0,P|87:132|64:45,1,180,10|2,0:0|0:0,0:0:0:0:
133,6,22948,1,2,1:2:0:0:
20,193,23162,1,2,0:0:0:0:
209,152,23376,6,0,P|271:139|298:278,1,240,14|2,0:0|1:2,0:0:0:0:
301,275,24234,6,0,P|362:265|484:247,1,180,14|2,3:2|0:0,0:0:0:0:
505,174,24662,1,2,1:2:0:0:
358,347,24876,1,2,0:0:0:0:
320,168,25091,6,0,B|302:110|339:104|322:50,1,120,10|2,0:0|0:0,0:0:0:0:
256,13,25412,1,2,0:0:0:0:
189,50,25519,2,0,B|173:104|210:110|192:168,1,120,2|2,1:2|0:0,0:0:0:0:
33,247,25948,6,0,P|122:260|211:275,1,180,14|2,3:2|1:2,0:0:0:0:
278,227,26376,1,2,1:2:0:0:
69,332,26591,1,2,1:2:0:0:
0,117,26805,6,0,P|118:134|237:153,1,240,2|0,1:2|0:0,0:0:0:0:
506,349,27662,1,12,0:0:0:0:
209,190,37519,5,0,1:2:0:0:
229,173,37626,1,0,1:2:0:0:
256,167,37734,1,0,1:2:0:0:
283,173,37841,1,0,1:2:0:0:
303,190,37948,6,0,P|371:208|489:232,1,180,6|0,1:2|0:2,0:0:0:0:
416,298,38376,6,0,P|414:330|447:374,1,60,0|0,1:2|1:2,0:0:0:0:
501,285,38591,2,0,P|503:253|470:209,1,60,0|0,1:2|1:2,0:0:0:0:
393,133,38805,5,0,1:2:0:0:
374,109,38912,1,0,1:2:0:0:
366,80,39019,1,8,2:0:0:0:
370,51,39126,1,8,2:0:0:0:
386,26,39234,6,0,P|391:51|382:94,1,60,8|8,2:0|2:3,0:0:0:0:
304,150,39448,2,0,P|307:187|321:233,1,60,8|8,2:3|2:3,0:0:0:0:
372,277,39662,5,14,0:0:0:0:
16,192,39984,1,6,0:0:0:0:
372,107,40305,1,6,0:0:0:0:
496,192,40519,1,6,1:2:0:0:
16,192,40948,1,0,1:2:0:0:
251,373,41376,6,0,P|270:292|286:242,1,120,14|0,3:2|0:0,0:0:0:0:
261,11,41805,2,0,P|242:92|226:142,1,120,2|8,1:2|0:0,0:0:0:0:
124,204,42126,1,10,0:0:0:0:
146,176,42234,2,0,P|138:126|134:95,1,60,10|0,0:0|0:0,0:0:0:0:
73,60,42448,2,0,P|19:75|14:162,1,120,10|0,0:0|1:2,0:0:0:0:
82,347,42876,1,10,0:0:0:0:
121,339,42984,1,8,0:0:0:0:
160,331,43091,6,0,P|164:293|169:262,1,60,10|0,0:0|0:0,0:0:0:0:
43,201,43305,2,0,P|39:239|34:270,1,60,10|8,0:0|0:0,0:0:0:0:
81,347,43519,2,0,P|141:356|200:367,1,120,2|8,1:2|0:0,0:0:0:0:
339,354,43841,1,10,0:0:0:0:
352,331,43948,6,0,P|348:293|343:262,1,60,10|0,0:0|0:0,0:0:0:0:
469,201,44162,2,0,P|473:239|478:270,1,60,10|0,0:0|0:0,0:0:0:0:
430,347,44376,1,0,1:2:0:0:
168,271,44591,1,14,0:0:0:0:
344,113,44805,6,0,P|402:122|474:131,1,120,14|0,3:2|0:0,0:0:0:0:
168,271,45234,2,0,P|110:262|38:253,1,120,2|8,1:2|0:0,0:0:0:0:
44,366,45555,1,10,0:0:0:0:
71,357,45662,2,0,P|98:328|97:285,1,60,10|0,0:0|0:0,0:0:0:0:
0,192,45876,2,0,P|9:134|18:62,1,120,10|0,0:0|1:2,0:0:0:0:
256,244,46305,1,2,1:2:0:0:
184,29,46519,6,0,P|176:72|171:107,1,60,10|2,0:0|0:0,0:0:0:0:
100,51,46734,2,0,P|92:94|87:129,1,60,2|2,0:0|0:0,0:0:0:0:
161,162,46948,6,0,P|169:205|174:240,1,60,0|0,1:2|1:2,0:0:0:0:
245,184,47163,2,0,P|253:227|258:262,1,60,8|8,2:3|2:3,0:0:0:0:
286,351,47376,5,8,2:3:0:0:
312,321,47483,1,8,2:3:0:0:
344,297,47590,1,0,1:2:0:0:
380,280,47697,1,0,1:2:0:0:
419,271,47804,1,8,2:3:0:0:
459,269,47911,1,8,0:0:0:0:
498,276,48018,1,8,0:0:0:0:
255,243,48234,6,0,P|254:213|269:188,3,60,14|2|2|2,3:2|0:0|1:2|0:0,0:0:0:0:
331,140,48662,2,0,P|336:90|339:57,3,60,10|2|2|2,0:0|0:0|1:2|0:0,0:0:0:0:
453,182,49091,6,0,P|418:193|374:174,1,60,10|2,0:0|0:0,0:0:0:0:
256,107,49305,2,0,L|256:45,1,60,2|2,1:2|0:0,0:0:0:0:
59,182,49519,6,0,P|94:193|138:174,1,60,10|2,0:0|0:0,0:0:0:0:
181,140,49734,2,0,P|176:90|173:57,1,60,2|2,1:2|0:0,0:0:0:0:
85,0,49948,5,10,0:0:0:0:
88,29,50055,1,2,0:0:0:0:
91,58,50162,1,2,1:2:0:0:
94,87,50269,1,2,0:0:0:0:
97,116,50376,6,0,P|62:105|18:124,1,60,10|2,0:0|0:0,0:0:0:0:
181,140,50591,2,0,P|176:90|173:57,1,60,2|2,1:2|0:0,0:0:0:0:
256,47,50805,1,10,0:0:0:0:
415,116,51019,6,0,P|450:105|490:227,1,180,2|0,1:2|0:0,0:0:0:0:
443,246,51448,1,0,1:2:0:0:
443,246,51555,1,0,1:2:0:0:
443,246,51662,6,0,P|452:322|461:382,1,120,14|0,3:2|0:0,0:0:0:0:
202,254,52091,2,0,P|256:232|309:254,1,120,2|8,1:2|0:0,0:0:0:0:
256,312,52412,1,10,0:0:0:0:
260,316,52519,1,10,0:0:0:0:
53,365,52734,6,0,P|62:305|69:245,2,120,10|0|8,0:0|1:2|0:0,0:0:0:0:
202,254,53376,6,0,P|191:222|180:183,1,60,14|0,0:0|0:0,0:0:0:0:
190,170,53590,2,0,P|123:159|51:146,1,120,14|0,0:0|0:0,0:0:0:0:
349,131,54018,6,0,P|360:99|371:60,1,60,14|0,0:0|0:0,0:0:0:0:
480,26,54234,2,0,P|421:37|362:47,1,120,14|0,0:0|0:0,0:0:0:0:
151,47,54662,1,0,1:2:0:0:
121,42,54769,1,0,1:2:0:0:
91,37,54876,1,0,1:2:0:0:
62,32,54983,1,0,1:2:0:0:
32,26,55091,6,0,P|42:78|53:156,1,120,14|4,3:2|2:3,0:0:0:0:
10,213,55412,2,0,P|61:227|110:286,1,120,0|0,1:0|0:0,0:0:0:0:
101,353,55734,1,0,1:2:0:0:
130,356,55841,1,0,1:0:0:0:
156,342,55948,6,0,P|181:302|166:253,1,60,8|0,0:0|0:0,0:0:0:0:
157,209,56162,1,0,1:2:0:0:
163,179,56269,1,0,1:0:0:0:
167,149,56376,6,0,P|161:115|153:80,1,60,10|2,0:0|0:0,0:0:0:0:
256,118,56591,2,0,L|255:44,1,60,2|2,1:2|0:0,0:0:0:0:
345,149,56805,6,0,P|351:115|369:28,1,120,10|2,0:0|1:2,0:0:0:0:
437,78,57126,1,0,1:0:0:0:
457,72,57234,2,0,P|458:108|438:138,1,60,10|0,0:0|0:0,0:0:0:0:
345,149,57448,2,0,P|352:186|357:229,1,60,2|0,1:2|0:0,0:0:0:0:
438,268,57662,1,10,0:0:0:0:
212,366,57876,6,0,L|217:336,2,30,0|0|0,1:2|0:0|1:2,0:0:0:0:
206,314,58091,6,0,P|162:303|128:297,1,60,0|0,1:2|1:2,0:0:0:0:
306,314,58305,2,0,P|350:303|384:297,1,60,8|8,2:3|2:3,0:0:0:0:
454,189,58519,6,0,P|396:196|321:215,1,120,14|0,0:0|1:2,0:0:0:0:
256,251,58841,1,0,1:0:0:0:
175,210,58948,2,0,P|117:196|58:189,1,120,8|0,0:0|1:2,0:0:0:0:
27,34,59376,5,8,0:0:0:0:
57,10,59483,1,2,0:0:0:0:
96,3,59590,1,0,1:2:0:0:
133,18,59697,1,2,0:0:0:0:
158,48,59804,1,10,0:0:0:0:
164,88,59911,1,2,0:0:0:0:
150,124,60019,2,0,P|162:150|172:189,1,60,2|2,1:2|0:0,0:0:0:0:
256,133,60234,6,0,L|256:69,3,60,10|0|2|0,0:0|0:0|1:2|0:0,0:0:0:0:
341,180,60662,2,0,P|349:152|361:124,3,60,10|0|2|0,0:0|0:0|1:2|0:0,0:0:0:0:
347,88,61091,5,10,0:0:0:0:
353,48,61198,1,0,1:2:0:0:
378,18,61305,1,8,0:0:0:0:
415,3,61412,1,8,0:0:0:0:
454,10,61519,1,8,0:0:0:0:
484,34,61626,1,8,0:0:0:0:
499,73,61734,2,0,P|452:83|428:99,1,60,8|0,2:3|0:0,0:0:0:0:
361,124,61948,6,0,P|349:152|341:180,1,60,14|0,0:0|0:0,0:0:0:0:
256,133,62162,2,0,L|256:69,1,60,0|0,1:2|0:0,0:0:0:0:
150,124,62376,2,0,P|162:150|172:189,1,60,8|0,0:0|0:0,0:0:0:0:
130,259,62591,1,0,1:2:0:0:
130,259,62698,1,0,1:0:0:0:
130,259,62805,6,0,P|66:276|-13:306,1,120,8|4,0:0|2:3,0:0:0:0:
138,381,63126,2,0,P|172:377|194:289,1,120,0|0,1:0|0:0,0:0:0:0:
89,184,63448,2,0,P|94:213|103:241,1,60,2|0,1:2|0:0,0:0:0:0:
211,290,63662,6,0,P|267:270|325:254,1,120,10|4,0:0|2:3,0:0:0:0:
308,115,63984,2,0,P|362:133|373:190,1,120,2|0,1:2|0:0,0:0:0:0:
330,336,64305,2,0,P|333:306|339:276,1,60,2|0,1:2|0:0,0:0:0:0:
454,247,64519,5,2,1:2:0:0:
457,217,64626,1,0,1:2:0:0:
461,187,64733,1,8,2:3:0:0:
464,157,64840,1,8,2:3:0:0:
468,127,64947,1,2,1:2:0:0:
472,98,65054,1,0,1:2:0:0:
476,68,65161,1,10,0:0:0:0:
480,38,65268,1,8,2:3:0:0:
484,8,65376,5,14,0:0:0:0:
484,8,66341,6,0,P|422:21|270:56,1,192,2|2,0:0|2:3,0:0:0:0:
58,247,67091,5,14,0:0:0:0:
28,8,67948,6,0,P|74:17|121:28,1,96,2|0,0:0|0:0,0:0:0:0:
139,47,68269,2,0,P|149:93|159:140,1,96,2|0,0:0|0:0,0:0:0:0:
296,334,68805,6,0,P|390:356|484:376,1,192,12|0,0:0|0:0,0:0:0:0:
190,212,69448,2,0,P|187:238|185:270,1,48,0|0,1:2|0:0,0:0:0:0:
215,334,69662,6,0,P|121:356|28:376,2,192,12|0|12,0:0|0:0|0:0,0:0:0:0:
496,272,70734,5,8,0:0:0:0:
496,272,70841,1,8,0:0:0:0:
496,272,70948,1,0,1:2:0:0:
400,240,71162,1,8,0:0:0:0:
400,240,71269,1,8,0:0:0:0:
400,240,71376,1,8,0:0:0:0:
304,208,71591,1,8,0:0:0:0:
304,208,71698,1,8,0:0:0:0:
304,208,71805,1,0,1:2:0:0:
208,176,72019,1,8,0:0:0:0:
208,176,72126,1,8,0:0:0:0:
208,176,72233,1,8,0:0:0:0:
112,144,72447,1,8,0:0:0:0:
112,144,72554,1,8,0:0:0:0:
112,144,72661,1,0,1:2:0:0:
16,112,72876,1,8,0:0:0:0:
16,112,72984,1,8,0:0:0:0:
16,112,73091,6,0,L|20:66,6,40,8|8|8|8|8|8|0,2:3|2:3|2:3|2:3|2:3|2:3|1:2,0:0:0:0:
16,112,73948,6,0,P|27:170|37:240,1,120,14|10,0:0|0:0,0:0:0:0:
188,376,74376,2,0,P|177:318|167:248,1,120,2|0,1:2|0:0,0:0:0:0:
120,187,74698,1,10,0:0:0:0:
113,159,74805,2,0,P|157:173|219:191,1,60,10|0,0:0|0:0,0:0:0:0:
265,307,75019,2,0,P|323:295|383:287,2,120,10|0|10,0:0|1:2|0:0,0:0:0:0:
68,348,75662,6,0,P|15:309|24:242,1,120,10|0,0:0|0:0,0:0:0:0:
244,128,76091,2,0,P|297:167|288:234,1,120,2|0,1:2|0:0,0:0:0:0:
249,331,76412,1,10,0:0:0:0:
265,307,76519,2,0,P|323:295|383:287,2,120,10|10|0,0:0|0:0|1:2,0:0:0:0:
449,348,77162,1,8,0:0:0:0:
496,112,77376,6,0,P|485:170|475:240,1,120,14|10,0:0|0:0,0:0:0:0:
324,376,77804,2,0,P|335:318|345:248,1,120,2|8,1:2|0:0,0:0:0:0:
392,187,78126,1,10,0:0:0:0:
399,159,78233,2,0,P|355:173|293:191,1,60,10|0,0:0|0:0,0:0:0:0:
247,307,78447,2,0,P|188:295|128:287,2,120,10|0|8,0:0|1:2|1:2,0:0:0:0:
449,348,79091,5,14,0:0:0:0:
238,284,79305,2,0,P|248:238|256:202,1,60,14|0,0:0|0:0,0:0:0:0:
230,131,79519,5,0,1:2:0:0:
195,103,79626,1,0,1:2:0:0:
151,104,79733,1,8,2:3:0:0:
120,134,79840,1,8,2:3:0:0:
115,178,79948,5,8,2:3:0:0:
110,222,80055,1,8,2:3:0:0:
79,252,80162,1,0,1:2:0:0:
35,253,80269,1,0,1:2:0:0:
1,226,80376,2,0,P|11:180|19:144,2,60,8|8|8,2:3|0:0|0:0,0:0:0:0:
165,287,80805,6,0,P|195:248|281:237,1,120,14|0,0:0|1:2,0:0:0:0:
495,338,81234,2,0,P|426:318|322:288,1,180,10|2,0:0|0:0,0:0:0:0:
301,301,81662,2,0,P|289:325|294:357,3,60,10|0|2|0,0:0|0:0|1:2|0:0,0:0:0:0:
406,271,82091,2,0,P|418:247|413:215,3,60,8|0|2|0,0:0|0:0|1:2|0:0,0:0:0:0:
345,166,82519,6,0,P|359:102|373:43,1,120,10|0,0:0|1:2,0:0:0:0:
179,0,82948,2,0,P|165:64|151:123,1,120,10|0,0:0|1:2,0:0:0:0:
93,172,83269,1,2,0:0:0:0:
100,206,83376,6,0,P|161:219|186:281,1,120,10|2,0:0|1:2,0:0:0:0:
134,326,83698,2,0,P|91:341|17:382,1,120,0|0,1:3|0:0,0:0:0:0:
18,282,84019,1,2,1:2:0:0:
18,282,84126,1,2,1:2:0:0:
18,282,84234,6,0,P|8:217|-3:149,1,120,10|2,0:0|0:0,0:0:0:0:
256,192,84662,2,0,L|256:64,1,120,2|0,1:2|0:0,0:0:0:0:
494,282,85091,6,0,P|504:217|515:149,1,120,10|0,0:0|0:0,0:0:0:0:
256,192,85519,2,0,L|256:64,1,120,0|0,1:2|0:0,0:0:0:0:
186,322,85948,6,0,P|181:292|176:262,1,60,12|0,0:0|0:0,0:0:0:0:
326,322,86162,2,0,P|330:292|335:262,1,60,12|0,0:0|0:0,0:0:0:0:
512,163,86805,5,12,0:0:0:0:
256,286,87126,1,12,0:0:0:0:
0,163,87448,1,12,0:0:0:0:
288,16,88091,6,0,P|256:192|224:376,6,360.000013732911,0|0|0|0|0|0|2,0:0|0:0|0:0|0:0|0:0|0:0|2:3,0:0:0:0:
376,31,93448,6,0,L|381:-18,2,30.0000011444092,8|8|8,2:3|2:3|2:3,0:0:0:0:
384,45,93662,5,12,0:0:0:0:
256,106,93983,1,12,0:0:0:0:
128,45,94305,1,12,0:0:0:0:
77,223,94948,6,0,P|254:192|432:160,6,360.000013732911,0|0|0|0|0|0|2,0:0|0:0|0:0|0:0|0:0|0:0|2:3,0:0:0:0:
0,163,100519,5,12,0:0:0:0:
256,286,100840,1,12,0:0:0:0:
512,163,101162,1,12,0:0:0:0:
256,192,101805,6,0,P|224:96|384:160,6,360.000013732911,0|0|0|0|0|0|2,0:0|0:0|0:0|0:0|0:0|0:0|2:3,0:0:0:0:
224,32,107376,5,12,0:0:0:0:
256,192,107698,1,12,0:0:0:0:
288,352,108019,1,12,0:0:0:0:
256,192,108662,6,0,P|288:288|128:224,3,360.000013732911,0|0|0|2,0:0|0:0|0:0|2:3,0:0:0:0:
176,160,111448,6,0,B|152:88|152:88|224:64|256:8|256:8|288:64|360:88|360:88|336:160,1,420,12|2,0:0|2:3,0:0:0:0:
256,192,113162,5,12,0:0:0:0:
256,192,113376,12,14,115091,3:2:0:0:
256,192,115734,5,14,0:0:0:0:
256,192,116162,2,0,P|259:213|262:244,2,40,10|10|10,0:0|0:0|0:0,0:0:0:0:
228,173,116376,5,2,1:2:0:0:
286,28,116591,1,10,0:0:0:0:
286,28,116698,1,10,0:0:0:0:
286,28,116805,6,0,P|275:60|272:91,1,60,8|0,0:0|0:0,0:0:0:0:
325,149,117019,1,10,0:0:0:0:
399,115,117126,2,0,P|406:180|413:243,1,120,2|0,1:1|0:0,0:0:0:0:
381,310,117448,1,10,0:0:0:0:
381,310,117555,1,10,0:0:0:0:
381,309,117662,2,0,P|471:262|460:366,1,240,10|0,3:2|1:2,0:0:0:0:
239,231,118305,5,2,1:2:0:0:
239,231,118412,1,0,1:2:0:0:
239,231,118519,6,0,P|170:249|59:285,1,180,14|12,3:2|0:0,0:0:0:0:
19,353,118948,1,0,1:2:0:0:
98,126,119162,1,12,0:0:0:0:
98,126,119269,1,2,0:0:0:0:
98,126,119376,6,0,P|111:154|116:183,1,60,2|2,0:0|0:0,0:0:0:0:
52,275,119591,2,0,P|39:247|34:218,2,60,10|2|0,0:0|1:1|0:0,0:0:0:0:
191,366,120019,1,10,0:0:0:0:
191,366,120126,1,10,0:0:0:0:
217,346,120234,6,0,P|243:341|277:334,1,60,10|2,0:0|0:0,0:0:0:0:
245,259,120448,2,0,P|274:252|303:247,1,60,10|2,0:0|0:0,0:0:0:0:
358,311,120662,2,0,P|384:306|418:299,1,60,0|0,1:2|1:2,0:0:0:0:
386,224,120876,2,0,P|415:217|444:212,1,60,8|8,2:3|2:3,0:0:0:0:
488,350,121091,5,14,0:0:0:0:
492,322,121198,1,2,0:0:0:0:
496,294,121305,1,2,0:0:0:0:
500,266,121412,1,14,0:0:0:0:
504,238,121519,1,2,0:0:0:0:
508,210,121626,1,2,0:0:0:0:
512,182,121734,2,0,P|483:178|442:169,1,60,12|2,0:0|0:0,0:0:0:0:
387,134,121948,6,0,P|342:186|355:255,2,144,8|8|8,0:0|0:0|0:0,0:0:0:0:
512,182,122805,6,0,P|466:195|420:207,1,96,2|0,1:2|0:0,0:0:0:0:
405,196,123126,2,0,P|358:182|312:171,1,96,2|0,1:2|0:0,0:0:0:0:
296,181,123448,1,2,1:2:0:0:
188,235,123662,6,0,P|170:308|183:379,2,144,10|10|10,0:0|0:0|0:0,0:0:0:0:
89,338,124519,6,0,P|88:302|94:247,2,80,0|0|8,1:2|1:2|2:3,0:0:0:0:
3,218,124948,2,0,P|4:254|-2:309,2,80,8|8|8,2:3|2:3|2:3,0:0:0:0:
71,134,125376,6,0,P|81:62|-1:83,1,180,12|0,0:0|2:1,0:0:0:0:
71,134,125805,6,0,P|133:123|171:114,2,80,0|0|0,1:0|1:0|1:0,0:0:0:0:
174,39,126234,2,0,P|213:47|252:53,2,80,12|8|8,0:0|2:3|2:3,0:0:0:0:
303,114,126662,2,0,P|313:161|289:214,2,80,8|8|8,2:3|2:3|2:3,0:0:0:0:
236,231,127091,6,0,P|227:270|238:309,1,80,0|8,1:2|2:3,0:0:0:0:
288,369,127376,1,8,2:3:0:0:
288,369,127519,6,0,P|327:375|367:384,1,80,8|8,2:3|0:3,0:0:0:0:
391,303,127805,6,0,P|430:295|470:289,1,80,8|8,2:3|2:3,0:0:0:0:
258,221,128091,6,0,P|297:227|336:235,1,80,8|8,2:3|2:3,0:0:0:0:
360,155,128377,6,0,P|399:146|438:140,2,80,0|8|8,1:2|2:3|2:3,0:0:0:0:
181,180,128805,5,8,2:3:0:0:
181,180,128912,1,8,2:3:0:0:
181,180,129019,1,8,2:3:0:0:
99,141,129234,5,10,0:0:0:0:
99,141,129341,1,8,0:0:0:0:
99,141,129448,1,8,0:0:0:0:
25,193,129662,5,2,1:2:0:0:
25,193,129769,1,8,0:0:0:0:
25,193,129876,1,8,0:0:0:0:
107,232,130091,6,0,P|113:284|115:317,1,60,10|8,0:0|0:0,0:0:0:0:
32,340,130305,2,0,P|26:288|24:255,1,60,8|0,0:0|0:0,0:0:0:0:
25,193,130519,6,0,L|32:154,5,40,10|0|0|10|0|0,0:0|0:0|0:0|0:0|0:0|0:0,0:0:0:0:
43,136,130948,2,0,L|36:97,5,40,10|0|0|10|0|0,0:0|0:0|0:0|0:0|0:0|0:0,0:0:0:0:
20,79,131376,6,0,P|128:98|272:123,1,240,2|0,1:2|0:0,0:0:0:0:
193,269,132234,5,10,0:0:0:0:
196,299,132341,1,8,0:0:0:0:
200,329,132448,1,8,0:0:0:0:
279,276,132663,5,10,0:0:0:0:
276,246,132770,1,8,0:0:0:0:
272,216,132877,1,8,0:0:0:0:
365,253,133091,5,2,1:2:0:0:
367,282,133198,1,8,0:0:0:0:
371,312,133305,1,8,0:0:0:0:
450,259,133520,5,10,0:0:0:0:
447,229,133627,1,8,0:0:0:0:
443,199,133734,1,8,0:0:0:0:
292,37,133948,6,0,P|282:92|389:136,1,180,2|0,1:2|0:0,0:0:0:0:
467,56,134376,2,0,P|421:68|394:75,3,60,0|0|0|0,1:2|1:2|1:2|1:2,0:0:0:0:
377,141,134805,6,0,P|360:207|340:322,2,180,12|12|12,0:0|0:0|0:0,0:0:0:0:
452,312,135662,6,0,B|377:337|306:312|381:233|227:233|221:322|267:357,1,288,8|8,0:0|0:0,0:0:0:0:
412,234,136519,2,0,P|403:179|395:135,1,96,8|0,1:2|0:0,0:0:0:0:
153,236,136948,2,0,P|162:291|170:335,1,96,8|0,0:0|0:0,0:0:0:0:
15,207,137376,6,0,P|16:145|92:110,1,120,8|0,0:0|0:0,0:0:0:0:
58,89,137698,2,0,P|123:113|185:128,1,120,8|0,0:0|0:0,0:0:0:0:
189,116,138019,1,8,0:0:0:0:
312,49,138234,6,0,P|328:112|340:173,1,120,8|0,1:2|0:0,0:0:0:0:
326,184,138555,2,0,P|360:229|442:216,1,120,8|0,0:0|2:3,0:0:0:0:
499,237,138876,2,0,P|494:208|488:179,1,60,8|8,1:3|2:3,0:0:0:0:
469,87,139091,6,0,P|389:102|283:124,1,180,12|8,3:2|0:0,0:0:0:0:
235,176,139519,1,0,1:2:0:0:
401,29,139734,2,0,P|386:63|386:101,1,60,8|8,0:0|0:0,0:0:0:0:
496,160,139948,6,0,P|416:175|310:197,1,180,12|8,3:2|0:0,0:0:0:0:
262,249,140376,1,0,1:2:0:0:
28,160,140591,1,8,0:0:0:0:
28,160,140698,1,8,0:0:0:0:
28,160,140805,6,0,P|108:175|214:197,1,180,12|8,3:2|0:0,0:0:0:0:
262,249,141233,1,0,1:2:0:0:
96,102,141448,2,0,P|111:136|111:174,1,60,8|8,0:0|0:0,0:0:0:0:
1,233,141662,6,0,P|81:248|187:270,1,180,12|0,3:2|0:0,0:0:0:0:
235,322,142091,5,0,1:2:0:0:
263,330,142198,1,0,1:2:0:0:
292,325,142305,1,8,2:3:0:0:
317,308,142412,1,8,2:3:0:0:
331,281,142519,6,0,P|329:262|326:242,5,40,14|0|0|8|0|0,3:2|0:0|0:0|0:0|0:0|0:0,0:0:0:0:
304,223,142948,2,0,P|306:203|309:183,5,40,2|0|0|8|0|0,1:2|0:0|0:0|0:0|0:0|0:0,0:0:0:0:
326,165,143376,6,0,P|325:125|189:89,1,180,2|0,1:2|0:0,0:0:0:0:
78,110,143805,2,0,P|108:115|137:121,1,60,2|0,1:2|0:0,0:0:0:0:
170,199,144019,2,0,P|175:228|179:258,1,60,8|8,0:0|0:0,0:0:0:0:
68,311,144234,5,0,1:2:0:0:
68,311,144341,1,0,1:2:0:0:
68,311,144448,2,0,P|63:281|59:251,1,60,8|8,2:3|2:3,0:0:0:0:
170,199,144662,5,0,1:2:0:0:
170,199,144769,1,0,1:2:0:0:
170,199,144876,2,0,P|174:228|178:258,1,60,8|8,2:3|2:3,0:0:0:0:
158,360,145091,5,8,3:3:0:0:
202,352,145198,1,8,0:0:0:0:
246,346,145305,1,8,0:0:0:0:
291,340,145412,1,8,0:0:0:0:
336,335,145519,6,0,P|433:319|422:221,1,215.999993408203,12|0,0:0|0:0,0:0:0:0:
392,137,145948,6,0,P|406:210|441:376,1,240,4|0,3:2|0:0,0:0:0:0:
440,372,148948,5,0,1:2:0:0:
59,294,149376,6,0,P|117:283|187:273,1,120,14|0,0:0|0:0,0:0:0:0:
293,87,149804,2,0,P|235:98|165:108,1,120,0|8,1:0|0:0,0:0:0:0:
118,160,150126,1,8,0:0:0:0:
95,170,150233,2,0,P|139:184|201:202,1,60,8|0,0:0|0:0,0:0:0:0:
256,295,150447,2,0,P|263:235|275:176,2,120,8|0|8,0:0|1:0|0:0,0:0:0:0:
72,372,151091,5,12,0:0:0:0:
256,295,151305,2,0,P|246:249|238:213,1,60,12|0,0:0|0:0,0:0:0:0:
282,131,151519,5,0,1:0:0:0:
317,103,151626,1,0,1:0:0:0:
361,104,151733,1,8,2:3:0:0:
392,134,151840,1,8,2:3:0:0:
397,178,151948,5,8,2:3:0:0:
402,222,152055,1,8,2:3:0:0:
433,252,152162,1,0,1:2:0:0:
477,253,152269,1,0,1:2:0:0:
511,226,152376,2,0,P|501:180|493:144,2,60,8|8|8,2:3|2:3|2:3,0:0:0:0:
347,287,152805,6,0,P|317:248|231:237,1,120,4|0,0:0|1:2,0:0:0:0:
17,338,153234,2,0,P|86:318|190:288,1,180,10|2,0:0|0:0,0:0:0:0:
211,301,153662,2,0,P|223:325|218:357,3,60,10|0|2|0,0:0|0:0|1:2|0:0,0:0:0:0:
106,271,154091,2,0,P|94:247|99:215,3,60,8|0|2|0,0:0|0:0|1:2|0:0,0:0:0:0:
167,166,154519,6,0,P|153:102|139:43,1,120,10|0,0:0|1:2,0:0:0:0:
333,0,154948,2,0,P|347:64|361:123,1,120,10|0,0:0|1:2,0:0:0:0:
419,172,155269,1,2,0:0:0:0:
412,206,155376,6,0,P|351:219|326:281,1,120,10|2,0:0|1:2,0:0:0:0:
378,326,155698,2,0,P|421:341|495:382,1,120,0|0,1:0|1:0,0:0:0:0:
494,282,156019,1,2,1:2:0:0:
494,282,156126,1,2,1:2:0:0:
494,282,156234,6,0,P|504:217|515:149,1,120,14|2,0:0|0:0,0:0:0:0:
256,192,156662,2,0,L|256:64,1,120,2|0,1:2|0:0,0:0:0:0:
0,163,157091,6,0,P|9:223|18:282,1,120,10|0,0:0|0:0,0:0:0:0:
256,72,157519,2,0,L|256:192,1,120,0|0,1:2|0:0,0:0:0:0:
124,365,157948,6,0,P|131:334|144:300,1,60,12|0,0:0|0:0,0:0:0:0:
211,277,158162,2,0,P|170:236|111:236,1,120,12|0,0:0|0:0,0:0:0:0:
388,365,158591,6,0,P|381:334|368:300,1,60,12|0,0:0|0:0,0:0:0:0:
301,277,158805,2,0,B|318:237|363:220|401:236|401:236|495:281|611:172|531:26|407:37|363:110,1,480,12|12,0:0|0:0,0:0:0:0:
148,198,165309,6,0,P|140:162|129:128,1,71.9999978027344,8|0,0:0|0:0,0:0:0:0:
199,94,165662,2,0,P|230:75|259:55,1,71.9999978027344,10|0,0:0|0:0,0:0:0:0:
324,122,166014,2,0,P|350:145|379:167,1,71.9999978027344,8|0,0:0|0:0,0:0:0:0:
314,245,166367,2,0,P|299:277|288:312,1,71.9999978027344,10|0,0:0|0:0,0:0:0:0:
172,293,166720,2,0,P|136:289|100:289,1,71.9999978027344,8|0,0:0|0:0,0:0:0:0:
142,173,167073,2,0,P|145:137|145:101,1,71.9999978027344,10|0,0:0|0:0,0:0:0:0:
291,92,167426,2,0,P|326:95|362:95,1,71.9999978027344,8|0,0:0|0:0,0:0:0:0:
346,297,167779,2,0,P|342:332|342:368,1,71.9999978027344,10|0,1:2|1:0,0:0:0:0:
374,216,168132,6,0,P|370:186|368:169,3,48,10|0|2|2,1:2|1:0|1:3|1:3,1:0:0:0:
363,95,168485,2,0,P|333:89|316:86,3,48,10|0|2|2,1:2|1:0|1:3|1:3,1:0:0:0:
230,60,168838,2,0,P|215:86|207:101,3,48,10|0|2|2,1:2|1:0|1:3|1:3,1:0:0:0:
138,194,169191,2,0,P|158:215|170:228,3,48,10|0|2|2,1:2|1:0|1:3|1:3,1:0:0:0:
264,321,169544,2,0,P|291:307|306:300,3,48,10|0|2|2,1:2|1:0|1:3|1:3,1:0:0:0:
397,244,169897,2,0,P|372:226|358:217,3,48,10|0|2|2,1:2|1:0|1:3|1:3,1:0:0:0:
262,173,170250,5,8,1:3:0:0:
239,180,170338,1,0,1:3:0:0:
239,204,170426,1,2,1:3:0:0:
262,212,170514,1,8,1:3:0:0:
276,192,170603,1,8,1:3:0:0:
92,46,170956,5,14,0:0:0:0:
138,228,171132,1,8,0:0:0:0:
138,228,171220,1,8,0:0:0:0:
138,228,171309,1,0,1:0:0:0:
10,76,171485,2,0,P|18:116|22:138,1,48,8|8,0:0|0:0,0:0:0:0:
4,143,171662,6,0,P|51:150|98:157,1,96,10|8,0:0|0:0,0:0:0:0:
179,314,172014,2,0,P|131:306|84:299,1,96,2|8,1:2|0:0,0:0:0:0:
21,353,172367,5,14,0:0:0:0:
138,228,172544,1,8,0:0:0:0:
138,228,172632,1,8,0:0:0:0:
138,228,172721,1,0,1:0:0:0:
10,76,172897,2,0,P|18:116|22:138,1,48,8|8,0:0|0:0,0:0:0:0:
4,143,173074,6,0,P|51:150|98:157,1,96,10|8,0:0|0:0,0:0:0:0:
238,89,173426,6,0,P|261:92|284:98,1,48,2|0,1:2|1:0,0:0:0:0:
302,113,173603,2,0,P|325:109|348:103,1,48,8|8,2:3|2:3,0:0:0:0:
420,46,173779,5,14,0:0:0:0:
374,228,173955,1,8,0:0:0:0:
374,228,174043,1,8,0:0:0:0:
374,228,174132,1,2,1:2:0:0:
502,76,174308,2,0,P|494:116|490:138,1,48,8|8,0:0|0:0,0:0:0:0:
508,143,174485,6,0,P|461:150|414:157,1,96,10|8,0:0|0:0,0:0:0:0:
333,314,174837,2,0,P|381:306|428:299,1,96,2|8,1:2|0:0,0:0:0:0:
491,353,175190,5,14,0:0:0:0:
374,228,175367,1,8,0:0:0:0:
374,228,175455,1,8,0:0:0:0:
374,228,175544,1,0,1:0:0:0:
502,76,175720,2,0,P|494:116|490:138,1,48,10|0,0:0|0:0,0:0:0:0:
508,143,175897,6,0,P|461:150|414:157,1,96,10|8,0:0|0:0,0:0:0:0:
262,211,176250,5,8,2:3:0:0:
239,204,176338,1,8,2:3:0:0:
239,180,176426,1,8,2:3:0:0:
262,172,176514,1,8,2:3:0:0:
276,192,176603,1,14,0:0:0:0:
140,350,176779,5,8,0:0:0:0:
140,350,176867,1,8,0:0:0:0:
140,350,176956,1,0,1:0:0:0:
89,191,177132,2,0,P|80:220|72:250,1,48,10|10,0:0|0:0,0:0:0:0:
61,254,177309,6,0,P|108:247|155:240,1,96,10|8,0:0|0:0,0:0:0:0:
303,289,177662,2,0,P|256:296|209:303,1,96,2|8,1:2|0:0,0:0:0:0:
140,350,178014,5,14,0:0:0:0:
256,213,178191,1,8,0:0:0:0:
256,213,178279,1,8,0:0:0:0:
256,213,178368,1,0,1:0:0:0:
372,350,178544,1,8,0:0:0:0:
325,170,178720,6,0,P|332:138|339:106,3,48,6|8|8|8,1:2|0:0|0:0|0:0,0:0:0:0:
391,73,179073,5,6,1:2:0:0:
426,71,179161,1,0,1:0:0:0:
456,90,179249,1,8,2:3:0:0:
470,122,179337,1,8,2:3:0:0:
463,157,179426,6,0,P|434:167|413:175,3,48,14|8|0|8,0:0|0:0|1:2|0:0,0:0:0:0:
407,256,179779,2,0,P|384:247|361:240,3,48,8|8|0|8,0:0|0:0|1:2|0:0,0:0:0:0:
286,270,180132,5,10,0:0:0:0:
267,300,180220,1,8,0:0:0:0:
269,335,180308,1,0,1:2:0:0:
291,363,180396,1,8,0:0:0:0:
324,375,180485,6,0,P|331:352|339:329,1,48,10|8,0:0|0:0,0:0:0:0:
407,256,180662,2,0,P|399:233|391:210,1,48,0|8,1:2|0:0,0:0:0:0:
305,136,180838,5,10,0:0:0:0:
323,105,180926,1,8,0:0:0:0:
354,87,181014,1,0,1:2:0:0:
390,85,181102,1,8,0:0:0:0:
422,100,181191,6,0,P|389:111|357:104,1,48,10|8,0:0|0:0,0:0:0:0:
316,51,181367,2,0,P|282:40|250:47,1,48,0|8,1:2|0:0,0:0:0:0:
202,94,181544,5,10,0:0:0:0:
203,117,181632,1,8,0:0:0:0:
205,141,181720,1,0,1:2:0:0:
206,165,181808,1,8,0:0:0:0:
209,189,181897,6,0,L|202:246,2,48,8|8|0,0:0|0:0|1:2,0:0:0:0:
308,173,182250,5,14,0:0:0:0:
372,350,182426,5,8,0:0:0:0:
372,350,182514,1,8,0:0:0:0:
372,350,182603,1,0,1:2:0:0:
423,191,182779,2,0,P|432:220|440:250,1,48,8|8,0:0|0:0,0:0:0:0:
451,254,182956,6,0,P|404:247|357:240,1,96,10|8,0:0|0:0,0:0:0:0:
209,289,183309,2,0,P|256:296|303:303,1,96,2|8,1:2|0:0,0:0:0:0:
372,350,183661,5,10,0:0:0:0:
256,213,183838,1,8,0:0:0:0:
256,213,183926,1,8,0:0:0:0:
256,213,184015,1,0,1:2:0:0:
140,350,184191,1,8,0:0:0:0:
187,170,184367,6,0,P|180:138|173:106,3,48,6|0|8|8,1:2|0:0|0:0|0:0,0:0:0:0:
121,73,184720,5,10,0:0:0:0:
86,71,184808,1,8,0:0:0:0:
56,90,184896,1,8,2:3:0:0:
42,122,184984,1,8,0:0:0:0:
49,157,185073,5,14,0:0:0:0:
23,320,185250,5,8,0:0:0:0:
46,325,185338,1,8,0:0:0:0:
69,330,185426,1,8,3:2:0:0:
142,275,185603,5,8,0:0:0:0:
169,281,185691,1,8,0:0:0:0:
197,287,185779,1,10,3:2:0:0:
268,226,185956,5,8,0:0:0:0:
300,232,186044,1,8,0:0:0:0:
332,239,186132,1,10,3:2:0:0:
403,175,186309,5,8,0:0:0:0:
439,183,186397,1,8,0:0:0:0:
476,191,186485,6,0,L|484:246,3,48,10|0|8|8,3:2|0:0|0:0|0:0,0:0:0:0:
422,283,186838,2,0,L|430:338,3,48,0|0|10|8,1:2|0:0|0:0|0:0,0:0:0:0:
368,375,187191,1,6,1:2:0:0:
250,211,187544,5,2,1:2:0:0:
273,204,187632,1,0,1:2:0:0:
273,180,187720,1,0,1:2:0:0:
250,172,187808,1,0,1:2:0:0:
236,192,187897,1,14,3:2:0:0:
179,292,188073,5,8,0:0:0:0:
179,292,188161,1,8,0:0:0:0:
179,292,188250,2,0,P|105:264|70:245,1,96,0|10,1:2|0:0,0:0:0:0:
39,183,188514,1,10,0:0:0:0:
39,183,188603,2,0,P|32:136|82:94,1,96,10|8,0:0|0:0,0:0:0:0:
218,4,188956,1,2,1:2:0:0:
136,121,189132,1,8,0:0:0:0:
42,12,189309,6,0,P|97:26|148:41,1,96,10|8,3:2|0:0,0:0:0:0:
212,89,189573,1,8,0:0:0:0:
212,89,189661,2,0,P|267:75|318:60,1,96,0|8,1:2|0:0,0:0:0:0:
480,10,190014,1,0,1:2:0:0:
391,311,190367,5,0,1:2:0:0:
426,313,190455,1,0,1:2:0:0:
456,294,190543,1,8,0:0:0:0:
470,262,190631,1,8,0:0:0:0:
463,227,190720,6,0,P|434:217|413:209,3,48,14|8|0|8,3:2|0:0|1:2|0:0,0:0:0:0:
407,128,191073,2,0,P|384:137|361:144,3,48,8|8|0|8,0:0|0:0|1:2|0:0,0:0:0:0:
286,114,191426,5,10,0:0:0:0:
267,84,191514,1,8,0:0:0:0:
269,49,191602,1,0,1:2:0:0:
291,21,191690,1,8,0:0:0:0:
324,9,191779,6,0,P|331:32|339:55,1,48,10|8,0:0|0:0,0:0:0:0:
407,128,191956,2,0,P|399:151|391:174,1,48,0|8,1:2|0:0,0:0:0:0:
305,248,192132,5,10,0:0:0:0:
323,279,192220,1,8,0:0:0:0:
354,297,192308,1,0,1:2:0:0:
390,299,192396,1,8,0:0:0:0:
422,284,192485,6,0,P|389:273|357:280,1,48,10|8,0:0|0:0,0:0:0:0:
316,333,192661,2,0,P|282:344|250:337,1,48,0|8,1:2|0:0,0:0:0:0:
202,290,192838,5,10,0:0:0:0:
203,267,192926,1,8,0:0:0:0:
205,243,193014,1,0,1:2:0:0:
206,219,193102,1,8,0:0:0:0:
209,195,193191,6,0,L|202:138,2,48,8|8|0,0:0|0:0|1:2,0:0:0:0:
0,43,193544,6,0,L|7:100,3,48,12|8|0|8,3:2|0:0|1:2|0:0,0:0:0:0:
61,144,193897,2,0,L|54:201,3,48,8|8|0|8,0:0|0:0|1:2|0:0,0:0:0:0:
9,254,194250,5,8,0:0:0:0:
0,286,194338,1,8,0:0:0:0:
1,321,194426,1,0,1:2:0:0:
27,345,194514,1,8,0:0:0:0:
62,350,194603,6,0,P|85:343|109:338,1,48,8|8,0:0|0:0,0:0:0:0:
175,285,194779,2,0,P|181:263|186:239,1,48,0|8,1:2|0:0,0:0:0:0:
152,164,194956,5,8,3:2:0:0:
152,164,195044,1,8,0:0:0:0:
152,164,195132,1,0,1:2:0:0:
152,164,195220,1,8,0:0:0:0:
152,164,195309,6,0,L|146:116,1,48,8|8,0:0|0:0,0:0:0:0:
230,132,195485,2,0,L|224:84,1,48,0|8,1:2|0:0,0:0:0:0:
245,27,195661,6,0,L|239:75,1,48,8|8,0:0|0:0,0:0:0:0:
323,59,195837,2,0,L|317:107,1,48,0|8,1:2|0:0,0:0:0:0:
401,91,196014,2,0,L|395:139,2,48,8|8|8,0:0|0:0|0:0,0:0:0:0:
464,316,196367,5,12,3:2:0:0:
440,334,196455,1,8,0:0:0:0:
411,339,196543,1,0,1:2:0:0:
382,330,196631,1,8,0:0:0:0:
361,309,196719,1,8,0:0:0:0:
353,281,196808,1,8,0:0:0:0:
358,251,196896,1,0,1:2:0:0:
376,228,196984,1,8,0:0:0:0:
403,216,197073,6,0,P|435:223|463:225,3,48,8|8|0|8,0:0|0:0|1:2|0:0,0:0:0:0:
512,325,197426,2,0,P|480:318|452:316,3,48,8|8|0|8,0:0|0:0|1:2|0:0,0:0:0:0:
353,281,197779,5,8,3:2:0:0:
328,264,197867,1,8,0:0:0:0:
298,260,197955,1,0,1:2:0:0:
270,270,198043,1,8,0:0:0:0:
251,292,198132,1,8,0:0:0:0:
232,314,198220,1,8,0:0:0:0:
204,324,198308,1,0,1:2:0:0:
174,320,198396,1,8,0:0:0:0:
150,303,198485,6,0,P|157:259|161:235,3,48,8|8|0|8,0:0|0:0|1:2|0:0,0:0:0:0:
201,186,198838,6,0,P|194:142|190:118,1,48,8|8,0:0|0:0,0:0:0:0:
150,69,199014,2,0,P|157:25|161:1,1,48,0|8,1:2|0:0,0:0:0:0:
161,77,199191,6,0,P|77:98|-4:117,1,135.000005149841,12|0,0:0|0:0,0:0:0:0:
29,109,201037,6,0,P|101:142|240:27,2,270.000010299683,14|14|14,0:0|0:0|0:0,0:0:0:0:
257,179,202983,6,0,P|244:222|233:265,2,90.0000034332277,0|8|8,1:2|2:3|2:3,0:0:0:0:
257,179,203688,2,0,P|245:135|232:92,1,90.0000034332277,0|8,1:2|2:3,0:0:0:0:
337,175,204165,2,0,L|395:172,1,45.0000017166138,0|0,1:2|0:0,0:0:0:0:
479,263,204493,6,0,P|402:265|391:362,1,180.000006866455,14|8,0:0|0:0,0:0:0:0:
290,302,205260,6,0,P|299:260|315:194,2,90.0000034332277,0|2|8,1:2|3:2|0:0,0:0:0:0:
223,234,206061,5,8,0:0:0:0:
149,201,206328,2,0,P|152:146|185:110,1,90.0000034332277,0|8,0:0|0:0,0:0:0:0:
114,56,206862,2,0,P|175:80|286:105,1,180.000006866455,0|8,1:2|0:0,0:0:0:0:
353,57,207663,5,12,0:0:0:0:
222,185,208464,2,0,P|237:248|250:318,1,135.000005149841,12|0,0:0|0:0,0:0:0:0:
255,345,208998,5,12,0:0:0:0:
256,192,209132,12,0,212737,0:0:0:0:
