osu file format v14

[General]
AudioFilename: audio.mp3
AudioLeadIn: 0
PreviewTime: 145841
Countdown: 0
SampleSet: Soft
StackLeniency: 0.7
Mode: 0
LetterboxInBreaks: 0
WidescreenStoryboard: 1

[Editor]
DistanceSpacing: 1
BeatDivisor: 4
GridSize: 32
TimelineZoom: 1.699999

[Metadata]
Title:Redneck Vikings from Hell
TitleUnicode:Redneck Vikings from Hell
Artist:Aether Realm
ArtistUnicode:Æther Realm
Creator:pw384
Version:Garden's Hard
Source:
Tags:featured artist fa osu!fa mappers' guild mappersguild mpg english power melodic death symphonic folk metal yugu garden bellicose
BeatmapID:3333063
BeatmapSetID:1621848

[Difficulty]
HPDrainRate:4
CircleSize:3.5
OverallDifficulty:6
ApproachRate:8
SliderMultiplier:1.5
SliderTickRate:1

[Events]
//Background and Video events
0,0,"bg1.jpg",0,0
//Break Periods
2,27862,36769
2,65576,66341
2,67291,68055
2,146147,148198
2,159862,169500
//Storyboard Layer 0 (Background)
//Storyboard Layer 1 (Fail)
//Storyboard Layer 2 (Pass)
//Storyboard Layer 3 (Foreground)
//Storyboard Layer 4 (Overlay)
//Storyboard Sound Samples

[TimingPoints]
234,428.571428571429,4,2,1,50,1,0
234,-100,4,2,1,50,0,1
341,-100,4,2,1,50,0,0
13948,-83.3333333333333,4,2,2,60,0,1
14055,-83.3333333333333,4,2,2,60,0,0
20805,-71.4285714285714,4,2,2,60,0,0
26805,-83.3333333333333,4,2,2,60,0,0
27662,-100,4,2,1,40,0,0
37519,-100,4,2,1,60,0,0
39662,-100,4,2,2,60,0,0
40948,-100,4,2,2,60,0,1
41055,-100,4,2,2,60,0,0
41376,-71.4285714285714,4,2,2,60,0,0
48234,-71.4285714285714,4,2,2,60,0,0
53591,-100,4,2,2,60,0,0
54234,-66.6666666666667,4,2,2,60,0,0
55091,-66.6666666666667,4,2,2,60,0,1
65269,-100,4,2,2,60,0,0
65376,-100,4,2,2,60,0,1
65484,-100,4,2,2,60,0,0
67091,-100,4,2,2,60,0,1
67198,-100,4,2,2,60,0,0
68805,-133.333333333333,4,2,2,60,0,1
69448,-133.333333333333,4,2,2,60,0,0
69662,-133.333333333333,4,2,2,60,0,1
70305,-133.333333333333,4,2,2,60,0,0
70519,-83.3333333333333,4,2,2,50,0,1
70626,-83.3333333333333,4,2,2,50,0,0
73948,-71.4285714285714,4,2,2,70,0,1
74055,-71.4285714285714,4,2,2,70,0,0
85948,-83.3333333333333,4,2,2,70,0,0
86805,-100,4,2,2,70,0,0
113162,-133.333333333333,4,2,2,70,0,0
113376,-133.333333333333,4,2,3,70,0,0
114662,-83.3333333333333,4,2,3,70,0,0
115091,-71.4285714285714,4,2,3,70,0,1
121734,-100,4,2,3,70,0,0
128805,-100,4,2,4,60,0,0
132234,-100,4,2,4,60,0,1
133948,-83.3333333333333,4,2,4,60,0,1
135448,-111.111111111111,4,2,4,60,0,0
137376,-100,4,2,4,60,0,0
139091,-83.3333333333333,4,2,4,60,0,0
145948,-83.3333333333333,4,2,2,60,0,1
146055,-83.3333333333333,4,2,2,60,0,0
152805,-71.4285714285714,4,2,2,70,0,1
152912,-71.4285714285714,4,2,2,70,0,0
158805,-100,4,2,2,70,0,0
159662,352.941176470588,4,2,5,50,1,0
170250,-100,4,2,5,70,0,0
170956,-83.3333333333333,4,2,2,70,0,1
179426,-71.4285714285714,4,2,2,70,0,1
182250,-83.3333333333333,4,2,2,70,0,1
190720,-71.4285714285714,4,2,2,70,0,1
199191,461.538461538462,4,2,2,70,1,0
199191,-133.333333333333,4,2,2,70,0,0
201037,432.692328494823,4,2,2,70,1,0
201037,-133.333333333333,4,2,2,70,0,0
202983,480,4,2,2,60,1,0
202983,-133.333333333333,4,2,2,60,0,0
203688,521.739130434783,4,2,2,50,1,0
203688,-133.333333333333,4,2,2,50,0,0
204165,470.588235294118,4,2,2,50,1,0
204493,500,4,2,2,70,1,0
204993,534.124629095968,4,2,2,70,1,0
205260,534.124630665058,4,2,2,70,1,0
209132,-100,4,2,2,50,0,0
212737,-100,4,2,2,30,0,0

[Colours]
Combo1 : 128,64,64
Combo2 : 141,85,29
Combo3 : 213,128,43
Combo4 : 234,191,149

[HitObjects]
268,372,234,6,0,P|220:314|130:340,1,150,12|0,0:0|0:0,0:0:0:0:
151,320,1519,6,0,P|142:280|130:245,1,74.9999999999999,12|0,0:0|0:0,0:0:0:0:
36,227,1948,2,0,P|107:214|127:123,1,150,12|0,0:0|0:0,0:0:0:0:
131,49,2591,2,0,P|116:46|91:33,3,25,8|8|8|8,2:3|2:3|2:3|2:3,0:0:0:0:
226,0,3019,2,0,P|233:88|247:170,1,150,0|12,1:2|0:0,0:0:0:0:
217,243,3662,6,0,P|265:185|355:211,1,150,12|0,0:0|0:0,0:0:0:0:
499,294,4519,2,0,P|451:352|361:326,1,150,12|0,0:0|0:0,0:0:0:0:
382,345,5376,5,12,0:0:0:0:
304,285,5591,2,0,P|296:203|269:108,1,150,12|12,0:0|0:0,0:0:0:0:
376,124,6234,2,0,B|246:128|309:41|137:48,1,225,12|0,0:0|0:0,0:0:0:0:
80,83,7091,5,10,0:0:0:0:
432,301,7948,1,14,0:0:0:0:
131,245,8805,5,14,0:0:0:0:
381,139,9662,1,14,0:0:0:0:
218,30,10091,6,0,L|233:88,3,37.5,0|0|0|0,1:2|1:2|1:2|1:2,0:0:0:0:
195,102,10519,2,0,P|264:125|263:215,1,150,14|12,0:0|0:0,0:0:0:0:
162,353,11376,2,0,P|127:364|81:372,1,75,14|0,0:0|0:0,0:0:0:0:
89,371,11805,2,0,P|75:338|70:285,1,75,12|0,0:0|0:0,0:0:0:0:
76,201,12234,5,10,0:0:0:0:
161,247,12448,2,0,B|249:251|208:304|306:310,1,150,14|14,0:0|0:0,0:0:0:0:
354,233,13091,2,0,P|397:216|447:208,1,75,14|0,0:0|1:2,0:0:0:0:
490,137,13519,1,0,1:2:0:0:
484,115,13626,1,0,1:2:0:0:
478,92,13734,1,0,1:2:0:0:
472,70,13841,1,0,1:2:0:0:
467,50,13948,6,0,P|440:19|384:16,1,89.9999972534181,14|0,3:2|1:2,0:0:0:0:
330,89,14376,2,0,P|333:111|343:142,3,44.999998626709,10|2|2|2,0:0|0:0|1:2|0:0,0:0:0:0:
362,170,14805,2,0,P|319:176|249:200,1,89.9999972534181,10|2,0:0|1:2,0:0:0:0:
192,133,15234,1,10,0:0:0:0:
183,238,15448,1,2,1:2:0:0:
183,238,15555,1,2,0:0:0:0:
183,238,15662,6,0,P|178:314|64:326,1,179.999994506836,10|10,0:0|0:0,0:0:0:0:
7,286,16305,2,0,P|2:254|-5:228,2,44.999998626709,2|2|10,1:2|0:0|0:0,0:0:0:0:
89,341,16734,2,0,P|90:352|92:363,4,22.4999993133545,8|8|8|0|8,2:3|2:3|2:3|0:0|2:3,0:0:0:0:
112,251,17162,1,8,2:3:0:0:
112,251,17269,1,8,2:3:0:0:
112,251,17376,6,0,P|102:201|97:148,1,89.9999972534181,14|0,0:0|1:2,0:0:0:0:
20,99,17805,2,0,P|24:76|40:58,3,44.999998626709,10|2|2|2,0:0|0:0|1:2|0:0,0:0:0:0:
71,33,18234,2,0,P|103:61|163:56,1,89.9999972534181,10|2,0:0|1:2,0:0:0:0:
233,11,18662,1,10,0:0:0:0:
290,103,18876,1,2,1:2:0:0:
290,103,18984,1,2,0:0:0:0:
290,103,19091,6,0,P|338:90|394:83,1,89.9999972534181,10|2,0:0|1:2,0:0:0:0:
468,43,19519,2,0,P|471:88|486:157,1,89.9999972534181,10|2,0:0|1:2,0:0:0:0:
492,176,19841,1,2,0:0:0:0:
492,176,19948,2,0,P|463:179|441:187,3,44.999998626709,2|0|2|2,1:2|1:2|1:2|1:2,0:0:0:0:
361,203,20376,1,10,0:0:0:0:
349,222,20484,1,10,0:0:0:0:
346,244,20591,1,10,0:0:0:0:
353,265,20698,1,10,0:0:0:0:
370,279,20805,6,0,P|361:338|247:327,1,157.499995193482,14|2,3:2|0:0,0:0:0:0:
235,357,21234,2,0,P|250:302|257:245,1,104.999996795654,2|2,1:2|0:0,0:0:0:0:
271,145,21662,1,10,0:0:0:0:
162,170,21876,1,10,0:2:0:0:
162,170,21984,1,10,0:2:0:0:
162,170,22091,2,0,P|172:113|185:64,1,104.999996795654,0|2,1:2|0:0,0:0:0:0:
277,0,22519,6,0,P|337:1|372:103,1,157.499995193482,10|2,0:0|0:0,0:0:0:0:
379,79,22948,1,2,1:2:0:0:
491,53,23162,1,2,0:0:0:0:
460,164,23376,2,0,B|367:177|418:222|306:231,1,157.499995193482,14|0,0:0|0:0,0:0:0:0:
282,217,23805,2,0,P|275:271|256:335,1,104.999996795654,2|0,1:2|0:0,0:0:0:0:
155,365,24234,6,0,P|63:323|69:257,1,157.499995193482,14|2,3:2|0:0,0:0:0:0:
60,277,24662,1,2,1:2:0:0:
140,194,24876,1,2,0:0:0:0:
26,169,25091,2,0,P|16:116|-3:59,1,104.999996795654,10|2,0:0|0:0,0:0:0:0:
0,67,25412,1,2,0:0:0:0:
0,67,25519,1,2,1:2:0:0:
94,0,25734,1,2,0:0:0:0:
118,112,25948,6,0,B|205:107|173:163|265:156,1,157.499995193482,14|2,3:2|1:2,0:0:0:0:
263,156,26376,1,2,1:2:0:0:
249,43,26591,1,2,1:2:0:0:
355,94,26805,2,0,P|422:239|251:243,1,359.999989013672,2|12,1:2|0:0,0:0:0:0:
86,43,37519,6,0,L|75:106,3,37.5,0|0|0|0,1:2|1:2|1:2|1:2,0:0:0:0:
57,115,37948,2,0,B|155:101|155:101|187:156,1,150,6|0,1:2|1:2,0:0:0:0:
257,228,38591,1,0,1:2:0:0:
257,228,38698,1,0,1:2:0:0:
257,228,38805,2,0,L|200:245,3,37.5,0|0|8|8,1:2|1:2|2:0|2:0,0:0:0:0:
198,276,39234,2,0,L|216:336,3,37.5,8|8|8|8,2:0|2:3|2:3|2:3,0:0:0:0:
232,344,39662,6,0,L|321:314,1,75,14|2,0:0|2:3,0:0:0:0:
339,299,39984,2,0,B|369:334|369:334|435:313,1,112.5,6|6,0:0|0:0,0:0:0:0:
503,247,40519,2,0,L|479:165,1,75,6|0,1:2|0:0,0:0:0:0:
391,156,40948,1,0,1:2:0:0:
391,156,41376,6,0,P|426:109|411:58,1,104.999996795654,14|8,3:2|0:0,0:0:0:0:
320,2,41805,2,0,B|231:7|270:61|174:66,1,157.499995193482,2|10,1:2|0:0,0:0:0:0:
181,65,42234,1,10,0:0:0:0:
66,50,42448,2,0,P|60:24|53:0,2,52.4999983978272,10|8|0,0:0|0:0|1:2,0:0:0:0:
120,163,42876,1,10,0:0:0:0:
120,163,42984,1,8,0:0:0:0:
120,163,43091,6,0,P|117:208|65:237,1,104.999996795654,10|10,0:0|0:0,0:0:0:0:
16,339,43519,2,0,P|88:320|184:302,1,157.499995193482,2|10,1:2|0:0,0:0:0:0:
169,304,43948,1,10,0:0:0:0:
287,342,44162,1,10,0:0:0:0:
287,342,44269,1,8,0:0:0:0:
287,342,44376,2,0,P|274:296|265:218,1,104.999996795654,0|14,1:2|0:0,0:0:0:0:
354,164,44805,5,14,3:2:0:0:
354,164,45234,2,0,P|438:147|448:58,1,157.499995193482,2|10,1:2|0:0,0:0:0:0:
457,86,45662,1,10,0:0:0:0:
383,11,45876,1,10,0:0:0:0:
383,11,45984,1,8,0:0:0:0:
383,11,46091,1,0,1:2:0:0:
285,72,46305,1,0,1:2:0:0:
354,164,46519,6,0,P|348:192|343:228,3,52.4999983978272,10|2|2|2,0:0|0:0|0:0|0:0,0:0:0:0:
435,215,46948,1,0,1:2:0:0:
448,230,47055,1,0,1:2:0:0:
451,250,47162,1,8,2:3:0:0:
448,270,47269,1,8,2:3:0:0:
435,287,47376,2,0,P|387:294|315:314,1,104.999996795654,8|0,2:3|1:2,0:0:0:0:
301,324,47698,1,0,1:2:0:0:
301,324,47805,2,0,P|255:240|124:270,1,209.999993591309,8|14,2:3|3:2,0:0:0:0:
49,287,48448,5,2,1:2:0:0:
49,287,48555,1,2,0:0:0:0:
49,287,48662,2,0,P|41:248|36:193,3,52.4999983978272,10|2|2|2,0:0|0:0|1:2|0:0,0:0:0:0:
63,205,49091,2,0,P|55:166|50:111,3,52.4999983978272,10|2|2|2,0:0|0:0|1:2|0:0,0:0:0:0:
77,123,49519,2,0,P|69:84|64:29,3,52.4999983978272,10|2|2|2,0:0|0:0|1:2|0:0,0:0:0:0:
94,41,49948,6,0,P|207:37|228:120,1,209.999993591309,10|10,0:0|0:0,0:0:0:0:
158,206,50591,1,2,1:2:0:0:
158,206,50698,1,2,0:0:0:0:
158,206,50805,1,10,0:0:0:0:
253,270,51019,2,0,B|370:266|316:182|439:184,1,209.999993591309,2|0,1:2|1:2,0:0:0:0:
501,278,51662,5,14,3:2:0:0:
397,328,51876,1,10,0:0:0:0:
434,183,52091,2,0,P|449:119|438:11,1,157.499995193482,2|10,1:2|0:0,0:0:0:0:
442,28,52519,1,10,0:0:0:0:
347,94,52734,2,0,P|241:96|206:-2,1,209.999993591309,10|8,0:0|0:0,0:0:0:0:
304,0,53376,5,14,0:0:0:0:
361,84,53591,2,0,P|346:156|343:235,1,150,14|14,0:0|0:0,0:0:0:0:
295,384,54234,6,0,P|333:335|411:339,1,112.500004291535,14|0,0:0|0:0,0:0:0:0:
504,369,54662,1,0,1:2:0:0:
504,369,54769,1,0,1:2:0:0:
504,369,54876,1,0,1:2:0:0:
504,369,54984,1,0,1:2:0:0:
504,369,55091,6,0,B|515:309|515:309|469:259,1,112.500004291535,14|0,3:2|1:2,0:0:0:0:
480,271,55412,2,0,B|422:207|422:207|451:112,1,168.750006437302,0|0,1:0|1:2,0:0:0:0:
480,20,55948,1,8,0:0:0:0:
446,128,56162,1,0,1:2:0:0:
343,81,56376,2,0,B|311:66|311:66|237:90,1,112.500004291535,10|2,0:0|1:2,0:0:0:0:
211,67,56698,1,2,0:0:0:0:
211,67,56805,6,0,L|187:188,1,112.500004291535,10|2,0:0|1:2,0:0:0:0:
180,214,57126,2,0,B|289:182|289:182|316:240,1,168.750006437302,0|2,1:0|1:2,0:0:0:0:
356,335,57662,1,10,0:0:0:0:
252,329,57876,1,0,1:2:0:0:
252,329,57984,1,0,1:2:0:0:
252,329,58091,2,0,B|177:347|177:347|144:303,1,112.500004291535,0|8,1:2|2:3,0:0:0:0:
86,230,58519,5,14,0:0:0:0:
189,177,58734,1,0,1:2:0:0:
189,177,58841,1,0,0:0:0:0:
189,177,58948,2,0,B|205:140|205:140|180:50,1,112.500004291535,8|0,0:0|1:2,0:0:0:0:
275,2,59376,1,8,0:0:0:0:
313,113,59591,1,0,1:2:0:0:
313,113,59698,2,0,B|329:151|329:151|470:175,1,168.750006437302,0|2,1:0|1:2,0:0:0:0:
483,294,60234,6,0,B|464:272|464:272|382:259,1,112.500004291535,10|2,0:0|1:2,0:0:0:0:
286,318,60662,2,0,L|274:387,2,56.2500021457673,10|0|2,0:0|0:0|1:2,0:0:0:0:
199,245,61091,2,0,L|208:189,3,56.2500021457673,10|0|8|8,0:0|1:2|0:0|0:0,0:0:0:0:
232,178,61519,1,8,0:0:0:0:
254,160,61626,1,8,0:0:0:0:
264,133,61734,1,8,2:3:0:0:
257,105,61841,1,8,2:3:0:0:
238,84,61948,6,0,B|203:73|203:73|182:-8,1,112.500004291535,14|0,0:0|1:2,0:0:0:0:
296,1,62376,1,8,0:0:0:0:
362,105,62591,1,0,1:2:0:0:
362,105,62698,1,0,1:0:0:0:
362,105,62805,2,0,B|354:157|354:157|388:206|388:206|376:281,1,168.750006437302,8|0,0:0|0:0,0:0:0:0:
379,261,63234,1,10,0:0:0:0:
457,340,63448,1,2,1:2:0:0:
348,369,63662,6,0,B|324:347|324:347|223:338,1,112.500004291535,10|0,0:0|1:2,0:0:0:0:
211,360,63984,2,0,B|102:350|102:350|63:284,1,168.750006437302,2|2,1:2|1:2,0:0:0:0:
172,248,64519,1,2,1:2:0:0:
182,221,64626,1,0,1:2:0:0:
194,195,64734,1,8,2:3:0:0:
206,169,64841,1,8,2:3:0:0:
219,144,64948,2,0,L|195:82,3,56.2500021457673,2|0|10|8,1:2|1:2|0:0|2:3,0:0:0:0:
256,20,65376,5,14,0:0:0:0:
256,364,67091,5,14,0:0:0:0:
443,244,68805,6,0,P|390:181|310:191,1,168.750006437302,12|0,0:0|1:2,0:0:0:0:
200,192,69662,2,0,P|119:182|67:244,1,168.750006437302,12|0,0:0|0:0,0:0:0:0:
49,351,70519,6,0,P|93:335|160:315,1,89.9999972534181,12|8,0:0|0:0,0:0:0:0:
134,322,70841,1,8,0:0:0:0:
134,322,70948,1,0,1:2:0:0:
241,336,71162,2,0,P|248:368|257:390,2,44.999998626709,8|8|8,0:0|0:0|0:0,0:0:0:0:
281,240,71591,1,8,0:0:0:0:
281,240,71698,1,8,0:0:0:0:
281,240,71805,1,0,1:2:0:0:
387,255,72019,2,0,P|391:276|397:298,2,44.999998626709,8|8|8,0:0|0:0|0:0,0:0:0:0:
450,169,72448,1,8,0:0:0:0:
450,169,72555,1,8,0:0:0:0:
450,169,72662,2,0,P|435:121|424:65,1,89.9999972534181,0|8,1:2|0:0,0:0:0:0:
422,49,72984,1,8,0:0:0:0:
422,49,73091,6,0,P|430:26|435:11,6,29.9999990844727,8|8|8|8|8|8|0,2:3|2:3|2:3|2:3|2:3|2:3|1:2,0:0:0:0:
488,279,73948,6,0,P|438:262|381:253,1,104.999996795654,14|10,0:0|0:0,0:0:0:0:
304,172,74376,2,0,P|253:243|181:232,1,157.499995193482,2|10,1:2|0:0,0:0:0:0:
190,238,74805,1,10,0:0:0:0:
204,123,75019,2,0,P|194:57|178:1,1,104.999996795654,10|0,0:0|1:2,0:0:0:0:
76,17,75448,1,10,0:0:0:0:
76,17,75555,1,8,0:0:0:0:
76,17,75662,6,0,P|88:67|95:119,1,104.999996795654,10|8,0:0|0:0,0:0:0:0:
148,223,76091,2,0,P|72:224|34:289,1,157.499995193482,2|10,1:2|0:0,0:0:0:0:
34,289,76519,1,10,0:0:0:0:
141,331,76734,2,0,B|265:323|204:245|322:241,1,209.999993591309,10|8,0:0|0:0,0:0:0:0:
422,294,77376,5,14,0:0:0:0:
497,206,77591,2,0,P|500:154|466:116,1,104.999996795654,10|2,0:0|1:2,0:0:0:0:
395,39,78019,1,8,0:0:0:0:
395,39,78126,1,10,0:0:0:0:
395,39,78234,2,0,P|378:93|360:147,1,104.999996795654,10|10,0:0|0:0,0:0:0:0:
320,241,78662,1,0,1:2:0:0:
225,174,78876,1,8,1:2:0:0:
269,66,79091,5,14,0:0:0:0:
225,174,79305,2,0,B|98:147|182:81|44:58,1,209.999993591309,14|8,0:0|2:3,0:0:0:0:
0,148,79948,2,0,P|5:175|8:205,3,52.4999983978272,8|8|0|0,2:3|2:3|1:2|1:2,0:0:0:0:
40,209,80376,2,0,P|45:236|48:266,3,52.4999983978272,8|8|8|8,2:3|0:0|0:0|0:0,0:0:0:0:
23,292,80805,6,0,B|100:280|100:280|142:310,1,104.999996795654,14|0,0:0|1:2,0:0:0:0:
206,370,81234,2,0,B|226:309|226:309|256:289|256:289|275:217,1,157.499995193482,10|2,0:0|0:0,0:0:0:0:
270,233,81662,1,10,0:0:0:0:
374,281,81876,2,0,B|314:255|314:255|307:247|307:247|287:97,1,209.999993591309,2|2,1:2|1:2,0:0:0:0:
352,17,82519,5,10,0:0:0:0:
465,72,82734,1,0,1:2:0:0:
465,72,82841,1,0,1:0:0:0:
465,72,82948,2,0,L|478:187,1,104.999996795654,10|0,0:0|1:2,0:0:0:0:
397,260,83376,1,10,0:0:0:0:
500,322,83591,1,2,1:2:0:0:
500,322,83698,2,0,B|455:299|455:299|313:343,1,157.499995193482,0|2,1:0|1:2,0:0:0:0:
241,364,84234,6,0,B|257:298|257:298|214:258,1,104.999996795654,10|2,0:0|0:0,0:0:0:0:
275,166,84662,2,0,B|219:182|219:182|185:166|185:166|105:191,1,157.499995193482,2|2,1:2|0:0,0:0:0:0:
93,197,85091,6,0,P|82:81|-5:76,2,209.999993591309,10|0|12,0:0|1:2|0:0,0:0:0:0:
15,282,86162,2,0,B|122:299|56:358|192:376,1,179.999994506836,12|0,0:0|0:0,0:0:0:0:
267,384,86805,6,0,P|259:346|254:275,1,75,12|0,0:0|0:0,0:0:0:0:
259,276,87126,2,0,P|320:247|309:189,1,112.5,12|12,0:0|0:0,0:0:0:0:
256,192,87555,12,2,93234,2:3:0:0:
171,241,93662,6,0,P|157:187|135:116,2,112.5,12|12|12,0:0|0:0|0:0,0:0:0:0:
256,192,94412,12,2,100091,2:3:0:0:
324,199,100519,6,0,P|332:157|349:104,1,75,12|0,0:0|0:0,0:0:0:0:
356,93,100841,2,0,P|326:45|253:62,1,112.5,12|12,0:0|0:0,0:0:0:0:
256,192,101269,12,2,106948,2:3:0:0:
189,138,107376,6,0,P|179:82|163:29,2,112.5,12|12|12,0:0|0:0|0:0,0:0:0:0:
256,192,108126,12,12,111448,0:0:0:0:
110,346,112948,5,4,0:0:0:0:
110,346,113162,2,0,B|59:389|-14:337|4:242|109:196|170:240|206:299,1,337.500012874604,8|8,0:0|2:3,0:0:0:0:
286,361,114662,6,0,P|292:317|300:273,1,89.9999972534181,8|8,2:3|2:3,0:0:0:0:
263,174,115091,6,0,P|361:175|395:83,1,209.999993591309,14|2,3:2|1:1,0:0:0:0:
483,25,115734,2,0,P|474:37|367:54,1,104.999996795654,14|2,0:0|1:1,0:0:0:0:
287,59,116162,2,0,P|289:41|298:15,3,34.9999989318848,10|10|10|2,0:0|0:0|0:0|1:2,0:0:0:0:
239,153,116591,1,10,0:0:0:0:
239,153,116698,1,10,0:0:0:0:
239,153,116805,2,0,P|271:160|319:169,2,52.4999983978272,8|8|8,0:0|0:0|0:0,0:0:0:0:
195,150,117126,6,0,P|191:72|113:57,1,157.499995193482,2|10,1:0|0:0,0:0:0:0:
88,71,117555,1,8,0:0:0:0:
88,71,117662,2,0,B|94:197|11:142|25:277,1,209.999993591309,10|0,3:2|1:2,0:0:0:0:
105,344,118305,1,2,1:2:0:0:
105,344,118412,1,0,1:2:0:0:
105,344,118519,6,0,P|196:343|232:283,1,157.499995193482,14|12,3:2|0:0,0:0:0:0:
230,293,118948,1,0,1:2:0:0:
207,190,119162,2,0,P|304:210|444:237,1,209.999993591309,12|10,0:0|0:0,0:0:0:0:
488,158,119805,2,0,P|485:95|434:64,1,104.999996795654,10|10,1:0|0:0,0:0:0:0:
424,53,120126,1,2,0:0:0:0:
424,53,120234,6,0,P|413:82|405:113,3,52.4999983978272,10|2|10|2,0:0|0:0|0:0|0:0,0:0:0:0:
321,130,120662,1,0,1:2:0:0:
299,114,120769,1,0,1:2:0:0:
295,88,120876,1,8,2:3:0:0:
304,63,120984,1,8,2:3:0:0:
321,43,121091,2,0,P|267:33|199:12,1,104.999996795654,14|2,0:0|0:0,0:0:0:0:
188,38,121412,2,0,P|151:26|109:19,1,52.4999983978272,14|2,0:0|0:0,0:0:0:0:
209,132,121734,6,0,P|190:233|76:247,1,225,12|8,0:0|0:0,0:0:0:0:
332,353,122805,2,0,P|322:297|304:244,2,112.5,2|2|2,1:2|1:2|1:2,0:0:0:0:
425,380,123662,2,0,P|460:337|447:303,1,75,10|0,0:0|0:0,0:0:0:0:
477,296,123984,2,0,P|421:268|429:198,1,112.5,10|2,0:0|0:0,0:0:0:0:
463,138,124519,6,0,P|497:142|523:151,2,50,0|0|8,1:2|1:2|2:3,0:0:0:0:
405,71,124948,2,0,P|408:43|421:16,2,50,8|8|8,2:3|2:3|2:3,0:0:0:0:
335,130,125376,6,0,P|226:122|207:6,1,225,12|0,0:0|0:0,0:0:0:0:
295,43,126234,2,0,P|233:53|56:98,1,225,12|0,0:0|0:0,0:0:0:0:
47,185,127091,6,0,P|18:192|-13:203,2,50,0|8|8,1:2|2:3|2:3,0:0:0:0:
134,203,127519,2,0,P|157:195|182:189,2,50,8|8|8,2:3|0:3|2:3,0:0:0:0:
69,271,127948,2,0,P|40:278|9:289,2,50,8|8|8,2:3|2:3|2:3,0:0:0:0:
159,291,128376,2,0,P|182:283|207:277,2,50,0|8|8,1:2|2:3|2:3,0:0:0:0:
98,358,128805,1,8,2:3:0:0:
292,337,129234,6,0,P|300:357|305:385,2,37.5,10|8|8,0:0|0:0|0:0,0:0:0:0:
336,254,129662,1,2,1:2:0:0:
336,254,129769,1,8,0:0:0:0:
336,254,129876,1,8,0:0:0:0:
422,299,130091,2,0,P|430:319|435:347,2,37.5,10|8|8,0:0|0:0|0:0,0:0:0:0:
460,214,130519,1,10,0:0:0:0:
460,214,130626,1,8,0:0:0:0:
460,214,130734,1,10,0:0:0:0:
372,170,130948,6,0,P|367:151|360:134,2,37.5,10|0|10,0:0|0:0|0:0,0:0:0:0:
331,258,131376,2,0,B|242:262|280:204|165:216,1,150,2|0,1:2|0:0,0:0:0:0:
105,268,132019,1,8,2:3:0:0:
105,268,132126,1,8,0:3:0:0:
105,268,132234,6,0,P|56:217|85:173,1,112.5,10|0,0:0|0:0,0:0:0:0:
71,153,132662,2,0,P|51:149|15:133,2,37.5,10|8|8,0:0|0:0|0:0,0:0:0:0:
151,94,133091,1,2,1:2:0:0:
151,94,133198,1,8,0:0:0:0:
151,94,133305,1,8,0:0:0:0:
77,29,133519,2,0,P|57:25|21:9,2,37.5,10|8|8,0:0|0:0|0:0,0:0:0:0:
151,94,133948,6,0,P|219:75|296:58,1,134.999995880127,2|0,1:2|0:0,0:0:0:0:
317,60,134376,2,0,P|310:86|306:124,3,44.999998626709,0|0|0|0,1:2|1:2|1:2|1:2,0:0:0:0:
385,157,134805,2,0,P|447:172|452:254,1,134.999995880127,12|12,0:0|0:0,0:0:0:0:
490,378,135448,6,0,B|477:166|291:259|348:397|206:351|179:270|207:229|246:206|294:231,1,472.499985580445,12|8,0:0|0:0,0:0:0:0:
290,229,137376,6,0,P|277:175|246:104,2,112.5,8|8|8,0:0|0:0|0:0,0:0:0:0:
232,308,138234,2,0,P|176:324|160:373,2,112.5,8|8|8,1:2|0:0|2:3,0:0:0:0:
317,359,139091,6,0,P|364:343|423:331,1,89.9999972534181,12|8,3:2|0:0,0:0:0:0:
403,334,139412,2,0,P|413:361|414:382,1,44.999998626709,8|0,0:0|1:2,0:0:0:0:
380,247,139734,1,8,0:0:0:0:
380,247,139841,1,8,0:0:0:0:
380,247,139948,2,0,P|466:201|442:103,1,179.999994506836,12|0,3:2|1:2,0:0:0:0:
480,30,140591,1,8,0:0:0:0:
480,30,140698,1,8,0:0:0:0:
480,30,140805,6,0,P|434:47|372:59,1,89.9999972534181,12|8,3:2|0:0,0:0:0:0:
394,56,141126,2,0,P|380:25|377:-4,1,44.999998626709,8|0,0:0|1:2,0:0:0:0:
344,146,141448,1,8,0:0:0:0:
344,146,141555,1,8,0:0:0:0:
344,146,141662,2,0,P|285:155|207:184,1,134.999995880127,12|8,3:2|0:0,0:0:0:0:
214,180,142091,2,0,P|220:212|233:237,3,44.999998626709,0|0|8|8,1:2|1:2|2:3|2:3,0:0:0:0:
168,300,142519,6,0,P|75:287|76:182,1,179.999994506836,14|2,3:2|1:2,0:0:0:0:
123,141,143162,1,8,0:0:0:0:
123,141,143269,1,8,0:0:0:0:
123,141,143376,2,0,P|108:77|88:22,1,89.9999972534181,2|8,1:2|0:0,0:0:0:0:
198,21,143805,2,0,P|211:64|220:108,1,89.9999972534181,2|8,1:2|0:0,0:0:0:0:
220,108,144126,1,8,0:0:0:0:
220,108,144234,6,0,P|253:115|285:116,3,44.999998626709,0|0|8|8,1:2|1:2|2:3|2:3,0:0:0:0:
325,58,144662,1,0,1:2:0:0:
340,41,144769,1,0,1:2:0:0:
362,36,144876,1,8,2:3:0:0:
384,37,144984,1,8,2:3:0:0:
403,48,145091,2,0,P|412:72|417:107,3,44.999998626709,8|8|8|8,3:3|0:0|0:0|0:0,0:0:0:0:
442,117,145519,2,0,P|366:141|362:243,1,179.999994506836,12|4,0:0|3:2,0:0:0:0:
354,230,148948,6,0,P|365:253|368:291,1,44.999998626709,0|0,1:2|0:0,0:0:0:0:
489,164,149376,6,0,P|445:157|395:143,1,89.9999972534181,14|0,0:0|0:0,0:0:0:0:
339,55,149805,2,0,P|283:47|232:115,1,134.999995880127,0|8,1:0|0:0,0:0:0:0:
233,100,150234,1,8,0:0:0:0:
155,39,150448,2,0,P|193:103|221:233,1,179.999994506836,8|8,0:0|0:0,0:0:0:0:
322,237,151091,6,0,P|293:275|285:334,1,89.9999972534181,12|12,0:0|0:0,0:0:0:0:
188,366,151519,2,0,P|181:338|171:307,3,44.999998626709,0|0|8|8,1:0|1:0|2:3|2:3,0:0:0:0:
91,298,151948,1,8,2:3:0:0:
70,289,152055,1,8,2:3:0:0:
62,267,152162,1,0,1:2:0:0:
66,245,152269,1,0,1:2:0:0:
80,227,152376,2,0,P|115:218|150:206,3,44.999998626709,8|8|8|8,2:3|2:3|2:3|2:3,0:0:0:0:
152,191,152805,6,0,B|123:159|123:159|148:89,1,104.999996795654,4|0,0:0|1:2,0:0:0:0:
184,3,153234,2,0,B|239:36|239:36|250:64|250:64|344:103,1,157.499995193482,10|2,0:0|0:0,0:0:0:0:
308,88,153662,1,10,0:0:0:0:
378,10,153876,2,0,B|329:45|329:45|354:133|354:133|414:143,1,209.999993591309,2|2,1:2|1:2,0:0:0:0:
495,205,154519,5,10,0:0:0:0:
399,248,154734,2,0,B|415:283|415:283|387:351,1,104.999996795654,0|10,1:2|0:0,0:0:0:0:
288,370,155162,2,0,L|217:353,2,52.4999983978272,0|2|10,1:2|0:0|0:0,0:0:0:0:
292,272,155591,1,2,1:2:0:0:
292,272,155698,1,0,1:0:0:0:
292,272,155805,2,0,B|276:237|276:237|304:169,1,104.999996795654,8|2,0:0|1:2,0:0:0:0:
334,75,156234,6,0,L|182:119,1,157.499995193482,14|0,0:0|0:0,0:0:0:0:
194,152,156662,2,0,B|164:174|164:174|83:152,1,104.999996795654,2|0,1:2|0:0,0:0:0:0:
39,69,157091,6,0,P|55:129|72:282,2,209.999993591309,10|0|12,0:0|1:2|0:0,0:0:0:0:
128,14,158162,2,0,P|218:26|199:129,1,209.999993591309,12|12,0:0|0:0,0:0:0:0:
102,162,158805,6,0,B|187:124|248:198|192:206|261:283|359:251,1,300,12|12,0:0|0:0,0:0:0:0:
93,333,170250,6,0,L|75:278,4,37.5,8|0|2|8|8,2:3|1:2|1:3|1:3|1:3,0:0:0:0:
40,160,170956,6,0,B|57:200|57:200|160:217,1,134.999995880127,14|8,0:0|0:0,0:0:0:0:
147,214,171309,1,0,1:0:0:0:
198,308,171485,1,8,0:0:0:0:
258,218,171662,2,0,L|239:128,1,89.9999972534181,10|8,0:0|0:0,0:0:0:0:
236,96,171926,1,8,0:0:0:0:
236,96,172014,2,0,B|268:78|268:78|289:16,1,89.9999972534181,2|8,1:2|0:0,0:0:0:0:
413,13,172367,2,0,B|381:31|381:31|360:93,1,89.9999972534181,14|8,0:0|0:0,0:0:0:0:
363,81,172632,1,8,0:0:0:0:
363,81,172720,1,0,1:0:0:0:
508,240,173073,6,0,B|468:217|468:217|366:244,1,134.999995880127,10|8,0:0|0:0,0:0:0:0:
349,248,173426,2,0,L|324:356,1,89.9999972534181,2|8,1:2|2:3,0:0:0:0:
224,361,173779,2,0,L|243:273,1,89.9999972534181,14|8,0:0|0:0,0:0:0:0:
175,188,174132,1,2,1:2:0:0:
287,169,174309,1,8,0:0:0:0:
287,169,174397,1,8,0:0:0:0:
287,169,174485,2,0,B|302:108|302:108|316:101|316:101|336:23,1,134.999995880127,10|8,0:0|0:0,0:0:0:0:
339,18,174838,2,0,B|368:29|368:29|437:17,1,89.9999972534181,2|8,1:2|0:0,0:0:0:0:
234,48,175191,6,0,B|193:34|193:34|57:54,1,179.999994506836,14|0,0:0|1:0,0:0:0:0:
22,160,175720,1,10,0:0:0:0:
22,160,175809,1,10,0:0:0:0:
22,160,175897,2,0,L|125:144,1,89.9999972534181,10|8,0:0|0:0,0:0:0:0:
219,139,176250,2,0,L|206:199,3,44.999998626709,8|8|8|8,2:3|2:3|2:3|2:3,0:0:0:0:
200,218,176603,6,0,B|252:233|252:233|245:270|245:270|270:372,1,179.999994506836,14|0,0:0|1:0,0:0:0:0:
380,379,177132,1,10,0:0:0:0:
380,379,177220,1,10,0:0:0:0:
380,379,177309,2,0,B|402:353|402:353|468:338,1,89.9999972534181,10|8,0:0|0:0,0:0:0:0:
483,221,177662,2,0,B|461:247|461:247|395:262,1,89.9999972534181,2|8,1:2|0:0,0:0:0:0:
371,268,177926,1,8,0:0:0:0:
371,268,178014,6,0,B|385:197|385:197|360:172|360:172|380:84,1,179.999994506836,14|0,0:0|1:0,0:0:0:0:
186,0,178720,2,0,L|166:87,1,89.9999972534181,6|8,1:2|0:0,0:0:0:0:
143,193,179073,2,0,L|211:183,3,44.999998626709,6|0|8|8,1:2|1:0|2:3|2:3,0:0:0:0:
228,184,179426,6,0,B|221:228|221:228|273:274,1,104.999996795654,14|0,0:0|1:2,0:0:0:0:
338,344,179779,1,8,0:0:0:0:
422,279,179956,1,0,1:2:0:0:
422,279,180044,1,8,0:0:0:0:
422,279,180132,2,0,L|430:210,3,52.4999983978272,10|8|0|8,0:0|0:0|1:2|0:0,0:0:0:0:
462,206,180485,2,0,L|470:137,3,52.4999983978272,10|8|0|8,0:0|0:0|1:2|0:0,0:0:0:0:
439,127,180838,6,0,B|401:109|401:109|382:30,1,104.999996795654,10|0,0:0|1:2,0:0:0:0:
239,0,181191,2,0,B|277:18|277:18|296:97,1,104.999996795654,10|0,0:0|1:2,0:0:0:0:
234,167,181544,2,0,L|162:158,3,52.4999983978272,10|8|0|8,0:0|0:0|1:2|0:0,0:0:0:0:
149,189,181897,2,0,L|77:180,3,52.4999983978272,8|8|0|8,0:0|0:0|1:2|0:0,0:0:0:0:
62,149,182250,6,0,B|73:204|73:204|55:229|55:229|69:322,1,179.999994506836,14|0,0:0|1:2,0:0:0:0:
196,382,182779,1,8,0:0:0:0:
196,382,182867,1,8,0:0:0:0:
196,382,182956,2,0,B|176:361|176:361|166:295,1,89.9999972534181,10|8,0:0|0:0,0:0:0:0:
201,271,183220,1,8,0:0:0:0:
201,271,183309,2,0,B|222:291|222:291|301:301,1,89.9999972534181,0|0,1:0|0:0,0:0:0:0:
390,328,183662,6,0,B|436:307|436:307|458:216,1,134.999995880127,10|8,0:0|0:0,0:0:0:0:
455,224,184014,1,0,1:2:0:0:
377,153,184191,1,8,0:0:0:0:
451,72,184367,2,0,B|440:52|440:52|338:35,1,89.9999972534181,6|8,1:2|0:0,0:0:0:0:
340,58,184632,1,8,0:0:0:0:
340,58,184720,2,0,B|273:46|273:46|262:26,1,89.9999972534181,10|8,0:0|2:3,0:0:0:0:
156,4,185073,6,0,L|135:113,1,89.9999972534181,14|8,0:0|0:0,0:0:0:0:
13,189,185426,2,0,L|31:101,1,89.9999972534181,0|8,3:2|0:0,0:0:0:0:
202,159,185779,2,0,B|179:181|179:181|104:192,1,89.9999972534181,10|8,3:2|0:0,0:0:0:0:
19,312,186132,2,0,B|42:290|42:290|99:281,1,89.9999972534181,2|8,3:2|0:0,0:0:0:0:
168,384,186485,6,0,B|182:331|182:331|197:324|197:324|215:263,1,134.999995880127,10|8,3:2|0:0,0:0:0:0:
215,263,186838,1,0,1:2:0:0:
297,332,187014,1,10,0:0:0:0:
367,249,187191,2,0,L|391:159,1,89.9999972534181,6|8,1:2|0:0,0:0:0:0:
483,107,187544,2,0,B|471:100|471:100|456:47,3,44.999998626709,2|0|0|0,1:2|1:2|1:2|1:2,0:0:0:0:
450,35,187897,6,0,B|422:64|422:64|296:80,1,134.999995880127,14|8,3:2|0:0,0:0:0:0:
328,75,188250,1,0,1:2:0:0:
241,10,188426,1,10,0:0:0:0:
169,91,188603,2,0,B|153:159|153:159|177:186|177:186|156:288,1,179.999994506836,10|2,0:0|1:2,0:0:0:0:
68,305,189132,1,8,0:0:0:0:
68,305,189220,1,8,0:0:0:0:
68,305,189309,6,0,B|55:278|55:278|69:208,1,89.9999972534181,10|8,3:2|0:0,0:0:0:0:
42,196,189573,2,0,B|15:163|15:163|30:149|30:149|52:66,1,134.999995880127,8|8,0:0|0:0,0:0:0:0:
149,119,190014,2,0,B|209:103|209:103|225:77|225:77|338:53,1,179.999994506836,0|0,1:2|1:2,0:0:0:0:
423,39,190544,1,8,0:0:0:0:
423,39,190632,1,8,0:0:0:0:
423,39,190720,6,0,B|414:89|414:89|417:94|417:94|411:98|411:98|402:152,1,104.999996795654,14|0,3:2|1:2,0:0:0:0:
425,170,190985,2,0,B|384:177|384:177|380:182|380:182|375:180|375:180|323:191,1,104.999996795654,8|8,0:0|0:0,0:0:0:0:
284,201,191250,1,0,1:2:0:0:
273,305,191426,2,0,B|314:298|314:298|318:293|318:293|323:295|323:295|375:284,1,104.999996795654,10|0,0:0|1:2,0:0:0:0:
373,284,191691,2,0,L|361:347,1,52.4999983978272,8|10,0:0|0:0,0:0:0:0:
471,373,191956,1,0,1:2:0:0:
471,373,192044,1,8,0:0:0:0:
471,373,192132,6,0,B|478:328|478:328|480:323|480:323|480:316|480:316|489:261,1,104.999996795654,10|0,0:0|1:2,0:0:0:0:
467,241,192397,2,0,B|434:214|434:214|445:142,1,104.999996795654,8|8,0:0|0:0,0:0:0:0:
451,116,192661,1,0,1:2:0:0:
360,61,192838,2,0,B|364:68|364:68|355:121,3,52.4999983978272,10|8|0|8,0:0|0:0|1:2|0:0,0:0:0:0:
318,134,193191,2,0,B|310:177|310:177|314:184,3,52.4999983978272,8|8|0|8,0:0|0:0|1:2|0:0,0:0:0:0:
335,216,193544,6,0,B|294:221|294:221|287:226|287:226|282:221|282:221|204:231,1,104.999996795654,12|0,3:2|1:2,0:0:0:0:
195,230,193809,2,0,B|157:253|157:253|187:115,1,157.499995193482,8|0,0:0|1:2,0:0:0:0:
205,43,194250,2,0,B|156:48|156:48|152:44|152:44|145:49|145:49|104:54,1,104.999996795654,8|0,0:0|1:2,0:0:0:0:
104,54,194514,2,0,L|115:2,1,52.4999983978272,8|8,0:0|0:0,0:0:0:0:
19,111,194779,1,0,1:2:0:0:
19,111,194867,1,0,1:0:0:0:
19,111,194956,6,0,B|50:142|50:142|33:225,1,104.999996795654,8|0,3:2|1:2,0:0:0:0:
150,330,195309,2,0,B|119:299|119:299|132:240,1,104.999996795654,8|0,0:0|1:2,0:0:0:0:
19,302,195661,2,0,B|69:312|69:312|80:303|80:303|246:268,1,209.999993591309,8|8,0:0|0:0,0:0:0:0:
338,270,196191,1,8,0:0:0:0:
338,270,196279,1,8,0:0:0:0:
338,270,196367,6,0,B|315:292|315:292|320:305|320:305|308:369,1,104.999996795654,12|0,3:2|1:2,0:0:0:0:
309,363,196632,2,0,B|397:349|397:349|410:330|410:330|469:322,1,157.499995193482,8|0,0:0|1:2,0:0:0:0:
430,221,197073,2,0,B|453:199|453:199|448:186|448:186|460:122,1,104.999996795654,8|0,0:0|1:2,0:0:0:0:
464,94,197338,2,0,B|481:106|481:106|532:112,1,52.4999983978272,8|8,0:0|0:0,0:0:0:0:
374,73,197603,1,0,1:2:0:0:
374,73,197691,1,8,0:0:0:0:
374,73,197779,6,0,B|285:54|285:54|276:40|276:40|215:26,1,157.499995193482,8|8,3:2|0:0,0:0:0:0:
227,28,198132,1,8,0:0:0:0:
163,113,198309,1,0,1:2:0:0:
163,113,198397,1,8,0:0:0:0:
163,113,198485,2,0,B|169:123|169:123|221:133,3,52.4999983978272,8|8|0|8,0:0|0:0|1:2|0:0,0:0:0:0:
233,160,198838,2,0,B|225:200|225:200|215:206,3,52.4999983978272,8|8|0|8,0:0|0:0|1:2|0:0,0:0:0:0:
187,233,199191,6,0,P|313:240|325:379,1,281.250010728836,12|0,0:0|0:0,0:0:0:0:
330,371,201037,6,0,B|430:357|379:311|489:298,2,168.750006437302,14|14|14,0:0|0:0|0:0,0:0:0:0:
355,221,202983,6,0,P|360:193|373:167,2,56.2500021457673,0|8|8,1:2|2:3|2:3,0:0:0:0:
295,288,203688,2,0,P|266:286|239:279,1,56.2500021457673,0|8,1:2|2:3,0:0:0:0:
161,238,204165,1,0,1:2:0:0:
161,238,204493,6,0,B|165:155|97:183|119:84,1,150,14|8,0:0|0:0,0:0:0:0:
175,28,205260,2,0,P|135:21|86:5,2,75,0|2|8,1:2|3:2|0:0,0:0:0:0:
219,113,206061,1,8,0:0:0:0:
219,113,206328,2,0,P|254:102|291:96,1,75,0|8,0:0|0:0,0:0:0:0:
374,50,206862,6,0,P|436:83|422:161,1,150,0|8,1:2|0:0,0:0:0:0:
355,219,207663,1,12,0:0:0:0:
355,219,208464,6,0,L|371:295,1,75,12|0,0:0|0:0,0:0:0:0:
256,192,208998,1,12,0:0:0:0:
256,192,209132,12,0,212737,0:0:0:0:
