osu file format v14

[General]
AudioFilename: audio.mp3
AudioLeadIn: 0
PreviewTime: 145841
Countdown: 0
SampleSet: Soft
StackLeniency: 0.7
Mode: 0
LetterboxInBreaks: 0
WidescreenStoryboard: 1

[Editor]
DistanceSpacing: 1
BeatDivisor: 4
GridSize: 32
TimelineZoom: 2.299999

[Metadata]
Title:Redneck Vikings from Hell
TitleUnicode:Redneck Vikings from Hell
Artist:Aether Realm
ArtistUnicode:Æther Realm
Creator:pw384
Version:Extra
Source:
Tags:featured artist fa osu!fa mappers' guild mappersguild mpg english power melodic death symphonic folk metal yugu garden bellicose
BeatmapID:3311275
BeatmapSetID:1621848

[Difficulty]
HPDrainRate:6
CircleSize:3.8
OverallDifficulty:8.7
ApproachRate:9
SliderMultiplier:3
SliderTickRate:1

[Events]
//Background and Video events
0,0,"bg1.jpg",0,0
//Break Periods
2,27862,33491
2,146576,147234
2,159862,164709
//Storyboard Layer 0 (Background)
//Storyboard Layer 1 (Fail)
//Storyboard Layer 2 (Pass)
//Storyboard Layer 3 (Foreground)
//Storyboard Layer 4 (Overlay)
//Storyboard Sound Samples

[TimingPoints]
234,428.571428571429,4,2,1,50,1,0
234,-100,4,2,1,50,0,1
341,-100,4,2,1,50,0,0
1519,-83.3333333333333,4,2,1,50,0,0
1948,-100,4,2,1,50,0,0
2591,-133.333333333333,4,2,1,50,0,0
2805,-100,4,2,1,50,0,0
3019,-83.3333333333333,4,2,1,50,0,0
3662,-100,4,2,1,50,0,0
5591,-83.3333333333333,4,2,1,50,0,0
6019,-100,4,2,1,50,0,0
6234,-100,4,2,1,50,0,0
7091,-100,4,2,1,50,0,0
10091,-83.3333333333333,4,2,1,50,0,0
10519,-83.3333333333333,4,2,1,50,0,0
13091,-83.3333333333333,4,2,1,50,0,0
13948,-83.3333333333333,4,2,2,60,0,1
14055,-83.3333333333333,4,2,2,60,0,0
14162,-83.3333333333333,4,2,2,60,0,0
14805,-83.3333333333333,4,2,2,60,0,0
15019,-83.3333333333333,4,2,2,60,0,0
15662,-83.3333333333333,4,2,2,60,0,0
15876,-83.3333333333333,4,2,2,60,0,0
16519,-83.3333333333333,4,2,2,60,0,0
16734,-100,4,2,2,60,0,0
16948,-83.3333333333333,4,2,2,60,0,0
17376,-83.3333333333333,4,2,2,60,0,0
17591,-83.3333333333333,4,2,2,60,0,0
18234,-83.3333333333333,4,2,2,60,0,0
18448,-83.3333333333333,4,2,2,60,0,0
19091,-83.3333333333333,4,2,2,60,0,0
19305,-83.3333333333333,4,2,2,60,0,0
20805,-83.3333333333333,4,2,2,60,0,0
21126,-83.3333333333333,4,2,2,60,0,0
21662,-83.3333333333333,4,2,2,60,0,0
21984,-133.333333333333,4,2,2,60,0,0
22091,-83.3333333333333,4,2,2,60,0,0
22519,-83.3333333333333,4,2,2,60,0,0
22734,-83.3333333333333,4,2,2,60,0,0
23376,-83.3333333333333,4,2,2,60,0,0
24234,-83.3333333333333,4,2,2,60,0,0
24448,-83.3333333333333,4,2,2,60,0,0
25091,-83.3333333333333,4,2,2,60,0,0
25519,-83.3333333333333,4,2,2,60,0,0
26805,-111.111111111111,4,2,2,60,0,0
27662,-200,4,2,1,40,0,0
37519,-100,4,2,1,60,0,0
37948,-100,4,2,1,60,0,0
38805,-100,4,2,1,60,0,0
39019,-100,4,2,1,60,0,0
39662,-125,4,2,2,60,0,0
40948,-55.5555555555556,4,2,2,60,0,1
41055,-100,4,2,2,60,0,0
41376,-100,4,2,2,60,0,0
48234,-125,4,2,2,60,0,0
51019,-100,4,2,2,60,0,0
51448,-83.3333333333333,4,2,2,60,0,0
53591,-83.3333333333333,4,2,2,60,0,0
54234,-83.3333333333333,4,2,2,60,0,0
55091,-83.3333333333333,4,2,2,60,0,1
55198,-83.3333333333333,4,2,2,60,0,1
57876,-125,4,2,2,60,0,1
58091,-83.3333333333333,4,2,2,60,0,1
65269,-83.3333333333333,4,2,2,60,0,0
65376,-74.0740740740741,4,2,2,60,0,1
65484,-83.3333333333333,4,2,2,60,0,0
66341,-222.222222222222,4,2,77,60,0,0
67091,-74.0740740740741,4,2,2,60,0,1
67198,-83.3333333333333,4,2,2,60,0,0
67948,-166.666666666667,4,2,78,60,0,0
68269,-166.666666666667,4,2,78,60,0,0
68805,-200,4,2,2,60,0,1
69448,-83.3333333333333,4,2,2,60,0,0
69662,-200,4,2,2,60,0,1
70305,-133.333333333333,4,2,2,60,0,0
70519,-133.333333333333,4,2,2,50,0,1
70626,-133.333333333333,4,2,2,50,0,0
73519,-83.3333333333333,4,2,2,50,0,0
73948,-83.3333333333333,4,2,2,70,0,1
74055,-83.3333333333333,4,2,2,70,0,0
74376,-74.0740740740741,4,2,2,70,0,0
74591,-83.3333333333333,4,2,2,70,0,0
75234,-74.0740740740741,4,2,2,70,0,0
75448,-83.3333333333333,4,2,2,70,0,0
77805,-74.0740740740741,4,2,2,70,0,0
78019,-83.3333333333333,4,2,2,70,0,0
78662,-83.3333333333333,4,2,2,70,0,0
79091,-83.3333333333333,4,2,2,70,0,0
79305,-83.3333333333333,4,2,2,70,0,0
80805,-100,4,2,2,70,0,0
84234,-83.3333333333333,4,2,2,70,0,0
85091,-74.0740740740741,4,2,2,70,0,1
85198,-74.0740740740741,4,2,2,70,0,0
85519,-74.0740740740741,4,2,2,70,0,1
85626,-74.0740740740741,4,2,2,70,0,0
85948,-74.0740740740741,4,2,2,70,0,1
86055,-74.0740740740741,4,2,2,70,0,0
86162,-100,4,2,2,70,0,1
86269,-100,4,2,2,70,0,0
86805,-125,4,2,2,60,0,1
87019,-125,4,2,2,60,0,0
87126,-125,4,2,2,60,0,1
87341,-125,4,2,2,60,0,0
87448,-200,4,2,2,60,0,1
87555,-200,4,2,2,60,0,0
88948,-153.846153846154,4,2,2,60,0,0
93662,-125,4,2,2,60,0,0
93984,-125,4,2,2,60,0,0
94305,-200,4,2,2,60,0,0
95805,-153.846153846154,4,2,2,60,0,0
100519,-125,4,2,2,60,0,0
101162,-125,4,2,2,60,0,0
107376,-125,4,2,2,60,0,0
107698,-125,4,2,2,60,0,0
108019,-125,4,2,2,60,0,0
108662,-100,4,2,2,60,0,0
111448,-125,4,2,2,60,0,0
112091,-100,4,2,2,60,0,0
113162,-100,4,2,2,60,0,0
113376,-100,4,2,3,60,0,0
113591,-133.333333333333,4,2,3,60,0,0
113805,-100,4,2,3,60,0,0
115091,-133.333333333333,4,2,3,70,0,1
116376,-83.3333333333333,4,2,3,70,0,1
116805,-133.333333333333,4,2,3,70,0,1
117126,-83.3333333333333,4,2,3,70,0,1
117448,-83.3333333333333,4,2,3,70,0,1
118091,-100,4,2,3,70,0,1
119698,-100,4,2,3,70,0,1
120019,-100,4,2,3,70,0,1
121734,-100,4,2,3,70,0,0
121948,-133.333333333333,4,2,3,60,0,0
123662,-133.333333333333,4,2,3,60,0,0
125376,-100,4,2,3,60,0,0
128805,-100,4,2,4,60,0,0
132234,-83.3333333333333,4,2,4,60,0,1
132662,-100,4,2,4,60,0,1
133948,-83.3333333333333,4,2,4,60,0,1
134376,-100,4,2,4,60,0,1
134805,-100,4,2,4,60,0,1
135126,-100,4,2,4,60,0,1
135662,-100,4,2,4,60,0,0
139091,-83.3333333333333,4,2,4,60,0,1
139305,-83.3333333333333,4,2,4,60,0,1
139948,-83.3333333333333,4,2,4,60,0,1
140376,-83.3333333333333,4,2,4,60,0,1
140805,-83.3333333333333,4,2,4,60,0,1
141662,-83.3333333333333,4,2,4,60,0,1
142519,-133.333333333333,4,2,4,60,0,1
143376,-83.3333333333333,4,2,4,60,0,1
145841,-83.3333333333333,4,2,4,60,0,0
145948,-125,4,2,2,60,0,1
146376,-125,4,2,2,60,0,0
148948,-133.333333333333,4,2,2,70,0,1
149055,-83.3333333333333,4,2,2,70,0,0
149376,-83.3333333333333,4,2,2,70,0,1
149484,-83.3333333333333,4,2,2,70,0,0
149805,-74.0740740740741,4,2,2,70,0,0
150234,-83.3333333333333,4,2,2,70,0,0
150662,-74.0740740740741,4,2,2,70,0,0
151091,-83.3333333333333,4,2,2,70,0,0
151305,-83.3333333333333,4,2,2,70,0,0
151734,-83.3333333333333,4,2,2,70,0,0
152805,-83.3333333333333,4,2,2,70,0,0
153662,-100,4,2,2,70,0,0
156234,-83.3333333333333,4,2,2,70,0,0
157091,-74.0740740740741,4,2,2,70,0,1
157198,-74.0740740740741,4,2,2,70,0,0
157519,-74.0740740740741,4,2,2,70,0,1
157626,-74.0740740740741,4,2,2,70,0,0
157948,-74.0740740740741,4,2,2,70,0,1
158055,-74.0740740740741,4,2,2,70,0,0
158162,-74.0740740740741,4,2,2,70,0,1
158269,-74.0740740740741,4,2,2,70,0,0
158591,-74.0740740740741,4,2,2,70,0,1
158698,-74.0740740740741,4,2,2,70,0,0
158805,-62.5,4,2,2,70,0,1
159662,352.941176470588,4,2,5,40,1,0
159662,-133.333333333333,4,2,5,40,0,0
165309,-200,4,2,5,40,0,0
167603,-166.666666666667,4,2,5,30,0,0
167956,-166.666666666667,4,2,5,40,0,0
168485,-166.666666666667,4,2,5,50,0,0
168838,-166.666666666667,4,2,5,60,0,0
169191,-166.666666666667,4,2,5,65,0,0
170250,-133.333333333333,4,2,5,70,0,1
170603,-133.333333333333,4,2,5,70,0,0
170956,-133.333333333333,4,2,2,70,0,1
199191,461.538461538462,4,2,2,70,1,0
199191,-200,4,2,2,70,0,0
201037,432.692328494823,4,2,2,70,1,0
201037,-200,4,2,2,70,0,1
201145,-200,4,2,2,70,0,0
201686,-200,4,2,2,70,0,1
201794,-200,4,2,2,70,0,0
202335,-200,4,2,2,70,0,1
202443,-200,4,2,2,70,0,0
202983,480,4,2,2,60,1,0
202983,-133.333333333333,4,2,2,60,0,0
203463,-133.333333333333,4,2,2,60,0,0
203688,521.739130434783,4,2,2,50,1,0
203688,-133.333333333333,4,2,2,50,0,0
204165,470.588235294118,4,2,2,50,1,0
204165,-133.333333333333,4,2,2,50,0,0
204493,500,4,2,2,70,1,0
204493,-266.666666666667,4,2,2,70,0,1
204993,534.124629095968,4,2,2,70,1,1
205260,534.124630665058,4,2,2,70,1,1
205260,-222.222222222222,4,2,2,70,0,1
206595,-200,4,2,2,70,0,1
207396,-133.333333333333,4,2,2,70,0,0
207663,-133.333333333333,4,2,2,70,0,1
207930,-133.333333333333,4,2,2,70,0,0
208464,-133.333333333333,4,2,2,70,0,1
208731,-133.333333333333,4,2,2,70,0,0
208998,-107.52688172043,4,2,2,70,0,1
212737,-100,4,2,2,5,0,0

[Colours]
Combo1 : 106,106,106
Combo2 : 207,187,118
Combo3 : 170,105,74
Combo4 : 120,89,54
Combo5 : 212,212,212
Combo6 : 177,35,38
Combo7 : 35,35,177

[HitObjects]
109,172,234,6,0,P|257:192|405:217,1,300,12|0,0:0|0:0,0:0:0:0:
184,159,1519,2,0,P|199:58|86:101,1,269.999991760254,12|0,0:0|0:0,0:0:0:0:
109,172,1948,6,0,P|257:192|405:217,1,300,12|0,0:0|0:0,0:0:0:0:
114,307,2591,6,0,P|116:283|114:257,2,37.5000014305115,8|8|8,2:3|2:3|2:3,0:0:0:0:
29,244,2805,2,0,P|66:244|103:248,1,75,8|0,2:3|0:0,0:0:0:0:
184,159,3019,2,0,P|199:58|86:101,1,269.999991760254,0|0,1:2|0:0,0:0:0:0:
109,172,3448,1,12,0:0:0:0:
109,172,3662,70,0,P|257:192|405:217,1,300,12|0,0:0|0:0,0:0:0:0:
109,172,4519,6,0,P|257:192|405:217,1,300,12|0,0:0|0:0,0:0:0:0:
28,244,5376,6,0,P|66:244|103:248,1,75,12|0,0:0|0:0,0:0:0:0:
184,158,5591,2,0,P|185:46|86:99,1,269.999991760254,12|0,0:0|0:0,0:0:0:0:
28,244,6019,2,0,P|65:243|103:248,1,75,12|0,0:0|0:0,0:0:0:0:
109,172,6234,70,0,P|257:192|405:217,1,300,12|0,0:0|0:0,0:0:0:0:
256,46,7091,5,10,0:0:0:0:
262,58,7948,5,14,0:0:0:0:
268,70,8805,69,14,0:0:0:0:
274,82,9662,5,14,0:0:0:0:
280,94,10091,38,0,P|274:134|265:203,1,89.9999972534181,0|0,1:2|1:2,0:0:0:0:
255,334,10305,2,0,P|291:309|301:266,1,89.9999972534181,0|0,1:2|1:2,0:0:0:0:
274,82,10519,21,14,0:0:0:0:
268,70,10948,53,12,0:0:0:0:
262,58,11376,37,14,0:0:0:0:
256,46,11805,53,12,0:0:0:0:
193,186,12019,1,0,0:0:0:0:
364,278,12234,54,0,P|385:239|379:193,1,89.9999972534181,10|0,0:0|0:0,0:0:0:0:
287,115,12448,2,0,P|271:249|256:384,1,269.999991760254,14|0,0:0|0:0,0:0:0:0:
148,278,12876,2,0,P|127:239|133:193,1,89.9999972534181,14|0,0:0|0:0,0:0:0:0:
256,46,13091,5,14,0:0:0:0:
256,46,13305,1,0,1:2:0:0:
256,46,13519,5,0,1:2:0:0:
232,132,13626,1,0,1:2:0:0:
318,156,13734,1,0,1:2:0:0:
342,70,13841,1,0,1:2:0:0:
256,46,13948,22,0,P|250:86|241:155,1,89.9999972534181,14|0,3:2|0:0,0:0:0:0:
148,278,14163,2,0,P|127:239|133:193,1,89.9999972534181,0|0,1:2|0:0,0:0:0:0:
162,88,14376,5,10,0:0:0:0:
148,59,14483,1,2,0:0:0:0:
121,41,14590,1,2,1:2:0:0:
89,39,14697,1,2,0:0:0:0:
59,53,14805,86,0,P|103:51|148:44,1,89.9999972534181,10|0,0:0|0:0,0:0:0:0:
246,153,15019,2,0,P|201:154|156:161,1,89.9999972534181,2|0,1:2|0:0,0:0:0:0:
73,250,15234,5,10,0:0:0:0:
49,336,15341,1,2,0:0:0:0:
135,360,15449,1,2,1:2:0:0:
159,274,15556,1,2,0:0:0:0:
73,250,15662,70,0,P|150:260|263:277,1,179.999994506836,10|0,0:0|1:2,0:0:0:0:
251,275,16091,6,0,P|270:226|263:179,1,89.9999972534181,10|2,0:0|0:0,0:0:0:0:
211,135,16305,2,0,P|218:85|227:22,1,89.9999972534181,2|2,1:2|0:0,0:0:0:0:
292,8,16519,85,10,0:0:0:0:
441,117,16734,2,0,P|416:109|392:99,3,37.5,8|8|8|0,2:3|2:3|2:3|0:0,0:0:0:0:
381,90,16948,21,8,2:3:0:0:
381,90,17055,1,8,2:3:0:0:
310,130,17162,2,0,P|300:165|309:219,1,89.9999972534181,8|8,2:3|2:3,0:0:0:0:
260,275,17377,70,0,P|349:261|439:250,1,179.999994506836,14|0,0:0|1:2,0:0:0:0:
439,250,17805,5,10,0:0:0:0:
353,274,17912,1,2,0:0:0:0:
377,360,18019,1,2,1:2:0:0:
463,336,18126,1,2,0:0:0:0:
439,250,18234,6,0,P|442:204|454:155,1,89.9999972534181,10|0,0:0|0:0,0:0:0:0:
365,50,18448,2,0,P|333:89|341:155,1,89.9999972534181,2|0,1:2|0:0,0:0:0:0:
353,274,18662,85,10,0:0:0:0:
323,288,18770,1,2,0:0:0:0:
291,286,18877,1,2,1:2:0:0:
264,268,18984,1,2,0:0:0:0:
250,239,19091,6,0,P|242:196|227:134,1,89.9999972534181,10|0,0:0|0:0,0:0:0:0:
77,174,19305,2,0,P|115:203|156:197,1,89.9999972534181,2|2,1:2|0:0,0:0:0:0:
256,46,19519,85,10,0:0:0:0:
256,46,19626,1,2,0:0:0:0:
256,46,19734,1,2,1:2:0:0:
256,46,19841,1,2,0:0:0:0:
256,46,19948,38,0,P|262:86|271:155,1,89.9999972534181,2|0,1:2|1:2,0:0:0:0:
364,278,20163,2,0,P|385:239|379:193,1,89.9999972534181,2|2,1:2|1:2,0:0:0:0:
248,300,20376,5,10,0:0:0:0:
194,310,20484,1,10,0:0:0:0:
140,320,20591,1,10,0:0:0:0:
86,330,20698,1,10,0:0:0:0:
32,340,20805,6,0,P|40:247|53:147,1,179.999994506836,14|0,3:2|0:0,0:0:0:0:
39,8,21126,1,2,0:0:0:0:
27,17,21234,70,0,P|1:52|1:102,1,89.9999972534181,2|0,1:2|0:0,0:0:0:0:
118,218,21448,2,0,P|157:208|217:199,1,89.9999972534181,2|0,0:0|0:0,0:0:0:0:
460,40,21662,6,0,P|402:57|263:85,1,179.999994506836,10|2,0:0|0:0,0:0:0:0:
218,125,21984,1,10,0:0:0:0:
142,130,22091,2,0,P|153:45|234:17,1,179.999994506836,0|2,1:2|0:0,0:0:0:0:
245,326,22519,6,0,P|303:309|442:281,1,179.999994506836,10|0,0:0|0:0,0:0:0:0:
353,166,22841,1,2,0:0:0:0:
339,178,22948,2,0,P|321:208|325:269,1,89.9999972534181,2|0,1:2|0:0,0:0:0:0:
480,340,23162,2,0,P|498:310|494:249,1,89.9999972534181,2|0,0:0|0:0,0:0:0:0:
429,80,23376,21,14,0:0:0:0:
429,80,23805,1,2,1:2:0:0:
480,340,24234,38,0,P|472:247|459:147,1,179.999994506836,14|0,3:2|0:0,0:0:0:0:
473,8,24555,1,2,0:0:0:0:
485,17,24663,6,0,P|511:52|511:102,1,89.9999972534181,2|0,1:2|0:0,0:0:0:0:
394,218,24877,2,0,P|355:208|295:199,1,89.9999972534181,2|0,0:0|0:0,0:0:0:0:
52,40,25091,6,0,P|110:57|249:85,1,179.999994506836,10|2,0:0|0:0,0:0:0:0:
360,117,25412,1,2,0:0:0:0:
369,130,25520,2,0,P|358:45|277:17,1,179.999994506836,2|2,1:2|0:0,0:0:0:0:
93,351,25948,70,0,P|225:326|359:305,1,269.999991760254,14|2,3:2|1:2,0:0:0:0:
419,351,26376,1,2,1:2:0:0:
256,97,26591,1,2,1:2:0:0:
93,351,26805,6,0,P|225:326|359:305,1,269.999991760254,2|0,1:2|0:0,0:0:0:0:
419,351,27662,5,12,0:0:0:0:
37,192,34091,5,0,1:2:0:0:
37,192,34198,1,0,1:2:0:0:
37,192,34305,1,0,1:2:0:0:
37,192,34412,1,0,1:2:0:0:
37,192,34519,37,6,1:2:0:0:
109,210,34734,1,2,2:3:0:0:
172,170,34948,1,8,0:0:0:0:
244,188,35162,1,2,2:3:0:0:
248,203,35269,1,2,2:3:0:0:
252,218,35376,1,8,0:0:0:0:
307,148,35591,2,0,L|313:106,2,37.5,2|2|8,2:3|2:3|0:0,0:0:0:0:
379,166,36019,2,0,L|387:216,1,37.5,2|2,2:3|2:3,0:0:0:0:
379,166,36234,53,8,0:0:0:0:
442,126,36448,1,2,2:3:0:0:
307,148,36662,1,8,0:0:0:0:
172,170,36876,1,2,2:3:0:0:
37,192,37091,1,10,0:0:0:0:
244,188,37305,2,0,L|252:238,1,37.5,2|0,2:3|0:0,0:0:0:0:
225,301,37519,5,0,1:2:0:0:
284,352,37626,1,0,1:2:0:0:
363,358,37733,1,0,1:2:0:0:
433,319,37841,1,0,1:2:0:0:
463,246,37948,38,0,P|465:196|471:165,1,75,6|0,1:2|0:0,0:0:0:0:
410,81,38162,1,0,1:2:0:0:
418,70,38269,70,0,L|415:30,2,37.5,0|0|0,1:2|1:2|1:2,0:0:0:0:
492,100,38484,37,0,1:2:0:0:
492,100,38591,1,0,1:2:0:0:
492,100,38698,1,0,1:2:0:0:
391,156,38805,6,0,P|348:156|319:133,1,75,0|0,1:2|1:2,0:0:0:0:
277,63,39019,69,8,2:0:0:0:
233,49,39126,1,8,2:0:0:0:
188,60,39234,1,8,2:0:0:0:
154,91,39341,1,8,2:3:0:0:
120,122,39448,1,8,2:3:0:0:
75,132,39555,1,8,2:3:0:0:
32,119,39662,6,0,P|48:188|59:246,1,120,14|2,0:0|2:3,0:0:0:0:
91,377,39984,2,0,P|131:335|126:277,1,120,6|0,0:0|0:0,0:0:0:0:
7,302,40305,1,6,0:0:0:0:
7,302,40519,37,6,1:2:0:0:
489,363,40948,2,0,P|497:321|505:280,1,67.4999979400635,0|0,1:2|0:0,0:0:0:0:
349,29,41376,38,0,B|313:152|396:129|351:255,1,225,14|8,3:2|0:0,0:0:0:0:
163,230,41805,2,0,P|223:175|288:192,1,150,2|8,1:2|0:0,0:0:0:0:
508,83,42126,1,10,0:0:0:0:
497,72,42234,6,0,P|466:79|416:87,1,75,10|0,0:0|0:0,0:0:0:0:
293,200,42448,2,0,P|211:186|122:174,1,150,10|0,0:0|1:2,0:0:0:0:
30,17,42876,1,10,0:0:0:0:
33,34,42984,1,8,0:0:0:0:
36,51,43091,6,0,P|31:92|24:149,1,75,10|0,0:0|0:0,0:0:0:0:
0,205,43305,2,0,P|41:200|98:193,1,75,10|8,0:0|0:0,0:0:0:0:
112,384,43519,2,0,P|85:379|48:273,1,150,2|8,1:2|0:0,0:0:0:0:
145,155,43841,1,10,0:0:0:0:
153,172,43948,70,0,P|157:209|158:247,1,75,10|0,0:0|0:0,0:0:0:0:
199,322,44162,2,0,P|123:338|35:362,2,150,10|0|14,0:0|1:2|0:0,0:0:0:0:
163,29,44805,6,0,B|199:152|116:129|161:255,1,225,14|8,3:2|0:0,0:0:0:0:
349,230,45234,2,0,P|289:175|224:192,1,150,2|8,1:2|0:0,0:0:0:0:
4,83,45555,1,10,0:0:0:0:
15,72,45663,6,0,P|46:79|96:87,1,75,10|0,0:0|0:0,0:0:0:0:
219,200,45877,2,0,P|301:186|390:174,1,150,10|0,0:0|1:2,0:0:0:0:
482,17,46305,1,2,1:2:0:0:
479,34,46413,1,2,1:2:0:0:
476,51,46520,70,0,P|481:92|488:149,1,75,10|2,0:0|0:0,0:0:0:0:
512,205,46734,2,0,P|471:200|414:193,1,75,2|2,0:0|0:0,0:0:0:0:
331,79,46948,6,0,P|336:120|343:177,1,75,0|0,1:2|1:2,0:0:0:0:
367,233,47162,2,0,P|326:228|269:221,1,75,8|8,2:3|2:3,0:0:0:0:
245,153,47376,5,8,2:3:0:0:
201,139,47483,1,8,2:3:0:0:
156,150,47591,1,0,1:2:0:0:
122,181,47698,1,0,1:2:0:0:
88,212,47805,1,8,2:3:0:0:
43,222,47912,1,8,0:0:0:0:
0,209,48019,1,8,0:0:0:0:
65,18,48234,5,14,3:2:0:0:
61,45,48341,1,2,0:0:0:0:
58,73,48448,1,2,1:2:0:0:
55,101,48555,1,2,0:0:0:0:
52,129,48662,38,0,P|55:162|60:208,1,60,10|2,0:0|0:0,0:0:0:0:
120,232,48876,2,0,P|117:265|112:311,1,60,2|2,1:2|0:0,0:0:0:0:
34,354,49091,53,10,0:0:0:0:
42,325,49198,1,2,0:0:0:0:
57,299,49305,1,2,1:2:0:0:
80,279,49412,1,2,0:0:0:0:
106,266,49519,1,10,0:0:0:0:
136,261,49626,1,2,0:0:0:0:
166,264,49733,1,2,1:2:0:0:
193,275,49840,1,2,0:0:0:0:
217,293,49948,38,0,P|218:310|224:357,1,60,10|2,0:0|0:0,0:0:0:0:
292,249,50162,1,2,1:2:0:0:
292,249,50269,1,2,0:0:0:0:
292,249,50376,54,0,P|293:231|299:184,1,60,10|2,0:0|0:0,0:0:0:0:
432,205,50591,2,0,P|406:217|367:215,1,60,2|2,1:2|0:0,0:0:0:0:
307,180,50805,37,10,0:0:0:0:
234,51,51019,2,0,P|226:120|215:212,1,150,2|0,1:2|0:0,0:0:0:0:
448,288,51448,5,0,1:2:0:0:
448,288,51555,1,0,1:2:0:0:
512,234,51662,6,0,P|515:172|341:121,1,269.999991760254,14|8,3:2|0:0,0:0:0:0:
306,193,52091,2,0,P|217:211|110:242,1,179.999994506836,2|8,1:2|0:0,0:0:0:0:
56,185,52412,1,10,0:0:0:0:
68,95,52519,6,0,P|103:100|134:141,1,89.9999972534181,10|0,0:0|0:0,0:0:0:0:
63,197,52734,2,0,P|49:262|31:380,2,179.999994506836,10|0|8,0:0|1:2|0:0,0:0:0:0:
352,32,53376,70,0,P|357:65|361:124,1,89.9999972534181,14|0,0:0|0:0,0:0:0:0:
306,193,53591,2,0,P|259:229|261:98,1,269.999991760254,14|0,0:0|0:0,0:0:0:0:
421,181,54019,6,0,P|416:214|412:273,1,89.9999972534181,14|0,0:0|0:0,0:0:0:0:
465,344,54234,2,0,B|320:391|346:299|202:346,1,269.999991760254,14|0,0:0|0:0,0:0:0:0:
119,382,54662,5,0,1:2:0:0:
119,382,54769,1,0,1:2:0:0:
119,382,54876,1,0,1:2:0:0:
119,382,54984,1,0,1:2:0:0:
68,307,55091,22,0,P|109:299|154:274,1,89.9999972534181,14|0,3:2|0:0,0:0:0:0:
198,203,55305,85,0,1:2:0:0:
205,181,55412,1,2,0:0:0:0:
199,158,55520,1,8,0:0:0:0:
184,141,55626,1,2,0:0:0:0:
179,119,55733,1,0,1:2:0:0:
186,97,55840,1,2,0:0:0:0:
230,17,55948,22,0,P|273:39|337:55,1,89.9999972534181,8|0,0:0|0:0,0:0:0:0:
418,27,56162,5,0,1:2:0:0:
409,49,56269,1,2,0:0:0:0:
402,72,56376,1,10,0:0:0:0:
396,95,56484,1,2,0:0:0:0:
391,119,56591,1,2,1:2:0:0:
386,142,56698,1,2,0:0:0:0:
448,204,56805,70,0,P|476:171|457:113,1,89.9999972534181,10|0,0:0|0:0,0:0:0:0:
308,89,57019,85,2,1:2:0:0:
308,89,57126,1,0,0:0:0:0:
224,124,57234,22,0,P|179:129|141:99,1,89.9999972534181,10|0,0:0|0:0,0:0:0:0:
80,40,57448,86,0,P|35:35|-3:65,1,89.9999972534181,2|0,1:2|0:0,0:0:0:0:
36,216,57662,6,0,P|45:171|58:128,1,89.9999972534181,10|0,0:0|0:0,0:0:0:0:
245,35,57876,22,0,L|240:6,2,30,0|0|0,1:2|0:0|1:2,0:0:0:0:
296,95,58091,5,0,1:2:0:0:
350,85,58199,1,0,1:2:0:0:
404,75,58306,1,8,2:3:0:0:
458,65,58413,1,8,2:3:0:0:
512,55,58520,38,0,P|507:99|504:144,1,89.9999972534181,14|0,0:0|0:0,0:0:0:0:
447,206,58734,85,0,1:2:0:0:
460,238,58841,1,2,0:0:0:0:
452,273,58948,1,8,0:0:0:0:
426,296,59055,1,2,0:0:0:0:
390,299,59162,1,0,1:2:0:0:
360,281,59269,1,2,0:0:0:0:
293,221,59376,22,0,P|253:200|193:200,1,89.9999972534181,8|0,0:0|0:0,0:0:0:0:
131,243,59591,5,0,1:2:0:0:
126,266,59698,1,2,0:0:0:0:
121,290,59805,1,10,0:0:0:0:
115,313,59913,1,2,0:0:0:0:
108,336,60020,1,2,1:2:0:0:
99,358,60127,1,2,0:0:0:0:
24,321,60234,70,0,P|16:274|57:242,1,89.9999972534181,10|0,0:0|0:0,0:0:0:0:
199,313,60448,85,2,1:2:0:0:
199,313,60555,1,2,0:0:0:0:
282,345,60662,37,10,0:0:0:0:
282,345,60769,1,2,0:0:0:0:
282,345,60876,1,2,1:2:0:0:
282,345,60984,1,2,0:0:0:0:
321,264,61091,6,0,P|311:212|308:160,1,89.9999972534181,10|0,0:0|1:2,0:0:0:0:
284,35,61305,2,0,P|252:66|246:110,1,89.9999972534181,8|8,0:0|0:0,0:0:0:0:
393,142,61519,5,8,0:0:0:0:
393,142,61626,1,8,0:0:0:0:
393,142,61734,1,8,2:3:0:0:
477,338,61948,54,0,P|452:316|375:307,1,89.9999972534181,14|0,0:0|0:0,0:0:0:0:
282,345,62162,5,0,1:2:0:0:
282,345,62269,1,2,0:0:0:0:
282,345,62376,1,8,0:0:0:0:
282,345,62484,1,2,0:0:0:0:
282,345,62591,1,0,1:2:0:0:
282,345,62698,1,2,0:0:0:0:
240,265,62805,70,0,P|247:221|275:185,1,89.9999972534181,8|0,0:0|0:0,0:0:0:0:
351,104,63019,85,0,1:2:0:0:
334,115,63126,22,0,P|282:104|223:96,1,89.9999972534181,0|10,0:0|0:0,0:0:0:0:
167,144,63341,5,0,0:0:0:0:
152,130,63448,70,0,P|144:88|161:46,1,89.9999972534181,2|0,1:2|0:0,0:0:0:0:
262,10,63662,6,0,P|251:62|243:121,1,89.9999972534181,10|0,0:0|0:0,0:0:0:0:
49,151,63876,69,0,1:2:0:0:
66,166,63984,6,0,P|77:218|85:277,1,89.9999972534181,2|0,0:0|0:0,0:0:0:0:
181,281,64198,21,8,0:0:0:0:
164,296,64305,86,0,P|153:348|145:407,1,89.9999972534181,2|0,1:2|0:0,0:0:0:0:
245,335,64519,5,2,1:2:0:0:
289,349,64626,1,0,1:2:0:0:
334,338,64734,1,8,2:3:0:0:
368,307,64841,1,8,2:3:0:0:
402,276,64948,1,2,1:2:0:0:
447,266,65055,1,0,1:2:0:0:
490,279,65162,1,10,0:0:0:0:
497,292,65269,1,8,2:3:0:0:
444,354,65376,70,0,P|388:340|334:331,1,101.250000386238,14|0,0:0|0:0,0:0:0:0:
344,353,66341,86,0,P|359:310|338:352,1,134.999995880127,2|2,0:0|2:3,0:0:0:0:
444,354,67091,22,0,P|388:340|334:331,1,101.250000386238,14|0,0:0|0:0,0:0:0:0:
211,376,67948,86,0,P|222:347|205:375,1,89.9999972534181,2|0,0:0|0:0,0:0:0:0:
111,295,68269,2,0,P|122:324|105:296,1,89.9999972534181,2|0,0:0|0:0,0:0:0:0:
444,354,68805,22,0,P|388:340|292:322,1,150,12|0,0:0|0:0,0:0:0:0:
211,376,69448,86,0,P|222:347|205:375,1,89.9999972534181,0|0,1:2|0:0,0:0:0:0:
297,322,69662,70,0,P|371:336|444:354,2,150,12|0|12,0:0|0:0|0:0,0:0:0:0:
123,351,70734,53,8,0:0:0:0:
119,329,70841,1,8,0:0:0:0:
115,307,70948,1,0,1:2:0:0:
229,272,71162,5,8,0:0:0:0:
225,245,71269,1,8,0:0:0:0:
220,219,71376,1,8,0:0:0:0:
360,297,71591,5,8,0:0:0:0:
355,265,71698,1,8,0:0:0:0:
349,233,71805,1,0,1:2:0:0:
460,186,72019,69,8,0:0:0:0:
454,148,72126,1,8,0:0:0:0:
447,110,72233,1,8,0:0:0:0:
289,170,72448,5,8,0:0:0:0:
282,125,72555,1,8,0:0:0:0:
274,79,72662,1,0,1:2:0:0:
123,137,72876,5,8,0:0:0:0:
114,83,72983,1,8,0:0:0:0:
105,28,73091,22,0,L|59:20,2,37.5000014305115,8|8|8,2:3|2:3|2:3,0:0:0:0:
128,39,73305,5,8,0:0:0:0:
139,37,73376,1,8,0:0:0:0:
150,35,73448,1,8,0:0:0:0:
161,33,73519,1,0,1:0:0:0:
90,356,73948,22,0,P|99:296|109:246,1,89.9999972534181,14|0,0:0|0:0,0:0:0:0:
35,100,74162,1,10,0:0:0:0:
35,100,74269,1,8,0:0:0:0:
0,188,74376,2,0,B|104:216|92:136|206:164,1,202.500000772476,2|0,1:2|0:0,0:0:0:0:
294,272,74698,1,10,0:0:0:0:
294,272,74805,6,0,P|240:282|191:291,1,89.9999972534181,10|0,0:0|0:0,0:0:0:0:
159,72,75019,2,0,P|213:82|262:91,1,89.9999972534181,10|0,0:0|0:0,0:0:0:0:
314,252,75234,6,0,P|246:265|195:160,1,202.500000772476,0|10,1:2|0:0,0:0:0:0:
327,29,75555,1,8,0:0:0:0:
415,75,75662,70,0,P|402:170|387:366,1,269.999991760254,10|8,0:0|0:0,0:0:0:0:
490,278,76091,2,0,P|502:200|415:159,1,179.999994506836,2|0,1:2|0:0,0:0:0:0:
314,252,76412,1,10,0:0:0:0:
314,252,76519,6,0,P|258:239|195:230,1,89.9999972534181,10|0,0:0|0:0,0:0:0:0:
183,18,76734,2,0,P|239:31|302:40,1,89.9999972534181,10|0,0:0|0:0,0:0:0:0:
358,15,76948,5,0,1:2:0:0:
154,286,77162,1,8,0:0:0:0:
154,286,77269,1,8,0:0:0:0:
225,233,77376,70,0,P|270:241|314:252,1,89.9999972534181,14|0,0:0|0:0,0:0:0:0:
271,36,77591,2,0,P|226:28|183:18,1,89.9999972534181,10|0,0:0|0:0,0:0:0:0:
80,255,77805,2,0,P|151:263|182:146,1,202.500000772476,2|8,1:2|0:0,0:0:0:0:
49,23,78126,1,10,0:0:0:0:
7,103,78234,6,0,P|2:153|10:214,1,89.9999972534181,10|0,0:0|0:0,0:0:0:0:
173,137,78448,2,0,P|178:87|170:26,1,89.9999972534181,10|8,0:0|0:0,0:0:0:0:
49,23,78662,1,0,1:2:0:0:
320,108,78876,1,8,1:2:0:0:
320,108,78984,1,8,0:2:0:0:
320,108,79091,6,0,P|373:107|429:95,1,89.9999972534181,14|0,0:0|0:0,0:0:0:0:
512,267,79305,2,0,P|467:259|422:259,1,89.9999972534181,14|0,0:0|0:0,0:0:0:0:
350,312,79519,69,0,1:2:0:0:
350,312,79626,1,0,1:2:0:0:
350,312,79734,1,8,2:3:0:0:
350,312,79841,1,8,2:3:0:0:
280,255,79948,6,0,P|265:193|272:158,1,89.9999972534181,8|8,2:3|2:3,0:0:0:0:
196,65,80162,5,0,1:2:0:0:
119,64,80269,1,0,1:2:0:0:
56,108,80376,1,8,2:3:0:0:
39,183,80484,1,8,0:0:0:0:
73,250,80591,2,0,P|77:295|81:355,1,89.9999972534181,8|8,0:0|0:0,0:0:0:0:
220,231,80805,5,14,0:0:0:0:
256,255,80912,1,0,0:0:0:0:
301,253,81019,1,0,1:2:0:0:
335,225,81126,1,0,0:0:0:0:
346,182,81233,1,10,0:0:0:0:
329,141,81340,1,0,0:0:0:0:
291,118,81447,1,0,1:2:0:0:
277,124,81555,1,2,0:0:0:0:
195,142,81662,37,10,0:0:0:0:
239,147,81769,1,0,0:0:0:0:
277,124,81876,1,2,1:2:0:0:
293,82,81983,1,0,0:0:0:0:
327,54,82090,1,8,0:0:0:0:
372,52,82197,1,0,0:0:0:0:
408,76,82304,1,2,1:2:0:0:
413,85,82412,1,0,0:0:0:0:
357,137,82519,54,0,P|365:173|371:210,1,75,10|0,0:0|0:0,0:0:0:0:
492,292,82734,37,0,1:2:0:0:
449,278,82841,1,0,0:0:0:0:
406,288,82948,1,10,0:0:0:0:
375,320,83055,1,0,0:0:0:0:
343,351,83162,1,0,1:2:0:0:
300,361,83269,1,2,0:0:0:0:
257,347,83376,54,0,P|210:337|166:331,1,75,10|0,0:0|0:0,0:0:0:0:
62,182,83591,1,2,1:2:0:0:
130,216,83698,1,8,0:2:0:0:
62,182,83805,38,0,P|109:192|153:198,1,75,8|0,0:0|0:0,0:0:0:0:
270,133,84019,5,2,1:2:0:0:
211,57,84126,1,2,1:2:0:0:
224,43,84234,6,0,P|314:31|403:26,1,179.999994506836,10|2,0:0|0:0,0:0:0:0:
512,186,84555,1,8,0:0:0:0:
434,230,84662,2,0,P|367:205|362:102,1,179.999994506836,2|0,1:2|0:0,0:0:0:0:
442,134,84984,1,10,0:0:0:0:
432,149,85091,38,0,B|238:184|322:100|131:132,1,303.750001158714,10|0,0:0|0:0,0:0:0:0:
87,330,85519,2,0,B|281:295|197:379|388:347,1,303.750001158714,0|0,1:2|0:0,0:0:0:0:
218,216,85948,6,0,P|179:242|183:305,1,101.250000386238,12|0,0:0|0:0,0:0:0:0:
262,373,86162,2,0,P|254:257|236:40,1,300,12|0,0:0|0:0,0:0:0:0:
280,6,86805,6,0,P|269:66|261:141,1,120,12|0,0:0|0:0,0:0:0:0:
235,139,87126,2,0,P|290:191|261:254,1,120,12|0,0:0|0:0,0:0:0:0:
229,293,87448,54,0,P|163:310|-1:363,1,225,12|0,0:0|0:0,0:0:0:0:
13,357,88948,38,0,P|-5:337|-20:317,1,48.7499977684022
13,357,89805,54,0,P|2:332|-6:308,1,48.7499977684022
13,357,90662,38,0,P|10:330|9:305,1,48.7499977684022
13,357,91519,54,0,P|18:330|25:306,1,48.7499977684022
13,357,92376,38,0,P|26:333|40:313,1,48.7499977684022
13,357,93234,54,0,P|32:339|52:323,1,48.7499977684022,2|0,2:3|0:0,0:0:0:0:
115,267,93448,6,0,L|108:229,2,32.4999985122681,8|8|8,2:3|2:3|2:3,0:0:0:0:
136,278,93662,22,0,P|195:271|254:260,1,120,12|0,0:0|0:0,0:0:0:0:
282,147,93983,2,0,P|227:199|256:262,1,120,12|0,0:0|0:0,0:0:0:0:
283,293,94305,54,0,P|349:310|513:363,1,225,12|0,0:0|0:0,0:0:0:0:
498,357,95805,38,0,P|514:339|529:320,1,48.7499977684022
499,357,96662,54,0,P|509:332|518:308,1,48.7499977684022
499,357,97519,38,0,P|501:330|502:305,1,48.7499977684022
499,357,98376,54,0,P|493:330|486:306,1,48.7499977684022
499,357,99233,38,0,P|485:333|471:313,1,48.7499977684022
499,357,100091,54,0,P|479:339|459:323,1,48.7499977684022,2|0,2:3|0:0,0:0:0:0:
277,224,100519,38,0,P|269:161|304:109,1,120,12|0,0:0|0:0,0:0:0:0:
387,33,100841,2,0,P|376:92|371:152,1,120,12|0,0:0|0:0,0:0:0:0:
453,101,101162,6,0,P|349:129|213:157,1,240,12|0,0:0|0:0,0:0:0:0:
0,83,101805,86,0,P|28:85|64:68,1,60
115,22,102662,54,0,P|143:20|179:37,1,60
225,85,103519,38,0,P|217:128|210:171,1,60
179,211,104376,54,0,P|146:221|115:231,1,60
83,293,105234,38,0,P|91:336|98:379,1,60
162,383,106091,54,0,P|190:385|226:368,1,60
277,322,106948,38,0,P|305:320|341:337,1,60,2|0,2:3|0:0,0:0:0:0:
445,254,107376,22,0,P|453:191|418:139,1,120,12|0,0:0|0:0,0:0:0:0:
350,181,107698,2,0,P|344:122|333:63,1,120,12|0,0:0|0:0,0:0:0:0:
269,131,108019,6,0,P|373:159|509:187,1,240,12|0,0:0|0:0,0:0:0:0:
512,306,108662,54,0,P|477:300|432:288,1,75
392,226,109519,54,0,P|398:191|410:146,1,75
386,77,110376,38,0,P|350:73|309:101,1,75
250,133,111234,54,0,P|214:137|173:109,1,75,2|0,2:3|0:0,0:0:0:0:
99,101,111448,54,0,P|216:76|332:46,1,240,12|0,0:0|0:0,0:0:0:0:
397,89,112091,86,0,P|412:125|405:169,1,75
345,207,112948,54,0,P|309:197|260:193,1,75,2|0,2:3|0:0,0:0:0:0:
203,140,113162,54,0,P|172:256|150:371,1,225,12|0,0:0|0:0,0:0:0:0:
211,297,113591,6,0,P|231:303|251:310,2,28.1250010728836,8|8|8,2:1|2:1|2:1,0:0:0:0:
148,230,113805,5,0,1:2:0:0:
177,159,113912,1,0,1:2:0:0:
156,107,114019,1,8,2:3:0:0:
121,84,114126,1,8,2:3:0:0:
101,83,114234,5,0,1:2:0:0:
33,122,114341,1,0,1:2:0:0:
23,180,114448,1,8,2:3:0:0:
49,217,114555,1,8,2:3:0:0:
73,236,114662,6,0,P|77:265|80:315,1,75,8|2,2:3|0:0,0:0:0:0:
154,384,114876,2,0,P|158:355|161:305,1,75,8|2,2:3|0:0,0:0:0:0:
101,163,115091,5,14,3:2:0:0:
101,163,115734,1,14,0:0:0:0:
101,163,116162,2,0,L|96:120,2,37.5000014305115,10|10|10,0:0|0:0|0:0,0:0:0:0:
90,175,116376,5,2,1:2:0:0:
342,65,116591,1,10,0:0:0:0:
239,286,116805,6,0,L|234:329,2,37.5000014305115,8|2|2,0:0|0:0|0:0,0:0:0:0:
228,274,117019,1,10,0:0:0:0:
275,207,117126,2,0,P|345:208|365:312,1,179.999994506836,2|0,1:1|0:0,0:0:0:0:
324,364,117448,1,10,0:0:0:0:
324,364,117555,1,0,0:0:0:0:
447,339,117662,6,0,P|453:261|478:59,1,269.999991760254,10|0,3:2|0:0,0:0:0:0:
420,17,118091,1,0,1:2:0:0:
125,81,118305,1,2,1:2:0:0:
125,81,118412,1,0,1:2:0:0:
190,142,118519,6,0,B|312:164|273:65|412:97,1,225,14|12,3:2|0:0,0:0:0:0:
368,237,118948,2,0,P|354:220|362:170,1,75,0|0,1:2|0:0,0:0:0:0:
508,184,119162,2,0,P|473:189|427:200,1,75,12|2,0:0|0:0,0:0:0:0:
346,342,119376,69,2,0:0:0:0:
350,346,119484,1,2,0:0:0:0:
284,299,119591,1,10,0:0:0:0:
207,305,119698,1,2,1:1:0:0:
211,309,120019,6,0,P|205:263|197:224,1,75,10|0,0:0|0:0,0:0:0:0:
128,160,120234,5,10,0:0:0:0:
123,122,120341,1,2,0:0:0:0:
132,86,120448,1,10,0:0:0:0:
155,57,120555,1,2,0:0:0:0:
226,38,120662,1,0,1:2:0:0:
261,51,120769,1,0,1:2:0:0:
288,78,120877,1,8,2:3:0:0:
301,113,120984,1,8,2:3:0:0:
282,184,121090,1,14,0:0:0:0:
253,208,121197,1,2,0:0:0:0:
217,217,121304,1,2,0:0:0:0:
180,212,121411,1,14,0:0:0:0:
212,127,121519,69,2,0:0:0:0:
216,131,121626,1,2,0:0:0:0:
220,135,121734,2,0,P|193:149|141:170,1,75,12|0,0:0|0:0,0:0:0:0:
82,122,121948,6,0,P|70:77|170:20,2,168.750006437302,8|8|8,0:0|0:0|0:0,0:0:0:0:
69,326,122805,6,0,P|136:309|192:298,1,112.500004291535,2|0,1:2|0:0,0:0:0:0:
247,334,123126,2,0,P|314:317|370:306,1,112.500004291535,2|0,1:2|0:0,0:0:0:0:
425,342,123448,1,2,1:2:0:0:
363,83,123662,70,0,P|372:51|379:22,2,56.2500021457673,10|0|0,0:0|0:0|0:0,0:0:0:0:
408,151,123984,2,0,P|399:183|392:212,2,56.2500021457673,10|0|0,0:0|0:0|0:0,0:0:0:0:
481,118,124305,1,10,0:0:0:0:
481,118,124412,1,10,0:0:0:0:
481,118,124519,54,0,P|425:133|379:141,2,75.000002861023,0|0|8,1:2|1:2|2:3,0:0:0:0:
324,168,124948,6,0,P|268:153|222:145,2,75.000002861023,8|8|8,2:3|2:3|2:3,0:0:0:0:
172,187,125376,37,12,0:0:0:0:
34,78,125591,6,0,L|41:42,2,37.5,8|8|8,2:1|2:1|2:1,0:0:0:0:
58,115,125805,21,0,1:0:0:0:
157,104,125948,1,0,1:0:0:0:
256,93,126091,1,0,1:0:0:0:
203,168,126234,5,12,0:0:0:0:
104,179,126377,1,8,2:3:0:0:
5,190,126520,1,8,2:3:0:0:
157,104,126662,86,0,P|157:69|96:33,2,100,8|8|8,2:3|2:3|2:3,0:0:0:0:
86,257,127091,5,0,1:2:0:0:
185,246,127234,1,8,2:3:0:0:
284,235,127377,1,8,2:3:0:0:
231,310,127520,85,8,2:3:0:0:
132,321,127663,1,8,0:3:0:0:
33,332,127806,1,8,2:3:0:0:
5,190,127948,6,0,P|5:155|66:119,2,100,8|8|8,2:3|2:3|2:3,0:0:0:0:
185,246,128376,2,0,P|174:281|160:355,2,100,0|8|8,1:2|2:3|2:3,0:0:0:0:
238,66,128805,21,8,2:3:0:0:
242,70,128912,1,8,2:3:0:0:
246,74,129019,1,8,2:3:0:0:
312,114,129234,5,10,0:0:0:0:
316,118,129341,1,8,0:0:0:0:
320,122,129448,1,8,0:0:0:0:
384,79,129662,5,2,1:2:0:0:
388,83,129769,1,8,0:0:0:0:
392,87,129876,1,8,0:0:0:0:
458,127,130091,69,10,0:0:0:0:
462,131,130198,1,8,0:0:0:0:
466,135,130305,2,0,P|459:183|454:227,1,75,8|0,0:0|0:0,0:0:0:0:
406,264,130519,54,0,P|411:289|417:318,2,50,10|0|0,0:0|0:0|0:0,0:0:0:0:
381,277,130734,2,0,P|356:282|332:286,2,50,10|0|0,0:0|0:0|0:0,0:0:0:0:
346,202,130948,6,0,P|351:177|357:148,2,50,10|0|0,0:0|0:0|0:0,0:0:0:0:
321,189,131163,2,0,P|296:183|272:179,2,50,10|0|0,0:0|0:0|0:0,0:0:0:0:
210,230,131376,38,0,B|93:276|148:164|15:176|-29:265|36:323|81:287,1,300,2|0,1:2|0:0,0:0:0:0:
253,66,132234,38,0,B|264:38|264:38|266:67,3,59.9999981689454,10|0|0|0,0:0|0:0|0:0|0:0,0:0:0:0:
256,145,132662,69,10,0:0:0:0:
188,179,132769,1,8,0:0:0:0:
119,149,132876,1,8,0:0:0:0:
119,149,133091,69,2,1:2:0:0:
188,179,133198,1,8,0:0:0:0:
256,145,133305,1,8,0:0:0:0:
256,145,133519,5,10,0:0:0:0:
316,190,133626,1,8,0:0:0:0:
390,172,133733,1,8,0:0:0:0:
304,359,133948,38,0,B|293:387|293:387|291:358,5,59.9999981689454,2|0|0|0|0|0,1:2|1:2|1:2|1:2|1:2|1:2,0:0:0:0:
301,280,134376,69,0,1:2:0:0:
369,246,134483,1,0,1:2:0:0:
438,276,134590,1,0,1:2:0:0:
468,345,134698,1,0,1:2:0:0:
425,283,134805,70,0,P|427:208|432:133,1,150,12|0,0:0|0:0,0:0:0:0:
314,42,135126,2,0,P|295:101|364:159,1,150,12|0,0:0|0:0,0:0:0:0:
464,41,135448,2,0,P|430:52|381:62,1,75,12|0,0:0|0:0,0:0:0:0:
208,104,135662,5,8,0:0:0:0:
182,70,135769,1,8,0:0:0:0:
143,53,135876,1,8,0:0:0:0:
101,59,135983,1,8,0:0:0:0:
67,84,136090,1,8,0:0:0:0:
51,124,136197,1,8,0:0:0:0:
57,166,136304,1,8,0:0:0:0:
83,199,136412,1,8,0:0:0:0:
55,284,136519,5,8,1:2:0:0:
104,276,136626,1,8,0:0:0:0:
153,269,136733,1,8,0:0:0:0:
203,263,136840,1,8,0:0:0:0:
267,315,136948,69,8,0:0:0:0:
316,307,137055,1,8,0:0:0:0:
365,300,137162,1,8,0:0:0:0:
415,294,137269,1,8,0:0:0:0:
486,347,137376,6,0,P|438:274|464:198,1,150,8|8,0:0|0:0,0:0:0:0:
494,151,137698,1,8,0:0:0:0:
494,151,137805,2,0,P|490:106|484:54,1,75,8|8,0:0|0:0,0:0:0:0:
393,24,138019,2,0,P|397:69|403:121,1,75,8|8,0:0|0:0,0:0:0:0:
353,297,138234,6,0,P|342:223|333:149,1,150,8|8,1:2|0:0,0:0:0:0:
261,276,138555,1,8,0:0:0:0:
261,276,138662,2,0,P|258:322|291:372,1,75,8|8,0:0|2:3,0:0:0:0:
426,210,138876,1,8,2:3:0:0:
426,210,138984,1,8,2:3:0:0:
426,210,139091,70,0,B|345:221|352:139|262:156,1,179.999994506836,12|8,3:2|0:0,0:0:0:0:
193,213,139412,1,8,0:0:0:0:
114,168,139519,2,0,P|97:129|119:58,1,89.9999972534181,0|0,1:2|0:0,0:0:0:0:
305,0,139734,2,0,P|322:39|300:110,1,89.9999972534181,8|8,0:0|0:0,0:0:0:0:
178,115,139948,6,0,P|169:222|163:325,1,179.999994506836,12|8,3:2|0:0,0:0:0:0:
268,365,140269,1,8,0:0:0:0:
341,312,140376,2,0,P|384:297|457:284,1,89.9999972534181,0|0,1:2|0:0,0:0:0:0:
512,318,140591,1,8,0:0:0:0:
512,318,140698,1,8,0:0:0:0:
481,152,140805,6,0,P|435:171|441:299,1,179.999994506836,12|8,3:2|0:0,0:0:0:0:
495,234,141126,1,8,0:0:0:0:
481,152,141234,2,0,P|481:93|490:38,1,89.9999972534181,0|0,1:2|0:0,0:0:0:0:
303,9,141448,2,0,P|303:68|294:123,1,89.9999972534181,8|8,0:0|0:0,0:0:0:0:
237,163,141662,70,0,B|156:174|163:92|73:109,1,179.999994506836,12|0,3:2|0:0,0:0:0:0:
96,196,141984,1,8,0:0:0:0:
16,237,142091,2,0,P|54:250|92:208,1,89.9999972534181,0|0,1:2|1:2,0:0:0:0:
17,55,142305,1,8,2:3:0:0:
17,55,142412,1,8,2:3:0:0:
107,1,142519,70,0,P|99:37|96:57,2,37.5000014305115,14|0|0,3:2|0:0|0:0,0:0:0:0:
106,53,142734,2,0,P|125:84|137:100,2,37.5000014305115,8|0|0,0:0|0:0|0:0,0:0:0:0:
142,90,142948,2,0,P|178:98|198:101,2,37.5000014305115,2|0|0,1:2|0:0|0:0,0:0:0:0:
193,90,143162,2,0,P|224:70|240:58,2,37.5000014305115,8|0|0,0:0|0:0|0:0,0:0:0:0:
288,113,143376,38,0,P|356:74|385:220,1,269.999991760254,2|8,1:2|0:0,0:0:0:0:
334,272,143805,2,0,P|293:266|236:261,1,89.9999972534181,2|0,1:2|0:0,0:0:0:0:
388,343,144019,1,8,0:0:0:0:
388,343,144126,1,8,0:0:0:0:
459,287,144234,6,0,P|487:261|487:203,1,89.9999972534181,0|0,1:2|1:2,0:0:0:0:
347,30,144448,2,0,P|354:69|363:131,1,89.9999972534181,8|8,2:3|2:3,0:0:0:0:
150,118,144662,2,0,P|157:74|165:30,1,89.9999972534181,0|0,1:2|1:2,0:0:0:0:
21,211,144876,2,0,P|22:255|53:287,1,89.9999972534181,8|8,2:3|2:3,0:0:0:0:
124,343,145091,69,8,3:3:0:0:
149,327,145198,1,8,0:0:0:0:
179,324,145305,1,8,0:0:0:0:
207,334,145412,1,8,0:0:0:0:
228,354,145519,6,0,B|198:281|244:220|263:233|329:176|285:91,1,269.999991760254,12|0,0:0|0:0,0:0:0:0:
244,42,145948,6,0,P|256:120|278:287,1,240,4|0,3:2|0:0,0:0:0:0:
277,279,148948,22,0,L|279:250,1,28.1250010728836,0|0,1:2|0:0,0:0:0:0:
279,251,149376,38,0,P|271:296|260:340,1,89.9999972534181,14|0,0:0|0:0,0:0:0:0:
120,234,149591,2,0,P|128:189|138:146,1,89.9999972534181,8|0,0:0|0:0,0:0:0:0:
102,13,149805,2,0,P|173:5|204:122,1,202.500000772476,0|8,1:0|0:0,0:0:0:0:
56,169,150126,1,8,0:0:0:0:
0,73,150234,6,0,P|49:85|111:97,1,89.9999972534181,8|0,0:0|0:0,0:0:0:0:
207,211,150448,2,0,P|158:223|108:237,1,89.9999972534181,8|0,0:0|0:0,0:0:0:0:
65,304,150662,1,0,1:0:0:0:
400,345,150876,1,8,0:0:0:0:
400,345,150984,1,8,0:0:0:0:
400,345,151091,6,0,P|451:350|494:316,1,89.9999972534181,12|0,0:0|0:0,0:0:0:0:
456,175,151305,2,0,P|405:170|362:204,1,89.9999972534181,12|0,0:0|0:0,0:0:0:0:
430,259,151519,69,0,1:0:0:0:
434,263,151626,1,0,1:0:0:0:
438,267,151733,1,8,2:3:0:0:
442,271,151841,1,8,2:3:0:0:
473,183,151948,6,0,P|476:137|481:86,1,89.9999972534181,8|8,2:3|2:3,0:0:0:0:
351,14,152162,5,0,1:2:0:0:
274,13,152269,1,0,1:2:0:0:
211,57,152376,1,8,2:3:0:0:
194,132,152484,1,8,2:3:0:0:
228,199,152591,2,0,P|261:188|315:175,1,89.9999972534181,8|8,2:3|2:3,0:0:0:0:
212,341,152805,5,4,0:0:0:0:
176,365,152912,1,0,0:0:0:0:
131,363,153019,1,0,1:2:0:0:
97,335,153126,1,0,0:0:0:0:
86,292,153234,1,10,0:0:0:0:
103,251,153341,1,0,0:0:0:0:
141,228,153448,1,0,1:2:0:0:
155,234,153555,1,2,0:0:0:0:
212,341,153662,37,10,0:0:0:0:
256,346,153769,1,0,0:0:0:0:
294,323,153876,1,2,1:2:0:0:
308,280,153984,1,0,0:0:0:0:
342,252,154091,1,8,0:0:0:0:
384,250,154198,1,0,0:0:0:0:
423,274,154305,1,2,1:2:0:0:
428,283,154412,1,0,0:0:0:0:
483,355,154519,54,0,P|447:363|410:369,1,75,10|0,0:0|0:0,0:0:0:0:
294,323,154734,37,0,1:2:0:0:
308,280,154841,1,0,0:0:0:0:
298,237,154948,1,10,0:0:0:0:
266,206,155055,1,0,0:0:0:0:
235,174,155162,1,0,1:2:0:0:
225,131,155269,1,2,0:0:0:0:
239,88,155376,54,0,P|245:51|249:5,1,75,10|0,0:0|0:0,0:0:0:0:
395,61,155591,1,2,1:2:0:0:
327,123,155698,1,8,0:2:0:0:
405,79,155805,38,0,P|415:126|421:170,1,75,8|0,0:0|1:0,0:0:0:0:
387,342,156019,5,2,1:2:0:0:
435,271,156126,1,2,1:2:0:0:
496,323,156234,6,0,P|406:311|317:306,1,179.999994506836,14|2,0:0|0:0,0:0:0:0:
327,123,156555,1,8,0:0:0:0:
405,79,156662,2,0,P|472:100|473:208,1,179.999994506836,2|0,1:2|0:0,0:0:0:0:
435,271,156984,1,10,0:0:0:0:
387,342,157091,38,0,B|193:377|277:293|86:325,1,303.750001158714,10|0,0:0|0:0,0:0:0:0:
29,105,157519,2,0,B|223:70|139:154|330:122,1,303.750001158714,0|0,1:2|0:0,0:0:0:0:
454,0,157948,6,0,P|490:30|489:89,1,101.250000386238,12|0,0:0|0:0,0:0:0:0:
375,373,158162,2,0,P|387:260|413:63,1,303.750001158714,12|0,0:0|0:0,0:0:0:0:
454,0,158591,86,0,P|489:28|489:89,1,101.250000386238,12|0,0:0|0:0,0:0:0:0:
487,246,158805,2,0,P|294:183|17:101,1,480,12|0,0:0|0:0,0:0:0:0:
255,380,159662,21,12,0:0:0:0:
202,362,165309,54,0,P|196:322|188:284,1,75,8|2,0:0|2:3,0:0:0:0:
310,362,165662,2,0,P|316:322|324:284,1,75,10|2,0:0|2:3,0:0:0:0:
172,211,166014,2,0,P|135:203|98:197,1,75,8|2,0:0|2:3,0:0:0:0:
340,211,166367,2,0,P|376:203|413:197,1,75,10|2,0:0|2:3,0:0:0:0:
460,67,166720,38,0,P|480:105|464:153,1,75,8|2,0:0|2:3,0:0:0:0:
256,192,167073,2,0,L|256:96,1,75,10|2,0:0|2:3,0:0:0:0:
52,67,167426,2,0,P|32:105|48:153,1,75,8|2,0:0|1:3,0:0:0:0:
192,256,167779,1,10,1:2:0:0:
320,256,167956,53,2,1:3:0:0:
320,256,168044,1,2,1:3:0:0:
320,256,168132,54,0,L|315:302,3,44.999998626709,10|0|2|2,1:2|1:2|1:3|1:3,0:0:0:0:
387,345,168485,6,0,L|429:363,3,44.999998626709,10|0|2|2,1:2|1:2|1:3|1:3,0:0:0:0:
482,279,168838,6,0,L|513:244,3,44.999998626709,10|0|2|2,1:2|1:2|1:3|1:3,0:0:0:0:
441,146,169191,70,0,L|418:105,3,44.999998626709,10|0|2|2,1:2|1:2|1:3|1:3,0:0:0:0:
300,183,169544,5,8,0:0:0:0:
300,183,169632,1,0,1:2:0:0:
300,183,169720,2,0,L|254:192,1,44.999998626709,2|2,1:3|1:3,0:0:0:0:
102,279,169897,5,10,0:0:0:0:
102,279,169985,1,0,1:2:0:0:
102,279,170073,2,0,L|147:288,1,44.999998626709,2|0,1:3|1:0,0:0:0:0:
224,352,170250,21,8,2:3:0:0:
240,272,170338,1,0,1:2:0:0:
256,192,170426,1,2,1:3:0:0:
272,112,170514,1,8,1:3:0:0:
288,32,170603,1,8,1:3:0:0:
55,30,170956,6,0,B|96:66|96:66|77:133,1,112.500004291535,14|8,0:0|0:0,0:0:0:0:
38,186,171220,1,8,0:0:0:0:
20,170,171309,2,0,L|138:178,1,112.500004291535,0|8,1:0|0:0,0:0:0:0:
205,219,171573,1,8,0:0:0:0:
205,219,171662,86,0,B|246:183|246:183|227:116,1,112.500004291535,10|8,0:0|0:0,0:0:0:0:
188,63,171926,1,8,0:0:0:0:
170,79,172015,2,0,L|288:71,1,112.500004291535,2|8,1:2|0:0,0:0:0:0:
355,30,172278,1,8,0:0:0:0:
355,30,172367,6,0,B|396:66|396:66|377:133,1,112.500004291535,14|8,0:0|0:0,0:0:0:0:
440,170,172632,1,8,0:0:0:0:
440,170,172720,86,0,B|404:211|404:211|337:192,1,112.500004291535,0|8,1:0|0:0,0:0:0:0:
300,255,172985,1,8,0:0:0:0:
300,255,173073,6,0,B|259:219|259:219|278:152,1,112.500004291535,10|8,0:0|0:0,0:0:0:0:
43,89,173426,85,2,1:2:0:0:
45,116,173514,1,0,1:0:0:0:
47,142,173603,2,0,L|37:199,1,56.2500021457673,8|8,2:3|2:3,0:0:0:0:
55,354,173779,6,0,B|96:318|96:318|77:251,1,112.500004291535,14|8,0:0|0:0,0:0:0:0:
38,198,174043,1,8,0:0:0:0:
20,214,174132,2,0,L|138:206,1,112.500004291535,2|8,1:2|0:0,0:0:0:0:
205,165,174396,1,8,0:0:0:0:
205,165,174485,86,0,B|246:201|246:201|227:268,1,112.500004291535,10|8,0:0|0:0,0:0:0:0:
188,321,174749,1,8,0:0:0:0:
170,305,174838,2,0,L|288:313,1,112.500004291535,2|8,1:2|0:0,0:0:0:0:
355,354,175103,1,8,0:0:0:0:
355,354,175191,6,0,B|396:318|396:318|377:251,1,112.500004291535,14|8,0:0|0:0,0:0:0:0:
440,214,175455,1,8,0:0:0:0:
440,214,175543,86,0,B|404:173|404:173|337:192,1,112.500004291535,0|10,1:0|0:0,0:0:0:0:
300,129,175808,1,0,0:0:0:0:
300,129,175896,6,0,B|259:165|259:165|278:232,1,112.500004291535,10|8,0:0|0:0,0:0:0:0:
274,220,176250,85,8,2:3:0:0:
220,234,176338,1,8,2:3:0:0:
165,247,176426,1,8,2:3:0:0:
110,260,176514,1,8,2:3:0:0:
55,273,176603,6,0,L|69:159,1,112.500004291535,14|8,0:0|0:0,0:0:0:0:
121,93,176867,1,8,0:0:0:0:
55,48,176956,2,0,B|30:99|30:99|62:152,1,112.500004291535,0|10,1:0|0:0,0:0:0:0:
189,137,177220,1,10,0:0:0:0:
189,137,177309,86,0,L|303:151,1,112.500004291535,10|8,0:0|0:0,0:0:0:0:
369,203,177573,1,8,0:0:0:0:
414,137,177662,2,0,B|363:112|363:112|310:144,1,112.500004291535,2|8,1:2|0:0,0:0:0:0:
325,271,177926,1,8,0:0:0:0:
325,271,178014,6,0,L|311:385,1,112.500004291535,14|8,0:0|0:0,0:0:0:0:
248,237,178279,1,8,0:0:0:0:
248,237,178367,86,0,L|234:351,1,112.500004291535,0|8,1:0|0:0,0:0:0:0:
171,203,178632,1,8,0:0:0:0:
171,203,178720,6,0,L|157:317,1,112.500004291535,6|8,1:2|0:0,0:0:0:0:
157,314,179073,85,6,1:2:0:0:
213,306,179162,1,0,1:0:0:0:
268,298,179250,1,8,2:3:0:0:
323,290,179338,1,8,2:3:0:0:
378,282,179426,5,14,0:0:0:0:
385,260,179514,1,8,0:0:0:0:
392,238,179603,1,0,1:2:0:0:
399,216,179691,1,8,0:0:0:0:
406,194,179779,86,0,P|398:140|394:114,1,56.2500021457673,8|8,0:0|0:0,0:0:0:0:
333,77,179956,2,0,P|353:26|362:1,1,56.2500021457673,0|8,1:2|0:0,0:0:0:0:
501,47,180132,6,0,P|467:60|444:71,1,56.2500021457673,10|8,0:0|0:0,0:0:0:0:
324,172,180309,2,0,P|290:157|266:148,1,56.2500021457673,0|8,1:2|0:0,0:0:0:0:
110,135,180485,2,0,P|97:100|86:78,1,56.2500021457673,10|8,0:0|0:0,0:0:0:0:
163,195,180662,1,0,1:2:0:0:
168,219,180750,1,8,0:0:0:0:
173,243,180838,86,0,P|155:263|120:276,1,56.2500021457673,10|8,0:0|0:0,0:0:0:0:
60,227,181014,2,0,P|33:221|4:197,1,56.2500021457673,0|8,1:2|0:0,0:0:0:0:
17,121,181191,2,0,P|8:95|14:58,1,56.2500021457673,10|8,0:0|0:0,0:0:0:0:
140,104,181367,1,0,1:2:0:0:
140,104,181456,1,8,0:0:0:0:
140,104,181544,6,0,P|114:92|88:82,1,56.2500021457673,10|8,0:0|0:0,0:0:0:0:
265,130,181721,2,0,P|238:140|213:151,1,56.2500021457673,0|8,1:2|0:0,0:0:0:0:
374,60,181897,2,0,P|362:85|352:112,1,56.2500021457673,8|8,0:0|0:0,0:0:0:0:
263,224,182073,2,0,P|272:250|284:276,1,56.2500021457673,0|8,1:2|0:0,0:0:0:0:
347,361,182250,86,0,B|363:277|363:277|393:263,1,112.500004291535,14|8,0:0|0:0,0:0:0:0:
482,306,182514,1,8,0:0:0:0:
482,306,182603,2,0,B|398:290|398:290|384:260,1,112.500004291535,0|8,1:2|0:0,0:0:0:0:
449,221,182867,1,8,0:0:0:0:
415,135,182956,6,0,B|499:151|499:151|511:176,1,112.500004291535,10|8,0:0|0:0,0:0:0:0:
455,39,183220,1,8,0:0:0:0:
455,39,183309,2,0,B|431:51|431:51|415:135,1,112.500004291535,2|8,1:2|0:0,0:0:0:0:
449,221,183573,1,8,0:0:0:0:
386,265,183662,86,0,L|272:249,1,112.500004291535,10|8,0:0|0:0,0:0:0:0:
201,160,183926,1,8,0:0:0:0:
201,160,184014,6,0,L|314:175,1,112.500004291535,0|8,1:2|0:0,0:0:0:0:
275,249,184279,1,8,0:0:0:0:
236,320,184367,86,0,L|122:304,1,112.500004291535,6|8,1:2|0:0,0:0:0:0:
51,216,184631,1,8,0:0:0:0:
51,216,184720,6,0,L|164:231,1,112.500004291535,10|8,0:0|2:3,0:0:0:0:
338,49,185073,85,14,0:0:0:0:
413,40,185250,5,8,0:0:0:0:
417,62,185338,1,8,0:0:0:0:
421,84,185426,1,0,3:2:0:0:
307,119,185603,85,8,0:0:0:0:
311,146,185691,1,8,0:0:0:0:
316,172,185779,1,10,3:2:0:0:
176,94,185956,5,8,0:0:0:0:
181,126,186044,1,8,0:0:0:0:
187,158,186132,1,2,3:2:0:0:
76,205,186309,85,8,0:0:0:0:
82,243,186397,1,8,0:0:0:0:
89,281,186485,1,10,3:2:0:0:
247,221,186661,5,8,0:0:0:0:
254,266,186750,1,8,0:0:0:0:
262,312,186838,1,0,1:2:0:0:
413,254,187014,85,10,0:0:0:0:
422,308,187103,1,8,0:0:0:0:
431,363,187191,1,6,1:2:0:0:
491,218,187367,5,8,0:0:0:0:
491,218,187456,1,8,0:0:0:0:
491,218,187544,85,2,1:2:0:0:
482,163,187632,1,0,1:2:0:0:
473,109,187721,1,0,1:2:0:0:
464,54,187809,1,0,1:2:0:0:
455,0,187897,6,0,B|419:46|419:46|365:37,1,112.500004291535,14|8,3:2|0:0,0:0:0:0:
286,18,188161,1,8,0:0:0:0:
267,31,188250,2,0,L|275:153,1,112.500004291535,0|10,1:2|0:0,0:0:0:0:
215,195,188514,1,10,0:0:0:0:
150,147,188603,86,0,B|128:200|128:200|160:259,1,112.500004291535,10|8,0:0|0:0,0:0:0:0:
234,340,188867,1,8,0:0:0:0:
221,321,188956,2,0,L|99:329,1,112.500004291535,2|8,1:2|0:0,0:0:0:0:
52,275,189220,1,8,0:0:0:0:
0,335,189309,6,0,B|48:361|48:361|101:339,1,112.500004291535,10|8,3:2|0:0,0:0:0:0:
138,230,189573,1,8,0:0:0:0:
122,213,189661,2,0,L|235:223,1,112.500004291535,0|8,1:2|0:0,0:0:0:0:
304,259,189926,1,8,0:0:0:0:
374,295,190014,86,0,B|380:323|380:323|365:353,1,56.2500021457673,0|0,1:2|0:0,0:0:0:0:
227,275,190191,2,0,B|221:247|221:247|236:217,1,56.2500021457673,8|8,0:0|0:0,0:0:0:0:
200,130,190367,5,0,1:2:0:0:
256,124,190456,1,0,1:2:0:0:
312,118,190544,1,8,0:0:0:0:
368,112,190632,1,8,0:0:0:0:
424,106,190720,85,14,3:2:0:0:
458,110,190809,1,8,0:0:0:0:
485,132,190897,1,0,1:2:0:0:
496,165,190985,1,8,0:0:0:0:
488,198,191073,1,8,0:0:0:0:
463,222,191161,1,8,0:0:0:0:
429,230,191250,1,0,1:2:0:0:
396,218,191338,1,8,0:0:0:0:
380,222,191426,6,0,P|346:235|323:246,1,56.2500021457673,10|8,0:0|0:0,0:0:0:0:
270,307,191603,2,0,P|237:289|214:278,1,56.2500021457673,0|8,1:2|0:0,0:0:0:0:
134,274,191779,2,0,P|127:237|120:213,1,56.2500021457673,10|8,0:0|0:0,0:0:0:0:
179,106,191956,1,0,1:2:0:0:
184,82,192044,1,8,0:0:0:0:
189,58,192132,86,0,P|171:38|136:25,1,56.2500021457673,10|8,0:0|0:0,0:0:0:0:
76,74,192308,2,0,P|49:80|20:104,1,56.2500021457673,0|8,1:2|0:0,0:0:0:0:
33,180,192485,2,0,P|24:206|30:243,1,56.2500021457673,10|8,0:0|0:0,0:0:0:0:
61,321,192661,1,0,1:2:0:0:
61,321,192750,1,8,0:0:0:0:
61,321,192838,6,0,P|35:333|9:343,1,56.2500021457673,10|8,0:0|0:0,0:0:0:0:
186,295,193015,2,0,P|159:285|134:274,1,56.2500021457673,0|8,1:2|0:0,0:0:0:0:
295,365,193191,2,0,P|283:340|273:313,1,56.2500021457673,8|8,0:0|0:0,0:0:0:0:
184,201,193367,2,0,P|193:175|205:149,1,56.2500021457673,0|8,1:2|0:0,0:0:0:0:
248,76,193544,85,12,3:2:0:0:
292,62,193632,1,8,0:0:0:0:
337,73,193720,1,0,1:2:0:0:
371,104,193809,1,8,0:0:0:0:
405,135,193897,1,8,0:0:0:0:
450,145,193985,1,8,0:0:0:0:
493,132,194073,1,0,1:2:0:0:
501,98,194161,1,8,0:0:0:0:
509,64,194250,5,8,0:0:0:0:
453,73,194338,1,8,0:0:0:0:
397,82,194426,1,0,1:2:0:0:
341,91,194514,1,8,0:0:0:0:
285,100,194603,1,8,0:0:0:0:
269,123,194691,1,8,0:0:0:0:
280,148,194779,1,0,1:2:0:0:
308,149,194867,1,8,0:0:0:0:
324,127,194956,86,0,L|332:64,1,56.2500021457673,8|8,3:2|0:0,0:0:0:0:
212,66,195132,2,0,L|220:3,1,56.2500021457673,0|8,1:2|0:0,0:0:0:0:
136,172,195309,6,0,L|144:109,1,56.2500021457673,8|8,0:0|0:0,0:0:0:0:
24,111,195485,2,0,L|32:48,1,56.2500021457673,0|8,1:2|0:0,0:0:0:0:
119,179,195661,86,0,L|111:242,1,56.2500021457673,8|8,0:0|0:0,0:0:0:0:
231,240,195837,2,0,L|223:303,1,56.2500021457673,0|8,1:2|0:0,0:0:0:0:
307,134,196014,6,0,L|299:197,1,56.2500021457673,8|8,0:0|0:0,0:0:0:0:
419,195,196190,2,0,L|411:258,1,56.2500021457673,8|8,0:0|0:0,0:0:0:0:
443,330,196367,85,12,3:2:0:0:
408,341,196455,1,8,0:0:0:0:
372,332,196543,1,0,1:2:0:0:
344,308,196632,1,8,0:0:0:0:
317,283,196720,1,8,0:0:0:0:
281,275,196808,1,8,0:0:0:0:
247,285,196896,1,0,1:2:0:0:
210,277,196985,1,8,0:0:0:0:
183,252,197073,1,8,0:0:0:0:
156,228,197161,1,8,0:0:0:0:
120,220,197250,1,0,1:2:0:0:
85,230,197338,1,8,0:0:0:0:
63,263,197426,2,0,P|68:287|75:333,1,56.2500021457673,8|8,0:0|0:0,0:0:0:0:
248,197,197603,2,0,P|243:173|236:127,1,56.2500021457673,0|8,1:2|0:0,0:0:0:0:
276,68,197779,5,8,3:2:0:0:
276,68,197867,1,8,0:0:0:0:
276,68,197956,1,0,1:2:0:0:
276,68,198044,1,8,0:0:0:0:
276,68,198132,1,8,0:0:0:0:
276,68,198220,1,8,0:0:0:0:
276,68,198309,1,0,1:2:0:0:
276,68,198397,1,8,0:0:0:0:
276,68,198485,86,0,P|271:95|265:123,1,56.2500021457673,8|8,0:0|0:0,0:0:0:0:
235,204,198661,2,0,P|239:231|245:259,1,56.2500021457673,0|8,1:2|0:0,0:0:0:0:
292,379,198838,6,0,P|296:351|302:323,1,56.2500021457673,8|8,0:0|0:0,0:0:0:0:
161,275,199014,2,0,P|156:247|150:219,1,56.2500021457673,0|8,1:2|0:0,0:0:0:0:
353,114,199191,6,0,P|342:171|333:246,1,112.5,12|0,0:0|0:0,0:0:0:0:
334,224,201037,54,0,P|401:217|455:209,1,112.5,14|0,0:0|0:0,0:0:0:0:
361,142,201686,2,0,P|428:135|482:127,1,112.5,14|0,0:0|0:0,0:0:0:0:
388,60,202335,2,0,P|455:53|509:45,1,112.5,14|0,0:0|0:0,0:0:0:0:
123,60,202983,54,0,P|68:54|12:46,1,112.5,0|8,1:2|2:3,0:0:0:0:
158,147,203463,2,0,L|235:130,1,56.2500021457673,8|0,2:3|0:0,0:0:0:0:
150,142,203688,6,0,P|95:136|39:128,1,112.5,0|8,1:2|2:3,0:0:0:0:
186,229,204165,2,0,L|263:212,1,56.2500021457673,0|0,1:2|0:0,0:0:0:0:
65,209,204493,70,0,P|121:217|177:224,1,112.5,14|8,0:0|0:0,0:0:0:0:
154,306,205260,2,0,P|204:311|234:283,1,67.4999979400635,0|2,1:2|3:2,0:0:0:0:
283,118,205794,1,8,0:0:0:0:
196,13,206061,2,0,P|202:46|212:79,1,67.4999979400635,8|0,0:0|0:0,0:0:0:0:
359,153,206595,1,8,0:0:0:0:
414,250,206862,2,0,P|341:231|267:222,1,150,0|8,1:2|0:0,0:0:0:0:
192,251,207663,54,0,P|179:226|178:193,1,56.2500021457673,12|0,0:0|0:0,0:0:0:0:
140,0,208464,2,0,P|136:71|96:180,1,168.750006437302,12|0,0:0|0:0,0:0:0:0:
2,228,208998,54,0,B|169:108|148:228|-13:285|29:385|86:444|174:386|275:314|202:186|202:186|256:223|326:199|375:6|375:6|362:148|333:352|299:381|291:359|291:359|445:3|586:185|492:307|378:300|365:258|365:258|425:318|395:363|432:384|493:384|515:340,1,1953.00006109085,12|0,0:0|0:0,0:0:0:0:
256,192,212871,12,0,214874,0:0:0:0:
