osu file format v14

[General]
AudioFilename: audio.ogg
AudioLeadIn: 0
PreviewTime: 146111
Countdown: 0
SampleSet: Normal
StackLeniency: 0.7
Mode: 1
LetterboxInBreaks: 0
WidescreenStoryboard: 0

[Editor]
Bookmarks: 13948,20805,27662,37948,41376,48234,51662,55091,65376,73948,80805,86805,115091,121948,128805,135662,145948,149376,152805,159662,170956,179426,182250,190720,199191
DistanceSpacing: 2.3
BeatDivisor: 4
GridSize: 32
TimelineZoom: 2.1

[Metadata]
Title:Redneck Vikings from Hell
TitleUnicode:Redneck Vikings from Hell
Artist:Aether Realm
ArtistUnicode:Æther Realm
Creator:TaikoMom
Version:North Carolina Reapers
Source:
Tags:melodic patriotic yeehaw north caroline carolina folk death metal melodeath featured artist fa english tag coop co op co-op
BeatmapID:3997560
BeatmapSetID:1934473

[Difficulty]
HPDrainRate:5
CircleSize:5
OverallDifficulty:6
ApproachRate:5
SliderMultiplier:1.4
SliderTickRate:1

[Events]
//Background and Video events
0,0,"norse-viking-sea-storm-piqjsvfx0egbwsfa.jpg",0,40
//Break Periods
//Storyboard Layer 0 (Background)
//Storyboard Layer 1 (Fail)
//Storyboard Layer 2 (Pass)
//Storyboard Layer 3 (Foreground)
//Storyboard Layer 4 (Overlay)
//Storyboard Sound Samples

[TimingPoints]
290,428.571428571429,4,1,0,60,1,0
290,-95.2380952380952,4,1,0,60,0,0
10144,-95.2380952380952,4,1,0,70,0,0
10570,-95.2380952380952,4,1,0,72,0,0
10784,-93.9328761405463,4,1,0,74,0,0
10998,-92.087409761564,4,1,0,76,0,0
11212,-90.0205628400413,4,1,0,78,0,0
11319,-88.9394290279567,4,1,0,79,0,0
11426,-87.8381741604058,4,1,0,80,0,0
11641,-85.5892882108231,4,1,0,80,0,0
11855,-83.3333333333333,4,1,0,80,0,0
13569,-83.3333333333333,4,1,0,80,0,0
13676,-83.0932430438531,4,1,0,80,0,0
13784,-82.8500414250207,4,1,0,80,0,0
13891,-82.6104915324246,4,1,0,80,0,0
14004,-82.3723228995058,4,1,0,80,0,1
16790,-82.3723228995058,4,1,0,44,0,1
16843,-82.3723228995058,4,1,0,52,0,1
16897,-82.3723228995058,4,1,0,60,0,1
16950,-82.3723228995058,4,1,0,70,0,1
17004,-82.3723228995058,4,1,0,80,0,1
19998,-82.3723228995058,4,1,0,80,0,1
20105,-82.544047573233,4,1,0,80,0,1
20212,-82.7964515963079,4,1,0,80,0,1
20319,-83.0933822401471,4,1,0,80,0,1
20426,-83.4245728634227,4,1,0,80,0,1
20534,-83.7882648585989,4,1,0,80,0,1
20641,-84.1745227766047,4,1,0,80,0,1
20748,-84.5844924917806,4,1,0,80,0,1
20861,-85.0167248382243,4,1,0,80,0,0
21069,-85.9441519976839,4,1,0,80,0,0
21176,-86.438085777568,4,1,0,80,0,0
21284,-86.9565217391304,4,1,0,80,0,0
24284,-86.9565217391304,4,1,0,80,0,0
24498,-85.5076093766381,4,1,0,80,0,0
24605,-84.8179601231284,4,1,0,80,0,0
24713,-84.1530773155255,4,1,0,80,0,0
24926,-82.9531411060894,4,1,0,80,0,0
25033,-82.4145946104558,4,1,0,80,0,0
25141,-81.9194931219237,4,1,0,80,0,0
25355,-81.0941725145749,4,1,0,80,0,0
25462,-80.7639676409662,4,1,0,80,0,0
25570,-80.4890204400239,4,1,0,80,0,0
25676,-80.2776069713025,4,1,0,80,0,0
25784,-80.1228767493941,4,1,0,80,0,0
25891,-80.0307577497412,4,1,0,80,0,0
25998,-80,4,1,0,80,0,0
27611,-100,4,1,0,50,0,0
34093,-100,4,1,0,65,0,0
34682,-100,4,1,0,50,0,0
37522,-100,4,1,0,70,0,0
38218,-98.1616173185957,4,1,0,90,0,0
38373,-97.858978018841,4,1,0,90,0,0
38426,-97.563752276867,4,1,0,90,0,0
38534,-96.9676397374972,4,1,0,90,0,0
38641,-96.3841871450261,4,1,0,90,0,0
38748,-95.8077138065959,4,1,0,90,0,0
38855,-95.2380952380952,4,1,0,90,0,0
38962,-94.675209898365,4,1,0,90,0,0
39069,-94.1189391027401,4,1,0,90,0,0
39176,-93.5691669396222,4,1,0,90,0,0
39284,-93.0207315749484,4,1,0,90,0,0
39391,-92.4836777639886,4,1,0,90,0,0
39498,-91.9527896995708,4,1,0,90,0,0
39605,-91.4279618072225,4,1,0,90,0,0
39712,-90.9090909090909,4,1,0,90,0,0
41428,-86.9565217391304,4,1,0,85,0,0
46575,-95.2562392836731,4,1,0,85,0,0
46676,-95.1665616762957,4,1,0,85,0,0
46784,-94.8940266804947,4,1,0,85,0,0
46891,-94.4533416231249,4,1,0,85,0,0
46998,-93.8581758826839,4,1,0,85,0,0
47105,-93.1287087427248,4,1,0,85,0,0
47212,-92.2887882293854,4,1,0,85,0,0
47319,-91.3646831037054,4,1,0,85,0,0
47426,-90.3838469833412,4,1,0,85,0,0
47534,-89.3642969527373,4,1,0,85,0,0
47641,-88.3517244170937,4,1,0,85,0,0
47748,-87.3617286089139,4,1,0,85,0,0
47855,-86.417075927205,4,1,0,85,0,0
47962,-85.5380255380875,4,1,0,85,0,0
48069,-84.7421720356896,4,1,0,85,0,0
48176,-84.044420012354,4,1,0,85,0,0
48284,-83.4521144675699,4,1,0,85,0,0
48396,-82.9860671134671,4,1,0,85,0,0
48503,-82.6476564008998,4,1,0,85,0,0
48610,-82.4420559729861,4,1,0,85,0,0
48717,-82.372328885429,4,1,0,85,0,0
54712,-81.9586061362011,4,1,0,85,0,0
54819,-82.8840616144866,4,1,0,85,0,0
54926,-83.7943097668644,4,1,0,85,0,0
55034,-84.6592669289237,4,1,0,85,0,0
55093,-85.4249231434655,4,1,0,90,0,0
55253,-86.0640895590888,4,1,0,90,0,0
55360,-86.5457939387232,4,1,0,90,0,0
55467,-86.8458825297149,4,1,0,90,0,0
55574,-86.948952083168,4,1,0,90,0,0
57932,-86.948952083168,4,1,0,58,0,0
57986,-86.948952083168,4,1,0,66,0,0
58040,-86.948952083168,4,1,0,74,0,0
58093,-86.948952083168,4,1,0,82,0,0
58147,-86.948952083168,4,1,0,90,0,0
66285,-66.6666666666667,4,1,0,90,0,0
67142,-86.9565217391304,4,1,0,90,0,0
67999,-55.5555555555556,4,1,0,90,0,0
68856,-86.9565217391304,4,1,0,90,0,0
70570,-97.0873786407767,4,1,0,90,0,0
70784,-96.5724521559467,4,1,0,90,0,0
70891,-96.2182817331061,4,1,0,90,0,0
70998,-95.8292385467414,4,1,0,90,0,0
71212,-94.9750612037522,4,1,0,90,0,0
71319,-94.5187668287336,4,1,0,90,0,0
71426,-94.0470865760155,4,1,0,90,0,0
71641,-93.06159110282,4,1,0,90,0,0
71748,-92.5558292353987,4,1,0,90,0,0
71855,-92.0417751600406,4,1,0,90,0,0
72069,-90.9933322260041,4,1,0,90,0,0
72176,-90.4608805150552,4,1,0,90,0,0
72283,-89.9280575539568,4,1,0,90,0,0
72498,-88.83503191617,4,1,0,90,0,0
72605,-88.2891519344447,4,1,0,90,0,0
72712,-87.7414165788317,4,1,0,90,0,0
72926,-86.6422957957104,4,1,0,90,0,0
73033,-86.0917663225803,4,1,0,90,0,0
73140,-85.5411018119703,4,1,0,90,0,0
73212,-85.1706587989101,4,1,0,90,0,0
73284,-84.8004084177624,4,1,0,90,0,0
73355,-84.4355788711585,4,1,0,90,0,0
73426,-84.0711097999935,4,1,0,90,0,0
73498,-83.7019565803615,4,1,0,90,0,0
73569,-83.3384491323047,4,1,0,90,0,0
73626,-83.1255195344971,4,1,0,90,0,0
74004,-86.9565217391304,4,1,0,90,0,1
79569,-92.6031222846776,4,1,0,90,0,1
79676,-91.4915761730545,4,1,0,90,0,1
79783,-90.4166056219559,4,1,0,90,0,1
79891,-89.3771602254286,4,1,0,90,0,1
79998,-88.3999119400322,4,1,0,90,0,1
80105,-87.4814513348262,4,1,0,90,0,1
80212,-86.6273519211598,4,1,0,90,0,1
80319,-85.8423912712573,4,1,0,90,0,1
80426,-85.1306228845804,4,1,0,90,0,1
80534,-84.4898828257486,4,1,0,90,0,1
80641,-83.9348758071244,4,1,0,90,0,1
80748,-83.4616045100058,4,1,0,90,0,1
80855,-83.0719097191192,4,1,0,90,0,1
80967,-82.767225936885,4,1,0,90,0,1
81074,-82.5486241808486,4,1,0,90,0,1
81181,-82.4168457707009,4,1,0,90,0,1
81289,-82.3723228995058,4,1,0,90,0,1
86861,-82.3723228995058,4,1,0,90,0,0
87714,-111.111111111111,4,1,0,70,0,0
93499,-82.3723228995058,4,1,0,60,0,0
93575,-82.3723228995058,4,1,0,70,0,0
93647,-82.3723228995058,4,1,0,80,0,0
93718,-82.3723228995058,4,1,0,90,0,0
94571,-111.111111111111,4,1,0,70,0,0
100571,-82.3723228995058,4,1,0,90,0,0
101428,-111.111111111111,4,1,0,70,0,0
107428,-82.3723228995058,4,1,0,90,0,0
108285,-111.111111111111,4,1,0,70,0,0
111499,-82.3723228995058,4,1,0,90,0,0
111714,-111.111111111111,4,1,0,70,0,0
113214,-82.3723228995058,4,1,0,90,0,0
113432,-111.111111111111,4,1,0,90,0,0
113540,-82.3723228995058,4,1,0,58,0,0
113694,-82.379010115471,4,1,0,66,0,0
113748,-82.3995641199493,4,1,0,74,0,0
113801,-82.4331804258501,4,1,0,82,0,0
113855,-82.4810535425193,4,1,0,90,0,0
113962,-82.6160870606223,4,1,0,90,0,0
114069,-82.8034866644389,4,1,0,90,0,0
114176,-83.0415941673366,4,1,0,90,0,0
114284,-83.3311636126563,4,1,0,90,0,0
114391,-83.6641669673764,4,1,0,90,0,0
114498,-84.0399106178688,4,1,0,90,0,0
114605,-84.4547327700828,4,1,0,90,0,0
114712,-84.9044595688536,4,1,0,90,0,0
114926,-85.8894013871971,4,1,0,90,0,0
115141,-86.9565217391304,4,1,0,90,0,0
122218,-86.9565217391304,4,1,0,80,0,0
129075,-86.9565217391304,4,1,0,90,0,0
144176,-87.2468236909655,4,1,0,90,0,0
144284,-87.6837313908265,4,1,0,90,0,0
144391,-88.1956214997462,4,1,0,90,0,0
144498,-88.7692902697632,4,1,0,90,0,0
144605,-89.3964837206663,4,1,0,90,0,0
144712,-90.0724705721325,4,1,0,90,0,0
144819,-90.7943717411312,4,1,0,90,0,0
144926,-91.5604273492582,4,1,0,90,0,0
145034,-92.377385818149,4,1,0,90,0,0
145141,-93.229633036415,4,1,0,90,0,0
145248,-94.1244568771609,4,1,0,90,0,0
145355,-95.0621035214764,4,1,0,90,0,0
145462,-96.0430886722372,4,1,0,90,0,0
145569,-97.0681626371075,4,1,0,90,0,0
145932,-100,4,1,0,90,0,0
149361,-100,4,1,0,90,0,0
149432,-86.9565217391304,4,1,0,90,0,1
151571,-92.620291861764,4,1,0,90,0,1
151678,-91.5066963209102,4,1,0,90,0,1
151785,-90.4199220567957,4,1,0,90,0,1
151893,-89.3885057247849,4,1,0,90,0,1
152000,-88.409567707215,4,1,0,90,0,1
152107,-87.4895506237213,4,1,0,90,0,1
152214,-86.6340312824327,4,1,0,90,0,1
152321,-85.8477889996847,4,1,0,90,0,1
152428,-85.1348778192686,4,1,0,90,0,1
152536,-84.4931247358315,4,1,0,90,0,1
152643,-83.9372522827468,4,1,0,90,0,1
152750,-83.4632518352633,4,1,0,90,0,1
152857,-83.0729627599292,4,1,0,90,0,1
152967,-82.7678181743332,4,1,0,90,0,1
153074,-82.5488878811217,4,1,0,90,0,1
153181,-82.416912258719,4,1,0,90,0,1
153289,-82.3723228995058,4,1,0,90,0,1
158861,-82.3723228995058,4,1,0,90,0,0
159611,-82.3723228995058,4,1,0,50,0,0
159718,352.941176470588,4,1,0,60,1,0
159718,-142.857142857143,4,1,0,60,0,0
165276,-142.857142857143,4,1,0,50,0,0
165535,-142.773728647726,4,1,0,50,0,0
165623,-142.669650972758,4,1,0,50,0,0
165712,-142.522408265483,4,1,0,50,0,0
165888,-142.108448560248,4,1,0,50,0,0
165976,-141.841303940166,4,1,0,50,0,0
166064,-141.53486549181,4,1,0,50,0,0
166241,-140.802517513199,4,1,0,50,0,0
166329,-140.382449442535,4,1,0,50,0,0
166417,-139.92647327968,4,1,0,50,0,0
166594,-138.904830852477,4,1,0,50,0,0
166682,-138.347199795482,4,1,0,50,0,0
166770,-137.758158683056,4,1,0,50,0,0
166771,-137.751289328133,4,1,0,50,0,0
166947,-136.48337677872,4,1,0,50,0,0
167035,-135.80748069646,4,1,0,50,0,0
167123,-135.105427881413,4,1,0,50,0,0
167300,-133.619748910707,4,1,0,50,0,0
167388,-132.847349689705,4,1,0,50,0,0
167476,-132.054427937628,4,1,0,50,0,0
167653,-130.403177913663,4,1,0,50,0,0
167741,-129.557027839867,4,1,0,50,0,0
167829,-128.696022877143,4,1,0,50,0,0
168006,-126.92482035141,4,1,0,50,0,0
168094,-126.023944549464,4,1,0,51,0,0
168183,-124.903092428288,4,1,0,52,0,0
168270,-123.802002177208,4,1,0,53,0,0
168359,-122.720155727646,4,1,0,54,0,0
168447,-121.657052962769,4,1,0,55,0,0
168535,-120.612210946598,4,1,0,56,0,0
168623,-119.585163192512,4,1,0,57,0,0
168712,-118.575458968802,4,1,0,58,0,0
168800,-117.582662639123,4,1,0,59,0,0
168888,-116.606353035786,4,1,0,60,0,0
168976,-115.646122864036,4,1,0,61,0,0
169064,-114.701578135506,4,1,0,62,0,0
169153,-113.77233762922,4,1,0,63,0,0
169241,-112.85803237858,4,1,0,64,0,0
169329,-111.958305182897,4,1,0,65,0,0
169417,-111.072810142097,4,1,0,66,0,0
169506,-110.201212213334,4,1,0,67,0,0
169594,-109.343186788327,4,1,0,68,0,0
169682,-108.498419290271,4,1,0,69,0,0
169770,-107.666604789308,4,1,0,70,0,0
169859,-106.84744763554,4,1,0,71,0,0
169947,-106.040661108673,4,1,0,72,0,0
170035,-105.245967083417,4,1,0,73,0,0
170123,-104.463095709809,4,1,0,74,0,0
170212,-103.691785107714,4,1,0,75,0,0
170300,-102.93178107475,4,1,0,76,0,0
170388,-102.182836806963,4,1,0,77,0,0
170476,-101.444712631616,4,1,0,78,0,0
170564,-100.717175751472,4,1,0,79,0,0
170653,-100,4,1,0,80,0,0
178947,-95.2380952380952,4,1,0,90,0,0
179035,-94.6632680837719,4,1,0,90,0,0
179123,-94.0919104051507,4,1,0,90,0,0
179212,-93.5175674848703,4,1,0,90,0,0
179300,-92.9531248943064,4,1,0,90,0,0
179388,-92.3920891014876,4,1,0,90,0,0
179482,-91.8281219970164,4,1,0,90,0,1
179564,-91.2801557837597,4,1,0,90,0,1
179653,-90.7229759899735,4,1,0,90,0,1
179741,-90.1754006737128,4,1,0,90,0,1
179829,-89.6311303496409,4,1,0,90,0,1
179917,-89.0901450698654,4,1,0,90,0,1
180006,-88.5463332387812,4,1,0,90,0,1
180094,-88.0118954527864,4,1,0,90,0,1
180182,-87.4806833649842,4,1,0,90,0,1
180270,-86.9526775060762,4,1,0,90,0,1
180359,-86.4219129110117,4,1,0,90,0,1
180447,-85.9002974571786,4,1,0,90,0,1
180535,-85.3818303099788,4,1,0,90,0,1
180623,-84.8664924672248,4,1,0,90,0,1
180712,-84.3454790823212,4,1,0,90,0,1
180800,-84.3188849460455,4,1,0,90,0,1
180888,-84.2957093483942,4,1,0,90,0,1
180976,-84.3250812366621,4,1,0,90,0,1
181064,-84.4130378871509,4,1,0,90,0,1
181153,-84.5610912817104,4,1,0,90,0,1
181241,-84.765100385717,4,1,0,90,0,1
181329,-85.0252568473056,4,1,0,90,0,1
181417,-85.3400705778552,4,1,0,90,0,1
181506,-85.7121620187231,4,1,0,90,0,1
181594,-86.1309145900841,4,1,0,90,0,1
181682,-86.5975791700948,4,1,0,90,0,1
181770,-87.1091053426078,4,1,0,90,0,1
181859,-87.6685143746537,4,1,0,90,0,1
181947,-88.2592606436929,4,1,0,90,0,1
182035,-88.8830001290527,4,1,0,90,0,1
182123,-89.5348632247108,4,1,0,90,0,1
182212,-90.2172889014319,4,1,0,90,0,1
182306,-90.9090909090909,4,1,0,90,0,0
182389,-100,4,1,0,90,0,0
190242,-95.2380952380952,4,1,0,90,0,0
190330,-94.6632680837719,4,1,0,90,0,0
190418,-94.0919104051507,4,1,0,90,0,0
190507,-93.5175674848703,4,1,0,90,0,0
190595,-92.9531248943064,4,1,0,90,0,0
190683,-92.3920891014876,4,1,0,90,0,0
190776,-91.8344395440555,4,1,0,90,0,1
190859,-91.2801557837597,4,1,0,90,0,1
190948,-90.7229759899735,4,1,0,90,0,1
191036,-90.1754006737128,4,1,0,90,0,1
191124,-89.6311303496409,4,1,0,90,0,1
191212,-89.0901450698654,4,1,0,90,0,1
191301,-88.5463332387812,4,1,0,90,0,1
191389,-88.0118954527864,4,1,0,90,0,1
191477,-87.4806833649842,4,1,0,90,0,1
191565,-86.9526775060762,4,1,0,90,0,1
191654,-86.4219129110117,4,1,0,90,0,1
191742,-85.9002974571786,4,1,0,90,0,1
191830,-85.3818303099788,4,1,0,90,0,1
191918,-84.8664924672248,4,1,0,90,0,1
192007,-84.3454790823212,4,1,0,90,0,1
192095,-84.3188849460455,4,1,0,90,0,1
192183,-84.2957093483942,4,1,0,90,0,1
192271,-84.3250812366621,4,1,0,90,0,1
192359,-84.4130378871509,4,1,0,90,0,1
192448,-84.5610912817104,4,1,0,90,0,1
192536,-84.765100385717,4,1,0,90,0,1
192624,-85.0252568473056,4,1,0,90,0,1
192712,-85.3400705778552,4,1,0,90,0,1
192801,-85.7121620187231,4,1,0,90,0,1
192889,-86.1309145900841,4,1,0,90,0,1
192977,-86.5975791700948,4,1,0,90,0,1
193065,-87.1091053426078,4,1,0,90,0,1
193154,-87.6685143746537,4,1,0,90,0,1
193242,-88.261253309797,4,1,0,90,0,1
193330,-88.7642226316851,4,1,0,90,0,1
193418,-89.2534100254082,4,1,0,90,0,1
193507,-89.7141857922943,4,1,0,90,0,1
193594,-90.1172489754004,4,1,0,90,0,1
193685,-90.4977375565611,4,1,0,90,0,1
193770,-90.7008053261687,4,1,0,90,0,1
193859,-90.8570125161877,4,1,0,90,0,1
193947,-90.9090909090909,4,1,0,90,0,1
196241,-90.9090909090909,4,1,0,90,0,1
196329,-90.845209698348,4,1,0,90,0,1
196417,-90.6618313689936,4,1,0,90,0,1
196506,-90.344609837661,4,1,0,90,0,1
196594,-89.9296579487417,4,1,0,90,0,1
196682,-89.4235815235954,4,1,0,90,0,1
196770,-88.8444848828087,4,1,0,90,0,1
196859,-88.2049966520661,4,1,0,90,0,1
196947,-87.540737490704,4,1,0,90,0,1
197035,-86.8659817609448,4,1,0,90,0,1
197123,-86.4236957005472,4,1,0,90,0,1
197211,-85.988499131255,4,1,0,90,0,1
197300,-85.5505860830822,4,1,0,90,0,1
197388,-85.1197861587964,4,1,0,90,0,1
197476,-84.691155577624,4,1,0,90,0,1
197564,-84.2646834155854,4,1,0,90,0,1
197653,-83.8355492320534,4,1,0,90,0,1
197741,-83.4133855752603,4,1,0,90,0,1
197829,-82.9933477726514,4,1,0,90,0,1
197830,-82.9885867904843,4,1,0,90,0,1
197917,-82.5754251192407,4,1,0,90,0,1
198006,-82.1548938100137,4,1,0,90,0,1
198094,-81.7411932890297,4,1,0,90,0,1
198182,-81.3295760051253,4,1,0,90,0,1
198270,-80.9200314679181,4,1,0,90,0,1
198359,-80.5079305707474,4,1,0,90,0,1
198447,-80.1025235246682,4,1,0,90,0,1
198535,-79.6991579529115,4,1,0,90,0,1
198623,-79.2978235753958,4,1,0,90,0,1
198711,-78.8985101638064,4,1,0,90,0,1
198800,-78.496704254514,4,1,0,90,0,1
198888,-78.1014249724213,4,1,0,90,0,1
198976,-77.7081361651178,4,1,0,90,0,1
199064,-77.3168278093362,4,1,0,90,0,1
199153,-76.9230769230769,4,1,0,90,0,1
199247,461.538461538462,4,1,0,90,1,0
199247,-58.8235294117647,4,1,0,90,0,0
201093,432.692328494823,4,1,0,90,1,0
201093,-71.4285714285714,4,1,0,90,0,0
202823,432.692328494823,4,1,0,70,1,8
202823,-100,4,1,0,70,0,8
203039,480,4,1,0,70,1,0
203039,-92.5925925925926,4,1,0,70,0,0
203273,-95.1932259200502,4,1,0,70,0,0
203384,-96.5491055569473,4,1,0,70,0,0
203513,-97.944168091967,4,1,0,70,0,0
203753,-100.858837998128,4,1,0,70,0,0
203995,-104.018767107805,4,1,0,70,0,0
204233,-107.241528502443,4,1,0,70,0,0
204479,-107.241528502443,4,1,0,80,0,0
204514,534.124629095968,4,1,0,80,1,0
204514,-100.000003363942,4,1,0,80,0,0
208519,534.124629095968,4,1,0,80,1,0
209854,-100,4,1,0,60,0,0
209987,-100,4,1,0,59,0,0
210121,-100,4,1,0,58,0,0
210254,-100,4,1,0,57,0,0
210388,-100,4,1,0,56,0,0
210521,-100,4,1,0,55,0,0
210655,-100,4,1,0,55,0,0
210788,-100,4,1,0,54,0,0
210922,-100,4,1,0,53,0,0
211055,-100,4,1,0,52,0,0
211189,-100,4,1,0,51,0,0
211322,-100,4,1,0,50,0,0
211456,-100,4,1,0,49,0,0
211589,-100,4,1,0,48,0,0
211723,-100,4,1,0,45,0,0
211856,-100,4,1,0,43,0,0
211990,-100,4,1,0,40,0,0
212124,-100,4,1,0,38,0,0
212257,-100,4,1,0,35,0,0
212391,-100,4,1,0,33,0,0
212524,-100,4,1,0,30,0,0
212658,-100,4,1,0,28,0,0
212794,-100,4,1,0,25,0,0

[HitObjects]
254,188,290,5,4,0:0:0:0:
249,196,719,1,8,0:0:0:0:
251,201,1040,1,8,0:0:0:0:
251,201,1147,1,0,0:0:0:0:
251,200,1361,1,8,0:0:0:0:
249,196,1576,5,4,0:0:0:0:
251,201,2004,1,4,0:0:0:0:
238,200,2433,1,8,0:0:0:0:
227,207,2647,1,8,0:0:0:0:
230,205,2718,1,8,0:0:0:0:
231,204,2790,1,8,0:0:0:0:
231,204,2861,1,0,0:0:0:0:
238,200,3076,1,12,0:0:0:0:
216,205,3504,1,4,0:0:0:0:
220,204,3718,5,12,0:0:0:0:
221,204,4147,1,8,0:0:0:0:
222,204,4468,1,8,0:0:0:0:
220,204,4576,5,4,0:0:0:0:
221,204,4790,1,8,0:0:0:0:
222,204,5218,1,0,0:0:0:0:
222,204,5433,5,12,0:0:0:0:
221,204,5647,1,4,0:0:0:0:
222,204,6075,5,4,0:0:0:0:
222,204,6290,1,12,0:0:0:0:
222,204,7147,5,4,0:0:0:0:
222,204,7575,1,8,0:0:0:0:
222,204,7897,1,8,0:0:0:0:
222,204,8004,5,4,0:0:0:0:
222,204,8218,1,8,0:0:0:0:
222,204,8647,1,0,0:0:0:0:
198,217,8861,5,12,0:0:0:0:
186,207,9075,1,0,0:0:0:0:
179,204,9290,1,8,0:0:0:0:
212,208,9611,1,0,0:0:0:0:
212,209,9718,5,12,0:0:0:0:
211,210,9932,1,0,0:0:0:0:
211,213,10147,1,8,0:0:0:0:
211,213,10254,1,8,0:0:0:0:
211,213,10361,1,8,0:0:0:0:
211,213,10468,1,8,0:0:0:0:
210,214,10575,5,4,0:0:0:0:
205,212,10790,1,0,0:0:0:0:
205,212,11004,5,12,0:0:0:0:
183,199,11218,1,0,0:0:0:0:
203,204,11325,1,0,0:0:0:0:
207,207,11432,5,12,0:0:0:0:
204,204,11647,1,0,0:0:0:0:
204,204,11861,5,4,0:0:0:0:
203,204,12290,5,12,0:0:0:0:
204,204,12504,1,4,0:0:0:0:
204,204,12932,5,4,0:0:0:0:
203,204,13147,1,12,0:0:0:0:
204,204,13361,5,0,0:0:0:0:
204,204,13575,1,8,0:0:0:0:
204,204,13682,1,8,0:0:0:0:
204,204,13790,1,0,0:0:0:0:
204,204,13897,1,0,0:0:0:0:
203,204,14004,5,8,0:0:0:0:
175,238,14111,1,0,0:0:0:0:
175,238,14218,1,0,0:0:0:0:
175,238,14325,1,0,0:0:0:0:
175,238,14432,1,8,0:0:0:0:
175,238,14540,1,8,0:0:0:0:
175,238,14647,1,0,0:0:0:0:
175,238,14754,1,0,0:0:0:0:
175,238,14861,1,8,0:0:0:0:
175,238,14968,1,0,0:0:0:0:
175,238,15075,1,8,0:0:0:0:
175,238,15182,1,0,0:0:0:0:
175,238,15290,1,8,0:0:0:0:
175,238,15397,1,8,0:0:0:0:
175,238,15504,1,8,0:0:0:0:
175,238,15611,1,0,0:0:0:0:
175,238,15718,5,8,0:0:0:0:
175,238,15825,1,0,0:0:0:0:
175,238,15932,1,0,0:0:0:0:
175,238,16040,1,0,0:0:0:0:
175,238,16147,1,8,0:0:0:0:
175,238,16254,1,8,0:0:0:0:
175,238,16361,1,8,0:0:0:0:
175,238,16468,1,0,0:0:0:0:
239,189,16575,1,8,0:0:0:0:
253,193,16790,1,8,0:0:0:0:
278,195,16843,1,8,0:0:0:0:
278,195,16897,1,8,0:0:0:0:
278,195,16950,1,8,0:0:0:0:
278,195,17004,5,0,0:0:0:0:
277,195,17111,1,0,0:0:0:0:
271,199,17218,1,0,0:0:0:0:
271,199,17325,1,0,0:0:0:0:
244,190,17432,1,8,0:0:0:0:
278,195,17540,1,0,0:0:0:0:
277,195,17647,1,0,0:0:0:0:
271,199,17754,1,0,0:0:0:0:
271,199,17861,1,8,0:0:0:0:
244,190,17968,1,8,0:0:0:0:
278,195,18075,1,0,0:0:0:0:
277,195,18182,1,0,0:0:0:0:
271,199,18289,1,8,0:0:0:0:
271,199,18396,1,0,0:0:0:0:
244,190,18503,1,8,0:0:0:0:
278,195,18611,1,0,0:0:0:0:
277,195,18718,1,8,0:0:0:0:
271,199,18825,1,8,0:0:0:0:
271,199,18932,1,8,0:0:0:0:
244,190,19039,1,0,0:0:0:0:
218,183,19147,5,8,0:0:0:0:
247,208,19254,1,8,0:0:0:0:
247,208,19361,1,8,0:0:0:0:
247,208,19468,1,8,0:0:0:0:
247,208,19575,1,0,0:0:0:0:
247,208,19682,1,8,0:0:0:0:
247,208,19790,1,0,0:0:0:0:
247,208,19897,1,0,0:0:0:0:
247,208,20004,1,8,0:0:0:0:
247,208,20111,1,8,0:0:0:0:
247,208,20218,1,8,0:0:0:0:
247,208,20325,1,8,0:0:0:0:
247,208,20432,1,0,0:0:0:0:
247,208,20540,1,0,0:0:0:0:
247,208,20647,1,0,0:0:0:0:
247,208,20754,1,0,0:0:0:0:
247,208,20861,1,12,0:0:0:0:
224,200,21075,5,0,0:0:0:0:
224,200,21182,1,8,0:0:0:0:
224,200,21290,1,8,0:0:0:0:
224,200,21504,1,8,0:0:0:0:
224,200,21611,1,0,0:0:0:0:
224,200,21719,1,0,0:0:0:0:
224,200,21932,1,0,0:0:0:0:
224,200,22039,1,8,0:0:0:0:
224,200,22147,1,0,0:0:0:0:
224,200,22254,1,8,0:0:0:0:
224,200,22361,1,0,0:0:0:0:
224,200,22468,1,0,0:0:0:0:
224,200,22576,1,8,0:0:0:0:
224,200,22790,5,0,0:0:0:0:
224,200,22897,1,8,0:0:0:0:
224,200,23005,1,8,0:0:0:0:
224,200,23218,1,8,0:0:0:0:
224,200,23325,1,8,0:0:0:0:
224,200,23433,1,4,0:0:0:0:
242,179,23861,5,0,0:0:0:0:
222,176,24290,5,8,0:0:0:0:
224,200,24504,1,0,0:0:0:0:
224,200,24611,1,0,0:0:0:0:
224,200,24719,1,8,0:0:0:0:
224,200,24932,1,8,0:0:0:0:
224,200,25039,1,0,0:0:0:0:
224,200,25147,1,8,0:0:0:0:
224,200,25361,1,0,0:0:0:0:
224,200,25468,1,8,0:0:0:0:
224,200,25576,1,8,0:0:0:0:
224,200,25682,1,0,0:0:0:0:
224,200,25790,1,0,0:0:0:0:
224,200,25897,1,0,0:0:0:0:
224,200,26004,1,12,0:0:0:0:
227,177,26325,5,0,0:0:0:0:
227,177,26432,1,8,0:0:0:0:
232,175,26647,1,0,0:0:0:0:
232,175,26861,1,8,0:0:0:0:
247,194,27718,1,4,0:0:0:0:
224,200,27932,1,8,0:0:0:0:
224,200,28039,1,0,0:0:0:0:
224,200,28147,1,0,0:0:0:0:
224,200,28360,1,0,0:0:0:0:
224,200,28467,1,0,0:0:0:0:
224,200,28575,1,8,0:0:0:0:
224,200,28789,1,8,0:0:0:0:
224,200,28896,1,0,0:0:0:0:
224,200,29004,1,0,0:0:0:0:
224,200,29218,1,0,0:0:0:0:
224,200,29325,1,8,0:0:0:0:
224,200,29433,1,8,0:0:0:0:
224,200,29647,5,8,0:0:0:0:
224,200,29754,1,0,0:0:0:0:
224,200,29862,1,8,0:0:0:0:
224,200,30075,1,8,0:0:0:0:
224,200,30182,1,8,0:0:0:0:
224,200,30290,1,0,0:0:0:0:
224,200,30504,1,8,0:0:0:0:
224,200,30611,1,0,0:0:0:0:
224,200,30719,1,0,0:0:0:0:
215,213,30825,1,0,0:0:0:0:
224,200,30933,5,8,0:0:0:0:
224,200,31040,1,0,0:0:0:0:
224,200,31148,1,8,0:0:0:0:
224,200,31361,1,8,0:0:0:0:
224,200,31468,1,0,0:0:0:0:
224,200,31576,1,0,0:0:0:0:
224,200,31789,1,0,0:0:0:0:
224,200,31896,1,0,0:0:0:0:
224,200,32004,1,8,0:0:0:0:
224,200,32218,1,8,0:0:0:0:
224,200,32325,1,0,0:0:0:0:
224,200,32433,1,0,0:0:0:0:
224,200,32647,1,0,0:0:0:0:
224,200,32754,1,8,0:0:0:0:
224,200,32862,1,8,0:0:0:0:
218,159,33075,5,8,0:0:0:0:
218,159,33182,1,0,0:0:0:0:
218,159,33290,1,8,0:0:0:0:
218,159,33504,1,8,0:0:0:0:
218,159,33611,1,8,0:0:0:0:
218,159,33718,1,8,0:0:0:0:
218,159,33932,1,0,0:0:0:0:
218,159,34040,1,0,0:0:0:0:
218,178,34147,5,8,0:0:0:0:
218,178,34254,1,8,0:0:0:0:
218,178,34361,1,8,0:0:0:0:
218,178,34468,1,8,0:0:0:0:
218,178,34575,1,4,0:0:0:0:
224,200,34790,1,8,0:0:0:0:
224,200,34897,1,8,0:0:0:0:
224,200,35005,1,0,0:0:0:0:
224,200,35218,1,0,0:0:0:0:
224,200,35325,1,8,0:0:0:0:
224,200,35433,1,8,0:0:0:0:
224,200,35647,1,8,0:0:0:0:
224,200,35754,1,8,0:0:0:0:
224,200,35862,1,0,0:0:0:0:
224,200,36076,5,0,0:0:0:0:
224,200,36183,1,8,0:0:0:0:
224,200,36291,1,8,0:0:0:0:
200,196,36504,1,8,0:0:0:0:
200,196,36611,1,8,0:0:0:0:
200,196,36718,1,0,0:0:0:0:
200,196,36932,1,8,0:0:0:0:
200,196,37040,1,0,0:0:0:0:
200,196,37147,1,8,0:0:0:0:
200,196,37361,1,8,0:0:0:0:
200,196,37468,1,0,0:0:0:0:
218,196,37575,1,8,0:0:0:0:
218,196,37682,1,8,0:0:0:0:
218,196,37790,1,8,0:0:0:0:
218,196,37897,1,8,0:0:0:0:
218,196,38004,1,4,0:0:0:0:
213,213,38325,5,0,0:0:0:0:
215,142,38379,1,0,0:0:0:0:
215,142,38432,1,8,0:0:0:0:
222,184,38540,1,8,0:0:0:0:
222,184,38647,1,8,0:0:0:0:
222,184,38754,1,8,0:0:0:0:
222,184,38861,5,0,0:0:0:0:
222,184,38968,1,8,0:0:0:0:
222,184,39075,1,0,0:0:0:0:
222,184,39182,1,8,0:0:0:0:
222,184,39290,1,0,0:0:0:0:
222,184,39397,1,0,0:0:0:0:
222,184,39504,1,8,0:0:0:0:
222,184,39611,1,8,0:0:0:0:
222,184,39718,5,4,0:0:0:0:
222,176,40040,1,12,0:0:0:0:
222,176,40361,5,4,0:0:0:0:
222,176,40575,1,12,0:0:0:0:
222,176,40790,5,0,0:0:0:0:
222,176,40897,1,0,0:0:0:0:
448,64,41004,1,8,0:0:0:0:
448,320,41432,5,12,0:0:0:0:
200,141,41647,1,0,0:0:0:0:
200,141,41754,1,8,0:0:0:0:
200,141,41861,1,8,0:0:0:0:
200,141,42075,1,8,0:0:0:0:
200,141,42182,1,0,0:0:0:0:
200,141,42289,1,8,0:0:0:0:
200,141,42504,1,0,0:0:0:0:
200,141,42611,1,0,0:0:0:0:
200,141,42718,1,0,0:0:0:0:
200,141,42932,1,0,0:0:0:0:
200,141,43039,1,0,0:0:0:0:
200,141,43146,1,8,0:0:0:0:
200,141,43361,5,0,0:0:0:0:
200,141,43468,1,8,0:0:0:0:
200,141,43575,1,8,0:0:0:0:
200,141,43790,1,0,0:0:0:0:
200,141,43897,1,8,0:0:0:0:
200,141,44004,1,0,0:0:0:0:
200,141,44218,1,8,0:0:0:0:
200,141,44325,1,8,0:0:0:0:
200,141,44432,1,0,0:0:0:0:
207,152,44647,5,4,0:0:0:0:
207,152,44861,1,12,0:0:0:0:
200,141,45075,1,0,0:0:0:0:
200,141,45182,1,8,0:0:0:0:
200,141,45289,1,8,0:0:0:0:
200,141,45504,1,8,0:0:0:0:
200,141,45611,1,0,0:0:0:0:
200,141,45718,1,8,0:0:0:0:
200,141,45932,1,0,0:0:0:0:
200,141,46039,1,0,0:0:0:0:
200,141,46146,1,8,0:0:0:0:
200,141,46361,1,8,0:0:0:0:
200,141,46575,5,8,0:0:0:0:
132,207,46682,1,0,0:0:0:0:
201,129,46790,1,0,0:0:0:0:
140,204,46897,1,0,0:0:0:0:
200,130,47004,1,8,0:0:0:0:
200,130,47111,1,8,0:0:0:0:
200,130,47218,1,0,0:0:0:0:
200,130,47325,1,8,0:0:0:0:
200,130,47432,1,0,0:0:0:0:
174,139,47540,1,0,0:0:0:0:
197,143,47647,1,8,0:0:0:0:
197,143,47754,1,8,0:0:0:0:
197,143,47861,1,0,0:0:0:0:
197,143,47968,1,8,0:0:0:0:
197,143,48075,1,0,0:0:0:0:
197,143,48182,1,0,0:0:0:0:
197,143,48290,5,8,0:0:0:0:
211,156,48397,1,0,0:0:0:0:
211,156,48504,1,8,0:0:0:0:
210,156,48611,1,8,0:0:0:0:
210,156,48718,1,0,0:0:0:0:
210,156,48825,1,0,0:0:0:0:
210,156,48932,1,8,0:0:0:0:
210,156,49040,1,0,0:0:0:0:
210,156,49147,5,8,0:0:0:0:
210,156,49254,1,8,0:0:0:0:
211,156,49361,1,8,0:0:0:0:
211,156,49468,1,0,0:0:0:0:
210,156,49575,1,8,0:0:0:0:
210,156,49682,1,8,0:0:0:0:
210,156,49790,1,0,0:0:0:0:
210,156,49897,1,0,0:0:0:0:
210,156,50004,5,8,0:0:0:0:
210,156,50111,1,8,0:0:0:0:
210,156,50218,1,0,0:0:0:0:
211,156,50325,1,0,0:0:0:0:
211,156,50432,5,8,0:0:0:0:
210,156,50540,1,8,0:0:0:0:
210,156,50647,1,8,0:0:0:0:
210,156,50754,1,0,0:0:0:0:
210,156,50861,5,8,0:0:0:0:
210,156,50968,1,0,0:0:0:0:
210,156,51075,1,8,0:0:0:0:
210,156,51182,1,0,0:0:0:0:
211,156,51290,1,0,0:0:0:0:
211,156,51397,1,0,0:0:0:0:
210,156,51504,5,8,0:0:0:0:
210,156,51611,1,8,0:0:0:0:
193,157,51718,1,0,0:0:0:0:
200,141,51932,1,0,0:0:0:0:
200,141,52039,1,8,0:0:0:0:
200,141,52146,1,8,0:0:0:0:
200,141,52361,1,8,0:0:0:0:
200,141,52468,1,0,0:0:0:0:
200,141,52575,1,8,0:0:0:0:
200,141,52790,1,0,0:0:0:0:
200,141,52897,1,8,0:0:0:0:
200,141,53004,1,0,0:0:0:0:
200,141,53218,1,0,0:0:0:0:
200,141,53325,1,0,0:0:0:0:
200,141,53432,5,12,0:0:0:0:
212,141,53647,1,4,0:0:0:0:
211,142,54075,5,4,0:0:0:0:
211,142,54290,1,12,0:0:0:0:
211,142,54718,1,8,0:0:0:0:
211,142,54825,1,8,0:0:0:0:
211,142,54932,1,0,0:0:0:0:
211,142,55040,1,0,0:0:0:0:
211,142,55147,5,8,0:0:0:0:
177,158,55254,1,8,0:0:0:0:
222,174,55361,1,8,0:0:0:0:
200,170,55468,1,0,0:0:0:0:
200,170,55575,1,8,0:0:0:0:
200,170,55682,1,0,0:0:0:0:
200,170,55790,1,0,0:0:0:0:
200,170,55897,1,0,0:0:0:0:
200,170,56004,5,8,0:0:0:0:
200,170,56111,1,8,0:0:0:0:
200,170,56218,1,0,0:0:0:0:
200,170,56325,1,8,0:0:0:0:
200,170,56432,1,0,0:0:0:0:
200,170,56540,1,0,0:0:0:0:
200,170,56647,1,8,0:0:0:0:
200,170,56754,1,0,0:0:0:0:
200,170,56861,5,8,0:0:0:0:
200,170,56968,1,8,0:0:0:0:
200,170,57075,1,0,0:0:0:0:
200,170,57182,1,0,0:0:0:0:
200,170,57290,5,8,0:0:0:0:
200,170,57397,1,0,0:0:0:0:
200,170,57504,1,8,0:0:0:0:
200,170,57611,1,0,0:0:0:0:
229,175,57718,1,8,0:0:0:0:
229,175,57825,1,0,0:0:0:0:
229,175,57932,5,8,0:0:0:0:
224,172,57986,1,8,0:0:0:0:
224,172,58040,1,8,0:0:0:0:
224,172,58093,1,8,0:0:0:0:
224,172,58147,5,8,0:0:0:0:
201,166,58254,1,0,0:0:0:0:
201,166,58361,1,0,0:0:0:0:
183,176,58468,1,0,0:0:0:0:
184,176,58575,5,8,0:0:0:0:
161,160,58682,1,8,0:0:0:0:
213,207,58790,1,8,0:0:0:0:
213,207,58897,1,0,0:0:0:0:
213,207,59004,1,8,0:0:0:0:
213,207,59111,1,0,0:0:0:0:
213,207,59218,1,0,0:0:0:0:
213,207,59325,1,0,0:0:0:0:
213,207,59432,5,8,0:0:0:0:
213,207,59540,1,8,0:0:0:0:
213,207,59647,1,0,0:0:0:0:
213,207,59754,1,8,0:0:0:0:
213,207,59861,1,0,0:0:0:0:
213,207,59968,1,0,0:0:0:0:
213,207,60075,1,8,0:0:0:0:
213,207,60182,1,0,0:0:0:0:
213,207,60290,5,8,0:0:0:0:
213,207,60397,1,0,0:0:0:0:
213,207,60504,1,0,0:0:0:0:
213,207,60611,1,0,0:0:0:0:
213,207,60718,5,8,0:0:0:0:
213,207,60825,1,0,0:0:0:0:
213,207,60932,1,0,0:0:0:0:
213,207,61040,1,0,0:0:0:0:
213,207,61147,5,8,0:0:0:0:
213,207,61254,1,8,0:0:0:0:
213,207,61361,1,0,0:0:0:0:
213,207,61468,1,0,0:0:0:0:
213,207,61575,1,8,0:0:0:0:
213,207,61682,1,8,0:0:0:0:
213,207,61790,1,0,0:0:0:0:
213,207,61897,1,0,0:0:0:0:
213,207,62004,5,8,0:0:0:0:
213,207,62111,1,8,0:0:0:0:
213,207,62218,1,8,0:0:0:0:
213,207,62325,1,8,0:0:0:0:
213,207,62432,1,0,0:0:0:0:
213,207,62540,1,0,0:0:0:0:
213,207,62647,1,8,0:0:0:0:
213,207,62754,1,0,0:0:0:0:
213,207,62861,5,8,0:0:0:0:
213,207,62968,1,0,0:0:0:0:
213,207,63075,1,0,0:0:0:0:
213,207,63182,1,8,0:0:0:0:
213,207,63290,1,8,0:0:0:0:
213,207,63397,1,0,0:0:0:0:
213,207,63504,1,8,0:0:0:0:
213,207,63611,1,0,0:0:0:0:
213,207,63718,5,8,0:0:0:0:
213,207,63825,1,0,0:0:0:0:
213,207,63932,1,0,0:0:0:0:
213,207,64040,1,8,0:0:0:0:
213,207,64147,1,0,0:0:0:0:
213,207,64254,1,0,0:0:0:0:
213,207,64361,1,8,0:0:0:0:
213,207,64468,1,0,0:0:0:0:
213,207,64575,5,8,0:0:0:0:
213,207,64682,1,8,0:0:0:0:
213,207,64790,1,0,0:0:0:0:
213,207,64897,1,0,0:0:0:0:
213,207,65004,1,8,0:0:0:0:
213,207,65111,1,8,0:0:0:0:
213,207,65218,1,0,0:0:0:0:
213,207,65325,1,0,0:0:0:0:
213,207,65432,5,12,0:0:0:0:
193,247,66290,5,8,0:0:0:0:
193,247,66611,1,0,0:0:0:0:
191,254,67147,1,4,0:0:0:0:
222,226,68004,5,8,0:0:0:0:
222,226,68325,1,8,0:0:0:0:
222,226,68861,1,12,0:0:0:0:
216,185,69504,1,8,0:0:0:0:
212,212,69718,5,0,0:0:0:0:
212,212,70575,5,8,0:0:0:0:
210,199,70790,1,0,0:0:0:0:
210,199,70897,1,0,0:0:0:0:
211,199,71004,1,0,0:0:0:0:
210,199,71218,1,0,0:0:0:0:
210,199,71325,1,0,0:0:0:0:
211,199,71432,1,8,0:0:0:0:
210,199,71647,5,8,0:0:0:0:
210,199,71754,1,0,0:0:0:0:
211,199,71861,1,0,0:0:0:0:
210,199,72075,1,0,0:0:0:0:
210,199,72182,1,8,0:0:0:0:
211,199,72289,1,8,0:0:0:0:
210,199,72504,5,8,0:0:0:0:
210,199,72611,1,8,0:0:0:0:
211,199,72718,1,0,0:0:0:0:
210,199,72932,1,0,0:0:0:0:
210,199,73039,1,0,0:0:0:0:
211,199,73146,5,8,0:0:0:0:
198,206,73218,1,8,0:0:0:0:
198,206,73290,1,0,0:0:0:0:
198,205,73361,1,0,0:0:0:0:
198,205,73432,1,0,0:0:0:0:
198,205,73504,1,0,0:0:0:0:
211,199,73575,1,8,0:0:0:0:
198,179,73629,1,8,0:0:0:0:
211,199,74004,5,4,0:0:0:0:
210,199,74218,1,8,0:0:0:0:
210,199,74325,1,0,0:0:0:0:
211,199,74432,1,8,0:0:0:0:
210,199,74647,1,0,0:0:0:0:
210,199,74754,1,8,0:0:0:0:
211,199,74861,1,8,0:0:0:0:
181,164,74968,1,0,0:0:0:0:
210,199,75075,1,8,0:0:0:0:
210,199,75182,1,0,0:0:0:0:
211,199,75289,1,0,0:0:0:0:
210,199,75504,1,0,0:0:0:0:
210,199,75611,1,0,0:0:0:0:
211,199,75718,1,8,0:0:0:0:
210,199,75932,5,0,0:0:0:0:
210,199,76039,1,8,0:0:0:0:
211,199,76146,1,8,0:0:0:0:
210,199,76361,1,8,0:0:0:0:
210,199,76468,1,8,0:0:0:0:
211,199,76575,1,8,0:0:0:0:
213,185,76682,1,0,0:0:0:0:
210,199,76790,1,8,0:0:0:0:
210,199,76897,1,0,0:0:0:0:
211,199,77004,1,0,0:0:0:0:
210,199,77218,5,8,0:0:0:0:
210,199,77325,1,8,0:0:0:0:
211,199,77432,1,0,0:0:0:0:
210,199,77647,1,8,0:0:0:0:
210,199,77754,1,0,0:0:0:0:
211,199,77861,1,8,0:0:0:0:
210,199,78075,1,0,0:0:0:0:
210,199,78182,1,8,0:0:0:0:
211,199,78289,1,8,0:0:0:0:
194,165,78397,1,0,0:0:0:0:
210,199,78504,1,8,0:0:0:0:
210,199,78611,1,0,0:0:0:0:
211,199,78718,1,0,0:0:0:0:
210,199,78933,1,0,0:0:0:0:
210,199,79040,1,0,0:0:0:0:
211,199,79147,1,8,0:0:0:0:
136,168,79361,1,8,0:0:0:0:
210,199,79575,5,0,0:0:0:0:
210,199,79682,1,0,0:0:0:0:
211,199,79789,1,8,0:0:0:0:
210,199,79897,1,0,0:0:0:0:
210,199,80004,1,8,0:0:0:0:
211,199,80111,1,0,0:0:0:0:
210,199,80218,5,8,0:0:0:0:
210,199,80325,1,8,0:0:0:0:
211,199,80432,1,0,0:0:0:0:
210,199,80540,1,0,0:0:0:0:
210,199,80647,1,8,0:0:0:0:
211,199,80754,1,0,0:0:0:0:
210,199,80861,5,8,0:0:0:0:
210,199,80968,1,0,0:0:0:0:
211,199,81075,1,0,0:0:0:0:
210,199,81182,1,0,0:0:0:0:
210,199,81290,1,8,0:0:0:0:
211,199,81397,1,0,0:0:0:0:
210,199,81504,1,0,0:0:0:0:
210,199,81611,1,8,0:0:0:0:
211,199,81718,1,8,0:0:0:0:
210,199,81825,1,0,0:0:0:0:
210,199,81932,1,8,0:0:0:0:
211,199,82040,1,0,0:0:0:0:
210,199,82147,1,0,0:0:0:0:
210,199,82254,1,0,0:0:0:0:
211,199,82361,1,8,0:0:0:0:
210,199,82468,1,0,0:0:0:0:
210,199,82575,5,8,0:0:0:0:
211,199,82682,1,8,0:0:0:0:
210,199,82790,1,0,0:0:0:0:
210,199,82897,1,0,0:0:0:0:
211,199,83004,1,8,0:0:0:0:
210,199,83111,1,0,0:0:0:0:
210,199,83218,1,0,0:0:0:0:
211,199,83325,1,8,0:0:0:0:
210,199,83432,1,8,0:0:0:0:
210,199,83540,1,0,0:0:0:0:
211,199,83647,1,8,0:0:0:0:
210,199,83754,1,8,0:0:0:0:
210,199,83861,1,0,0:0:0:0:
211,199,83968,1,0,0:0:0:0:
210,199,84075,5,8,0:0:0:0:
210,199,84182,1,0,0:0:0:0:
224,214,84290,1,8,0:0:0:0:
221,198,84504,1,0,0:0:0:0:
219,196,84611,1,8,0:0:0:0:
219,196,84718,1,8,0:0:0:0:
219,195,84932,5,0,0:0:0:0:
219,195,85040,1,0,0:0:0:0:
219,195,85147,1,12,0:0:0:0:
221,189,85361,5,0,0:0:0:0:
221,189,85468,1,0,0:0:0:0:
221,189,85575,1,12,0:0:0:0:
211,187,85790,5,0,0:0:0:0:
212,187,85897,1,0,0:0:0:0:
219,195,86004,1,12,0:0:0:0:
219,195,86218,1,4,0:0:0:0:
246,172,86861,5,12,0:0:0:0:
246,172,87182,5,4,0:0:0:0:
246,172,87504,5,12,0:0:0:0:
246,172,88147,1,8,0:0:0:0:
246,172,89004,1,8,0:0:0:0:
246,172,89861,1,8,0:0:0:0:
246,172,90718,1,8,0:0:0:0:
246,172,91575,1,8,0:0:0:0:
246,172,92432,1,8,0:0:0:0:
246,172,93290,1,8,0:0:0:0:
237,182,93504,5,0,0:0:0:0:
238,182,93575,1,0,0:0:0:0:
246,160,93647,1,0,0:0:0:0:
246,172,93718,1,12,0:0:0:0:
246,172,94040,5,4,0:0:0:0:
246,172,94361,5,12,0:0:0:0:
246,172,95004,1,8,0:0:0:0:
246,172,95861,1,8,0:0:0:0:
246,172,96718,1,8,0:0:0:0:
246,172,97575,1,8,0:0:0:0:
246,172,98432,1,8,0:0:0:0:
246,172,99290,1,8,0:0:0:0:
246,172,100147,1,8,0:0:0:0:
246,172,100575,5,4,0:0:0:0:
246,172,100897,5,12,0:0:0:0:
246,172,101218,5,12,0:0:0:0:
246,172,101861,1,8,0:0:0:0:
246,172,102718,1,8,0:0:0:0:
246,172,103575,1,8,0:0:0:0:
246,172,104432,1,8,0:0:0:0:
246,172,105290,1,8,0:0:0:0:
246,172,106147,1,8,0:0:0:0:
246,172,107004,1,8,0:0:0:0:
246,172,107432,5,4,0:0:0:0:
246,172,107754,5,4,0:0:0:0:
246,172,108075,5,12,0:0:0:0:
246,172,108718,1,8,0:0:0:0:
246,172,109575,1,8,0:0:0:0:
246,172,110432,1,8,0:0:0:0:
246,172,111290,1,8,0:0:0:0:
246,172,111504,5,4,0:0:0:0:
246,172,112147,1,8,0:0:0:0:
246,172,113004,1,8,0:0:0:0:
256,182,113218,5,12,0:0:0:0:
253,174,113647,1,8,0:0:0:0:
253,174,113700,1,8,0:0:0:0:
253,174,113754,1,8,0:0:0:0:
253,174,113807,1,8,0:0:0:0:
251,194,113861,1,0,0:0:0:0:
251,194,113968,1,0,0:0:0:0:
253,195,114075,1,0,0:0:0:0:
253,195,114182,1,0,0:0:0:0:
253,195,114290,1,8,0:0:0:0:
242,182,114397,1,8,0:0:0:0:
242,182,114504,1,0,0:0:0:0:
242,182,114611,1,0,0:0:0:0:
242,182,114718,1,0,0:0:0:0:
242,182,114932,1,0,0:0:0:0:
242,182,115147,5,12,0:0:0:0:
220,238,115468,1,12,0:0:0:0:
220,238,115790,1,4,0:0:0:0:
246,210,116218,1,0,0:0:0:0:
246,210,116290,1,0,0:0:0:0:
197,176,116361,1,0,0:0:0:0:
246,210,116432,1,8,0:0:0:0:
230,204,116540,1,0,0:0:0:0:
230,202,116647,1,0,0:0:0:0:
231,202,116754,1,0,0:0:0:0:
246,210,116861,1,8,0:0:0:0:
246,210,116932,1,8,0:0:0:0:
246,210,117004,1,8,0:0:0:0:
246,210,117075,1,0,0:0:0:0:
204,195,117182,1,8,0:0:0:0:
243,192,117504,1,0,0:0:0:0:
230,188,117611,1,0,0:0:0:0:
227,187,117718,1,8,0:0:0:0:
211,182,118147,5,8,0:0:0:0:
210,182,118361,1,8,0:0:0:0:
210,182,118468,1,8,0:0:0:0:
210,182,118575,1,0,0:0:0:0:
200,187,118790,1,0,0:0:0:0:
200,187,118861,1,0,0:0:0:0:
149,157,118932,1,0,0:0:0:0:
200,187,119004,1,8,0:0:0:0:
200,187,119111,1,8,0:0:0:0:
200,187,119218,1,0,0:0:0:0:
200,187,119325,1,0,0:0:0:0:
200,187,119432,1,8,0:0:0:0:
200,187,119540,1,0,0:0:0:0:
200,187,119647,1,0,0:0:0:0:
200,187,119754,1,8,0:0:0:0:
231,168,120075,1,0,0:0:0:0:
249,159,120290,5,0,0:0:0:0:
249,159,120397,1,0,0:0:0:0:
249,159,120504,1,8,0:0:0:0:
249,159,120611,1,0,0:0:0:0:
249,159,120718,1,8,0:0:0:0:
249,159,120825,1,8,0:0:0:0:
249,159,120932,1,0,0:0:0:0:
249,159,121040,1,0,0:0:0:0:
249,159,121147,5,8,0:0:0:0:
249,159,121254,1,8,0:0:0:0:
249,159,121361,1,8,0:0:0:0:
249,159,121468,1,0,0:0:0:0:
249,159,121575,1,8,0:0:0:0:
249,159,121682,1,0,0:0:0:0:
249,159,121790,1,8,0:0:0:0:
249,159,121897,1,8,0:0:0:0:
249,159,122004,1,8,0:0:0:0:
227,223,122325,1,0,0:0:0:0:
265,176,122647,5,8,0:0:0:0:
265,176,122718,1,8,0:0:0:0:
83,145,122790,1,8,0:0:0:0:
265,176,122861,1,8,0:0:0:0:
233,203,122968,1,0,0:0:0:0:
233,203,123075,1,0,0:0:0:0:
233,203,123182,1,8,0:0:0:0:
233,203,123290,1,0,0:0:0:0:
233,203,123397,1,0,0:0:0:0:
233,203,123504,5,8,0:0:0:0:
233,203,123611,1,8,0:0:0:0:
233,203,123718,1,0,0:0:0:0:
238,203,123825,1,8,0:0:0:0:
238,203,123932,1,8,0:0:0:0:
238,203,124040,1,0,0:0:0:0:
238,203,124147,1,8,0:0:0:0:
239,203,124254,1,8,0:0:0:0:
239,203,124361,5,0,0:0:0:0:
284,156,124415,1,0,0:0:0:0:
284,156,124468,1,0,0:0:0:0:
284,156,124522,1,0,0:0:0:0:
284,156,124575,5,8,0:0:0:0:
242,172,124718,1,8,0:0:0:0:
242,172,124861,1,0,0:0:0:0:
242,172,125004,1,0,0:0:0:0:
226,165,125147,1,8,0:0:0:0:
224,164,125290,1,0,0:0:0:0:
224,163,125432,1,12,0:0:0:0:
217,174,125647,5,8,0:0:0:0:
217,174,125700,1,8,0:0:0:0:
217,174,125754,1,8,0:0:0:0:
217,174,125807,1,8,0:0:0:0:
217,174,125861,1,0,0:0:0:0:
204,187,126004,1,0,0:0:0:0:
204,187,126147,1,0,0:0:0:0:
217,174,126290,1,12,0:0:0:0:
197,180,126504,5,0,0:0:0:0:
233,150,126557,1,0,0:0:0:0:
233,150,126611,1,0,0:0:0:0:
233,150,126665,1,0,0:0:0:0:
197,180,126718,1,8,0:0:0:0:
233,150,126825,1,8,0:0:0:0:
200,180,126932,1,0,0:0:0:0:
233,150,127040,1,0,0:0:0:0:
200,180,127147,5,8,0:0:0:0:
246,185,127290,1,0,0:0:0:0:
246,185,127432,1,0,0:0:0:0:
216,163,127575,1,8,0:0:0:0:
226,177,127718,1,0,0:0:0:0:
226,177,127861,1,8,0:0:0:0:
226,177,128004,1,0,0:0:0:0:
226,177,128147,1,8,0:0:0:0:
226,177,128290,1,0,0:0:0:0:
226,177,128432,5,8,0:0:0:0:
216,163,128504,1,8,0:0:0:0:
216,163,128575,1,0,0:0:0:0:
217,161,128647,1,0,0:0:0:0:
217,161,128718,1,0,0:0:0:0:
217,161,128790,1,0,0:0:0:0:
217,161,128861,1,8,0:0:0:0:
214,156,129290,5,8,0:0:0:0:
221,156,129361,1,0,0:0:0:0:
221,155,129432,1,0,0:0:0:0:
191,158,129504,1,8,0:0:0:0:
222,154,129718,5,0,0:0:0:0:
222,154,129790,1,8,0:0:0:0:
226,207,129861,1,0,0:0:0:0:
246,156,129932,1,0,0:0:0:0:
214,156,130004,1,8,0:0:0:0:
223,159,130075,1,8,0:0:0:0:
222,154,130147,5,0,0:0:0:0:
218,191,130218,1,8,0:0:0:0:
218,191,130290,1,0,0:0:0:0:
221,156,130361,5,0,0:0:0:0:
236,157,130432,1,8,0:0:0:0:
199,183,130504,1,8,0:0:0:0:
231,159,130575,5,0,0:0:0:0:
209,161,130647,1,0,0:0:0:0:
188,142,130718,1,0,0:0:0:0:
209,161,130790,1,8,0:0:0:0:
209,161,130861,1,0,0:0:0:0:
209,161,130932,1,8,0:0:0:0:
231,159,131004,5,8,0:0:0:0:
231,159,131075,1,8,0:0:0:0:
215,183,131147,1,0,0:0:0:0:
204,180,131218,1,8,0:0:0:0:
204,180,131290,1,0,0:0:0:0:
213,202,131361,1,0,0:0:0:0:
231,159,131432,1,8,0:0:0:0:
231,159,131647,1,0,0:0:0:0:
231,159,131861,1,8,0:0:0:0:
231,159,132075,1,0,0:0:0:0:
227,172,132182,1,0,0:0:0:0:
227,172,132290,5,8,0:0:0:0:
219,159,132361,1,0,0:0:0:0:
219,159,132432,1,8,0:0:0:0:
219,159,132504,1,8,0:0:0:0:
182,187,132575,1,0,0:0:0:0:
179,231,132647,1,0,0:0:0:0:
225,167,132718,5,8,0:0:0:0:
225,167,132790,1,0,0:0:0:0:
188,154,132861,1,8,0:0:0:0:
225,167,132932,1,8,0:0:0:0:
182,187,133004,1,0,0:0:0:0:
225,183,133075,1,0,0:0:0:0:
225,167,133147,5,8,0:0:0:0:
225,167,133218,1,0,0:0:0:0:
210,170,133290,1,8,0:0:0:0:
225,167,133361,1,8,0:0:0:0:
182,187,133432,1,0,0:0:0:0:
276,154,133504,1,0,0:0:0:0:
225,167,133575,5,8,0:0:0:0:
225,167,133647,1,0,0:0:0:0:
204,157,133718,1,8,0:0:0:0:
225,167,133790,1,8,0:0:0:0:
229,145,133861,1,0,0:0:0:0:
211,167,133932,1,0,0:0:0:0:
244,168,134004,5,8,0:0:0:0:
245,167,134075,1,0,0:0:0:0:
245,167,134147,1,0,0:0:0:0:
245,167,134218,1,8,0:0:0:0:
222,159,134290,1,8,0:0:0:0:
252,168,134361,1,8,0:0:0:0:
252,168,134432,5,0,0:0:0:0:
248,156,134540,1,8,0:0:0:0:
248,156,134647,1,0,0:0:0:0:
248,156,134754,1,0,0:0:0:0:
250,168,134861,5,12,0:0:0:0:
244,154,135182,5,4,0:0:0:0:
248,156,135504,5,0,0:0:0:0:
219,213,135611,1,0,0:0:0:0:
216,178,135718,1,8,0:0:0:0:
216,178,135790,1,8,0:0:0:0:
216,178,135861,1,0,0:0:0:0:
163,165,135932,1,8,0:0:0:0:
216,178,136004,1,0,0:0:0:0:
53,162,136075,1,0,0:0:0:0:
216,178,136147,5,8,0:0:0:0:
216,178,136218,1,8,0:0:0:0:
216,178,136290,1,0,0:0:0:0:
216,178,136361,1,8,0:0:0:0:
182,182,136432,1,0,0:0:0:0:
182,182,136504,1,0,0:0:0:0:
216,178,136575,5,8,0:0:0:0:
216,178,136647,1,0,0:0:0:0:
216,178,136718,1,8,0:0:0:0:
216,178,136790,1,8,0:0:0:0:
144,180,136861,1,0,0:0:0:0:
187,181,136932,1,0,0:0:0:0:
216,178,137004,5,8,0:0:0:0:
216,178,137075,1,8,0:0:0:0:
216,178,137147,1,8,0:0:0:0:
216,178,137218,1,0,0:0:0:0:
189,193,137290,1,0,0:0:0:0:
189,193,137361,1,0,0:0:0:0:
216,178,137432,5,8,0:0:0:0:
216,178,137540,1,0,0:0:0:0:
216,178,137647,1,0,0:0:0:0:
216,178,137754,1,8,0:0:0:0:
216,178,137861,1,8,0:0:0:0:
216,178,137968,1,0,0:0:0:0:
216,178,138075,1,8,0:0:0:0:
216,178,138182,1,0,0:0:0:0:
216,178,138290,5,8,0:0:0:0:
216,178,138397,1,0,0:0:0:0:
216,178,138504,1,0,0:0:0:0:
216,178,138611,1,8,0:0:0:0:
216,178,138718,1,0,0:0:0:0:
216,178,138825,1,0,0:0:0:0:
216,178,138932,1,8,0:0:0:0:
216,178,139040,1,0,0:0:0:0:
216,178,139147,1,8,0:0:0:0:
219,214,139361,5,8,0:0:0:0:
219,214,139468,1,0,0:0:0:0:
219,214,139575,1,0,0:0:0:0:
219,214,139790,1,0,0:0:0:0:
219,214,139897,1,0,0:0:0:0:
219,214,140004,1,8,0:0:0:0:
219,214,140218,5,0,0:0:0:0:
219,214,140325,1,8,0:0:0:0:
219,214,140432,1,8,0:0:0:0:
219,214,140647,1,8,0:0:0:0:
219,214,140754,1,8,0:0:0:0:
219,214,140861,1,0,0:0:0:0:
219,214,141075,5,0,0:0:0:0:
219,214,141182,1,0,0:0:0:0:
219,214,141290,1,0,0:0:0:0:
219,214,141504,1,0,0:0:0:0:
219,214,141611,1,0,0:0:0:0:
219,214,141718,1,8,0:0:0:0:
218,213,141932,5,0,0:0:0:0:
218,213,142040,1,0,0:0:0:0:
218,213,142147,1,8,0:0:0:0:
218,213,142254,1,8,0:0:0:0:
218,213,142361,1,0,0:0:0:0:
218,213,142468,1,0,0:0:0:0:
218,213,142575,5,8,0:0:0:0:
214,220,142647,1,0,0:0:0:0:
145,179,142718,1,8,0:0:0:0:
190,210,142790,1,8,0:0:0:0:
214,220,142861,1,0,0:0:0:0:
209,174,142932,1,8,0:0:0:0:
214,220,143004,5,8,0:0:0:0:
187,200,143075,1,0,0:0:0:0:
214,220,143147,1,8,0:0:0:0:
101,172,143218,1,0,0:0:0:0:
101,172,143290,1,8,0:0:0:0:
214,220,143361,1,0,0:0:0:0:
214,220,143432,1,8,0:0:0:0:
215,220,143647,5,8,0:0:0:0:
215,220,143754,1,0,0:0:0:0:
215,220,143861,1,8,0:0:0:0:
215,220,144075,5,8,0:0:0:0:
214,220,144182,1,8,0:0:0:0:
214,220,144290,1,0,0:0:0:0:
214,220,144397,1,8,0:0:0:0:
215,220,144504,1,0,0:0:0:0:
215,220,144611,1,0,0:0:0:0:
215,220,144718,1,8,0:0:0:0:
215,220,144825,1,8,0:0:0:0:
215,220,144932,1,0,0:0:0:0:
215,220,145040,1,0,0:0:0:0:
214,220,145147,1,8,0:0:0:0:
214,220,145254,1,0,0:0:0:0:
214,220,145361,1,0,0:0:0:0:
215,220,145468,1,0,0:0:0:0:
215,220,145575,1,8,0:0:0:0:
215,220,146004,5,12,0:0:0:0:
210,229,146218,1,0,0:0:0:0:
210,229,146432,1,8,0:0:0:0:
214,225,146754,1,8,0:0:0:0:
214,225,146861,1,0,0:0:0:0:
214,225,147075,1,0,0:0:0:0:
214,225,147504,1,0,0:0:0:0:
214,225,147718,5,8,0:0:0:0:
214,225,148147,1,8,0:0:0:0:
214,225,148468,1,8,0:0:0:0:
214,225,148575,1,0,0:0:0:0:
214,225,148790,1,0,0:0:0:0:
214,225,149004,5,8,0:0:0:0:
244,194,149057,1,8,0:0:0:0:
256,195,149432,5,4,0:0:0:0:
224,196,149647,1,8,0:0:0:0:
224,196,149754,1,0,0:0:0:0:
224,196,149861,1,8,0:0:0:0:
224,196,150075,1,0,0:0:0:0:
224,196,150182,1,8,0:0:0:0:
224,196,150290,1,8,0:0:0:0:
204,185,150397,1,0,0:0:0:0:
224,196,150504,1,8,0:0:0:0:
224,196,150611,1,0,0:0:0:0:
224,196,150718,1,0,0:0:0:0:
224,196,150932,1,0,0:0:0:0:
224,196,151040,1,0,0:0:0:0:
227,198,151147,1,8,0:0:0:0:
227,198,151361,1,8,0:0:0:0:
228,219,151575,5,8,0:0:0:0:
228,219,151682,1,8,0:0:0:0:
228,219,151790,1,0,0:0:0:0:
228,219,151897,1,8,0:0:0:0:
228,219,152004,1,0,0:0:0:0:
228,219,152111,1,0,0:0:0:0:
228,219,152218,5,8,0:0:0:0:
228,219,152325,1,8,0:0:0:0:
228,219,152432,1,0,0:0:0:0:
228,219,152540,1,8,0:0:0:0:
228,219,152647,1,0,0:0:0:0:
228,219,152754,1,0,0:0:0:0:
228,219,152861,5,8,0:0:0:0:
228,219,152968,1,0,0:0:0:0:
228,219,153075,1,0,0:0:0:0:
228,219,153182,1,0,0:0:0:0:
228,219,153290,1,8,0:0:0:0:
228,219,153397,1,0,0:0:0:0:
228,219,153504,1,0,0:0:0:0:
228,219,153611,1,8,0:0:0:0:
228,219,153718,1,8,0:0:0:0:
228,219,153825,1,0,0:0:0:0:
228,219,153932,1,8,0:0:0:0:
228,219,154040,1,0,0:0:0:0:
228,219,154147,1,0,0:0:0:0:
228,219,154254,1,0,0:0:0:0:
228,219,154361,1,8,0:0:0:0:
228,219,154468,1,0,0:0:0:0:
228,219,154575,5,8,0:0:0:0:
228,219,154682,1,8,0:0:0:0:
228,219,154790,1,0,0:0:0:0:
228,219,154897,1,0,0:0:0:0:
228,219,155004,1,8,0:0:0:0:
228,219,155111,1,0,0:0:0:0:
228,219,155218,1,0,0:0:0:0:
228,219,155325,1,8,0:0:0:0:
228,219,155432,1,8,0:0:0:0:
228,219,155540,1,0,0:0:0:0:
228,219,155647,1,8,0:0:0:0:
228,219,155754,1,8,0:0:0:0:
228,219,155861,1,0,0:0:0:0:
228,219,155968,1,0,0:0:0:0:
228,219,156075,1,8,0:0:0:0:
228,219,156182,1,0,0:0:0:0:
228,219,156290,1,8,0:0:0:0:
228,219,156504,5,0,0:0:0:0:
228,219,156611,1,8,0:0:0:0:
228,219,156718,1,0,0:0:0:0:
228,219,156932,1,0,0:0:0:0:
228,219,157040,1,0,0:0:0:0:
228,219,157147,1,12,0:0:0:0:
228,219,157361,5,0,0:0:0:0:
228,219,157468,1,0,0:0:0:0:
228,219,157575,1,12,0:0:0:0:
228,219,157790,5,0,0:0:0:0:
228,219,157897,1,0,0:0:0:0:
228,219,158004,1,12,0:0:0:0:
228,219,158218,1,4,0:0:0:0:
228,219,158647,5,4,0:0:0:0:
228,219,158861,1,12,0:0:0:0:
228,219,159718,5,8,0:0:0:0:
200,205,160070,1,0,0:0:0:0:
209,181,160247,1,0,0:0:0:0:
200,205,160423,1,0,0:0:0:0:
200,205,160776,1,0,0:0:0:0:
209,181,160953,1,0,0:0:0:0:
200,205,161129,1,8,0:0:0:0:
200,205,161482,5,8,0:0:0:0:
209,181,161659,1,0,0:0:0:0:
200,205,161835,1,0,0:0:0:0:
200,205,162188,1,0,0:0:0:0:
209,181,162365,1,8,0:0:0:0:
200,205,162541,1,0,0:0:0:0:
200,205,162894,5,8,0:0:0:0:
209,181,163070,1,8,0:0:0:0:
200,205,163247,1,0,0:0:0:0:
200,205,163600,1,0,0:0:0:0:
209,181,163776,1,0,0:0:0:0:
200,205,163953,1,0,0:0:0:0:
200,205,164306,5,0,0:0:0:0:
209,181,164482,1,8,0:0:0:0:
200,205,164659,1,0,0:0:0:0:
200,205,165012,1,0,0:0:0:0:
209,181,165188,1,0,0:0:0:0:
200,205,165365,1,8,0:0:0:0:
195,185,165541,5,8,0:0:0:0:
195,185,165629,1,0,0:0:0:0:
195,185,165718,1,8,0:0:0:0:
195,185,165894,1,8,0:0:0:0:
195,185,165982,1,0,0:0:0:0:
195,185,166070,1,0,0:0:0:0:
195,183,166247,1,0,0:0:0:0:
195,183,166335,1,0,0:0:0:0:
195,185,166423,1,8,0:0:0:0:
195,185,166600,1,0,0:0:0:0:
195,185,166688,1,8,0:0:0:0:
195,185,166776,1,8,0:0:0:0:
195,185,166953,5,8,0:0:0:0:
195,185,167041,1,0,0:0:0:0:
195,183,167129,1,8,0:0:0:0:
195,183,167306,1,8,0:0:0:0:
195,185,167394,1,0,0:0:0:0:
195,185,167482,1,0,0:0:0:0:
195,185,167659,1,0,0:0:0:0:
195,185,167747,1,0,0:0:0:0:
195,185,167835,1,8,0:0:0:0:
195,185,168012,1,0,0:0:0:0:
195,183,168100,1,0,0:0:0:0:
195,193,168188,5,8,0:0:0:0:
195,193,168276,1,0,0:0:0:0:
195,193,168365,1,0,0:0:0:0:
195,193,168453,1,0,0:0:0:0:
195,193,168541,1,8,0:0:0:0:
195,193,168629,1,0,0:0:0:0:
195,193,168718,1,0,0:0:0:0:
195,193,168806,1,0,0:0:0:0:
195,193,168894,5,8,0:0:0:0:
195,193,168982,1,8,0:0:0:0:
195,193,169070,1,0,0:0:0:0:
195,193,169159,1,0,0:0:0:0:
195,193,169247,1,8,0:0:0:0:
195,193,169335,1,8,0:0:0:0:
195,193,169423,1,0,0:0:0:0:
195,193,169512,1,0,0:0:0:0:
195,193,169600,5,8,0:0:0:0:
195,193,169688,1,8,0:0:0:0:
195,193,169776,1,8,0:0:0:0:
195,193,169865,1,0,0:0:0:0:
195,193,169953,5,8,0:0:0:0:
195,193,170041,1,8,0:0:0:0:
195,193,170129,1,8,0:0:0:0:
195,193,170218,1,0,0:0:0:0:
195,193,170306,5,8,0:0:0:0:
195,193,170394,1,8,0:0:0:0:
195,193,170482,1,8,0:0:0:0:
207,203,170570,1,0,0:0:0:0:
207,203,170659,1,8,0:0:0:0:
207,203,171012,5,12,0:0:0:0:
213,213,171188,1,0,0:0:0:0:
213,213,171276,1,0,0:0:0:0:
213,213,171365,1,0,0:0:0:0:
213,212,171541,1,0,0:0:0:0:
213,212,171629,1,8,0:0:0:0:
213,212,171718,1,8,0:0:0:0:
180,199,171894,1,8,0:0:0:0:
180,199,171982,1,0,0:0:0:0:
180,199,172070,1,8,0:0:0:0:
180,199,172247,1,8,0:0:0:0:
180,199,172335,1,8,0:0:0:0:
180,199,172423,1,0,0:0:0:0:
180,199,172600,5,0,0:0:0:0:
180,199,172688,1,0,0:0:0:0:
180,199,172776,1,0,0:0:0:0:
180,199,172953,1,0,0:0:0:0:
180,199,173041,1,0,0:0:0:0:
180,199,173129,1,8,0:0:0:0:
180,199,173306,5,0,0:0:0:0:
180,199,173394,1,0,0:0:0:0:
180,199,173482,1,8,0:0:0:0:
180,199,173570,1,8,0:0:0:0:
180,199,173659,1,0,0:0:0:0:
180,199,173747,1,0,0:0:0:0:
180,199,173835,1,8,0:0:0:0:
180,199,174012,5,0,0:0:0:0:
180,199,174100,1,0,0:0:0:0:
180,199,174188,1,8,0:0:0:0:
180,199,174365,1,0,0:0:0:0:
180,199,174453,1,0,0:0:0:0:
180,199,174541,1,8,0:0:0:0:
180,199,174718,1,0,0:0:0:0:
180,199,174806,1,8,0:0:0:0:
180,199,174894,1,8,0:0:0:0:
180,199,175070,1,8,0:0:0:0:
180,199,175159,1,0,0:0:0:0:
180,199,175247,1,8,0:0:0:0:
180,199,175423,5,0,0:0:0:0:
180,199,175512,1,0,0:0:0:0:
180,199,175600,1,0,0:0:0:0:
180,199,175776,1,0,0:0:0:0:
180,199,175865,1,8,0:0:0:0:
180,199,175953,1,0,0:0:0:0:
180,199,176129,5,0,0:0:0:0:
180,199,176218,1,0,0:0:0:0:
180,199,176306,1,8,0:0:0:0:
180,199,176394,1,8,0:0:0:0:
180,199,176482,1,0,0:0:0:0:
180,199,176570,1,0,0:0:0:0:
180,199,176659,1,8,0:0:0:0:
180,199,176835,5,0,0:0:0:0:
180,199,176923,1,0,0:0:0:0:
180,199,177012,1,0,0:0:0:0:
180,199,177188,1,0,0:0:0:0:
180,199,177276,1,8,0:0:0:0:
180,199,177365,1,8,0:0:0:0:
180,199,177541,1,8,0:0:0:0:
180,199,177629,1,0,0:0:0:0:
180,199,177718,1,8,0:0:0:0:
180,199,177894,1,8,0:0:0:0:
180,199,177982,1,8,0:0:0:0:
180,199,178070,1,0,0:0:0:0:
180,199,178247,5,0,0:0:0:0:
180,199,178335,1,0,0:0:0:0:
180,199,178423,1,0,0:0:0:0:
180,199,178600,5,0,0:0:0:0:
235,221,178688,1,0,0:0:0:0:
260,216,178776,1,8,0:0:0:0:
260,216,178953,5,0,0:0:0:0:
260,216,179041,1,0,0:0:0:0:
260,216,179129,1,8,0:0:0:0:
260,216,179218,1,8,0:0:0:0:
260,216,179306,1,0,0:0:0:0:
260,216,179394,1,0,0:0:0:0:
273,216,179482,5,8,0:0:0:0:
273,216,179570,1,8,0:0:0:0:
273,216,179659,1,0,0:0:0:0:
273,216,179747,1,0,0:0:0:0:
273,216,179835,1,0,0:0:0:0:
273,216,179923,1,0,0:0:0:0:
273,216,180012,1,8,0:0:0:0:
273,216,180100,1,0,0:0:0:0:
273,216,180188,5,8,0:0:0:0:
273,216,180276,1,8,0:0:0:0:
273,216,180365,1,0,0:0:0:0:
273,216,180453,1,0,0:0:0:0:
273,216,180541,5,8,0:0:0:0:
273,216,180629,1,8,0:0:0:0:
273,216,180718,1,8,0:0:0:0:
273,216,180806,1,0,0:0:0:0:
273,216,180894,5,8,0:0:0:0:
273,216,180982,1,8,0:0:0:0:
273,216,181070,1,0,0:0:0:0:
273,216,181159,1,0,0:0:0:0:
273,216,181247,5,8,0:0:0:0:
273,216,181335,1,0,0:0:0:0:
273,216,181423,1,8,0:0:0:0:
273,216,181512,1,0,0:0:0:0:
273,216,181600,5,8,0:0:0:0:
273,216,181688,1,0,0:0:0:0:
273,216,181776,1,0,0:0:0:0:
273,216,181865,1,0,0:0:0:0:
273,216,181953,1,8,0:0:0:0:
273,216,182041,1,8,0:0:0:0:
273,216,182129,1,0,0:0:0:0:
273,216,182218,1,0,0:0:0:0:
273,216,182306,5,8,0:0:0:0:
259,204,182482,1,0,0:0:0:0:
259,204,182570,1,0,0:0:0:0:
259,204,182659,1,0,0:0:0:0:
247,216,182835,1,0,0:0:0:0:
247,216,182923,1,0,0:0:0:0:
247,216,183012,1,8,0:0:0:0:
247,216,183188,1,8,0:0:0:0:
247,216,183276,1,0,0:0:0:0:
247,216,183365,1,8,0:0:0:0:
247,216,183541,1,0,0:0:0:0:
247,216,183629,1,8,0:0:0:0:
247,216,183718,1,0,0:0:0:0:
247,216,183894,5,8,0:0:0:0:
247,216,183982,1,0,0:0:0:0:
247,216,184070,1,0,0:0:0:0:
247,216,184247,1,0,0:0:0:0:
247,216,184335,1,0,0:0:0:0:
247,216,184423,1,8,0:0:0:0:
247,216,184600,5,0,0:0:0:0:
247,216,184688,1,0,0:0:0:0:
247,216,184776,1,8,0:0:0:0:
220,258,184865,1,0,0:0:0:0:
196,136,184953,1,0,0:0:0:0:
247,216,185041,1,0,0:0:0:0:
247,216,185129,1,8,0:0:0:0:
247,216,185306,5,8,0:0:0:0:
247,216,185394,1,8,0:0:0:0:
247,216,185482,1,0,0:0:0:0:
247,216,185659,1,0,0:0:0:0:
247,216,185747,1,0,0:0:0:0:
247,216,185835,1,0,0:0:0:0:
247,216,186012,1,0,0:0:0:0:
247,216,186100,1,0,0:0:0:0:
247,216,186188,1,8,0:0:0:0:
247,216,186365,1,8,0:0:0:0:
247,216,186453,1,0,0:0:0:0:
247,216,186541,1,8,0:0:0:0:
247,216,186717,5,0,0:0:0:0:
247,216,186806,1,0,0:0:0:0:
247,216,186894,1,8,0:0:0:0:
247,216,187070,1,0,0:0:0:0:
247,216,187159,1,0,0:0:0:0:
247,216,187247,1,8,0:0:0:0:
247,216,187423,5,0,0:0:0:0:
247,216,187512,1,0,0:0:0:0:
247,216,187600,1,8,0:0:0:0:
127,157,187688,1,8,0:0:0:0:
247,216,187776,1,8,0:0:0:0:
247,216,187865,1,8,0:0:0:0:
247,216,187953,1,0,0:0:0:0:
247,216,188129,5,0,0:0:0:0:
247,216,188217,1,0,0:0:0:0:
247,216,188306,1,0,0:0:0:0:
247,216,188482,1,0,0:0:0:0:
247,216,188570,1,8,0:0:0:0:
247,216,188659,1,8,0:0:0:0:
247,216,188835,1,8,0:0:0:0:
247,216,188923,1,0,0:0:0:0:
247,216,189012,1,8,0:0:0:0:
247,216,189188,1,0,0:0:0:0:
247,216,189276,1,8,0:0:0:0:
247,216,189365,1,0,0:0:0:0:
247,216,189541,5,0,0:0:0:0:
247,216,189629,1,0,0:0:0:0:
247,216,189717,1,0,0:0:0:0:
247,216,189894,1,0,0:0:0:0:
247,216,189982,1,0,0:0:0:0:
247,216,190070,1,8,0:0:0:0:
244,223,190247,5,0,0:0:0:0:
244,223,190335,1,0,0:0:0:0:
244,223,190423,1,8,0:0:0:0:
244,223,190512,1,8,0:0:0:0:
244,223,190600,1,0,0:0:0:0:
244,223,190688,1,0,0:0:0:0:
257,211,190776,1,8,0:0:0:0:
257,211,190865,5,8,0:0:0:0:
257,211,190953,1,0,0:0:0:0:
257,211,191041,1,8,0:0:0:0:
257,211,191129,1,0,0:0:0:0:
257,211,191217,1,0,0:0:0:0:
257,211,191306,1,8,0:0:0:0:
257,211,191394,1,0,0:0:0:0:
257,211,191482,5,8,0:0:0:0:
257,211,191570,1,8,0:0:0:0:
257,211,191659,1,0,0:0:0:0:
257,211,191747,1,8,0:0:0:0:
257,211,191835,1,0,0:0:0:0:
257,211,191923,1,0,0:0:0:0:
257,211,192012,1,8,0:0:0:0:
257,211,192100,1,0,0:0:0:0:
236,236,192188,5,8,0:0:0:0:
236,236,192276,1,8,0:0:0:0:
236,236,192365,1,0,0:0:0:0:
236,236,192453,1,8,0:0:0:0:
236,236,192541,5,8,0:0:0:0:
236,236,192629,1,0,0:0:0:0:
236,236,192717,1,8,0:0:0:0:
236,236,192806,1,0,0:0:0:0:
236,236,192894,5,8,0:0:0:0:
236,236,192982,1,8,0:0:0:0:
236,236,193070,1,0,0:0:0:0:
236,236,193159,1,0,0:0:0:0:
236,236,193247,1,0,0:0:0:0:
236,236,193335,1,0,0:0:0:0:
236,236,193423,1,8,0:0:0:0:
236,236,193512,1,0,0:0:0:0:
236,236,193600,5,8,0:0:0:0:
236,236,193688,1,8,0:0:0:0:
236,236,193776,1,0,0:0:0:0:
236,236,193865,1,8,0:0:0:0:
236,236,193953,1,0,0:0:0:0:
236,236,194041,1,0,0:0:0:0:
236,236,194129,1,8,0:0:0:0:
236,236,194217,1,0,0:0:0:0:
236,236,194306,5,8,0:0:0:0:
236,236,194394,1,8,0:0:0:0:
236,236,194482,1,0,0:0:0:0:
236,236,194570,1,8,0:0:0:0:
236,236,194659,1,0,0:0:0:0:
236,236,194747,1,0,0:0:0:0:
236,236,194835,1,8,0:0:0:0:
236,236,194923,1,0,0:0:0:0:
236,236,195012,5,8,0:0:0:0:
241,236,195100,1,8,0:0:0:0:
241,236,195188,1,0,0:0:0:0:
241,236,195276,1,0,0:0:0:0:
241,236,195365,5,8,0:0:0:0:
241,236,195453,1,8,0:0:0:0:
241,236,195541,1,0,0:0:0:0:
241,236,195629,1,0,0:0:0:0:
241,236,195717,5,8,0:0:0:0:
241,236,195806,1,8,0:0:0:0:
241,236,195894,1,0,0:0:0:0:
241,236,195982,1,0,0:0:0:0:
241,236,196070,1,0,0:0:0:0:
241,236,196159,1,0,0:0:0:0:
241,236,196247,1,8,0:0:0:0:
241,236,196335,1,0,0:0:0:0:
241,236,196423,5,8,0:0:0:0:
241,236,196512,1,8,0:0:0:0:
241,236,196600,1,0,0:0:0:0:
241,236,196688,1,8,0:0:0:0:
241,236,196776,1,0,0:0:0:0:
241,236,196865,1,0,0:0:0:0:
241,236,196953,1,8,0:0:0:0:
241,236,197041,1,0,0:0:0:0:
241,236,197129,5,8,0:0:0:0:
241,236,197217,1,8,0:0:0:0:
241,236,197306,1,0,0:0:0:0:
241,236,197394,1,8,0:0:0:0:
241,236,197482,1,0,0:0:0:0:
241,236,197570,1,0,0:0:0:0:
241,236,197659,1,8,0:0:0:0:
241,236,197747,1,0,0:0:0:0:
241,236,197835,5,8,0:0:0:0:
241,236,197923,1,0,0:0:0:0:
241,236,198012,1,0,0:0:0:0:
241,236,198100,1,8,0:0:0:0:
241,236,198188,1,0,0:0:0:0:
241,236,198276,1,0,0:0:0:0:
241,236,198365,1,8,0:0:0:0:
241,236,198453,1,0,0:0:0:0:
241,236,198541,5,8,0:0:0:0:
241,236,198629,1,0,0:0:0:0:
241,236,198717,1,0,0:0:0:0:
241,236,198806,1,0,0:0:0:0:
241,236,198894,1,8,0:0:0:0:
241,236,198982,1,8,0:0:0:0:
241,236,199070,1,0,0:0:0:0:
241,236,199159,1,0,0:0:0:0:
241,236,199247,5,12,0:0:0:0:
258,183,201093,5,12,0:0:0:0:
258,183,201742,5,4,0:0:0:0:
258,183,202391,5,12,0:0:0:0:
258,183,203039,5,8,0:0:0:0:
258,183,203279,1,0,0:0:0:0:
247,187,203399,1,8,0:0:0:0:
258,183,203519,1,0,0:0:0:0:
258,183,203759,1,8,0:0:0:0:
258,183,203999,1,0,0:0:0:0:
258,183,204239,1,8,0:0:0:0:
258,183,204514,5,12,0:0:0:0:
228,206,204781,1,8,0:0:0:0:
228,206,204914,1,0,0:0:0:0:
242,202,205049,1,8,0:0:0:0:
242,202,205316,5,0,0:0:0:0:
243,235,205582,1,0,0:0:0:0:
243,235,205715,1,0,0:0:0:0:
242,202,205850,1,8,0:0:0:0:
242,202,206117,5,0,0:0:0:0:
224,212,206383,1,8,0:0:0:0:
224,212,206516,1,0,0:0:0:0:
242,202,206651,1,8,0:0:0:0:
241,201,206918,5,0,0:0:0:0:
220,215,207184,1,0,0:0:0:0:
242,202,207452,1,8,0:0:0:0:
241,201,207719,5,4,0:0:0:0:
219,256,208520,5,12,0:0:0:0:
219,256,209054,5,4,0:0:0:0:
256,192,209854,8,0,212791,0:0:0:0:
