osu file format v14

[General]
AudioFilename: audio.mp3
AudioLeadIn: 0
PreviewTime: 107842
Countdown: 0
SampleSet: Normal
StackLeniency: 0.7
Mode: 1
LetterboxInBreaks: 0
WidescreenStoryboard: 0

[Editor]
Bookmarks: 12442,22042,26842,41242,79642,89242,98842
DistanceSpacing: 0.8
BeatDivisor: 4
GridSize: 32
TimelineZoom: 1.9

[Metadata]
Title:One Hollow Word (Cut Ver.)
TitleUnicode:One Hollow Word (Cut Ver.)
Artist:Aether Realm
ArtistUnicode:Æther Realm
Creator:[R]
Version:Eternal Soul
Source:
Tags:Servatory ron Redneck Vikings from Hell napalm records Melodic symphonic Death Metal deathmetal folk english fa featured artist
BeatmapID:3190103
BeatmapSetID:1552590

[Difficulty]
HPDrainRate:6
CircleSize:5
OverallDifficulty:6
ApproachRate:5
SliderMultiplier:1.4
SliderTickRate:1

[Events]
//Background and Video events
0,0,"BG.jpg",0,80
//Break Periods
//Storyboard Layer 0 (Background)
//Storyboard Layer 1 (Fail)
//Storyboard Layer 2 (Pass)
//Storyboard Layer 3 (Foreground)
//Storyboard Layer 4 (Overlay)
//Storyboard Sound Samples

[TimingPoints]
-1958,300,4,1,0,85,1,0
50167,-100,4,1,0,65,0,0
50842,-100,4,1,0,90,0,1
70042,-100,4,1,0,85,0,0
108442,-100,4,1,0,90,0,1
127642,-100,4,1,0,90,0,0

[HitObjects]
256,192,292,5,0,0:0:0:0:
256,192,367,1,0,0:0:0:0:
256,192,442,1,8,0:0:0:0:
256,192,517,1,8,0:0:0:0:
256,192,592,1,8,0:0:0:0:
256,192,667,1,8,0:0:0:0:
256,192,742,1,0,0:0:0:0:
256,192,817,1,0,0:0:0:0:
256,192,892,1,0,0:0:0:0:
256,192,967,1,0,0:0:0:0:
256,192,1042,1,8,0:0:0:0:
256,192,1117,1,8,0:0:0:0:
256,192,1192,1,8,0:0:0:0:
256,192,1267,1,8,0:0:0:0:
256,192,1342,1,0,0:0:0:0:
256,192,1417,1,0,0:0:0:0:
256,192,1492,1,0,0:0:0:0:
256,192,1567,1,0,0:0:0:0:
256,192,1642,1,8,0:0:0:0:
256,192,1717,1,8,0:0:0:0:
256,192,1792,1,0,0:0:0:0:
256,192,1867,1,0,0:0:0:0:
256,192,1942,1,8,0:0:0:0:
256,192,2017,1,8,0:0:0:0:
256,192,2092,1,0,0:0:0:0:
256,192,2167,1,0,0:0:0:0:
256,192,2242,1,8,0:0:0:0:
256,192,2392,1,8,0:0:0:0:
256,192,2542,1,8,0:0:0:0:
256,192,2842,1,4,0:0:0:0:
256,192,2992,1,8,0:0:0:0:
256,192,3142,1,8,0:0:0:0:
256,192,3217,1,0,0:0:0:0:
256,192,3292,1,8,0:0:0:0:
256,192,3367,1,8,0:0:0:0:
256,192,3442,1,0,0:0:0:0:
256,192,3592,1,0,0:0:0:0:
256,192,3667,1,0,0:0:0:0:
256,192,3742,1,8,0:0:0:0:
256,192,3817,1,8,0:0:0:0:
256,192,3892,1,0,0:0:0:0:
256,192,4042,1,8,0:0:0:0:
256,192,4192,1,0,0:0:0:0:
256,192,4267,1,0,0:0:0:0:
256,192,4342,1,8,0:0:0:0:
256,192,4417,1,0,0:0:0:0:
256,192,4492,1,0,0:0:0:0:
256,192,4642,1,8,0:0:0:0:
256,192,4792,1,0,0:0:0:0:
256,192,4867,1,0,0:0:0:0:
256,192,4942,1,8,0:0:0:0:
256,192,5017,1,0,0:0:0:0:
256,192,5092,1,8,0:0:0:0:
256,192,5242,1,4,0:0:0:0:
256,192,5392,1,8,0:0:0:0:
256,192,5542,1,8,0:0:0:0:
256,192,5617,1,0,0:0:0:0:
256,192,5692,1,0,0:0:0:0:
256,192,5842,1,8,0:0:0:0:
256,192,5917,1,0,0:0:0:0:
256,192,5992,1,0,0:0:0:0:
256,192,6067,1,0,0:0:0:0:
256,192,6142,1,8,0:0:0:0:
256,192,6217,1,8,0:0:0:0:
256,192,6292,1,8,0:0:0:0:
256,192,6442,1,4,0:0:0:0:
256,192,6592,1,8,0:0:0:0:
256,192,6742,1,8,0:0:0:0:
256,192,6817,1,8,0:0:0:0:
256,192,6892,1,0,0:0:0:0:
256,192,7042,1,8,0:0:0:0:
256,192,7117,1,8,0:0:0:0:
256,192,7192,1,0,0:0:0:0:
256,192,7267,1,0,0:0:0:0:
256,192,7342,1,8,0:0:0:0:
256,192,7417,1,8,0:0:0:0:
256,192,7492,1,8,0:0:0:0:
256,192,7642,1,4,0:0:0:0:
256,192,7792,1,8,0:0:0:0:
256,192,7942,1,0,0:0:0:0:
256,192,8017,1,0,0:0:0:0:
256,192,8092,1,8,0:0:0:0:
256,192,8167,1,0,0:0:0:0:
256,192,8242,1,8,0:0:0:0:
256,192,8392,1,8,0:0:0:0:
256,192,8467,1,0,0:0:0:0:
256,192,8542,1,8,0:0:0:0:
256,192,8617,1,8,0:0:0:0:
256,192,8692,1,0,0:0:0:0:
256,192,8842,1,8,0:0:0:0:
256,192,8992,1,0,0:0:0:0:
256,192,9067,1,0,0:0:0:0:
256,192,9142,1,8,0:0:0:0:
256,192,9217,1,8,0:0:0:0:
256,192,9292,1,0,0:0:0:0:
256,192,9442,1,8,0:0:0:0:
256,192,9592,1,0,0:0:0:0:
256,192,9667,1,0,0:0:0:0:
256,192,9742,1,8,0:0:0:0:
256,192,9817,1,8,0:0:0:0:
256,192,9892,1,8,0:0:0:0:
256,192,10042,1,4,0:0:0:0:
256,192,10342,1,8,0:0:0:0:
256,192,10417,1,0,0:0:0:0:
256,192,10492,1,8,0:0:0:0:
256,192,10567,1,8,0:0:0:0:
256,192,10642,1,0,0:0:0:0:
256,192,10942,1,8,0:0:0:0:
256,192,11017,1,0,0:0:0:0:
256,192,11092,1,8,0:0:0:0:
256,192,11167,1,8,0:0:0:0:
256,192,11242,1,0,0:0:0:0:
256,192,11317,1,0,0:0:0:0:
256,192,11392,1,0,0:0:0:0:
256,192,11467,1,0,0:0:0:0:
256,192,11542,1,8,0:0:0:0:
256,192,11617,1,8,0:0:0:0:
256,192,11692,1,0,0:0:0:0:
256,192,11767,1,0,0:0:0:0:
256,192,11842,1,8,0:0:0:0:
256,192,11992,1,0,0:0:0:0:
256,192,12067,1,0,0:0:0:0:
256,192,12142,1,8,0:0:0:0:
256,192,12292,1,8,0:0:0:0:
256,192,12442,1,4,0:0:0:0:
256,192,12592,1,8,0:0:0:0:
256,192,12742,1,0,0:0:0:0:
256,192,12817,1,8,0:0:0:0:
256,192,12892,1,0,0:0:0:0:
256,192,12967,1,0,0:0:0:0:
256,192,13042,1,8,0:0:0:0:
256,192,13117,1,8,0:0:0:0:
256,192,13192,1,0,0:0:0:0:
256,192,13267,1,0,0:0:0:0:
256,192,13342,1,8,0:0:0:0:
256,192,13417,1,8,0:0:0:0:
256,192,13492,1,0,0:0:0:0:
256,192,13567,1,0,0:0:0:0:
256,192,13642,1,8,0:0:0:0:
256,192,13717,1,8,0:0:0:0:
256,192,13792,1,8,0:0:0:0:
256,192,13867,1,8,0:0:0:0:
256,192,13942,1,0,0:0:0:0:
256,192,14017,1,0,0:0:0:0:
256,192,14092,1,0,0:0:0:0:
256,192,14167,1,0,0:0:0:0:
256,192,14242,1,8,0:0:0:0:
256,192,14317,1,8,0:0:0:0:
256,192,14392,1,0,0:0:0:0:
256,192,14467,1,0,0:0:0:0:
256,192,14542,1,8,0:0:0:0:
256,192,14617,1,8,0:0:0:0:
256,192,14692,1,8,0:0:0:0:
256,192,14767,1,8,0:0:0:0:
256,192,14842,1,0,0:0:0:0:
256,192,14917,1,0,0:0:0:0:
256,192,14992,1,8,0:0:0:0:
256,192,15067,1,0,0:0:0:0:
256,192,15142,1,8,0:0:0:0:
256,192,15217,1,0,0:0:0:0:
256,192,15292,1,0,0:0:0:0:
256,192,15367,1,0,0:0:0:0:
256,192,15442,1,8,0:0:0:0:
256,192,15517,1,0,0:0:0:0:
256,192,15592,1,0,0:0:0:0:
256,192,15667,1,0,0:0:0:0:
256,192,15742,1,8,0:0:0:0:
256,192,15817,1,8,0:0:0:0:
256,192,15892,1,8,0:0:0:0:
256,192,15967,1,8,0:0:0:0:
256,192,16042,1,0,0:0:0:0:
256,192,16117,1,0,0:0:0:0:
256,192,16192,1,8,0:0:0:0:
256,192,16267,1,0,0:0:0:0:
256,192,16342,1,8,0:0:0:0:
256,192,16417,1,8,0:0:0:0:
256,192,16492,1,0,0:0:0:0:
256,192,16567,1,0,0:0:0:0:
256,192,16642,1,8,0:0:0:0:
256,192,16717,1,8,0:0:0:0:
256,192,16792,1,0,0:0:0:0:
256,192,16867,1,0,0:0:0:0:
256,192,16942,1,8,0:0:0:0:
256,192,17017,1,8,0:0:0:0:
256,192,17092,1,8,0:0:0:0:
256,192,17167,1,8,0:0:0:0:
256,192,17242,1,0,0:0:0:0:
256,192,17317,1,0,0:0:0:0:
256,192,17392,1,0,0:0:0:0:
256,192,17467,1,0,0:0:0:0:
256,192,17542,1,8,0:0:0:0:
256,192,17617,1,0,0:0:0:0:
256,192,17692,1,8,0:0:0:0:
256,192,17767,1,0,0:0:0:0:
256,192,17842,1,8,0:0:0:0:
256,192,17917,1,8,0:0:0:0:
256,192,17992,1,0,0:0:0:0:
256,192,18067,1,0,0:0:0:0:
256,192,18142,1,8,0:0:0:0:
256,192,18217,1,8,0:0:0:0:
256,192,18292,1,0,0:0:0:0:
256,192,18367,1,0,0:0:0:0:
256,192,18442,1,8,0:0:0:0:
256,192,18517,1,8,0:0:0:0:
256,192,18592,1,8,0:0:0:0:
256,192,18667,1,8,0:0:0:0:
256,192,18742,1,0,0:0:0:0:
256,192,18817,1,0,0:0:0:0:
256,192,18892,1,0,0:0:0:0:
256,192,18967,1,0,0:0:0:0:
256,192,19042,1,8,0:0:0:0:
256,192,19117,1,0,0:0:0:0:
256,192,19192,1,0,0:0:0:0:
256,192,19267,1,0,0:0:0:0:
256,192,19342,1,8,0:0:0:0:
256,192,19417,1,8,0:0:0:0:
256,192,19492,1,8,0:0:0:0:
256,192,19567,1,8,0:0:0:0:
256,192,19642,1,0,0:0:0:0:
256,192,19942,1,8,0:0:0:0:
256,192,20092,1,8,0:0:0:0:
256,192,20242,1,0,0:0:0:0:
256,192,20542,1,8,0:0:0:0:
256,192,20692,1,8,0:0:0:0:
256,192,20842,1,0,0:0:0:0:
256,192,21142,1,8,0:0:0:0:
256,192,21292,1,0,0:0:0:0:
256,192,21367,1,0,0:0:0:0:
256,192,21442,1,8,0:0:0:0:
256,192,21592,1,0,0:0:0:0:
256,192,21742,1,8,0:0:0:0:
256,192,21892,1,8,0:0:0:0:
256,192,22042,1,4,0:0:0:0:
256,192,22342,1,8,0:0:0:0:
256,192,22642,1,8,0:0:0:0:
256,192,22942,1,8,0:0:0:0:
256,192,23242,1,8,0:0:0:0:
256,192,23542,1,8,0:0:0:0:
256,192,23842,1,8,0:0:0:0:
256,192,24142,1,8,0:0:0:0:
256,192,24442,1,4,0:0:0:0:
256,192,24592,1,4,0:0:0:0:
256,192,24742,1,12,0:0:0:0:
256,192,24892,1,0,0:0:0:0:
256,192,25042,1,8,0:0:0:0:
256,192,25117,1,8,0:0:0:0:
256,192,25192,1,8,0:0:0:0:
256,192,25267,1,8,0:0:0:0:
256,192,25342,1,0,0:0:0:0:
256,192,25417,1,0,0:0:0:0:
256,192,25492,1,8,0:0:0:0:
256,192,25642,1,4,0:0:0:0:
256,192,25792,1,4,0:0:0:0:
256,192,25942,1,12,0:0:0:0:
256,192,26092,1,0,0:0:0:0:
256,192,26242,1,8,0:0:0:0:
256,192,26317,1,8,0:0:0:0:
256,192,26392,1,8,0:0:0:0:
256,192,26467,1,8,0:0:0:0:
256,192,26542,1,0,0:0:0:0:
256,192,26617,1,0,0:0:0:0:
256,192,26692,1,8,0:0:0:0:
256,192,26842,1,12,0:0:0:0:
256,192,26992,1,0,0:0:0:0:
256,192,27067,1,0,0:0:0:0:
256,192,27142,1,8,0:0:0:0:
256,192,27292,1,0,0:0:0:0:
256,192,27442,1,8,0:0:0:0:
256,192,27517,1,0,0:0:0:0:
256,192,27592,1,8,0:0:0:0:
256,192,27667,1,8,0:0:0:0:
256,192,27742,1,0,0:0:0:0:
256,192,27817,1,0,0:0:0:0:
256,192,27892,1,8,0:0:0:0:
256,192,28042,1,0,0:0:0:0:
256,192,28192,1,8,0:0:0:0:
256,192,28267,1,8,0:0:0:0:
256,192,28342,1,0,0:0:0:0:
256,192,28492,1,0,0:0:0:0:
256,192,28567,1,0,0:0:0:0:
256,192,28642,1,8,0:0:0:0:
256,192,28717,1,0,0:0:0:0:
256,192,28792,1,8,0:0:0:0:
256,192,28867,1,8,0:0:0:0:
256,192,28942,1,0,0:0:0:0:
256,192,29092,1,0,0:0:0:0:
256,192,29242,1,12,0:0:0:0:
256,192,29392,1,0,0:0:0:0:
256,192,29542,1,0,0:0:0:0:
256,192,29692,1,12,0:0:0:0:
256,192,29842,1,0,0:0:0:0:
256,192,29992,1,0,0:0:0:0:
256,192,30142,1,12,0:0:0:0:
256,192,30292,1,0,0:0:0:0:
256,192,30442,1,12,0:0:0:0:
256,192,30592,1,0,0:0:0:0:
256,192,30742,1,0,0:0:0:0:
256,192,30892,1,12,0:0:0:0:
256,192,31042,1,0,0:0:0:0:
256,192,31192,1,0,0:0:0:0:
256,192,31342,1,8,0:0:0:0:
256,192,31417,1,8,0:0:0:0:
256,192,31567,1,8,0:0:0:0:
256,192,31642,1,0,0:0:0:0:
256,192,31792,1,0,0:0:0:0:
256,192,32242,1,12,0:0:0:0:
256,192,32392,1,0,0:0:0:0:
256,192,32542,1,8,0:0:0:0:
256,192,32692,1,0,0:0:0:0:
256,192,32767,1,0,0:0:0:0:
256,192,32842,1,8,0:0:0:0:
256,192,32917,1,0,0:0:0:0:
256,192,32992,1,8,0:0:0:0:
256,192,33067,1,8,0:0:0:0:
256,192,33142,1,0,0:0:0:0:
256,192,33292,1,0,0:0:0:0:
256,192,33367,1,0,0:0:0:0:
256,192,33442,1,8,0:0:0:0:
256,192,33517,1,0,0:0:0:0:
256,192,33592,1,8,0:0:0:0:
256,192,33667,1,0,0:0:0:0:
256,192,33742,1,8,0:0:0:0:
256,192,33892,1,0,0:0:0:0:
256,192,34042,1,12,0:0:0:0:
256,192,34192,1,0,0:0:0:0:
256,192,34342,1,0,0:0:0:0:
256,192,34492,1,12,0:0:0:0:
256,192,34792,1,0,0:0:0:0:
256,192,34942,1,0,0:0:0:0:
256,192,35092,1,12,0:0:0:0:
256,192,35392,1,0,0:0:0:0:
256,192,35467,1,0,0:0:0:0:
256,192,35542,1,8,0:0:0:0:
256,192,35617,1,8,0:0:0:0:
256,192,35692,1,0,0:0:0:0:
256,192,35767,1,0,0:0:0:0:
256,192,35842,1,8,0:0:0:0:
256,192,35917,1,8,0:0:0:0:
256,192,35992,1,8,0:0:0:0:
256,192,36067,1,8,0:0:0:0:
256,192,36142,1,0,0:0:0:0:
256,192,36217,1,0,0:0:0:0:
256,192,36292,1,0,0:0:0:0:
256,192,36442,1,12,0:0:0:0:
256,192,36592,1,0,0:0:0:0:
256,192,36742,1,0,0:0:0:0:
256,192,36817,1,0,0:0:0:0:
256,192,36892,1,8,0:0:0:0:
256,192,36967,1,8,0:0:0:0:
256,192,37042,1,0,0:0:0:0:
256,192,37192,1,0,0:0:0:0:
256,192,37267,1,0,0:0:0:0:
256,192,37342,1,8,0:0:0:0:
256,192,37492,1,8,0:0:0:0:
256,192,37567,1,0,0:0:0:0:
256,192,37642,1,8,0:0:0:0:
256,192,37792,1,8,0:0:0:0:
256,192,37867,1,8,0:0:0:0:
256,192,37942,1,0,0:0:0:0:
256,192,38092,1,0,0:0:0:0:
256,192,38167,1,0,0:0:0:0:
256,192,38242,1,8,0:0:0:0:
256,192,38317,1,0,0:0:0:0:
256,192,38392,1,8,0:0:0:0:
256,192,38467,1,8,0:0:0:0:
256,192,38542,1,0,0:0:0:0:
256,192,38692,1,0,0:0:0:0:
256,192,38842,1,12,0:0:0:0:
256,192,38992,1,0,0:0:0:0:
256,192,39142,1,0,0:0:0:0:
256,192,39292,1,12,0:0:0:0:
256,192,39442,1,0,0:0:0:0:
256,192,39592,1,0,0:0:0:0:
256,192,39742,1,12,0:0:0:0:
256,192,39892,1,0,0:0:0:0:
256,192,40042,1,12,0:0:0:0:
256,192,40192,1,0,0:0:0:0:
256,192,40342,1,0,0:0:0:0:
256,192,40492,1,12,0:0:0:0:
256,192,40642,1,0,0:0:0:0:
256,192,40792,1,0,0:0:0:0:
256,192,40942,1,8,0:0:0:0:
256,192,41017,1,8,0:0:0:0:
256,192,41092,1,0,0:0:0:0:
256,192,41167,1,0,0:0:0:0:
256,192,41242,1,8,0:0:0:0:
256,192,41317,1,0,0:0:0:0:
256,192,41392,1,0,0:0:0:0:
256,192,41467,1,0,0:0:0:0:
256,192,41542,1,8,0:0:0:0:
256,192,41617,1,0,0:0:0:0:
256,192,41692,1,8,0:0:0:0:
256,192,41767,1,8,0:0:0:0:
256,192,41842,1,0,0:0:0:0:
256,192,41917,1,0,0:0:0:0:
256,192,41992,1,0,0:0:0:0:
256,192,42067,1,0,0:0:0:0:
256,192,42142,1,8,0:0:0:0:
256,192,42217,1,8,0:0:0:0:
256,192,42292,1,0,0:0:0:0:
256,192,42367,1,0,0:0:0:0:
256,192,42442,1,8,0:0:0:0:
256,192,42517,1,0,0:0:0:0:
256,192,42592,1,0,0:0:0:0:
256,192,42667,1,0,0:0:0:0:
256,192,42742,1,8,0:0:0:0:
256,192,42817,1,0,0:0:0:0:
256,192,42892,1,8,0:0:0:0:
256,192,42967,1,8,0:0:0:0:
256,192,43042,1,8,0:0:0:0:
256,192,43117,1,8,0:0:0:0:
256,192,43192,1,0,0:0:0:0:
256,192,43267,1,0,0:0:0:0:
256,192,43342,1,8,0:0:0:0:
256,192,43417,1,0,0:0:0:0:
256,192,43492,1,0,0:0:0:0:
256,192,43567,1,0,0:0:0:0:
256,192,43642,1,8,0:0:0:0:
256,192,43717,1,0,0:0:0:0:
256,192,43792,1,0,0:0:0:0:
256,192,43867,1,0,0:0:0:0:
256,192,43942,1,8,0:0:0:0:
256,192,44017,1,0,0:0:0:0:
256,192,44092,1,8,0:0:0:0:
256,192,44167,1,8,0:0:0:0:
256,192,44242,1,0,0:0:0:0:
256,192,44317,1,0,0:0:0:0:
256,192,44392,1,0,0:0:0:0:
256,192,44467,1,0,0:0:0:0:
256,192,44542,1,8,0:0:0:0:
256,192,44617,1,8,0:0:0:0:
256,192,44692,1,0,0:0:0:0:
256,192,44767,1,0,0:0:0:0:
256,192,44842,1,8,0:0:0:0:
256,192,44917,1,0,0:0:0:0:
256,192,44992,1,0,0:0:0:0:
256,192,45067,1,0,0:0:0:0:
256,192,45142,1,8,0:0:0:0:
256,192,45217,1,0,0:0:0:0:
256,192,45292,1,0,0:0:0:0:
256,192,45367,1,0,0:0:0:0:
256,192,45442,1,8,0:0:0:0:
256,192,45517,1,8,0:0:0:0:
256,192,45592,1,8,0:0:0:0:
256,192,45667,1,8,0:0:0:0:
256,192,45742,1,0,0:0:0:0:
256,192,45817,1,0,0:0:0:0:
256,192,45892,1,0,0:0:0:0:
256,192,45967,1,0,0:0:0:0:
256,192,46042,1,12,0:0:0:0:
256,192,46192,1,0,0:0:0:0:
256,192,46342,1,0,0:0:0:0:
256,192,46492,1,12,0:0:0:0:
256,192,46642,1,0,0:0:0:0:
256,192,46792,1,8,0:0:0:0:
256,192,46942,1,0,0:0:0:0:
256,192,47017,1,0,0:0:0:0:
256,192,47092,1,0,0:0:0:0:
256,192,47167,1,0,0:0:0:0:
256,192,47242,1,12,0:0:0:0:
256,192,47392,1,0,0:0:0:0:
256,192,47542,1,0,0:0:0:0:
256,192,47692,1,12,0:0:0:0:
256,192,47842,1,0,0:0:0:0:
256,192,47992,1,8,0:0:0:0:
256,192,48142,1,0,0:0:0:0:
256,192,48217,1,0,0:0:0:0:
256,192,48292,1,0,0:0:0:0:
256,192,48367,1,0,0:0:0:0:
256,192,48442,1,8,0:0:0:0:
256,192,48592,1,0,0:0:0:0:
256,192,48892,1,0,0:0:0:0:
256,192,49192,1,0,0:0:0:0:
256,192,49492,1,0,0:0:0:0:
256,192,49642,1,8,0:0:0:0:
256,192,49792,1,0,0:0:0:0:
256,192,50242,1,8,0:0:0:0:
256,192,50542,1,8,0:0:0:0:
256,192,50842,1,0,0:0:0:0:
256,192,50917,1,0,0:0:0:0:
256,192,50992,1,0,0:0:0:0:
256,192,51067,1,0,0:0:0:0:
256,192,51142,1,0,0:0:0:0:
256,192,51217,1,0,0:0:0:0:
256,192,51292,1,0,0:0:0:0:
256,192,51367,1,0,0:0:0:0:
256,192,51442,1,8,0:0:0:0:
256,192,51517,1,8,0:0:0:0:
256,192,51592,1,8,0:0:0:0:
256,192,51667,1,8,0:0:0:0:
256,192,51742,1,8,0:0:0:0:
256,192,51817,1,8,0:0:0:0:
256,192,51892,1,8,0:0:0:0:
256,192,51967,1,8,0:0:0:0:
256,192,52042,1,0,0:0:0:0:
256,192,52117,1,8,0:0:0:0:
256,192,52192,1,8,0:0:0:0:
256,192,52267,1,8,0:0:0:0:
256,192,52342,1,0,0:0:0:0:
256,192,52417,1,8,0:0:0:0:
256,192,52492,1,8,0:0:0:0:
256,192,52567,1,8,0:0:0:0:
256,192,52642,1,0,0:0:0:0:
256,192,52717,1,0,0:0:0:0:
256,192,52792,1,0,0:0:0:0:
256,192,52867,1,0,0:0:0:0:
256,192,52942,1,8,0:0:0:0:
256,192,53017,1,8,0:0:0:0:
256,192,53092,1,8,0:0:0:0:
256,192,53167,1,8,0:0:0:0:
256,192,53242,1,0,0:0:0:0:
256,192,53317,1,0,0:0:0:0:
256,192,53392,1,0,0:0:0:0:
256,192,53467,1,0,0:0:0:0:
256,192,53542,1,0,0:0:0:0:
256,192,53617,1,0,0:0:0:0:
256,192,53692,1,0,0:0:0:0:
256,192,53767,1,0,0:0:0:0:
256,192,53842,1,8,0:0:0:0:
256,192,53917,1,8,0:0:0:0:
256,192,53992,1,8,0:0:0:0:
256,192,54067,1,8,0:0:0:0:
256,192,54142,1,8,0:0:0:0:
256,192,54217,1,8,0:0:0:0:
256,192,54292,1,8,0:0:0:0:
256,192,54367,1,8,0:0:0:0:
256,192,54442,1,0,0:0:0:0:
256,192,54517,1,8,0:0:0:0:
256,192,54592,1,8,0:0:0:0:
256,192,54667,1,8,0:0:0:0:
256,192,54742,1,0,0:0:0:0:
256,192,54817,1,0,0:0:0:0:
256,192,54892,1,0,0:0:0:0:
256,192,54967,1,0,0:0:0:0:
256,192,55042,1,8,0:0:0:0:
256,192,55117,1,8,0:0:0:0:
256,192,55192,1,8,0:0:0:0:
256,192,55267,1,8,0:0:0:0:
256,192,55342,1,0,0:0:0:0:
256,192,55417,1,0,0:0:0:0:
256,192,55492,1,0,0:0:0:0:
256,192,55567,1,0,0:0:0:0:
256,192,55642,1,8,0:0:0:0:
256,192,55717,1,8,0:0:0:0:
256,192,55792,1,8,0:0:0:0:
256,192,55867,1,8,0:0:0:0:
256,192,55942,1,8,0:0:0:0:
256,192,56017,1,8,0:0:0:0:
256,192,56092,1,0,0:0:0:0:
256,192,56167,1,0,0:0:0:0:
256,192,56242,1,8,0:0:0:0:
256,192,56317,1,0,0:0:0:0:
256,192,56392,1,0,0:0:0:0:
256,192,56467,1,0,0:0:0:0:
256,192,56542,1,8,0:0:0:0:
256,192,56617,1,0,0:0:0:0:
256,192,56692,1,0,0:0:0:0:
256,192,56767,1,0,0:0:0:0:
256,192,56842,1,8,0:0:0:0:
256,192,56917,1,8,0:0:0:0:
256,192,56992,1,8,0:0:0:0:
256,192,57067,1,8,0:0:0:0:
256,192,57142,1,0,0:0:0:0:
256,192,57217,1,0,0:0:0:0:
256,192,57292,1,0,0:0:0:0:
256,192,57367,1,0,0:0:0:0:
256,192,57442,1,8,0:0:0:0:
256,192,57517,1,8,0:0:0:0:
256,192,57592,1,8,0:0:0:0:
256,192,57667,1,8,0:0:0:0:
256,192,57742,1,8,0:0:0:0:
256,192,57817,1,8,0:0:0:0:
256,192,57892,1,8,0:0:0:0:
256,192,57967,1,8,0:0:0:0:
256,192,58042,1,0,0:0:0:0:
256,192,58117,1,0,0:0:0:0:
256,192,58192,1,0,0:0:0:0:
256,192,58267,1,0,0:0:0:0:
256,192,58342,1,8,0:0:0:0:
256,192,58417,1,0,0:0:0:0:
256,192,58492,1,8,0:0:0:0:
256,192,58567,1,0,0:0:0:0:
256,192,58642,1,8,0:0:0:0:
256,192,58717,1,8,0:0:0:0:
256,192,58792,1,8,0:0:0:0:
256,192,58867,1,8,0:0:0:0:
256,192,58942,1,0,0:0:0:0:
256,192,59017,1,0,0:0:0:0:
256,192,59092,1,0,0:0:0:0:
256,192,59167,1,0,0:0:0:0:
256,192,59242,1,8,0:0:0:0:
256,192,59542,1,0,0:0:0:0:
256,192,59617,1,0,0:0:0:0:
256,192,59692,1,0,0:0:0:0:
256,192,59767,1,0,0:0:0:0:
256,192,59842,1,8,0:0:0:0:
256,192,60142,1,8,0:0:0:0:
256,192,60217,1,8,0:0:0:0:
256,192,60292,1,8,0:0:0:0:
256,192,60367,1,8,0:0:0:0:
256,192,60442,1,0,0:0:0:0:
256,192,60517,1,0,0:0:0:0:
256,192,60592,1,0,0:0:0:0:
256,192,60667,1,0,0:0:0:0:
256,192,60742,1,0,0:0:0:0:
256,192,60817,1,0,0:0:0:0:
256,192,60892,1,0,0:0:0:0:
256,192,60967,1,0,0:0:0:0:
256,192,61042,1,8,0:0:0:0:
256,192,61117,1,8,0:0:0:0:
256,192,61192,1,8,0:0:0:0:
256,192,61267,1,8,0:0:0:0:
256,192,61342,1,8,0:0:0:0:
256,192,61417,1,8,0:0:0:0:
256,192,61492,1,8,0:0:0:0:
256,192,61567,1,8,0:0:0:0:
256,192,61642,1,0,0:0:0:0:
256,192,61717,1,8,0:0:0:0:
256,192,61792,1,8,0:0:0:0:
256,192,61867,1,8,0:0:0:0:
256,192,61942,1,0,0:0:0:0:
256,192,62017,1,8,0:0:0:0:
256,192,62092,1,8,0:0:0:0:
256,192,62167,1,8,0:0:0:0:
256,192,62242,1,0,0:0:0:0:
256,192,62317,1,0,0:0:0:0:
256,192,62392,1,0,0:0:0:0:
256,192,62467,1,0,0:0:0:0:
256,192,62542,1,8,0:0:0:0:
256,192,62617,1,8,0:0:0:0:
256,192,62692,1,8,0:0:0:0:
256,192,62767,1,8,0:0:0:0:
256,192,62842,1,0,0:0:0:0:
256,192,62917,1,0,0:0:0:0:
256,192,62992,1,0,0:0:0:0:
256,192,63067,1,0,0:0:0:0:
256,192,63142,1,0,0:0:0:0:
256,192,63217,1,0,0:0:0:0:
256,192,63292,1,0,0:0:0:0:
256,192,63367,1,0,0:0:0:0:
256,192,63442,1,8,0:0:0:0:
256,192,63517,1,8,0:0:0:0:
256,192,63592,1,8,0:0:0:0:
256,192,63667,1,8,0:0:0:0:
256,192,63742,1,8,0:0:0:0:
256,192,63817,1,8,0:0:0:0:
256,192,63892,1,8,0:0:0:0:
256,192,63967,1,8,0:0:0:0:
256,192,64042,1,0,0:0:0:0:
256,192,64117,1,8,0:0:0:0:
256,192,64192,1,8,0:0:0:0:
256,192,64267,1,8,0:0:0:0:
256,192,64342,1,0,0:0:0:0:
256,192,64417,1,0,0:0:0:0:
256,192,64492,1,0,0:0:0:0:
256,192,64567,1,0,0:0:0:0:
256,192,64642,1,8,0:0:0:0:
256,192,64717,1,8,0:0:0:0:
256,192,64792,1,8,0:0:0:0:
256,192,64867,1,8,0:0:0:0:
256,192,64942,1,0,0:0:0:0:
256,192,65017,1,0,0:0:0:0:
256,192,65092,1,0,0:0:0:0:
256,192,65167,1,0,0:0:0:0:
256,192,65242,1,8,0:0:0:0:
256,192,65317,1,8,0:0:0:0:
256,192,65392,1,8,0:0:0:0:
256,192,65467,1,8,0:0:0:0:
256,192,65542,1,0,0:0:0:0:
256,192,65617,1,0,0:0:0:0:
256,192,65692,1,8,0:0:0:0:
256,192,65767,1,8,0:0:0:0:
256,192,65842,1,8,0:0:0:0:
256,192,65917,1,8,0:0:0:0:
256,192,65992,1,0,0:0:0:0:
256,192,66067,1,0,0:0:0:0:
256,192,66142,1,8,0:0:0:0:
256,192,66217,1,0,0:0:0:0:
256,192,66292,1,0,0:0:0:0:
256,192,66367,1,0,0:0:0:0:
256,192,66442,1,8,0:0:0:0:
256,192,66517,1,0,0:0:0:0:
256,192,66592,1,0,0:0:0:0:
256,192,66667,1,0,0:0:0:0:
256,192,66742,1,8,0:0:0:0:
256,192,66817,1,0,0:0:0:0:
256,192,66892,1,0,0:0:0:0:
256,192,66967,1,0,0:0:0:0:
256,192,67042,1,8,0:0:0:0:
256,192,67117,1,8,0:0:0:0:
256,192,67192,1,8,0:0:0:0:
256,192,67267,1,8,0:0:0:0:
256,192,67342,1,0,0:0:0:0:
256,192,67417,1,0,0:0:0:0:
256,192,67492,1,0,0:0:0:0:
256,192,67567,1,0,0:0:0:0:
256,192,67642,1,8,0:0:0:0:
256,192,67717,1,8,0:0:0:0:
256,192,67792,1,8,0:0:0:0:
256,192,67867,1,8,0:0:0:0:
256,192,67942,1,0,0:0:0:0:
256,192,68017,1,0,0:0:0:0:
256,192,68092,1,8,0:0:0:0:
256,192,68167,1,8,0:0:0:0:
256,192,68242,1,8,0:0:0:0:
256,192,68317,1,8,0:0:0:0:
256,192,68392,1,8,0:0:0:0:
256,192,68467,1,8,0:0:0:0:
256,192,68542,1,0,0:0:0:0:
256,192,68617,1,0,0:0:0:0:
256,192,68692,1,0,0:0:0:0:
256,192,68767,1,0,0:0:0:0:
256,192,68842,1,8,0:0:0:0:
256,192,68917,1,0,0:0:0:0:
256,192,68992,1,0,0:0:0:0:
256,192,69067,1,0,0:0:0:0:
256,192,69142,1,0,0:0:0:0:
256,192,69217,1,0,0:0:0:0:
256,192,69292,1,0,0:0:0:0:
256,192,69367,1,0,0:0:0:0:
256,192,69442,1,8,0:0:0:0:
256,192,70042,1,4,0:0:0:0:
256,192,70342,1,0,0:0:0:0:
256,192,70492,1,8,0:0:0:0:
256,192,70642,1,0,0:0:0:0:
256,192,70792,1,0,0:0:0:0:
256,192,70867,1,0,0:0:0:0:
256,192,70942,1,8,0:0:0:0:
256,192,71017,1,8,0:0:0:0:
256,192,71092,1,0,0:0:0:0:
256,192,71242,1,8,0:0:0:0:
256,192,71392,1,0,0:0:0:0:
256,192,71467,1,0,0:0:0:0:
256,192,71542,1,8,0:0:0:0:
256,192,71617,1,0,0:0:0:0:
256,192,71692,1,0,0:0:0:0:
256,192,71842,1,8,0:0:0:0:
256,192,71992,1,0,0:0:0:0:
256,192,72067,1,0,0:0:0:0:
256,192,72142,1,8,0:0:0:0:
256,192,72217,1,0,0:0:0:0:
256,192,72292,1,8,0:0:0:0:
256,192,72442,1,4,0:0:0:0:
256,192,72742,1,0,0:0:0:0:
256,192,72892,1,8,0:0:0:0:
256,192,73042,1,8,0:0:0:0:
256,192,73117,1,0,0:0:0:0:
256,192,73192,1,0,0:0:0:0:
256,192,73267,1,0,0:0:0:0:
256,192,73342,1,8,0:0:0:0:
256,192,73492,1,0,0:0:0:0:
256,192,73567,1,0,0:0:0:0:
256,192,73642,1,8,0:0:0:0:
256,192,73792,1,0,0:0:0:0:
256,192,73942,1,8,0:0:0:0:
256,192,74017,1,8,0:0:0:0:
256,192,74092,1,0,0:0:0:0:
256,192,74242,1,8,0:0:0:0:
256,192,74317,1,8,0:0:0:0:
256,192,74392,1,0,0:0:0:0:
256,192,74467,1,0,0:0:0:0:
256,192,74542,1,8,0:0:0:0:
256,192,74617,1,8,0:0:0:0:
256,192,74692,1,8,0:0:0:0:
256,192,74842,1,4,0:0:0:0:
256,192,75142,1,0,0:0:0:0:
256,192,75217,1,0,0:0:0:0:
256,192,75292,1,8,0:0:0:0:
256,192,75442,1,0,0:0:0:0:
256,192,75592,1,8,0:0:0:0:
256,192,75742,1,8,0:0:0:0:
256,192,75817,1,8,0:0:0:0:
256,192,75892,1,0,0:0:0:0:
256,192,76042,1,8,0:0:0:0:
256,192,76192,1,0,0:0:0:0:
256,192,76267,1,0,0:0:0:0:
256,192,76342,1,8,0:0:0:0:
256,192,76417,1,8,0:0:0:0:
256,192,76492,1,0,0:0:0:0:
256,192,76642,1,8,0:0:0:0:
256,192,76792,1,0,0:0:0:0:
256,192,76867,1,0,0:0:0:0:
256,192,76942,1,8,0:0:0:0:
256,192,77017,1,8,0:0:0:0:
256,192,77092,1,8,0:0:0:0:
256,192,77242,1,4,0:0:0:0:
256,192,77542,1,8,0:0:0:0:
256,192,77617,1,0,0:0:0:0:
256,192,77692,1,8,0:0:0:0:
256,192,77767,1,8,0:0:0:0:
256,192,77842,1,0,0:0:0:0:
256,192,78142,1,8,0:0:0:0:
256,192,78217,1,0,0:0:0:0:
256,192,78292,1,8,0:0:0:0:
256,192,78367,1,8,0:0:0:0:
256,192,78442,1,0,0:0:0:0:
256,192,78517,1,8,0:0:0:0:
256,192,78592,1,0,0:0:0:0:
256,192,78667,1,0,0:0:0:0:
256,192,78742,1,8,0:0:0:0:
256,192,78817,1,8,0:0:0:0:
256,192,78892,1,0,0:0:0:0:
256,192,78967,1,0,0:0:0:0:
256,192,79042,1,8,0:0:0:0:
256,192,79117,1,8,0:0:0:0:
256,192,79192,1,8,0:0:0:0:
256,192,79267,1,8,0:0:0:0:
256,192,79342,1,0,0:0:0:0:
256,192,79492,1,8,0:0:0:0:
256,192,79642,1,0,0:0:0:0:
256,192,79717,1,0,0:0:0:0:
256,192,79792,1,0,0:0:0:0:
256,192,79867,1,0,0:0:0:0:
256,192,79942,1,8,0:0:0:0:
256,192,80017,1,0,0:0:0:0:
256,192,80092,1,8,0:0:0:0:
256,192,80167,1,0,0:0:0:0:
256,192,80242,1,8,0:0:0:0:
256,192,80317,1,8,0:0:0:0:
256,192,80392,1,0,0:0:0:0:
256,192,80467,1,0,0:0:0:0:
256,192,80542,1,8,0:0:0:0:
256,192,80617,1,8,0:0:0:0:
256,192,80692,1,0,0:0:0:0:
256,192,80767,1,0,0:0:0:0:
256,192,80842,1,8,0:0:0:0:
256,192,80917,1,8,0:0:0:0:
256,192,80992,1,8,0:0:0:0:
256,192,81067,1,8,0:0:0:0:
256,192,81142,1,0,0:0:0:0:
256,192,81217,1,0,0:0:0:0:
256,192,81292,1,0,0:0:0:0:
256,192,81367,1,0,0:0:0:0:
256,192,81442,1,8,0:0:0:0:
256,192,81517,1,8,0:0:0:0:
256,192,81592,1,0,0:0:0:0:
256,192,81667,1,0,0:0:0:0:
256,192,81742,1,8,0:0:0:0:
256,192,81817,1,8,0:0:0:0:
256,192,81892,1,8,0:0:0:0:
256,192,81967,1,8,0:0:0:0:
256,192,82042,1,0,0:0:0:0:
256,192,82117,1,0,0:0:0:0:
256,192,82192,1,8,0:0:0:0:
256,192,82267,1,0,0:0:0:0:
256,192,82342,1,8,0:0:0:0:
256,192,82417,1,0,0:0:0:0:
256,192,82492,1,0,0:0:0:0:
256,192,82567,1,0,0:0:0:0:
256,192,82642,1,8,0:0:0:0:
256,192,82717,1,0,0:0:0:0:
256,192,82792,1,0,0:0:0:0:
256,192,82867,1,0,0:0:0:0:
256,192,82942,1,8,0:0:0:0:
256,192,83017,1,8,0:0:0:0:
256,192,83092,1,8,0:0:0:0:
256,192,83167,1,8,0:0:0:0:
256,192,83242,1,0,0:0:0:0:
256,192,83317,1,0,0:0:0:0:
256,192,83392,1,8,0:0:0:0:
256,192,83467,1,0,0:0:0:0:
256,192,83542,1,8,0:0:0:0:
256,192,83617,1,8,0:0:0:0:
256,192,83692,1,0,0:0:0:0:
256,192,83767,1,0,0:0:0:0:
256,192,83842,1,8,0:0:0:0:
256,192,83917,1,8,0:0:0:0:
256,192,83992,1,0,0:0:0:0:
256,192,84067,1,0,0:0:0:0:
256,192,84142,1,8,0:0:0:0:
256,192,84217,1,8,0:0:0:0:
256,192,84292,1,8,0:0:0:0:
256,192,84367,1,8,0:0:0:0:
256,192,84442,1,0,0:0:0:0:
256,192,84517,1,0,0:0:0:0:
256,192,84592,1,0,0:0:0:0:
256,192,84667,1,0,0:0:0:0:
256,192,84742,1,0,0:0:0:0:
256,192,84817,1,0,0:0:0:0:
256,192,84892,1,0,0:0:0:0:
256,192,84967,1,0,0:0:0:0:
256,192,85042,1,8,0:0:0:0:
256,192,85117,1,8,0:0:0:0:
256,192,85192,1,8,0:0:0:0:
256,192,85267,1,8,0:0:0:0:
256,192,85342,1,8,0:0:0:0:
256,192,85417,1,8,0:0:0:0:
256,192,85492,1,8,0:0:0:0:
256,192,85567,1,8,0:0:0:0:
256,192,85642,1,4,0:0:0:0:
256,192,85792,1,8,0:0:0:0:
256,192,85942,1,8,0:0:0:0:
256,192,86092,1,8,0:0:0:0:
256,192,86242,1,4,0:0:0:0:
256,192,86392,1,8,0:0:0:0:
256,192,86542,1,8,0:0:0:0:
256,192,86692,1,8,0:0:0:0:
256,192,86842,1,4,0:0:0:0:
256,192,86992,1,0,0:0:0:0:
256,192,87067,1,0,0:0:0:0:
256,192,87142,1,8,0:0:0:0:
256,192,87292,1,8,0:0:0:0:
256,192,87442,1,0,0:0:0:0:
256,192,87592,1,8,0:0:0:0:
256,192,87742,1,0,0:0:0:0:
256,192,88042,1,8,0:0:0:0:
256,192,88342,1,0,0:0:0:0:
256,192,88492,1,0,0:0:0:0:
256,192,88567,1,0,0:0:0:0:
256,192,88642,1,8,0:0:0:0:
256,192,88792,1,8,0:0:0:0:
256,192,89242,1,4,0:0:0:0:
256,192,89392,1,0,0:0:0:0:
256,192,89467,1,0,0:0:0:0:
256,192,89542,1,0,0:0:0:0:
256,192,89692,1,8,0:0:0:0:
256,192,89842,1,0,0:0:0:0:
256,192,89992,1,8,0:0:0:0:
256,192,90067,1,8,0:0:0:0:
256,192,90142,1,0,0:0:0:0:
256,192,90292,1,0,0:0:0:0:
256,192,90442,1,8,0:0:0:0:
256,192,90592,1,0,0:0:0:0:
256,192,90742,1,8,0:0:0:0:
256,192,90892,1,0,0:0:0:0:
256,192,91042,1,8,0:0:0:0:
256,192,91192,1,8,0:0:0:0:
256,192,91342,1,0,0:0:0:0:
256,192,91492,1,8,0:0:0:0:
256,192,91642,1,4,0:0:0:0:
256,192,91792,1,0,0:0:0:0:
256,192,91867,1,0,0:0:0:0:
256,192,91942,1,0,0:0:0:0:
256,192,92092,1,8,0:0:0:0:
256,192,92242,1,0,0:0:0:0:
256,192,92392,1,8,0:0:0:0:
256,192,92467,1,8,0:0:0:0:
256,192,92542,1,0,0:0:0:0:
256,192,92692,1,0,0:0:0:0:
256,192,92842,1,8,0:0:0:0:
256,192,92917,1,8,0:0:0:0:
256,192,92992,1,8,0:0:0:0:
256,192,93142,1,0,0:0:0:0:
256,192,93292,1,0,0:0:0:0:
256,192,93442,1,8,0:0:0:0:
256,192,93517,1,8,0:0:0:0:
256,192,93592,1,8,0:0:0:0:
256,192,93742,1,0,0:0:0:0:
256,192,93892,1,0,0:0:0:0:
256,192,94042,1,8,0:0:0:0:
256,192,94492,1,0,0:0:0:0:
256,192,94942,1,8,0:0:0:0:
256,192,95392,1,0,0:0:0:0:
256,192,95842,1,8,0:0:0:0:
256,192,96292,1,8,0:0:0:0:
256,192,96442,1,0,0:0:0:0:
256,192,96592,1,0,0:0:0:0:
256,192,96742,1,8,0:0:0:0:
256,192,96892,1,8,0:0:0:0:
256,192,97192,1,0,0:0:0:0:
256,192,97342,1,8,0:0:0:0:
256,192,97492,1,0,0:0:0:0:
256,192,97642,1,8,0:0:0:0:
256,192,97792,1,8,0:0:0:0:
256,192,97942,1,0,0:0:0:0:
256,192,98092,1,8,0:0:0:0:
256,192,98242,1,0,0:0:0:0:
256,192,98392,1,0,0:0:0:0:
256,192,98467,1,0,0:0:0:0:
256,192,98542,1,8,0:0:0:0:
256,192,98617,1,0,0:0:0:0:
256,192,98692,1,8,0:0:0:0:
256,192,98842,1,4,0:0:0:0:
256,192,98992,1,8,0:0:0:0:
256,192,99142,1,0,0:0:0:0:
256,192,99217,1,8,0:0:0:0:
256,192,99292,1,0,0:0:0:0:
256,192,99367,1,0,0:0:0:0:
256,192,99442,1,8,0:0:0:0:
256,192,99517,1,0,0:0:0:0:
256,192,99592,1,8,0:0:0:0:
256,192,99667,1,8,0:0:0:0:
256,192,99742,1,0,0:0:0:0:
256,192,99892,1,0,0:0:0:0:
256,192,99967,1,0,0:0:0:0:
256,192,100042,1,8,0:0:0:0:
256,192,100192,1,0,0:0:0:0:
256,192,100342,1,8,0:0:0:0:
256,192,100417,1,0,0:0:0:0:
256,192,100492,1,8,0:0:0:0:
256,192,100567,1,8,0:0:0:0:
256,192,100642,1,0,0:0:0:0:
256,192,100717,1,0,0:0:0:0:
256,192,100792,1,8,0:0:0:0:
256,192,100867,1,0,0:0:0:0:
256,192,100942,1,8,0:0:0:0:
256,192,101092,1,0,0:0:0:0:
256,192,101242,1,8,0:0:0:0:
256,192,101317,1,8,0:0:0:0:
256,192,101392,1,0,0:0:0:0:
256,192,101542,1,0,0:0:0:0:
256,192,101692,1,8,0:0:0:0:
256,192,101767,1,8,0:0:0:0:
256,192,101842,1,0,0:0:0:0:
256,192,101992,1,0,0:0:0:0:
256,192,102142,1,8,0:0:0:0:
256,192,102217,1,8,0:0:0:0:
256,192,102292,1,0,0:0:0:0:
256,192,102442,1,0,0:0:0:0:
256,192,102592,1,8,0:0:0:0:
256,192,102667,1,8,0:0:0:0:
256,192,102742,1,0,0:0:0:0:
256,192,102892,1,0,0:0:0:0:
256,192,102967,1,0,0:0:0:0:
256,192,103042,1,8,0:0:0:0:
256,192,103192,1,0,0:0:0:0:
256,192,103342,1,8,0:0:0:0:
256,192,103417,1,0,0:0:0:0:
256,192,103492,1,8,0:0:0:0:
256,192,103642,1,4,0:0:0:0:
256,192,103942,1,8,0:0:0:0:
256,192,104092,1,0,0:0:0:0:
256,192,104167,1,0,0:0:0:0:
256,192,104242,1,0,0:0:0:0:
256,192,104392,1,0,0:0:0:0:
256,192,104542,1,8,0:0:0:0:
256,192,104617,1,8,0:0:0:0:
256,192,104692,1,8,0:0:0:0:
256,192,104842,1,0,0:0:0:0:
256,192,104992,1,8,0:0:0:0:
256,192,105142,1,0,0:0:0:0:
256,192,105292,1,0,0:0:0:0:
256,192,105367,1,0,0:0:0:0:
256,192,105442,1,8,0:0:0:0:
256,192,105592,1,0,0:0:0:0:
256,192,105742,1,8,0:0:0:0:
256,192,105892,1,8,0:0:0:0:
256,192,106042,1,4,0:0:0:0:
256,192,106492,1,4,0:0:0:0:
256,192,106942,1,12,0:0:0:0:
256,192,107242,1,12,0:0:0:0:
320,128,107842,1,8,0:0:0:0:
320,128,107942,1,0,0:0:0:0:
320,128,108042,1,0,0:0:0:0:
192,128,108142,1,8,0:0:0:0:
320,128,108442,1,4,0:0:0:0:
192,128,108642,1,0,0:0:0:0:
320,128,108742,1,8,0:0:0:0:
192,128,108842,1,8,0:0:0:0:
320,128,108942,1,0,0:0:0:0:
320,128,109042,1,8,0:0:0:0:
192,128,109142,1,8,0:0:0:0:
192,128,109242,1,8,0:0:0:0:
320,128,109342,1,0,0:0:0:0:
192,128,109442,1,0,0:0:0:0:
192,128,109542,1,0,0:0:0:0:
320,128,109642,1,8,0:0:0:0:
192,128,109742,1,8,0:0:0:0:
192,128,109842,1,0,0:0:0:0:
320,128,109942,1,8,0:0:0:0:
192,128,110042,1,0,0:0:0:0:
320,128,110142,1,0,0:0:0:0:
320,128,110242,1,8,0:0:0:0:
192,128,110342,1,8,0:0:0:0:
192,128,110442,1,0,0:0:0:0:
320,128,110542,1,8,0:0:0:0:
192,128,110642,1,0,0:0:0:0:
192,128,110742,1,0,0:0:0:0:
320,128,110842,1,8,0:0:0:0:
192,128,110942,1,8,0:0:0:0:
192,128,111042,1,8,0:0:0:0:
320,128,111142,1,8,0:0:0:0:
192,128,111242,1,0,0:0:0:0:
320,128,111342,1,0,0:0:0:0:
320,128,111442,1,8,0:0:0:0:
192,128,111542,1,8,0:0:0:0:
192,128,111642,1,8,0:0:0:0:
320,128,111742,1,0,0:0:0:0:
192,128,111842,1,0,0:0:0:0:
192,128,111942,1,0,0:0:0:0:
320,128,112042,1,8,0:0:0:0:
192,128,112142,1,8,0:0:0:0:
192,128,112242,1,0,0:0:0:0:
320,128,112342,1,8,0:0:0:0:
192,128,112442,1,0,0:0:0:0:
320,128,112542,1,0,0:0:0:0:
320,128,112642,1,8,0:0:0:0:
192,128,112742,1,8,0:0:0:0:
192,128,112842,1,0,0:0:0:0:
320,128,112942,1,8,0:0:0:0:
192,128,113042,1,0,0:0:0:0:
192,128,113142,1,0,0:0:0:0:
320,128,113242,1,8,0:0:0:0:
192,128,113342,1,8,0:0:0:0:
192,128,113442,1,8,0:0:0:0:
320,128,113542,1,8,0:0:0:0:
320,128,113642,1,0,0:0:0:0:
320,128,113742,1,0,0:0:0:0:
320,128,113842,1,8,0:0:0:0:
192,128,113942,1,8,0:0:0:0:
192,128,114042,1,0,0:0:0:0:
320,128,114142,1,8,0:0:0:0:
192,128,114242,1,8,0:0:0:0:
192,128,114342,1,0,0:0:0:0:
320,128,114442,1,8,0:0:0:0:
320,128,114542,1,8,0:0:0:0:
320,128,114642,1,8,0:0:0:0:
320,128,114742,1,0,0:0:0:0:
320,128,114842,1,0,0:0:0:0:
192,128,114942,1,0,0:0:0:0:
320,128,115042,1,8,0:0:0:0:
192,128,115142,1,8,0:0:0:0:
192,128,115242,1,8,0:0:0:0:
192,128,115342,1,8,0:0:0:0:
192,128,115442,1,8,0:0:0:0:
192,128,115542,1,8,0:0:0:0:
320,128,115642,1,0,0:0:0:0:
192,128,115742,1,0,0:0:0:0:
192,128,115842,1,0,0:0:0:0:
320,128,115942,1,8,0:0:0:0:
192,128,116042,1,8,0:0:0:0:
320,128,116142,1,0,0:0:0:0:
320,128,116242,1,8,0:0:0:0:
192,128,116342,1,8,0:0:0:0:
320,128,116442,1,0,0:0:0:0:
320,128,116542,1,8,0:0:0:0:
192,128,116642,1,8,0:0:0:0:
320,128,116742,1,8,0:0:0:0:
192,256,116842,1,0,0:0:0:0:
320,128,117142,1,8,0:0:0:0:
320,128,117242,1,8,0:0:0:0:
320,128,117342,1,8,0:0:0:0:
192,128,117442,1,0,0:0:0:0:
320,128,117742,1,8,0:0:0:0:
320,128,117842,1,8,0:0:0:0:
320,128,117942,1,8,0:0:0:0:
192,128,118042,1,0,0:0:0:0:
192,128,118142,1,0,0:0:0:0:
192,128,118242,1,0,0:0:0:0:
320,128,118342,1,8,0:0:0:0:
192,128,118442,1,8,0:0:0:0:
320,128,118542,1,0,0:0:0:0:
320,128,118642,1,8,0:0:0:0:
192,128,118742,1,8,0:0:0:0:
192,128,118842,1,8,0:0:0:0:
320,128,118942,1,0,0:0:0:0:
192,128,119042,1,0,0:0:0:0:
192,128,119142,1,0,0:0:0:0:
320,128,119242,1,8,0:0:0:0:
192,128,119342,1,8,0:0:0:0:
192,128,119442,1,0,0:0:0:0:
320,128,119542,1,8,0:0:0:0:
192,128,119642,1,0,0:0:0:0:
320,128,119742,1,0,0:0:0:0:
320,128,119842,1,8,0:0:0:0:
192,128,119942,1,8,0:0:0:0:
192,128,120042,1,0,0:0:0:0:
320,128,120142,1,8,0:0:0:0:
192,128,120242,1,0,0:0:0:0:
192,128,120342,1,0,0:0:0:0:
320,128,120442,1,8,0:0:0:0:
192,128,120542,1,8,0:0:0:0:
192,128,120642,1,8,0:0:0:0:
320,128,120742,1,8,0:0:0:0:
192,128,120842,1,0,0:0:0:0:
320,128,120942,1,0,0:0:0:0:
320,128,121042,1,8,0:0:0:0:
192,128,121142,1,8,0:0:0:0:
192,128,121242,1,8,0:0:0:0:
320,128,121342,1,0,0:0:0:0:
192,128,121442,1,0,0:0:0:0:
192,128,121542,1,0,0:0:0:0:
320,128,121642,1,8,0:0:0:0:
192,128,121742,1,8,0:0:0:0:
192,128,121842,1,0,0:0:0:0:
320,128,121942,1,8,0:0:0:0:
192,128,122042,1,0,0:0:0:0:
320,128,122142,1,0,0:0:0:0:
320,128,122242,1,8,0:0:0:0:
192,128,122342,1,8,0:0:0:0:
192,128,122442,1,0,0:0:0:0:
320,128,122542,1,8,0:0:0:0:
192,128,122642,1,0,0:0:0:0:
192,128,122742,1,0,0:0:0:0:
320,128,122842,1,8,0:0:0:0:
192,128,122942,1,0,0:0:0:0:
192,128,123042,1,0,0:0:0:0:
320,128,123142,1,8,0:0:0:0:
320,128,123242,1,0,0:0:0:0:
320,128,123342,1,8,0:0:0:0:
320,128,123442,1,8,0:0:0:0:
192,128,123542,1,0,0:0:0:0:
192,128,123642,1,0,0:0:0:0:
320,128,123742,1,8,0:0:0:0:
192,128,123842,1,8,0:0:0:0:
192,128,123942,1,0,0:0:0:0:
320,128,124042,1,8,0:0:0:0:
320,128,124142,1,8,0:0:0:0:
320,128,124242,1,0,0:0:0:0:
320,128,124342,1,8,0:0:0:0:
320,128,124442,1,0,0:0:0:0:
192,128,124542,1,0,0:0:0:0:
320,128,124642,1,8,0:0:0:0:
192,128,124742,1,8,0:0:0:0:
192,128,124842,1,8,0:0:0:0:
320,128,124942,1,0,0:0:0:0:
192,128,125042,1,0,0:0:0:0:
192,128,125142,1,0,0:0:0:0:
320,128,125242,1,8,0:0:0:0:
192,128,125342,1,8,0:0:0:0:
192,128,125442,1,0,0:0:0:0:
320,128,125542,1,8,0:0:0:0:
320,128,125642,1,0,0:0:0:0:
320,128,125742,1,8,0:0:0:0:
320,128,125842,1,8,0:0:0:0:
192,128,125942,1,0,0:0:0:0:
192,128,126042,1,0,0:0:0:0:
320,128,126142,1,8,0:0:0:0:
192,128,126242,1,8,0:0:0:0:
192,128,126342,1,0,0:0:0:0:
320,128,126442,1,8,0:0:0:0:
192,256,126542,1,8,0:0:0:0:
192,256,126642,1,8,0:0:0:0:
320,128,126742,1,0,0:0:0:0:
320,128,126842,1,0,0:0:0:0:
320,128,126942,1,0,0:0:0:0:
192,128,127042,1,8,0:0:0:0:
320,128,127142,1,8,0:0:0:0:
320,128,127242,1,0,0:0:0:0:
320,128,127342,1,8,0:0:0:0:
192,256,127642,1,4,0:0:0:0:
