osu file format v14

[General]
AudioFilename: audio.mp3
AudioLeadIn: 0
PreviewTime: 143091
Countdown: 0
SampleSet: Normal
StackLeniency: 0.7
Mode: 1
LetterboxInBreaks: 0
WidescreenStoryboard: 1

[Editor]
Bookmarks: 20618,41044,61469,72001,91788,109980,112533,130405,143171,173810,214341,245299,270033
DistanceSpacing: 0.7
BeatDivisor: 4
GridSize: 32
TimelineZoom: 2.3

[Metadata]
Title:Hunger
TitleUnicode:Hunger
Artist:Aether Realm
ArtistUnicode:Æther Realm
Creator:New Zealand
Version:Oni
Source:
Tags:fa featured artist death metal folk melodic english redneck vikings from hell power arley_
BeatmapID:2956443
BeatmapSetID:1418349

[Difficulty]
HPDrainRate:5
CircleSize:2
OverallDifficulty:6
ApproachRate:5
SliderMultiplier:1.4
SliderTickRate:1

[Events]
//Background and Video events
0,0,"bg.jpg",0,0
//Break Periods
2,164275,172610
//Storyboard Layer 0 (Background)
//Storyboard Layer 1 (Fail)
//Storyboard Layer 2 (Pass)
//Storyboard Layer 3 (Foreground)
//Storyboard Layer 4 (Overlay)
//Storyboard Sound Samples

[TimingPoints]
193,319.148936170213,4,1,0,80,1,0
193,-111.111111111111,4,1,0,80,0,0
9767,-111.111111111111,4,1,0,81,0,0
9927,-108.108108108108,4,1,0,82,0,0
10006,-106.666666666667,4,1,0,83,0,0
10086,-105.263157894737,4,1,0,84,0,0
10246,-102.564102564103,4,1,0,86,0,0
10325,-100,4,1,0,90,0,0
20259,-100,4,1,0,100,0,0
20339,-100,4,1,0,90,0,0
20538,-100,4,1,0,100,0,0
31070,-100,4,1,0,90,0,0
33304,-100,4,1,0,100,0,0
33424,-100,4,1,0,90,0,0
33783,-100,4,1,0,100,0,0
33903,-100,4,1,0,90,0,0
34262,-100,4,1,0,100,0,0
34382,-100,4,1,0,90,0,0
34740,-100,4,1,0,100,0,0
34860,-100,4,1,0,90,0,0
35538,-100,4,1,0,100,0,0
35658,-100,4,1,0,90,0,0
38411,-100,4,1,0,100,0,0
38531,-100,4,1,0,90,0,0
39368,-100,4,1,0,100,0,0
39488,-100,4,1,0,90,0,0
40964,-100,4,1,0,100,0,0
41203,-100,4,1,0,90,0,0
43517,-100,4,1,0,100,0,0
43637,-100,4,1,0,90,0,0
44474,-100,4,1,0,100,0,0
44594,-100,4,1,0,90,0,0
46070,-100,4,1,0,100,0,0
46190,-100,4,1,0,90,0,0
46549,-100,4,1,0,100,0,0
46669,-100,4,1,0,90,0,0
48623,-100,4,1,0,100,0,0
48743,-100,4,1,0,90,0,0
49102,-100,4,1,0,100,0,0
49222,-100,4,1,0,90,0,0
49581,-100,4,1,0,100,0,0
49701,-100,4,1,0,90,0,0
51177,-100,4,1,0,100,0,0
51297,-100,4,1,0,90,0,0
53730,-100,4,1,0,100,0,0
53850,-100,4,1,0,90,0,0
56283,-100,4,1,0,100,0,0
56403,-100,4,1,0,90,0,0
58836,-100,4,1,0,100,0,0
70645,-100,4,1,0,90,0,0
71921,-100,4,1,0,100,0,0
72001,-83.3333333333333,4,1,0,100,0,1
72161,-95.2380952380952,4,1,0,100,0,1
82134,-83.3333333333333,4,1,0,100,0,1
82373,-95.2380952380952,4,1,0,100,0,1
92107,-100,4,1,0,100,0,0
102560,-100,4,1,0,90,0,0
104794,-100,4,1,0,100,0,0
104914,-100,4,1,0,90,0,0
105272,-100,4,1,0,100,0,0
105392,-100,4,1,0,90,0,0
105751,-100,4,1,0,100,0,0
105871,-100,4,1,0,90,0,0
106230,-100,4,1,0,100,0,0
106350,-100,4,1,0,90,0,0
107028,-100,4,1,0,100,0,0
107148,-100,4,1,0,90,0,0
109900,-100,4,1,0,100,0,0
110020,-100,4,1,0,90,0,0
110299,-83.3333333333333,4,1,0,80,0,0
110339,-100,4,1,0,90,0,0
112134,-100,4,1,0,100,0,0
112693,-100,4,1,0,90,0,0
115964,-100,4,1,0,100,0,0
116084,-100,4,1,0,90,0,0
117240,-100,4,1,0,100,0,0
117679,-100,4,1,0,90,0,0
120113,-100,4,1,0,100,0,0
120233,-100,4,1,0,90,0,0
120591,-100,4,1,0,100,0,0
120711,-100,4,1,0,90,0,0
121070,-100,4,1,0,100,0,0
121190,-100,4,1,0,90,0,0
122666,-100,4,1,0,100,0,0
122786,-100,4,1,0,90,0,0
127772,-100,4,1,0,100,0,0
127892,-100,4,1,0,90,0,0
130325,-100,4,1,0,100,0,0
131602,-100,4,1,0,90,0,0
132560,-100,4,1,0,100,0,0
140538,-100,4,1,0,90,0,0
143730,-100,4,1,0,100,0,0
143810,-83.3333333333333,4,1,0,100,0,1
143889,-95.2380952380952,4,1,0,100,0,1
153703,-83.3333333333333,4,1,0,100,0,1
153863,-95.2380952380952,4,1,0,100,0,1
163597,-95.2380952380952,4,1,0,100,0,0
164235,-166.666666666667,4,1,0,60,0,0
169980,-153.846153846154,4,1,0,65,0,0
171256,-142.857142857143,4,1,0,70,0,0
172533,-133.333333333333,4,1,0,75,0,0
173730,-125,4,1,0,80,0,0
178836,-111.30738313003,4,1,0,85,0,0
183943,-100,4,1,0,90,0,0
199262,-100,4,1,0,100,0,0
199382,-100,4,1,0,90,0,0
204368,-100,4,1,0,100,0,0
204488,-100,4,1,0,90,0,0
204568,-50,4,1,0,70,0,0
204647,-142.857142857143,4,1,0,70,0,0
212107,-125,4,1,0,80,0,0
213384,-111.111111111111,4,1,0,90,0,0
214262,-100,4,1,0,100,0,0
214421,-100,4,1,0,90,0,0
235006,-100,4,1,0,100,0,0
243943,-100,4,1,0,90,0,0
245538,-100,4,1,0,100,0,0
245618,-83.3333333333333,4,1,0,100,0,1
245778,-95.2380952380952,4,1,0,100,0,1
255831,-83.3333333333333,4,1,0,100,0,1
255990,-95.2380952380952,4,1,0,100,0,1
265724,-95.2380952380952,4,1,0,100,0,0
265964,-100,4,1,0,90,0,0
269794,-100,4,1,0,100,0,0

[HitObjects]
256,192,193,5,12,0:0:0:0:
256,192,671,5,4,0:0:0:0:
256,192,2746,5,12,0:0:0:0:
256,192,3065,5,8,0:0:0:0:
256,192,3224,5,4,0:0:0:0:
256,192,3703,5,12,0:0:0:0:
256,192,4182,5,4,0:0:0:0:
256,192,4501,5,0,0:0:0:0:
256,192,4661,5,12,0:0:0:0:
256,192,4980,5,8,0:0:0:0:
256,192,5299,5,12,0:0:0:0:
256,192,5778,5,4,0:0:0:0:
256,192,7533,5,8,0:0:0:0:
256,192,7693,5,8,0:0:0:0:
256,192,7852,5,12,0:0:0:0:
256,192,8331,5,4,0:0:0:0:
256,192,8810,5,12,0:0:0:0:
256,192,9288,5,4,0:0:0:0:
256,192,9767,5,8,0:0:0:0:
256,192,9927,5,0,0:0:0:0:
256,192,10006,5,0,0:0:0:0:
256,192,10086,5,8,0:0:0:0:
256,192,10246,5,8,0:0:0:0:
256,192,10405,5,4,0:0:0:0:
256,192,10724,5,0,0:0:0:0:
256,192,10884,5,0,0:0:0:0:
256,192,11044,5,8,0:0:0:0:
256,192,11203,5,0,0:0:0:0:
256,192,11363,5,8,0:0:0:0:
256,192,11522,5,8,0:0:0:0:
256,192,11682,5,0,0:0:0:0:
256,192,11841,5,8,0:0:0:0:
256,192,12001,5,0,0:0:0:0:
256,192,12161,5,0,0:0:0:0:
256,192,12320,5,8,0:0:0:0:
256,192,12480,5,0,0:0:0:0:
256,192,12560,5,0,0:0:0:0:
256,192,12639,5,8,0:0:0:0:
256,192,12799,5,0,0:0:0:0:
256,192,12958,5,8,0:0:0:0:
256,192,13278,5,0,0:0:0:0:
256,192,13437,5,8,0:0:0:0:
256,192,13597,5,0,0:0:0:0:
256,192,13756,5,0,0:0:0:0:
256,192,13916,5,8,0:0:0:0:
256,192,14235,5,0,0:0:0:0:
256,192,14395,5,8,0:0:0:0:
256,192,14554,5,0,0:0:0:0:
256,192,14634,5,0,0:0:0:0:
256,192,14714,5,8,0:0:0:0:
256,192,14873,5,0,0:0:0:0:
256,192,15033,5,0,0:0:0:0:
256,192,15193,5,8,0:0:0:0:
256,192,15512,5,0,0:0:0:0:
256,192,15671,5,8,0:0:0:0:
256,192,15831,5,0,0:0:0:0:
256,192,15911,5,0,0:0:0:0:
256,192,15990,5,0,0:0:0:0:
256,192,16150,5,0,0:0:0:0:
256,192,16310,5,8,0:0:0:0:
256,192,16469,5,0,0:0:0:0:
256,192,16549,5,0,0:0:0:0:
256,192,16629,5,8,0:0:0:0:
256,192,16788,5,0,0:0:0:0:
256,192,16948,5,8,0:0:0:0:
256,192,17107,5,0,0:0:0:0:
256,192,17187,5,0,0:0:0:0:
256,192,17267,5,8,0:0:0:0:
256,192,17427,5,0,0:0:0:0:
256,192,17586,5,8,0:0:0:0:
256,192,17746,5,0,0:0:0:0:
256,192,17825,5,0,0:0:0:0:
256,192,17905,5,0,0:0:0:0:
256,192,17985,5,0,0:0:0:0:
256,192,18065,5,12,0:0:0:0:
256,192,18224,5,0,0:0:0:0:
256,192,18384,5,0,0:0:0:0:
256,192,18544,5,12,0:0:0:0:
256,192,18703,5,0,0:0:0:0:
256,192,18863,5,0,0:0:0:0:
256,192,19022,5,12,0:0:0:0:
256,192,19501,5,0,0:0:0:0:
256,192,19661,5,8,0:0:0:0:
256,192,19740,5,8,0:0:0:0:
256,192,19820,5,8,0:0:0:0:
256,192,19980,5,0,0:0:0:0:
256,192,20060,5,0,0:0:0:0:
256,192,20139,5,0,0:0:0:0:
256,192,20219,5,0,0:0:0:0:
256,192,20299,5,12,0:0:0:0:
256,192,20618,5,8,0:0:0:0:
256,192,20778,5,0,0:0:0:0:
256,192,20937,5,0,0:0:0:0:
256,192,21097,5,8,0:0:0:0:
256,192,21177,5,0,0:0:0:0:
256,192,21256,5,0,0:0:0:0:
256,192,21416,5,0,0:0:0:0:
256,192,21575,5,8,0:0:0:0:
256,192,21735,5,0,0:0:0:0:
256,192,21895,5,0,0:0:0:0:
256,192,22054,5,8,0:0:0:0:
256,192,22134,5,8,0:0:0:0:
256,192,22214,5,8,0:0:0:0:
256,192,22373,5,0,0:0:0:0:
256,192,22533,5,8,0:0:0:0:
256,192,22613,5,8,0:0:0:0:
256,192,22693,5,0,0:0:0:0:
256,192,22852,5,8,0:0:0:0:
256,192,23171,5,8,0:0:0:0:
256,192,23331,5,0,0:0:0:0:
256,192,23490,5,0,0:0:0:0:
256,192,23650,5,8,0:0:0:0:
256,192,23730,5,0,0:0:0:0:
256,192,23810,5,0,0:0:0:0:
256,192,23969,5,0,0:0:0:0:
256,192,24129,5,8,0:0:0:0:
256,192,24208,5,8,0:0:0:0:
256,192,24288,5,0,0:0:0:0:
256,192,24448,5,0,0:0:0:0:
256,192,24607,5,8,0:0:0:0:
256,192,24687,5,8,0:0:0:0:
256,192,24767,5,0,0:0:0:0:
256,192,24927,5,0,0:0:0:0:
256,192,25086,5,8,0:0:0:0:
256,192,25166,5,0,0:0:0:0:
256,192,25246,5,8,0:0:0:0:
256,192,25405,5,8,0:0:0:0:
256,192,25724,5,8,0:0:0:0:
256,192,25884,5,0,0:0:0:0:
256,192,26044,5,0,0:0:0:0:
256,192,26203,5,8,0:0:0:0:
256,192,26283,5,0,0:0:0:0:
256,192,26363,5,0,0:0:0:0:
256,192,26522,5,0,0:0:0:0:
256,192,26682,5,8,0:0:0:0:
256,192,26841,5,0,0:0:0:0:
256,192,27001,5,0,0:0:0:0:
256,192,27161,5,8,0:0:0:0:
256,192,27240,5,8,0:0:0:0:
256,192,27320,5,8,0:0:0:0:
256,192,27480,5,0,0:0:0:0:
256,192,27639,5,8,0:0:0:0:
256,192,27719,5,8,0:0:0:0:
256,192,27799,5,0,0:0:0:0:
256,192,27958,5,8,0:0:0:0:
256,192,28278,5,8,0:0:0:0:
256,192,28437,5,0,0:0:0:0:
256,192,28597,5,0,0:0:0:0:
256,192,28756,5,8,0:0:0:0:
256,192,28836,5,0,0:0:0:0:
256,192,28916,5,0,0:0:0:0:
256,192,29075,5,0,0:0:0:0:
256,192,29235,5,8,0:0:0:0:
256,192,29395,5,0,0:0:0:0:
256,192,29554,5,0,0:0:0:0:
256,192,29714,5,8,0:0:0:0:
256,192,29794,5,8,0:0:0:0:
256,192,29873,5,0,0:0:0:0:
256,192,30033,5,0,0:0:0:0:
256,192,30193,5,8,0:0:0:0:
256,192,30272,5,8,0:0:0:0:
256,192,30352,5,0,0:0:0:0:
256,192,30432,5,0,0:0:0:0:
256,192,30512,5,8,0:0:0:0:
256,192,30671,5,0,0:0:0:0:
256,192,30831,5,12,0:0:0:0:
256,192,31150,5,8,0:0:0:0:
256,192,31310,5,8,0:0:0:0:
256,192,31469,5,0,0:0:0:0:
256,192,31629,5,0,0:0:0:0:
256,192,31788,5,8,0:0:0:0:
256,192,31948,5,0,0:0:0:0:
256,192,32107,5,0,0:0:0:0:
256,192,32267,5,8,0:0:0:0:
256,192,32427,5,8,0:0:0:0:
256,192,32586,5,0,0:0:0:0:
256,192,32746,5,8,0:0:0:0:
256,192,32825,5,0,0:0:0:0:
256,192,32905,5,0,0:0:0:0:
256,192,33065,5,8,0:0:0:0:
256,192,33145,5,8,0:0:0:0:
256,192,33224,5,0,0:0:0:0:
256,192,33384,5,12,0:0:0:0:
256,192,33703,5,0,0:0:0:0:
256,192,33863,5,12,0:0:0:0:
256,192,34022,5,0,0:0:0:0:
256,192,34182,5,0,0:0:0:0:
256,192,34341,5,12,0:0:0:0:
256,192,34501,5,0,0:0:0:0:
256,192,34661,5,0,0:0:0:0:
256,192,34820,5,12,0:0:0:0:
256,192,34980,5,0,0:0:0:0:
256,192,35139,5,0,0:0:0:0:
256,192,35299,5,0,0:0:0:0:
256,192,35379,5,0,0:0:0:0:
256,192,35458,5,0,0:0:0:0:
256,192,35618,5,12,0:0:0:0:
256,192,35937,5,8,0:0:0:0:
256,192,36097,5,0,0:0:0:0:
256,192,36256,5,0,0:0:0:0:
256,192,36416,5,8,0:0:0:0:
256,192,36496,5,8,0:0:0:0:
256,192,36575,5,0,0:0:0:0:
256,192,36735,5,0,0:0:0:0:
256,192,36895,5,8,0:0:0:0:
256,192,37054,5,0,0:0:0:0:
256,192,37214,5,0,0:0:0:0:
256,192,37373,5,8,0:0:0:0:
256,192,37453,5,8,0:0:0:0:
256,192,37533,5,0,0:0:0:0:
256,192,37693,5,0,0:0:0:0:
256,192,37852,5,8,0:0:0:0:
256,192,37932,5,8,0:0:0:0:
256,192,38012,5,8,0:0:0:0:
256,192,38091,5,8,0:0:0:0:
256,192,38171,5,0,0:0:0:0:
256,192,38331,5,0,0:0:0:0:
256,192,38490,5,12,0:0:0:0:
256,192,38969,5,0,0:0:0:0:
256,192,39288,5,0,0:0:0:0:
256,192,39448,5,12,0:0:0:0:
256,192,40724,5,8,0:0:0:0:
256,192,41044,5,4,0:0:0:0:
256,192,41363,5,8,0:0:0:0:
256,192,41522,5,8,0:0:0:0:
256,192,41682,5,0,0:0:0:0:
256,192,41841,5,0,0:0:0:0:
256,192,42001,5,8,0:0:0:0:
256,192,42081,5,0,0:0:0:0:
256,192,42161,5,0,0:0:0:0:
256,192,42320,5,0,0:0:0:0:
256,192,42480,5,0,0:0:0:0:
256,192,42560,5,0,0:0:0:0:
256,192,42639,5,8,0:0:0:0:
256,192,42799,5,0,0:0:0:0:
256,192,42958,5,8,0:0:0:0:
256,192,43038,5,8,0:0:0:0:
256,192,43118,5,0,0:0:0:0:
256,192,43278,5,8,0:0:0:0:
256,192,43437,5,0,0:0:0:0:
256,192,43597,5,12,0:0:0:0:
256,192,43916,5,8,0:0:0:0:
256,192,44075,5,8,0:0:0:0:
256,192,44235,5,0,0:0:0:0:
256,192,44395,5,0,0:0:0:0:
256,192,44554,5,12,0:0:0:0:
256,192,44714,5,0,0:0:0:0:
256,192,44873,5,0,0:0:0:0:
256,192,45033,5,8,0:0:0:0:
256,192,45113,5,0,0:0:0:0:
256,192,45193,5,8,0:0:0:0:
256,192,45352,5,0,0:0:0:0:
256,192,45512,5,0,0:0:0:0:
256,192,45591,5,0,0:0:0:0:
256,192,45671,5,0,0:0:0:0:
256,192,45831,5,8,0:0:0:0:
256,192,46150,5,12,0:0:0:0:
256,192,46310,5,0,0:0:0:0:
256,192,46469,5,0,0:0:0:0:
256,192,46629,5,12,0:0:0:0:
256,192,46788,5,0,0:0:0:0:
256,192,46948,5,0,0:0:0:0:
256,192,47107,5,8,0:0:0:0:
256,192,47187,5,0,0:0:0:0:
256,192,47267,5,0,0:0:0:0:
256,192,47427,5,0,0:0:0:0:
256,192,47586,5,0,0:0:0:0:
256,192,47666,5,0,0:0:0:0:
256,192,47746,5,8,0:0:0:0:
256,192,47905,5,0,0:0:0:0:
256,192,48065,5,8,0:0:0:0:
256,192,48145,5,8,0:0:0:0:
256,192,48224,5,0,0:0:0:0:
256,192,48384,5,8,0:0:0:0:
256,192,48544,5,0,0:0:0:0:
256,192,48703,5,12,0:0:0:0:
256,192,49022,5,0,0:0:0:0:
256,192,49182,5,12,0:0:0:0:
256,192,49501,5,0,0:0:0:0:
256,192,49661,5,12,0:0:0:0:
256,192,49980,5,8,0:0:0:0:
256,192,50139,5,0,0:0:0:0:
256,192,50299,5,8,0:0:0:0:
256,192,50458,5,0,0:0:0:0:
256,192,50618,5,8,0:0:0:0:
256,192,50698,5,8,0:0:0:0:
256,192,50778,5,0,0:0:0:0:
256,192,50857,5,0,0:0:0:0:
256,192,50937,5,8,0:0:0:0:
256,192,51097,5,0,0:0:0:0:
256,192,51256,5,12,0:0:0:0:
256,192,51575,5,8,0:0:0:0:
256,192,51735,5,8,0:0:0:0:
256,192,51895,5,0,0:0:0:0:
256,192,52054,5,0,0:0:0:0:
256,192,52134,5,0,0:0:0:0:
256,192,52214,5,8,0:0:0:0:
256,192,52373,5,0,0:0:0:0:
256,192,52533,5,0,0:0:0:0:
256,192,52693,5,8,0:0:0:0:
256,192,52772,5,0,0:0:0:0:
256,192,52852,5,8,0:0:0:0:
256,192,53012,5,0,0:0:0:0:
256,192,53091,5,0,0:0:0:0:
256,192,53171,5,8,0:0:0:0:
256,192,53331,5,0,0:0:0:0:
256,192,53490,5,8,0:0:0:0:
256,192,53810,5,12,0:0:0:0:
256,192,53969,5,0,0:0:0:0:
256,192,54049,5,0,0:0:0:0:
256,192,54129,5,8,0:0:0:0:
256,192,54288,5,8,0:0:0:0:
256,192,54448,5,8,0:0:0:0:
256,192,54607,5,0,0:0:0:0:
256,192,54687,5,0,0:0:0:0:
256,192,54767,5,8,0:0:0:0:
256,192,55086,5,8,0:0:0:0:
256,192,55246,5,8,0:0:0:0:
256,192,55325,5,0,0:0:0:0:
256,192,55405,5,8,0:0:0:0:
256,192,55565,5,0,0:0:0:0:
256,192,55724,5,8,0:0:0:0:
256,192,55804,5,8,0:0:0:0:
256,192,55884,5,8,0:0:0:0:
256,192,55964,5,8,0:0:0:0:
256,192,56044,5,0,0:0:0:0:
256,192,56203,5,0,0:0:0:0:
256,192,56363,5,12,0:0:0:0:
256,192,56682,5,0,0:0:0:0:
256,192,56841,5,8,0:0:0:0:
256,192,57001,5,0,0:0:0:0:
256,192,57161,5,0,0:0:0:0:
256,192,57320,5,8,0:0:0:0:
256,192,57400,5,0,0:0:0:0:
256,192,57480,5,0,0:0:0:0:
256,192,57639,5,0,0:0:0:0:
256,192,57799,5,0,0:0:0:0:
256,192,57879,5,0,0:0:0:0:
256,192,57958,5,8,0:0:0:0:
256,192,58118,5,0,0:0:0:0:
256,192,58278,5,8,0:0:0:0:
256,192,58437,5,0,0:0:0:0:
256,192,58597,5,8,0:0:0:0:
256,192,58756,5,0,0:0:0:0:
256,192,58916,5,12,0:0:0:0:
256,192,59395,5,4,0:0:0:0:
256,192,59873,5,12,0:0:0:0:
256,192,60352,5,4,0:0:0:0:
256,192,60831,5,4,0:0:0:0:
256,192,61150,5,12,0:0:0:0:
256,192,61469,5,8,0:0:0:0:
256,192,61629,5,0,0:0:0:0:
256,192,61788,5,0,0:0:0:0:
256,192,61948,5,8,0:0:0:0:
256,192,62028,5,0,0:0:0:0:
256,192,62107,5,0,0:0:0:0:
256,192,62267,5,0,0:0:0:0:
256,192,62427,5,8,0:0:0:0:
256,192,62586,5,0,0:0:0:0:
256,192,62746,5,8,0:0:0:0:
256,192,62825,5,8,0:0:0:0:
256,192,62905,5,0,0:0:0:0:
256,192,63064,5,0,0:0:0:0:
256,192,63224,5,8,0:0:0:0:
256,192,63304,5,0,0:0:0:0:
256,192,63384,5,0,0:0:0:0:
256,192,63544,5,0,0:0:0:0:
256,192,63703,5,8,0:0:0:0:
256,192,63863,5,0,0:0:0:0:
256,192,64022,5,8,0:0:0:0:
256,192,64102,5,8,0:0:0:0:
256,192,64182,5,0,0:0:0:0:
256,192,64341,5,0,0:0:0:0:
256,192,64501,5,8,0:0:0:0:
256,192,64581,5,0,0:0:0:0:
256,192,64661,5,0,0:0:0:0:
256,192,64820,5,0,0:0:0:0:
256,192,64980,5,8,0:0:0:0:
256,192,65060,5,0,0:0:0:0:
256,192,65139,5,0,0:0:0:0:
256,192,65299,5,8,0:0:0:0:
256,192,65458,5,0,0:0:0:0:
256,192,65618,5,8,0:0:0:0:
256,192,65778,5,0,0:0:0:0:
256,192,65937,5,8,0:0:0:0:
256,192,66017,5,8,0:0:0:0:
256,192,66097,5,0,0:0:0:0:
256,192,66177,5,0,0:0:0:0:
256,192,66256,5,8,0:0:0:0:
256,192,66416,5,0,0:0:0:0:
256,192,66575,5,12,0:0:0:0:
256,192,66895,5,8,0:0:0:0:
256,192,67054,5,8,0:0:0:0:
256,192,67134,5,0,0:0:0:0:
256,192,67214,5,0,0:0:0:0:
256,192,67373,5,0,0:0:0:0:
256,192,67533,5,8,0:0:0:0:
256,192,67693,5,0,0:0:0:0:
256,192,67772,5,0,0:0:0:0:
256,192,67852,5,8,0:0:0:0:
256,192,68012,5,0,0:0:0:0:
256,192,68171,5,0,0:0:0:0:
256,192,68331,5,8,0:0:0:0:
256,192,68411,5,0,0:0:0:0:
256,192,68490,5,0,0:0:0:0:
256,192,68650,5,0,0:0:0:0:
256,192,68810,5,8,0:0:0:0:
256,192,68969,5,0,0:0:0:0:
256,192,69129,5,8,0:0:0:0:
256,192,69208,5,8,0:0:0:0:
256,192,69288,5,0,0:0:0:0:
256,192,69448,5,8,0:0:0:0:
256,192,69607,5,0,0:0:0:0:
256,192,69767,5,8,0:0:0:0:
256,192,69847,5,0,0:0:0:0:
256,192,69927,5,0,0:0:0:0:
256,192,70086,5,8,0:0:0:0:
256,192,70246,5,0,0:0:0:0:
256,192,70405,5,8,0:0:0:0:
256,192,70565,5,8,0:0:0:0:
256,192,70724,5,8,0:0:0:0:
256,192,70884,5,0,0:0:0:0:
256,192,71044,5,8,0:0:0:0:
256,192,71203,5,0,0:0:0:0:
256,192,71363,5,0,0:0:0:0:
256,192,71443,5,0,0:0:0:0:
256,192,71522,5,0,0:0:0:0:
256,192,71602,5,0,0:0:0:0:
256,192,71682,5,8,0:0:0:0:
256,192,72001,5,12,0:0:0:0:
256,192,72320,5,8,0:0:0:0:
256,192,72639,5,8,0:0:0:0:
256,192,72799,5,0,0:0:0:0:
256,192,72958,5,8,0:0:0:0:
256,192,73278,5,0,0:0:0:0:
256,192,73437,5,8,0:0:0:0:
256,192,73597,5,8,0:0:0:0:
256,192,73916,5,0,0:0:0:0:
256,192,74075,5,0,0:0:0:0:
256,192,74235,5,12,0:0:0:0:
256,192,74873,5,8,0:0:0:0:
256,192,75193,5,8,0:0:0:0:
256,192,75352,5,0,0:0:0:0:
256,192,75512,5,8,0:0:0:0:
256,192,75591,5,0,0:0:0:0:
256,192,75671,5,0,0:0:0:0:
256,192,75831,5,0,0:0:0:0:
256,192,75990,5,8,0:0:0:0:
256,192,76150,5,8,0:0:0:0:
256,192,76230,5,8,0:0:0:0:
256,192,76310,5,0,0:0:0:0:
256,192,76469,5,0,0:0:0:0:
256,192,76629,5,0,0:0:0:0:
256,192,76788,5,12,0:0:0:0:
256,192,77427,5,8,0:0:0:0:
256,192,77746,5,8,0:0:0:0:
256,192,77905,5,0,0:0:0:0:
256,192,78065,5,8,0:0:0:0:
256,192,78224,5,8,0:0:0:0:
256,192,78384,5,0,0:0:0:0:
256,192,78544,5,0,0:0:0:0:
256,192,78703,5,8,0:0:0:0:
256,192,79022,5,8,0:0:0:0:
256,192,79182,5,0,0:0:0:0:
256,192,79341,5,8,0:0:0:0:
256,192,79501,5,0,0:0:0:0:
256,192,79581,5,0,0:0:0:0:
256,192,79661,5,8,0:0:0:0:
256,192,79820,5,0,0:0:0:0:
256,192,79980,5,8,0:0:0:0:
256,192,80139,5,0,0:0:0:0:
256,192,80219,5,0,0:0:0:0:
256,192,80299,5,8,0:0:0:0:
256,192,80458,5,0,0:0:0:0:
256,192,80618,5,8,0:0:0:0:
256,192,80937,5,8,0:0:0:0:
256,192,81097,5,0,0:0:0:0:
256,192,81256,5,8,0:0:0:0:
256,192,81416,5,0,0:0:0:0:
256,192,81575,5,0,0:0:0:0:
256,192,81655,5,0,0:0:0:0:
256,192,81735,5,0,0:0:0:0:
256,192,81815,5,0,0:0:0:0:
256,192,81895,5,8,0:0:0:0:
256,192,82214,5,12,0:0:0:0:
256,192,82533,5,8,0:0:0:0:
256,192,82852,5,8,0:0:0:0:
256,192,83012,5,0,0:0:0:0:
256,192,83171,5,8,0:0:0:0:
256,192,83490,5,0,0:0:0:0:
256,192,83650,5,8,0:0:0:0:
256,192,83810,5,8,0:0:0:0:
256,192,84129,5,8,0:0:0:0:
256,192,84288,5,0,0:0:0:0:
256,192,84448,5,12,0:0:0:0:
256,192,85086,5,8,0:0:0:0:
256,192,85405,5,8,0:0:0:0:
256,192,85565,5,0,0:0:0:0:
256,192,85724,5,8,0:0:0:0:
256,192,85804,5,8,0:0:0:0:
256,192,85884,5,0,0:0:0:0:
256,192,86044,5,0,0:0:0:0:
256,192,86203,5,8,0:0:0:0:
256,192,86363,5,8,0:0:0:0:
256,192,86443,5,8,0:0:0:0:
256,192,86522,5,0,0:0:0:0:
256,192,86682,5,0,0:0:0:0:
256,192,86841,5,0,0:0:0:0:
256,192,87001,5,12,0:0:0:0:
256,192,87639,5,8,0:0:0:0:
256,192,87958,5,8,0:0:0:0:
256,192,88118,5,0,0:0:0:0:
256,192,88278,5,8,0:0:0:0:
256,192,88437,5,8,0:0:0:0:
256,192,88597,5,0,0:0:0:0:
256,192,88756,5,0,0:0:0:0:
256,192,88916,5,8,0:0:0:0:
256,192,89235,5,8,0:0:0:0:
256,192,89395,5,0,0:0:0:0:
256,192,89554,5,8,0:0:0:0:
256,192,89714,5,0,0:0:0:0:
256,192,89794,5,0,0:0:0:0:
256,192,89873,5,8,0:0:0:0:
256,192,90033,5,0,0:0:0:0:
256,192,90193,5,8,0:0:0:0:
256,192,90272,5,0,0:0:0:0:
256,192,90352,5,8,0:0:0:0:
256,192,90512,5,0,0:0:0:0:
256,192,90671,5,0,0:0:0:0:
256,192,90831,5,8,0:0:0:0:
256,192,90911,5,8,0:0:0:0:
256,192,90990,5,8,0:0:0:0:
256,192,91070,5,8,0:0:0:0:
256,192,91150,5,0,0:0:0:0:
256,192,91310,5,8,0:0:0:0:
256,192,91469,5,8,0:0:0:0:
256,192,91629,5,0,0:0:0:0:
256,192,91788,5,8,0:0:0:0:
256,192,92107,5,8,0:0:0:0:
256,192,92267,5,0,0:0:0:0:
256,192,92426,5,0,0:0:0:0:
256,192,92586,5,8,0:0:0:0:
256,192,92666,5,0,0:0:0:0:
256,192,92745,5,0,0:0:0:0:
256,192,92905,5,0,0:0:0:0:
256,192,93064,5,8,0:0:0:0:
256,192,93224,5,0,0:0:0:0:
256,192,93384,5,0,0:0:0:0:
256,192,93544,5,8,0:0:0:0:
256,192,93623,5,8,0:0:0:0:
256,192,93703,5,8,0:0:0:0:
256,192,93862,5,0,0:0:0:0:
256,192,94022,5,8,0:0:0:0:
256,192,94102,5,8,0:0:0:0:
256,192,94182,5,0,0:0:0:0:
256,192,94341,5,8,0:0:0:0:
256,192,94660,5,8,0:0:0:0:
256,192,94820,5,0,0:0:0:0:
256,192,94979,5,0,0:0:0:0:
256,192,95139,5,8,0:0:0:0:
256,192,95219,5,0,0:0:0:0:
256,192,95299,5,0,0:0:0:0:
256,192,95458,5,0,0:0:0:0:
256,192,95618,5,8,0:0:0:0:
256,192,95698,5,8,0:0:0:0:
256,192,95777,5,0,0:0:0:0:
256,192,95937,5,0,0:0:0:0:
256,192,96097,5,8,0:0:0:0:
256,192,96177,5,8,0:0:0:0:
256,192,96256,5,0,0:0:0:0:
256,192,96416,5,0,0:0:0:0:
256,192,96575,5,8,0:0:0:0:
256,192,96655,5,0,0:0:0:0:
256,192,96735,5,8,0:0:0:0:
256,192,96894,5,8,0:0:0:0:
256,192,97213,5,8,0:0:0:0:
256,192,97373,5,0,0:0:0:0:
256,192,97533,5,0,0:0:0:0:
256,192,97692,5,8,0:0:0:0:
256,192,97772,5,0,0:0:0:0:
256,192,97852,5,0,0:0:0:0:
256,192,98011,5,0,0:0:0:0:
256,192,98171,5,8,0:0:0:0:
256,192,98330,5,0,0:0:0:0:
256,192,98490,5,0,0:0:0:0:
256,192,98650,5,8,0:0:0:0:
256,192,98730,5,8,0:0:0:0:
256,192,98810,5,8,0:0:0:0:
256,192,98969,5,0,0:0:0:0:
256,192,99128,5,8,0:0:0:0:
256,192,99208,5,8,0:0:0:0:
256,192,99288,5,0,0:0:0:0:
256,192,99447,5,8,0:0:0:0:
256,192,99767,5,8,0:0:0:0:
256,192,99926,5,0,0:0:0:0:
256,192,100086,5,0,0:0:0:0:
256,192,100245,5,8,0:0:0:0:
256,192,100325,5,0,0:0:0:0:
256,192,100405,5,0,0:0:0:0:
256,192,100564,5,0,0:0:0:0:
256,192,100724,5,8,0:0:0:0:
256,192,100884,5,0,0:0:0:0:
256,192,101043,5,0,0:0:0:0:
256,192,101203,5,8,0:0:0:0:
256,192,101283,5,8,0:0:0:0:
256,192,101362,5,0,0:0:0:0:
256,192,101522,5,0,0:0:0:0:
256,192,101682,5,8,0:0:0:0:
256,192,101761,5,8,0:0:0:0:
256,192,101841,5,0,0:0:0:0:
256,192,101921,5,0,0:0:0:0:
256,192,102001,5,8,0:0:0:0:
256,192,102160,5,0,0:0:0:0:
256,192,102320,5,12,0:0:0:0:
256,192,102639,5,8,0:0:0:0:
256,192,102799,5,8,0:0:0:0:
256,192,102958,5,0,0:0:0:0:
256,192,103118,5,0,0:0:0:0:
256,192,103278,5,8,0:0:0:0:
256,192,103437,5,0,0:0:0:0:
256,192,103597,5,0,0:0:0:0:
256,192,103756,5,8,0:0:0:0:
256,192,103916,5,8,0:0:0:0:
256,192,104075,5,0,0:0:0:0:
256,192,104235,5,8,0:0:0:0:
256,192,104315,5,0,0:0:0:0:
256,192,104395,5,0,0:0:0:0:
256,192,104554,5,8,0:0:0:0:
256,192,104634,5,8,0:0:0:0:
256,192,104714,5,0,0:0:0:0:
256,192,104873,5,12,0:0:0:0:
256,192,105193,5,0,0:0:0:0:
256,192,105352,5,12,0:0:0:0:
256,192,105512,5,0,0:0:0:0:
256,192,105671,5,0,0:0:0:0:
256,192,105831,5,12,0:0:0:0:
256,192,105990,5,0,0:0:0:0:
256,192,106150,5,0,0:0:0:0:
256,192,106310,5,12,0:0:0:0:
256,192,106469,5,0,0:0:0:0:
256,192,106629,5,0,0:0:0:0:
256,192,106788,5,0,0:0:0:0:
256,192,106868,5,0,0:0:0:0:
256,192,106948,5,0,0:0:0:0:
256,192,107107,5,12,0:0:0:0:
256,192,107427,5,8,0:0:0:0:
256,192,107586,5,0,0:0:0:0:
256,192,107746,5,0,0:0:0:0:
256,192,107905,5,8,0:0:0:0:
256,192,107985,5,0,0:0:0:0:
256,192,108065,5,0,0:0:0:0:
256,192,108224,5,0,0:0:0:0:
256,192,108384,5,8,0:0:0:0:
256,192,108544,5,0,0:0:0:0:
256,192,108703,5,0,0:0:0:0:
256,192,108863,5,8,0:0:0:0:
256,192,108943,5,8,0:0:0:0:
256,192,109022,5,0,0:0:0:0:
256,192,109182,5,0,0:0:0:0:
256,192,109341,5,8,0:0:0:0:
256,192,109421,5,8,0:0:0:0:
256,192,109501,5,0,0:0:0:0:
256,192,109581,5,0,0:0:0:0:
256,192,109661,5,8,0:0:0:0:
256,192,109820,5,0,0:0:0:0:
256,192,109980,5,12,0:0:0:0:
256,192,110299,12,0,111895,0:0:0:0:
256,192,112214,5,4,0:0:0:0:
256,192,112533,5,12,0:0:0:0:
256,192,112852,5,8,0:0:0:0:
256,192,113012,5,0,0:0:0:0:
256,192,113171,5,0,0:0:0:0:
256,192,113331,5,0,0:0:0:0:
256,192,113490,5,8,0:0:0:0:
256,192,113650,5,0,0:0:0:0:
256,192,113810,5,8,0:0:0:0:
256,192,113889,5,0,0:0:0:0:
256,192,113969,5,0,0:0:0:0:
256,192,114129,5,8,0:0:0:0:
256,192,114288,5,0,0:0:0:0:
256,192,114368,5,0,0:0:0:0:
256,192,114448,5,0,0:0:0:0:
256,192,114607,5,0,0:0:0:0:
256,192,114767,5,8,0:0:0:0:
256,192,114927,5,0,0:0:0:0:
256,192,115086,5,8,0:0:0:0:
256,192,115166,5,8,0:0:0:0:
256,192,115246,5,8,0:0:0:0:
256,192,115325,5,8,0:0:0:0:
256,192,115405,5,0,0:0:0:0:
256,192,115565,5,8,0:0:0:0:
256,192,115724,5,0,0:0:0:0:
256,192,115884,5,0,0:0:0:0:
256,192,116044,5,12,0:0:0:0:
256,192,116363,5,8,0:0:0:0:
256,192,116522,5,0,0:0:0:0:
256,192,116682,5,8,0:0:0:0:
256,192,116841,5,0,0:0:0:0:
256,192,117001,5,8,0:0:0:0:
256,192,117081,5,8,0:0:0:0:
256,192,117161,5,0,0:0:0:0:
256,192,117320,5,4,0:0:0:0:
256,192,117639,5,12,0:0:0:0:
256,192,117958,5,0,0:0:0:0:
256,192,118118,5,8,0:0:0:0:
256,192,118198,5,8,0:0:0:0:
256,192,118278,5,8,0:0:0:0:
256,192,118437,5,0,0:0:0:0:
256,192,118597,5,8,0:0:0:0:
256,192,118756,5,0,0:0:0:0:
256,192,118916,5,8,0:0:0:0:
256,192,118996,5,0,0:0:0:0:
256,192,119075,5,0,0:0:0:0:
256,192,119235,5,8,0:0:0:0:
256,192,119395,5,0,0:0:0:0:
256,192,119474,5,0,0:0:0:0:
256,192,119554,5,0,0:0:0:0:
256,192,119714,5,8,0:0:0:0:
256,192,119873,5,0,0:0:0:0:
256,192,120033,5,0,0:0:0:0:
256,192,120193,5,12,0:0:0:0:
256,192,120512,5,0,0:0:0:0:
256,192,120671,5,12,0:0:0:0:
256,192,120990,5,0,0:0:0:0:
256,192,121150,5,12,0:0:0:0:
256,192,121469,5,8,0:0:0:0:
256,192,121629,5,0,0:0:0:0:
256,192,121788,5,0,0:0:0:0:
256,192,121948,5,0,0:0:0:0:
256,192,122107,5,8,0:0:0:0:
256,192,122187,5,8,0:0:0:0:
256,192,122267,5,8,0:0:0:0:
256,192,122347,5,8,0:0:0:0:
256,192,122427,5,0,0:0:0:0:
256,192,122586,5,0,0:0:0:0:
256,192,122746,5,12,0:0:0:0:
256,192,123065,5,8,0:0:0:0:
256,192,123224,5,0,0:0:0:0:
256,192,123384,5,8,0:0:0:0:
256,192,123544,5,0,0:0:0:0:
256,192,123623,5,0,0:0:0:0:
256,192,123703,5,8,0:0:0:0:
256,192,123863,5,0,0:0:0:0:
256,192,124022,5,8,0:0:0:0:
256,192,124102,5,8,0:0:0:0:
256,192,124182,5,0,0:0:0:0:
256,192,124262,5,0,0:0:0:0:
256,192,124341,5,8,0:0:0:0:
256,192,124501,5,0,0:0:0:0:
256,192,124661,5,0,0:0:0:0:
256,192,124820,5,8,0:0:0:0:
256,192,124980,5,8,0:0:0:0:
256,192,125060,5,8,0:0:0:0:
256,192,125139,5,0,0:0:0:0:
256,192,125299,5,8,0:0:0:0:
256,192,125458,5,0,0:0:0:0:
256,192,125538,5,0,0:0:0:0:
256,192,125618,5,8,0:0:0:0:
256,192,125778,5,0,0:0:0:0:
256,192,125937,5,8,0:0:0:0:
256,192,126017,5,8,0:0:0:0:
256,192,126097,5,0,0:0:0:0:
256,192,126256,5,8,0:0:0:0:
256,192,126575,5,8,0:0:0:0:
256,192,126735,5,0,0:0:0:0:
256,192,126895,5,8,0:0:0:0:
256,192,127054,5,0,0:0:0:0:
256,192,127134,5,0,0:0:0:0:
256,192,127214,5,0,0:0:0:0:
256,192,127294,5,0,0:0:0:0:
256,192,127373,5,8,0:0:0:0:
256,192,127533,5,0,0:0:0:0:
256,192,127693,5,0,0:0:0:0:
256,192,127852,5,12,0:0:0:0:
256,192,128171,5,0,0:0:0:0:
256,192,128331,5,8,0:0:0:0:
256,192,128490,5,0,0:0:0:0:
256,192,128650,5,8,0:0:0:0:
256,192,128810,5,8,0:0:0:0:
256,192,128969,5,0,0:0:0:0:
256,192,129129,5,8,0:0:0:0:
256,192,129208,5,0,0:0:0:0:
256,192,129288,5,0,0:0:0:0:
256,192,129448,5,8,0:0:0:0:
256,192,129607,5,0,0:0:0:0:
256,192,129687,5,0,0:0:0:0:
256,192,129767,5,8,0:0:0:0:
256,192,129927,5,0,0:0:0:0:
256,192,130086,5,8,0:0:0:0:
256,192,130246,5,0,0:0:0:0:
256,192,130405,5,12,0:0:0:0:
256,192,130884,5,4,0:0:0:0:
256,192,131363,5,12,0:0:0:0:
256,192,131682,5,8,0:0:0:0:
256,192,131762,5,8,0:0:0:0:
256,192,131841,5,0,0:0:0:0:
256,192,132001,5,8,0:0:0:0:
256,192,132161,5,8,0:0:0:0:
256,192,132240,5,8,0:0:0:0:
256,192,132320,5,0,0:0:0:0:
256,192,132400,5,0,0:0:0:0:
256,192,132480,5,8,0:0:0:0:
256,192,132639,5,12,0:0:0:0:
256,192,132958,5,8,0:0:0:0:
256,192,133118,5,0,0:0:0:0:
256,192,133277,5,0,0:0:0:0:
256,192,133437,5,8,0:0:0:0:
256,192,133517,5,0,0:0:0:0:
256,192,133596,5,0,0:0:0:0:
256,192,133756,5,0,0:0:0:0:
256,192,133916,5,8,0:0:0:0:
256,192,134075,5,0,0:0:0:0:
256,192,134234,5,8,0:0:0:0:
256,192,134314,5,8,0:0:0:0:
256,192,134394,5,0,0:0:0:0:
256,192,134553,5,0,0:0:0:0:
256,192,134713,5,8,0:0:0:0:
256,192,134793,5,0,0:0:0:0:
256,192,134873,5,0,0:0:0:0:
256,192,135033,5,0,0:0:0:0:
256,192,135192,5,8,0:0:0:0:
256,192,135352,5,0,0:0:0:0:
256,192,135511,5,8,0:0:0:0:
256,192,135591,5,8,0:0:0:0:
256,192,135671,5,0,0:0:0:0:
256,192,135830,5,0,0:0:0:0:
256,192,135990,5,8,0:0:0:0:
256,192,136070,5,0,0:0:0:0:
256,192,136150,5,0,0:0:0:0:
256,192,136309,5,0,0:0:0:0:
256,192,136469,5,8,0:0:0:0:
256,192,136549,5,0,0:0:0:0:
256,192,136628,5,0,0:0:0:0:
256,192,136788,5,8,0:0:0:0:
256,192,136947,5,0,0:0:0:0:
256,192,137107,5,8,0:0:0:0:
256,192,137267,5,0,0:0:0:0:
256,192,137426,5,8,0:0:0:0:
256,192,137506,5,8,0:0:0:0:
256,192,137586,5,0,0:0:0:0:
256,192,137666,5,0,0:0:0:0:
256,192,137745,5,8,0:0:0:0:
256,192,137905,5,0,0:0:0:0:
256,192,138064,5,12,0:0:0:0:
256,192,138384,5,8,0:0:0:0:
256,192,138543,5,8,0:0:0:0:
256,192,138623,5,0,0:0:0:0:
256,192,138703,5,0,0:0:0:0:
256,192,138862,5,0,0:0:0:0:
256,192,139022,5,8,0:0:0:0:
256,192,139182,5,0,0:0:0:0:
256,192,139261,5,0,0:0:0:0:
256,192,139341,5,8,0:0:0:0:
256,192,139501,5,0,0:0:0:0:
256,192,139660,5,0,0:0:0:0:
256,192,139820,5,8,0:0:0:0:
256,192,139900,5,0,0:0:0:0:
256,192,139979,5,0,0:0:0:0:
256,192,140139,5,8,0:0:0:0:
256,192,140299,5,8,0:0:0:0:
256,192,140458,5,0,0:0:0:0:
256,192,140618,5,0,0:0:0:0:
256,192,140777,5,0,0:0:0:0:
256,192,140937,5,8,0:0:0:0:
256,192,141256,5,0,0:0:0:0:
256,192,141416,5,0,0:0:0:0:
256,192,141575,5,8,0:0:0:0:
256,192,141894,5,0,0:0:0:0:
256,192,142054,5,8,0:0:0:0:
256,192,142213,5,8,0:0:0:0:
256,192,142373,5,0,0:0:0:0:
256,192,142533,5,8,0:0:0:0:
256,192,143171,5,0,0:0:0:0:
256,192,143490,5,8,0:0:0:0:
256,192,143810,5,12,0:0:0:0:
256,192,144128,5,8,0:0:0:0:
256,192,144288,5,0,0:0:0:0:
256,192,144447,5,8,0:0:0:0:
256,192,144767,5,0,0:0:0:0:
256,192,144926,5,8,0:0:0:0:
256,192,145086,5,8,0:0:0:0:
256,192,145405,5,0,0:0:0:0:
256,192,145564,5,0,0:0:0:0:
256,192,145724,5,12,0:0:0:0:
256,192,146362,5,8,0:0:0:0:
256,192,146682,5,8,0:0:0:0:
256,192,146841,5,0,0:0:0:0:
256,192,147001,5,8,0:0:0:0:
256,192,147080,5,0,0:0:0:0:
256,192,147160,5,0,0:0:0:0:
256,192,147320,5,0,0:0:0:0:
256,192,147479,5,8,0:0:0:0:
256,192,147639,5,8,0:0:0:0:
256,192,147719,5,8,0:0:0:0:
256,192,147799,5,0,0:0:0:0:
256,192,147958,5,0,0:0:0:0:
256,192,148118,5,0,0:0:0:0:
256,192,148277,5,12,0:0:0:0:
256,192,148916,5,8,0:0:0:0:
256,192,149235,5,8,0:0:0:0:
256,192,149395,5,0,0:0:0:0:
256,192,149554,5,8,0:0:0:0:
256,192,149713,5,8,0:0:0:0:
256,192,149873,5,0,0:0:0:0:
256,192,150033,5,0,0:0:0:0:
256,192,150192,5,8,0:0:0:0:
256,192,150512,5,8,0:0:0:0:
256,192,150671,5,0,0:0:0:0:
256,192,150830,5,8,0:0:0:0:
256,192,150990,5,0,0:0:0:0:
256,192,151070,5,0,0:0:0:0:
256,192,151150,5,8,0:0:0:0:
256,192,151309,5,0,0:0:0:0:
256,192,151469,5,8,0:0:0:0:
256,192,151629,5,0,0:0:0:0:
256,192,151708,5,0,0:0:0:0:
256,192,151788,5,8,0:0:0:0:
256,192,151947,5,0,0:0:0:0:
256,192,152107,5,8,0:0:0:0:
256,192,152426,5,8,0:0:0:0:
256,192,152586,5,0,0:0:0:0:
256,192,152745,5,8,0:0:0:0:
256,192,152905,5,0,0:0:0:0:
256,192,153064,5,0,0:0:0:0:
256,192,153144,5,0,0:0:0:0:
256,192,153224,5,0,0:0:0:0:
256,192,153304,5,0,0:0:0:0:
256,192,153384,5,8,0:0:0:0:
256,192,153703,5,12,0:0:0:0:
256,192,154022,5,8,0:0:0:0:
256,192,154341,5,8,0:0:0:0:
256,192,154501,5,0,0:0:0:0:
256,192,154660,5,8,0:0:0:0:
256,192,154980,5,0,0:0:0:0:
256,192,155139,5,8,0:0:0:0:
256,192,155299,5,8,0:0:0:0:
256,192,155618,5,8,0:0:0:0:
256,192,155777,5,0,0:0:0:0:
256,192,155937,5,12,0:0:0:0:
256,192,156575,5,8,0:0:0:0:
256,192,156894,5,8,0:0:0:0:
256,192,157054,5,0,0:0:0:0:
256,192,157214,5,8,0:0:0:0:
256,192,157294,5,8,0:0:0:0:
256,192,157373,5,0,0:0:0:0:
256,192,157533,5,0,0:0:0:0:
256,192,157692,5,8,0:0:0:0:
256,192,157852,5,8,0:0:0:0:
256,192,157932,5,8,0:0:0:0:
256,192,158011,5,0,0:0:0:0:
256,192,158171,5,0,0:0:0:0:
256,192,158330,5,0,0:0:0:0:
256,192,158490,5,12,0:0:0:0:
256,192,159128,5,8,0:0:0:0:
256,192,159448,5,8,0:0:0:0:
256,192,159607,5,0,0:0:0:0:
256,192,159767,5,8,0:0:0:0:
256,192,159926,5,8,0:0:0:0:
256,192,160086,5,0,0:0:0:0:
256,192,160245,5,0,0:0:0:0:
256,192,160405,5,8,0:0:0:0:
256,192,160724,5,8,0:0:0:0:
256,192,160884,5,0,0:0:0:0:
256,192,161043,5,8,0:0:0:0:
256,192,161203,5,0,0:0:0:0:
256,192,161283,5,0,0:0:0:0:
256,192,161362,5,8,0:0:0:0:
256,192,161522,5,0,0:0:0:0:
256,192,161682,5,8,0:0:0:0:
256,192,161762,5,0,0:0:0:0:
256,192,161841,5,8,0:0:0:0:
256,192,162001,5,0,0:0:0:0:
256,192,162161,5,0,0:0:0:0:
256,192,162320,5,8,0:0:0:0:
256,192,162400,5,8,0:0:0:0:
256,192,162479,5,8,0:0:0:0:
256,192,162639,5,0,0:0:0:0:
256,192,162799,5,8,0:0:0:0:
256,192,162958,5,8,0:0:0:0:
256,192,163038,5,8,0:0:0:0:
256,192,163118,5,8,0:0:0:0:
256,192,163198,5,8,0:0:0:0:
256,192,163277,5,0,0:0:0:0:
256,192,163437,5,0,0:0:0:0:
256,192,163597,5,12,0:0:0:0:
256,192,164075,5,12,0:0:0:0:
256,192,173810,5,8,0:0:0:0:
256,192,173889,5,8,0:0:0:0:
256,192,173969,5,8,0:0:0:0:
256,192,174129,5,8,0:0:0:0:
256,192,174288,5,8,0:0:0:0:
256,192,174448,5,0,0:0:0:0:
256,192,174767,5,8,0:0:0:0:
256,192,174847,5,8,0:0:0:0:
256,192,174927,5,8,0:0:0:0:
256,192,175086,5,0,0:0:0:0:
256,192,175246,5,8,0:0:0:0:
256,192,175405,5,8,0:0:0:0:
256,192,175565,5,8,0:0:0:0:
256,192,175724,5,0,0:0:0:0:
256,192,176044,5,8,0:0:0:0:
256,192,176123,5,8,0:0:0:0:
256,192,176203,5,8,0:0:0:0:
256,192,176363,5,0,0:0:0:0:
256,192,176522,5,8,0:0:0:0:
256,192,176682,5,8,0:0:0:0:
256,192,176841,5,8,0:0:0:0:
256,192,177001,5,0,0:0:0:0:
256,192,177320,5,8,0:0:0:0:
256,192,177400,5,8,0:0:0:0:
256,192,177480,5,8,0:0:0:0:
256,192,177639,5,0,0:0:0:0:
256,192,177799,5,8,0:0:0:0:
256,192,177958,5,8,0:0:0:0:
256,192,178118,5,8,0:0:0:0:
256,192,178278,5,0,0:0:0:0:
256,192,178437,5,8,0:0:0:0:
256,192,178597,5,8,0:0:0:0:
256,192,178756,5,8,0:0:0:0:
256,192,178916,5,0,0:0:0:0:
256,192,178996,5,0,0:0:0:0:
256,192,179075,5,0,0:0:0:0:
256,192,179235,5,8,0:0:0:0:
256,192,179395,5,8,0:0:0:0:
256,192,179554,5,0,0:0:0:0:
256,192,179873,5,8,0:0:0:0:
256,192,179953,5,8,0:0:0:0:
256,192,180033,5,8,0:0:0:0:
256,192,180193,5,0,0:0:0:0:
256,192,180272,5,0,0:0:0:0:
256,192,180352,5,0,0:0:0:0:
256,192,180512,5,8,0:0:0:0:
256,192,180671,5,8,0:0:0:0:
256,192,180831,5,0,0:0:0:0:
256,192,181150,5,8,0:0:0:0:
256,192,181230,5,8,0:0:0:0:
256,192,181310,5,8,0:0:0:0:
256,192,181469,5,0,0:0:0:0:
256,192,181549,5,0,0:0:0:0:
256,192,181629,5,0,0:0:0:0:
256,192,181788,5,8,0:0:0:0:
256,192,181948,5,8,0:0:0:0:
256,192,182107,5,0,0:0:0:0:
256,192,182427,5,0,0:0:0:0:
256,192,182506,5,0,0:0:0:0:
256,192,182586,5,0,0:0:0:0:
256,192,182746,5,8,0:0:0:0:
256,192,182905,5,8,0:0:0:0:
256,192,183065,5,8,0:0:0:0:
256,192,183145,5,8,0:0:0:0:
256,192,183224,5,0,0:0:0:0:
256,192,183384,5,8,0:0:0:0:
256,192,183464,5,8,0:0:0:0:
256,192,183544,5,0,0:0:0:0:
256,192,183703,5,0,0:0:0:0:
256,192,184022,5,0,0:0:0:0:
256,192,184102,5,0,0:0:0:0:
256,192,184182,5,0,0:0:0:0:
256,192,184341,5,0,0:0:0:0:
256,192,184501,5,0,0:0:0:0:
256,192,184661,5,8,0:0:0:0:
256,192,184980,5,0,0:0:0:0:
256,192,185060,5,0,0:0:0:0:
256,192,185139,5,0,0:0:0:0:
256,192,185299,5,8,0:0:0:0:
256,192,185379,5,8,0:0:0:0:
256,192,185458,5,8,0:0:0:0:
256,192,185618,5,0,0:0:0:0:
256,192,185778,5,0,0:0:0:0:
256,192,185937,5,8,0:0:0:0:
256,192,186256,5,0,0:0:0:0:
256,192,186336,5,0,0:0:0:0:
256,192,186416,5,0,0:0:0:0:
256,192,186575,5,8,0:0:0:0:
256,192,186655,5,8,0:0:0:0:
256,192,186735,5,8,0:0:0:0:
256,192,186895,5,0,0:0:0:0:
256,192,187054,5,0,0:0:0:0:
256,192,187214,5,8,0:0:0:0:
256,192,187533,5,0,0:0:0:0:
256,192,187613,5,0,0:0:0:0:
256,192,187693,5,0,0:0:0:0:
256,192,187852,5,8,0:0:0:0:
256,192,188012,5,0,0:0:0:0:
256,192,188171,5,0,0:0:0:0:
256,192,188331,5,0,0:0:0:0:
256,192,188490,5,8,0:0:0:0:
256,192,188650,5,0,0:0:0:0:
256,192,188810,5,8,0:0:0:0:
256,192,188969,5,8,0:0:0:0:
256,192,189129,5,8,0:0:0:0:
256,192,189208,5,8,0:0:0:0:
256,192,189288,5,8,0:0:0:0:
256,192,189448,5,0,0:0:0:0:
256,192,189607,5,0,0:0:0:0:
256,192,189767,5,8,0:0:0:0:
256,192,190086,5,0,0:0:0:0:
256,192,190166,5,0,0:0:0:0:
256,192,190246,5,0,0:0:0:0:
256,192,190405,5,8,0:0:0:0:
256,192,190485,5,8,0:0:0:0:
256,192,190565,5,8,0:0:0:0:
256,192,190724,5,8,0:0:0:0:
256,192,190884,5,0,0:0:0:0:
256,192,191044,5,8,0:0:0:0:
256,192,191363,5,0,0:0:0:0:
256,192,191443,5,0,0:0:0:0:
256,192,191522,5,0,0:0:0:0:
256,192,191682,5,8,0:0:0:0:
256,192,191762,5,8,0:0:0:0:
256,192,191841,5,8,0:0:0:0:
256,192,192001,5,0,0:0:0:0:
256,192,192161,5,0,0:0:0:0:
256,192,192320,5,8,0:0:0:0:
256,192,192639,5,0,0:0:0:0:
256,192,192719,5,0,0:0:0:0:
256,192,192799,5,0,0:0:0:0:
256,192,192958,5,8,0:0:0:0:
256,192,193118,5,0,0:0:0:0:
256,192,193278,5,8,0:0:0:0:
256,192,193437,5,0,0:0:0:0:
256,192,193597,5,8,0:0:0:0:
256,192,193756,5,0,0:0:0:0:
256,192,193916,5,8,0:0:0:0:
256,192,193996,5,8,0:0:0:0:
256,192,194075,5,8,0:0:0:0:
256,192,194235,5,0,0:0:0:0:
256,192,194554,5,8,0:0:0:0:
256,192,194873,5,0,0:0:0:0:
256,192,194953,5,0,0:0:0:0:
256,192,195033,5,0,0:0:0:0:
256,192,195193,5,0,0:0:0:0:
256,192,195352,5,0,0:0:0:0:
256,192,195512,5,8,0:0:0:0:
256,192,195591,5,8,0:0:0:0:
256,192,195671,5,8,0:0:0:0:
256,192,195831,5,8,0:0:0:0:
256,192,195990,5,0,0:0:0:0:
256,192,196150,5,8,0:0:0:0:
256,192,196469,5,0,0:0:0:0:
256,192,196549,5,0,0:0:0:0:
256,192,196629,5,0,0:0:0:0:
256,192,196788,5,8,0:0:0:0:
256,192,196868,5,8,0:0:0:0:
256,192,196948,5,8,0:0:0:0:
256,192,197107,5,0,0:0:0:0:
256,192,197267,5,0,0:0:0:0:
256,192,197427,5,8,0:0:0:0:
256,192,197746,5,8,0:0:0:0:
256,192,197825,5,8,0:0:0:0:
256,192,197905,5,8,0:0:0:0:
256,192,198065,5,0,0:0:0:0:
256,192,198224,5,0,0:0:0:0:
256,192,198384,5,0,0:0:0:0:
256,192,198544,5,0,0:0:0:0:
256,192,198703,5,8,0:0:0:0:
256,192,198863,5,0,0:0:0:0:
256,192,199022,5,0,0:0:0:0:
256,192,199182,5,0,0:0:0:0:
256,192,199341,5,12,0:0:0:0:
256,192,199980,5,8,0:0:0:0:
256,192,200299,5,8,0:0:0:0:
256,192,200458,5,0,0:0:0:0:
256,192,200618,5,8,0:0:0:0:
256,192,200937,5,8,0:0:0:0:
256,192,201097,5,8,0:0:0:0:
256,192,201256,5,0,0:0:0:0:
256,192,201416,5,0,0:0:0:0:
256,192,201575,5,8,0:0:0:0:
256,192,201735,5,8,0:0:0:0:
256,192,201895,5,8,0:0:0:0:
256,192,202054,5,0,0:0:0:0:
256,192,202214,5,0,0:0:0:0:
256,192,202373,5,8,0:0:0:0:
256,192,202533,5,0,0:0:0:0:
256,192,202693,5,0,0:0:0:0:
256,192,202852,5,8,0:0:0:0:
256,192,203012,5,0,0:0:0:0:
256,192,203171,5,0,0:0:0:0:
256,192,203331,5,8,0:0:0:0:
256,192,203490,5,0,0:0:0:0:
256,192,203650,5,0,0:0:0:0:
256,192,203810,5,8,0:0:0:0:
256,192,203969,5,0,0:0:0:0:
256,192,204129,5,8,0:0:0:0:
256,192,204288,5,0,0:0:0:0:
256,192,204448,5,12,0:0:0:0:
256,192,204607,12,0,207001,0:0:0:0:
256,192,208278,12,0,214022,0:0:0:0:
256,192,214341,5,4,0:0:0:0:
256,192,214661,5,8,0:0:0:0:
256,192,214740,5,8,0:0:0:0:
256,192,214820,5,8,0:0:0:0:
256,192,214900,5,8,0:0:0:0:
256,192,214980,5,8,0:0:0:0:
256,192,215139,5,0,0:0:0:0:
256,192,215299,5,8,0:0:0:0:
256,192,215379,5,0,0:0:0:0:
256,192,215458,5,8,0:0:0:0:
256,192,215618,5,8,0:0:0:0:
256,192,215778,5,8,0:0:0:0:
256,192,215857,5,0,0:0:0:0:
256,192,215937,5,0,0:0:0:0:
256,192,216097,5,8,0:0:0:0:
256,192,216177,5,0,0:0:0:0:
256,192,216256,5,0,0:0:0:0:
256,192,216416,5,8,0:0:0:0:
256,192,216575,5,8,0:0:0:0:
256,192,216895,5,0,0:0:0:0:
256,192,217054,5,0,0:0:0:0:
256,192,217214,5,8,0:0:0:0:
256,192,217294,5,8,0:0:0:0:
256,192,217373,5,0,0:0:0:0:
256,192,217533,5,0,0:0:0:0:
256,192,217613,5,0,0:0:0:0:
256,192,217693,5,8,0:0:0:0:
256,192,217772,5,8,0:0:0:0:
256,192,217852,5,0,0:0:0:0:
256,192,218012,5,0,0:0:0:0:
256,192,218171,5,8,0:0:0:0:
256,192,218331,5,0,0:0:0:0:
256,192,218490,5,8,0:0:0:0:
256,192,218570,5,8,0:0:0:0:
256,192,218650,5,0,0:0:0:0:
256,192,218810,5,0,0:0:0:0:
256,192,218889,5,0,0:0:0:0:
256,192,218969,5,8,0:0:0:0:
256,192,219049,5,0,0:0:0:0:
256,192,219129,5,8,0:0:0:0:
256,192,219288,5,0,0:0:0:0:
256,192,219448,5,8,0:0:0:0:
256,192,219607,5,0,0:0:0:0:
256,192,219767,5,8,0:0:0:0:
256,192,220086,5,8,0:0:0:0:
256,192,220246,5,0,0:0:0:0:
256,192,220405,5,8,0:0:0:0:
256,192,220485,5,8,0:0:0:0:
256,192,220565,5,8,0:0:0:0:
256,192,220724,5,8,0:0:0:0:
256,192,220884,5,0,0:0:0:0:
256,192,220964,5,0,0:0:0:0:
256,192,221044,5,0,0:0:0:0:
256,192,221123,5,0,0:0:0:0:
256,192,221203,5,8,0:0:0:0:
256,192,221363,5,8,0:0:0:0:
256,192,221522,5,0,0:0:0:0:
256,192,221682,5,8,0:0:0:0:
256,192,221762,5,8,0:0:0:0:
256,192,221841,5,8,0:0:0:0:
256,192,222001,5,0,0:0:0:0:
256,192,222161,5,8,0:0:0:0:
256,192,222240,5,8,0:0:0:0:
256,192,222320,5,8,0:0:0:0:
256,192,222400,5,8,0:0:0:0:
256,192,222480,5,0,0:0:0:0:
256,192,222639,5,0,0:0:0:0:
256,192,222799,5,8,0:0:0:0:
256,192,223118,5,0,0:0:0:0:
256,192,223278,5,8,0:0:0:0:
256,192,223357,5,0,0:0:0:0:
256,192,223437,5,8,0:0:0:0:
256,192,223597,5,0,0:0:0:0:
256,192,223756,5,0,0:0:0:0:
256,192,223836,5,0,0:0:0:0:
256,192,223916,5,8,0:0:0:0:
256,192,223996,5,8,0:0:0:0:
256,192,224075,5,0,0:0:0:0:
256,192,224155,5,0,0:0:0:0:
256,192,224235,5,8,0:0:0:0:
256,192,224395,5,0,0:0:0:0:
256,192,224554,5,8,0:0:0:0:
256,192,224873,5,8,0:0:0:0:
256,192,225033,5,8,0:0:0:0:
256,192,225113,5,0,0:0:0:0:
256,192,225193,5,8,0:0:0:0:
256,192,225352,5,0,0:0:0:0:
256,192,225512,5,8,0:0:0:0:
256,192,225591,5,8,0:0:0:0:
256,192,225671,5,0,0:0:0:0:
256,192,225751,5,0,0:0:0:0:
256,192,225832,5,8,0:0:0:0:
256,192,225990,5,0,0:0:0:0:
256,192,226150,5,8,0:0:0:0:
256,192,226230,5,0,0:0:0:0:
256,192,226310,5,8,0:0:0:0:
256,192,226469,5,8,0:0:0:0:
256,192,226629,5,0,0:0:0:0:
256,192,226708,5,0,0:0:0:0:
256,192,226788,5,8,0:0:0:0:
256,192,226868,5,8,0:0:0:0:
256,192,226948,5,0,0:0:0:0:
256,192,227108,5,8,0:0:0:0:
256,192,227427,5,8,0:0:0:0:
256,192,227506,5,0,0:0:0:0:
256,192,227586,5,8,0:0:0:0:
256,192,227666,5,0,0:0:0:0:
256,192,227746,5,8,0:0:0:0:
256,192,227905,5,0,0:0:0:0:
256,192,228065,5,8,0:0:0:0:
256,192,228145,5,8,0:0:0:0:
256,192,228224,5,8,0:0:0:0:
256,192,228304,5,8,0:0:0:0:
256,192,228384,5,0,0:0:0:0:
256,192,228544,5,0,0:0:0:0:
256,192,228703,5,8,0:0:0:0:
256,192,228783,5,8,0:0:0:0:
256,192,228863,5,0,0:0:0:0:
256,192,228943,5,0,0:0:0:0:
256,192,229022,5,8,0:0:0:0:
256,192,229182,5,0,0:0:0:0:
256,192,229341,5,8,0:0:0:0:
256,192,229421,5,8,0:0:0:0:
256,192,229501,5,8,0:0:0:0:
256,192,229581,5,8,0:0:0:0:
256,192,229661,5,0,0:0:0:0:
256,192,229980,5,8,0:0:0:0:
256,192,230139,5,0,0:0:0:0:
256,192,230299,5,8,0:0:0:0:
256,192,230459,5,0,0:0:0:0:
256,192,230618,5,8,0:0:0:0:
256,192,230698,5,8,0:0:0:0:
256,192,230778,5,8,0:0:0:0:
256,192,230937,5,8,0:0:0:0:
256,192,231097,5,0,0:0:0:0:
256,192,231177,5,0,0:0:0:0:
256,192,231257,5,0,0:0:0:0:
256,192,231336,5,0,0:0:0:0:
256,192,231416,5,8,0:0:0:0:
256,192,231576,5,8,0:0:0:0:
256,192,231735,5,0,0:0:0:0:
256,192,231895,5,8,0:0:0:0:
256,192,231975,5,8,0:0:0:0:
256,192,232054,5,8,0:0:0:0:
256,192,232214,5,0,0:0:0:0:
256,192,232374,5,8,0:0:0:0:
256,192,232453,5,8,0:0:0:0:
256,192,232533,5,8,0:0:0:0:
256,192,232613,5,8,0:0:0:0:
256,192,232693,5,0,0:0:0:0:
256,192,232852,5,8,0:0:0:0:
256,192,233012,5,0,0:0:0:0:
256,192,233171,5,8,0:0:0:0:
256,192,233251,5,8,0:0:0:0:
256,192,233331,5,0,0:0:0:0:
256,192,233411,5,0,0:0:0:0:
256,192,233490,5,8,0:0:0:0:
256,192,233650,5,8,0:0:0:0:
256,192,233730,5,0,0:0:0:0:
256,192,233810,5,8,0:0:0:0:
256,192,233969,5,0,0:0:0:0:
256,192,234129,5,8,0:0:0:0:
256,192,234288,5,0,0:0:0:0:
256,192,234448,5,8,0:0:0:0:
256,192,234528,5,8,0:0:0:0:
256,192,234607,5,8,0:0:0:0:
256,192,234687,5,8,0:0:0:0:
256,192,234767,5,0,0:0:0:0:
256,192,235086,5,8,0:0:0:0:
256,192,235246,5,0,0:0:0:0:
256,192,235405,5,0,0:0:0:0:
256,192,235565,5,8,0:0:0:0:
256,192,235645,5,0,0:0:0:0:
256,192,235724,5,0,0:0:0:0:
256,192,235884,5,0,0:0:0:0:
256,192,236044,5,8,0:0:0:0:
256,192,236203,5,0,0:0:0:0:
256,192,236362,5,8,0:0:0:0:
256,192,236442,5,8,0:0:0:0:
256,192,236522,5,0,0:0:0:0:
256,192,236681,5,0,0:0:0:0:
256,192,236841,5,8,0:0:0:0:
256,192,236921,5,0,0:0:0:0:
256,192,237001,5,0,0:0:0:0:
256,192,237161,5,0,0:0:0:0:
256,192,237320,5,8,0:0:0:0:
256,192,237480,5,0,0:0:0:0:
256,192,237639,5,8,0:0:0:0:
256,192,237719,5,8,0:0:0:0:
256,192,237799,5,0,0:0:0:0:
256,192,237958,5,0,0:0:0:0:
256,192,238118,5,8,0:0:0:0:
256,192,238198,5,0,0:0:0:0:
256,192,238278,5,0,0:0:0:0:
256,192,238437,5,0,0:0:0:0:
256,192,238597,5,8,0:0:0:0:
256,192,238677,5,0,0:0:0:0:
256,192,238756,5,0,0:0:0:0:
256,192,238916,5,8,0:0:0:0:
256,192,239075,5,0,0:0:0:0:
256,192,239235,5,8,0:0:0:0:
256,192,239395,5,0,0:0:0:0:
256,192,239554,5,8,0:0:0:0:
256,192,239634,5,8,0:0:0:0:
256,192,239714,5,0,0:0:0:0:
256,192,239794,5,0,0:0:0:0:
256,192,239873,5,8,0:0:0:0:
256,192,240033,5,0,0:0:0:0:
256,192,240192,5,12,0:0:0:0:
256,192,240512,5,0,0:0:0:0:
256,192,240671,5,8,0:0:0:0:
256,192,240751,5,0,0:0:0:0:
256,192,240831,5,0,0:0:0:0:
256,192,240990,5,0,0:0:0:0:
256,192,241150,5,8,0:0:0:0:
256,192,241310,5,0,0:0:0:0:
256,192,241389,5,0,0:0:0:0:
256,192,241469,5,8,0:0:0:0:
256,192,241629,5,0,0:0:0:0:
256,192,241788,5,0,0:0:0:0:
256,192,241948,5,8,0:0:0:0:
256,192,242028,5,0,0:0:0:0:
256,192,242107,5,0,0:0:0:0:
256,192,242267,5,0,0:0:0:0:
256,192,242427,5,8,0:0:0:0:
256,192,242586,5,0,0:0:0:0:
256,192,242746,5,8,0:0:0:0:
256,192,242825,5,8,0:0:0:0:
256,192,242905,5,8,0:0:0:0:
256,192,242985,5,8,0:0:0:0:
256,192,243065,5,0,0:0:0:0:
256,192,243224,5,0,0:0:0:0:
256,192,243384,5,8,0:0:0:0:
256,192,243544,5,8,0:0:0:0:
256,192,243703,5,0,0:0:0:0:
256,192,243863,5,0,0:0:0:0:
256,192,244022,5,8,0:0:0:0:
256,192,244102,5,0,0:0:0:0:
256,192,244182,5,8,0:0:0:0:
256,192,244341,5,8,0:0:0:0:
256,192,244501,5,0,0:0:0:0:
256,192,244661,5,8,0:0:0:0:
256,192,244820,5,0,0:0:0:0:
256,192,244980,5,8,0:0:0:0:
256,192,245060,5,8,0:0:0:0:
256,192,245139,5,0,0:0:0:0:
256,192,245219,5,0,0:0:0:0:
256,192,245299,5,8,0:0:0:0:
256,192,245618,5,12,0:0:0:0:
256,192,245937,5,8,0:0:0:0:
256,192,246256,5,8,0:0:0:0:
256,192,246416,5,0,0:0:0:0:
256,192,246575,5,8,0:0:0:0:
256,192,246895,5,0,0:0:0:0:
256,192,247054,5,8,0:0:0:0:
256,192,247214,5,8,0:0:0:0:
256,192,247533,5,0,0:0:0:0:
256,192,247692,5,0,0:0:0:0:
256,192,247852,5,12,0:0:0:0:
256,192,248490,5,8,0:0:0:0:
256,192,248810,5,8,0:0:0:0:
256,192,248969,5,0,0:0:0:0:
256,192,249129,5,8,0:0:0:0:
256,192,249208,5,8,0:0:0:0:
256,192,249288,5,0,0:0:0:0:
256,192,249368,5,0,0:0:0:0:
256,192,249448,5,8,0:0:0:0:
256,192,249607,5,0,0:0:0:0:
256,192,249767,5,8,0:0:0:0:
256,192,249847,5,8,0:0:0:0:
256,192,249927,5,0,0:0:0:0:
256,192,250086,5,0,0:0:0:0:
256,192,250246,5,0,0:0:0:0:
256,192,250405,5,12,0:0:0:0:
256,192,251044,5,8,0:0:0:0:
256,192,251363,5,8,0:0:0:0:
256,192,251522,5,0,0:0:0:0:
256,192,251682,5,8,0:0:0:0:
256,192,251841,5,8,0:0:0:0:
256,192,252001,5,0,0:0:0:0:
256,192,252161,5,0,0:0:0:0:
256,192,252320,5,8,0:0:0:0:
256,192,252639,5,8,0:0:0:0:
256,192,252799,5,0,0:0:0:0:
256,192,252958,5,8,0:0:0:0:
256,192,253118,5,0,0:0:0:0:
256,192,253198,5,0,0:0:0:0:
256,192,253278,5,8,0:0:0:0:
256,192,253437,5,0,0:0:0:0:
256,192,253597,5,8,0:0:0:0:
256,192,253756,5,0,0:0:0:0:
256,192,253836,5,0,0:0:0:0:
256,192,253916,5,8,0:0:0:0:
256,192,254075,5,0,0:0:0:0:
256,192,254235,5,8,0:0:0:0:
256,192,254315,5,8,0:0:0:0:
256,192,254395,5,0,0:0:0:0:
256,192,254554,5,8,0:0:0:0:
256,192,254714,5,0,0:0:0:0:
256,192,254873,5,8,0:0:0:0:
256,192,255033,5,0,0:0:0:0:
256,192,255192,5,0,0:0:0:0:
256,192,255272,5,0,0:0:0:0:
256,192,255352,5,0,0:0:0:0:
256,192,255432,5,0,0:0:0:0:
256,192,255512,5,8,0:0:0:0:
256,192,255831,5,12,0:0:0:0:
256,192,256150,5,8,0:0:0:0:
256,192,256469,5,8,0:0:0:0:
256,192,256629,5,0,0:0:0:0:
256,192,256788,5,8,0:0:0:0:
256,192,257107,5,0,0:0:0:0:
256,192,257267,5,8,0:0:0:0:
256,192,257427,5,8,0:0:0:0:
256,192,257746,5,8,0:0:0:0:
256,192,257905,5,0,0:0:0:0:
256,192,258065,5,12,0:0:0:0:
256,192,258703,5,8,0:0:0:0:
256,192,259022,5,8,0:0:0:0:
256,192,259182,5,0,0:0:0:0:
256,192,259341,5,8,0:0:0:0:
256,192,259421,5,8,0:0:0:0:
256,192,259501,5,0,0:0:0:0:
256,192,259581,5,0,0:0:0:0:
256,192,259661,5,8,0:0:0:0:
256,192,259820,5,8,0:0:0:0:
256,192,259980,5,8,0:0:0:0:
256,192,260060,5,8,0:0:0:0:
256,192,260139,5,0,0:0:0:0:
256,192,260299,5,0,0:0:0:0:
256,192,260458,5,0,0:0:0:0:
256,192,260618,5,12,0:0:0:0:
256,192,261256,5,8,0:0:0:0:
256,192,261575,5,8,0:0:0:0:
256,192,261735,5,0,0:0:0:0:
256,192,261895,5,8,0:0:0:0:
256,192,262054,5,8,0:0:0:0:
256,192,262214,5,0,0:0:0:0:
256,192,262373,5,0,0:0:0:0:
256,192,262533,5,8,0:0:0:0:
256,192,262852,5,8,0:0:0:0:
256,192,263012,5,0,0:0:0:0:
256,192,263171,5,8,0:0:0:0:
256,192,263331,5,0,0:0:0:0:
256,192,263411,5,0,0:0:0:0:
256,192,263490,5,8,0:0:0:0:
256,192,263650,5,0,0:0:0:0:
256,192,263810,5,8,0:0:0:0:
256,192,263889,5,0,0:0:0:0:
256,192,263969,5,8,0:0:0:0:
256,192,264129,5,8,0:0:0:0:
256,192,264288,5,0,0:0:0:0:
256,192,264448,5,8,0:0:0:0:
256,192,264528,5,0,0:0:0:0:
256,192,264607,5,0,0:0:0:0:
256,192,264767,5,8,0:0:0:0:
256,192,264927,5,0,0:0:0:0:
256,192,265086,5,8,0:0:0:0:
256,192,265246,5,0,0:0:0:0:
256,192,265325,5,0,0:0:0:0:
256,192,265405,5,8,0:0:0:0:
256,192,265565,5,0,0:0:0:0:
256,192,265725,5,12,0:0:0:0:
256,192,266044,5,0,0:0:0:0:
256,192,266123,5,0,0:0:0:0:
256,192,266203,5,8,0:0:0:0:
256,192,266363,5,0,0:0:0:0:
256,192,266522,5,0,0:0:0:0:
256,192,266682,5,8,0:0:0:0:
256,192,266841,5,8,0:0:0:0:
256,192,267001,5,0,0:0:0:0:
256,192,267161,5,8,0:0:0:0:
256,192,267320,5,0,0:0:0:0:
256,192,267480,5,0,0:0:0:0:
256,192,267639,5,8,0:0:0:0:
256,192,267719,5,8,0:0:0:0:
256,192,267799,5,0,0:0:0:0:
256,192,267879,5,0,0:0:0:0:
256,192,267958,5,8,0:0:0:0:
256,192,268278,5,8,0:0:0:0:
256,192,268357,5,8,0:0:0:0:
256,192,268437,5,8,0:0:0:0:
256,192,268597,5,8,0:0:0:0:
256,192,268756,5,8,0:0:0:0:
256,192,269235,5,8,0:0:0:0:
256,192,269315,5,8,0:0:0:0:
256,192,269395,5,8,0:0:0:0:
256,192,269554,5,8,0:0:0:0:
256,192,269634,5,8,0:0:0:0:
256,192,269714,5,8,0:0:0:0:
256,192,269873,5,12,0:0:0:0:
256,192,270033,5,12,0:0:0:0:
