osu file format v14

[General]
AudioFilename: audio.mp3
AudioLeadIn: 0
PreviewTime: 126889
Countdown: 0
SampleSet: Soft
StackLeniency: 0.4
Mode: 0
LetterboxInBreaks: 0
WidescreenStoryboard: 0

[Editor]
DistanceSpacing: 0.5
BeatDivisor: 8
GridSize: 4
TimelineZoom: 2.4

[Metadata]
Title:Guardian
TitleUnicode:Guardian
Artist:Aether Realm
ArtistUnicode:Æther Realm
Creator:xBlurinq
Version:Sanctuary
Source:
Tags:redneck vikings from hell hantrik metal english power symphonic melodic death male fa featured artist riffy bakari
BeatmapID:3708490
BeatmapSetID:1808263

[Difficulty]
HPDrainRate:5
CircleSize:6
OverallDifficulty:7.5
ApproachRate:8
SliderMultiplier:1.4
SliderTickRate:1

[Events]
//Background and Video events
0,0,"guardianbg.jpg",0,0
//Break Periods
//Storyboard Layer 0 (Background)
//Storyboard Layer 1 (Fail)
//Storyboard Layer 2 (Pass)
//Storyboard Layer 3 (Foreground)
//Storyboard Layer 4 (Overlay)
//Storyboard Sound Samples

[TimingPoints]
948,779.220779220779,4,2,2,25,1,0
13415,-142.857142857143,4,2,2,25,0,0
16532,-200,4,2,2,25,0,0
19649,-142.857142857143,4,2,2,25,0,0
22766,-200,4,2,2,25,0,0
25883,-142.857142857143,4,2,2,25,0,0
28999,-200,4,2,2,25,0,0
32116,-142.857142857143,4,2,2,25,0,0
35233,-200,4,2,2,25,0,0
38350,-142.857142857143,4,2,2,25,0,0
41467,-200,4,2,2,25,0,0
44584,-142.857142857143,4,2,2,25,0,0
47701,-200,4,2,2,25,0,0
50818,-142.857142857143,4,2,2,25,0,0
53935,-200,4,2,2,25,0,0
57051,-142.857142857143,4,2,2,25,0,0
60168,-200,4,2,2,25,0,0
63285,-125,4,2,2,35,0,0
90363,-125,4,2,2,40,0,0
90947,-105.263157894737,4,2,2,40,0,0
91240,-105.263157894737,4,2,2,5,0,0
91337,-80,4,2,2,60,0,0
96305,-80,4,2,2,5,0,0
96402,-80,4,2,2,60,0,0
103805,-95.2380952380952,4,2,2,45,0,0
104097,-95.2380952380952,4,2,2,5,0,0
104194,-95.2380952380952,4,2,2,45,0,0
104486,-95.2380952380952,4,2,2,5,0,0
104584,-95.2380952380952,4,2,2,45,0,0
106142,-166.666666666667,4,2,2,45,0,0
106824,-166.666666666667,4,2,2,5,0,0
106922,-166.666666666667,4,2,2,45,0,0
108383,-166.666666666667,4,2,2,5,0,0
108480,-95.2380952380952,4,2,2,45,0,0
110331,-95.2380952380952,4,2,2,5,0,0
110428,-95.2380952380952,4,2,2,45,0,0
110720,-95.2380952380952,4,2,2,5,0,0
110818,-95.2380952380952,4,2,2,45,0,0
112376,-166.666666666667,4,2,2,45,0,0
113058,-166.666666666667,4,2,2,5,0,0
113155,-166.666666666667,4,2,2,45,0,0
114616,-166.666666666667,4,2,2,5,0,0
114714,-95.2380952380952,4,2,2,45,0,0
115396,-95.2380952380952,4,2,2,5,0,0
115493,-95.2380952380952,4,2,2,45,0,0
116272,-83.3333333333333,4,2,2,60,0,0
125623,-95.2380952380952,4,2,2,40,0,0
125915,-95.2380952380952,4,2,2,5,0,0
126012,-86.9565217391304,4,2,2,45,0,0
126305,-86.9565217391304,4,2,2,5,0,0
126402,-80,4,2,2,50,0,0
126694,-80,4,2,2,5,0,0
126792,-74.0740740740741,4,2,2,55,0,0
127084,-74.0740740740741,4,2,2,5,0,0
127181,-74.0740740740741,4,2,2,60,0,0
128740,-71.4285714285714,4,2,2,70,0,1
142571,-66.6666666666667,4,2,2,70,0,1
142863,-66.6666666666667,4,2,2,5,0,1
142960,-66.6666666666667,4,2,2,50,0,1
143253,-66.6666666666667,4,2,2,5,0,1
143350,-71.4285714285714,4,2,2,70,0,1
145493,-71.4285714285714,4,2,2,70,0,0
146662,-71.4285714285714,4,2,2,70,0,0
147441,-71.4285714285714,4,2,2,70,0,1
152896,-133.333333333333,4,2,2,70,0,1
153577,-133.333333333333,4,2,2,5,0,1
153675,-80,4,2,2,60,0,0
158642,-80,4,2,2,5,0,0
158740,-80,4,2,2,60,0,0
166142,-71.4285714285714,4,2,2,70,0,0
166435,-71.4285714285714,4,2,2,5,0,0
166532,-71.4285714285714,4,2,2,70,0,0
167798,-71.4285714285714,4,2,2,5,0,0
167896,-71.4285714285714,4,2,2,70,0,0
169162,-71.4285714285714,4,2,2,5,0,0
169259,-71.4285714285714,4,2,2,70,0,0
175006,-71.4285714285714,4,2,2,5,0,0
175103,-71.4285714285714,4,2,2,70,0,0
175396,-71.4285714285714,4,2,2,5,0,0
175493,-71.4285714285714,4,2,2,55,0,0
175883,-71.4285714285714,4,2,2,60,0,0
176272,-71.4285714285714,4,2,2,65,0,0
176662,-71.4285714285714,4,2,2,70,0,0
177051,-71.4285714285714,4,2,2,75,0,0
177441,-66.6666666666667,4,2,2,78,0,0
177636,-66.6666666666667,4,2,2,5,0,0
177831,-62.5,4,2,2,81,0,0
178025,-62.5,4,2,2,5,0,0
178220,-58.8235294117647,4,2,2,84,0,0
178415,-58.8235294117647,4,2,2,5,0,0
180947,-142.857142857143,4,2,2,25,0,0
184844,-200,4,2,2,25,0,0
187960,-142.857142857143,4,2,2,25,0,0
191077,-200,4,2,2,25,0,0
192636,-200,4,2,2,35,0,0
193025,-200,4,2,2,45,0,0
193415,-200,4,2,2,60,0,0
194194,-71.4285714285714,4,2,2,70,0,1
208025,-66.6666666666667,4,2,2,70,0,1
208318,-66.6666666666667,4,2,2,5,0,1
208415,-66.6666666666667,4,2,2,50,0,1
208707,-66.6666666666667,4,2,2,5,0,1
208805,-71.4285714285714,4,2,2,70,0,1
210947,-71.4285714285714,4,2,2,70,0,0
212896,-71.4285714285714,4,2,2,70,0,1
218350,-133.333333333333,4,2,2,70,0,1
219032,-133.333333333333,4,2,2,5,0,1
219129,-79.9999999999999,4,2,2,60,0,0
224097,-79.9999999999999,4,2,2,5,0,0
224194,-79.9999999999999,4,2,2,60,0,0
228480,-79.9999999999999,4,2,2,65,0,0
230818,-79.9999999999999,4,2,2,59,0,0
231012,-79.9999999999999,4,2,2,53,0,0
231207,-79.9999999999999,4,2,2,47,0,0
231402,-79.9999999999999,4,2,2,41,0,0
231597,-79.9999999999999,4,2,2,35,0,0

[Colours]
Combo1 : 81,81,255
Combo2 : 0,213,0
Combo3 : 0,157,0
Combo4 : 66,160,255

[HitObjects]
57,330,12636,5,2,0:3:0:0:
68,323,13025,1,2,0:3:0:0:
145,347,13415,6,0,B|184:364|220:347|215:342|211:338|246:320|286:338,1,146.999995513916,2|0,0:3|0:3,0:3:0:0:
342,347,14973,2,0,B|348:366|344:381|327:392|310:388|296:372|291:353|308:338|323:335|325:317|318:293,1,146.999995513916,2|0,0:3|0:3,0:3:0:0:
257,238,16532,2,0,B|291:236|315:272|315:272|327:232|362:226,1,140,2|0,0:3|0:3,0:3:0:0:
507,168,18870,5,2,0:3:0:0:
496,161,19259,1,2,0:3:0:0:
397,59,19649,6,0,P|326:50|274:98,1,146.999995513916,2|0,0:3|0:3,0:3:0:0:
220,53,21207,2,0,P|255:118|261:202,1,146.999995513916,2|0,0:3|0:3,0:3:0:0:
130,235,22766,2,0,B|165:206|207:218|207:218|221:244|254:251,1,140,2|0,0:3|0:3,0:3:0:0:
324,100,25103,5,2,0:3:0:0:
317,89,25492,1,2,0:3:0:0:
198,29,25883,6,0,B|195:-3|223:-23|266:-12|267:28|260:52|236:79,1,146.999995513916,2|0,0:3|0:3,0:3:0:0:
187,96,27441,2,0,B|218:85|240:108|240:108|261:206,1,146.999995513916,2|0,0:3|0:3,0:3:0:0:
193,223,28999,2,0,B|224:234|250:215|250:215|268:221|268:221|295:204|328:216,1,140,2|0,0:3|0:3,0:3:0:0:
438,319,31337,5,2,0:3:0:0:
449,312,31726,1,2,0:3:0:0:
475,182,32116,6,0,P|510:207|464:190,1,146.999995513916,2|0,0:3|0:3,0:3:0:0:
411,250,33675,2,0,B|443:208|409:160|409:160|382:169|373:192,1,146.999995513916,2|0,0:3|0:3,0:3:0:0:
352,118,35233,2,0,B|346:141|325:154|325:154|369:128|417:140,1,140,2|0,0:3|0:3,0:3:0:0:
297,34,37571,5,2,0:3:0:0:
286,41,37960,1,2,0:3:0:0:
178,4,38350,6,0,P|111:16|106:84,1,146.999995513916,2|0,0:3|0:3,0:3:0:0:
35,93,39909,2,0,B|104:99|104:99|109:105|109:105|178:111,1,146.999995513916,2|0,0:3|0:3,0:3:0:0:
129,167,41467,2,0,B|120:192|129:212|129:212|90:180|107:128,1,140,2|0,0:3|0:3,0:3:0:0:
195,191,43805,5,2,0:3:0:0:
202,202,44194,1,2,0:3:0:0:
148,300,44584,6,0,B|121:298|110:278|110:278|212:281,1,146.999995513916,2|0,0:3|0:3,0:3:0:0:
243,335,46142,2,0,B|224:301|237:267|237:267|243:274|243:274|256:239|239:204,1,146.999995513916,2|0,0:3|0:3,0:3:0:0:
328,284,47701,2,0,B|291:300|260:275|260:275|295:284|322:258,1,140,2|0,0:3|0:3,0:3:0:0:
375,183,50038,5,2,0:3:0:0:
382,172,50427,1,2,0:3:0:0:
309,45,50818,6,0,B|282:72|282:72|298:146|298:146|272:167,1,146.999995513916,2|0,0:3|0:3,0:3:0:0:
238,224,52376,2,0,B|250:198|277:190|277:190|183:186,1,146.999995513916,2|0,0:3|0:3,0:3:0:0:
127,91,53935,2,0,B|138:137|138:137|116:154|117:189,1,105,2|0,0:3|0:3,0:3:0:0:
52,303,55493,5,2,0:3:0:0:
22,242,55883,1,2,0:3:0:0:
117,188,56272,1,2,0:3:0:0:
87,249,56662,1,2,0:3:0:0:
88,126,57051,6,0,B|138:112|175:152|175:152|175:125|200:106,1,146.999995513916,2|0,0:3|0:3,0:3:0:0:
248,51,58610,2,0,B|206:64|206:64|194:117|239:155,1,146.999995513916,2|0,0:3|0:3,0:3:0:0:
326,202,60168,2,0,B|331:190|341:180|341:180|296:190|296:190|290:204|273:212,1,105,2|0,0:3|0:3,0:3:0:0:
323,336,61727,5,2,0:3:0:0:
382,373,62116,1,2,0:3:0:0:
429,384,62506,1,2,0:3:0:0:
456,380,62896,1,2,0:3:0:0:
510,322,63285,6,0,L|505:266,1,56,2|2,0:3|0:3,0:3:0:0:
500,209,63870,1,2,0:3:0:0:
512,0,64649,1,2,0:3:0:0:
472,51,64844,2,0,P|448:64|420:65,1,56,2|2,0:3|0:3,0:3:0:0:
374,110,65428,1,2,0:3:0:0:
211,0,66402,6,0,L|213:27,1,28,2|0,0:3|0:3,0:3:0:0:
151,53,66792,2,0,L|167:75,1,28,2|0,0:3|0:3,0:3:0:0:
125,128,67181,2,0,L|150:139,1,28,2|0,0:3|0:3,0:3:0:0:
142,208,67571,1,2,0:3:0:0:
142,208,67766,2,0,L|169:205,1,28,2|0,0:3|0:3,0:3:0:0:
124,275,68155,2,0,B|97:277|97:277|95:279|95:279|69:281,1,56,2|0,0:3|0:3,0:3:0:0:
9,313,68740,1,2,0:3:0:0:
115,384,69129,1,2,0:3:0:0:
2,322,69519,6,0,L|7:266,1,56,2|2,0:3|0:3,0:3:0:0:
12,209,70104,1,2,0:3:0:0:
0,0,70883,1,2,0:3:0:0:
40,51,71078,2,0,P|64:64|92:65,1,56,2|2,0:3|0:3,0:3:0:0:
138,110,71662,1,2,0:3:0:0:
260,226,72441,1,2,0:3:0:0:
320,205,72636,6,0,L|347:207,1,28,2|0,0:3|0:3,0:3:0:0:
311,129,73025,2,0,L|333:144,1,28,2|0,0:3|0:3,0:3:0:0:
341,58,73415,2,0,L|352:82,1,28,2|0,0:3|0:3,0:3:0:0:
405,14,73805,1,2,0:3:0:0:
405,14,73999,2,0,L|403:41,1,28,2|0,0:3|0:3,0:3:0:0:
440,124,74389,2,0,B|437:164|437:164|434:167|434:167|431:206,1,84,2|0,0:3|0:3,0:3:0:0:
512,384,75558,1,2,0:3:0:0:
459,347,75753,6,0,L|432:349,1,28,2|0,0:3|0:3,0:3:0:0:
379,384,76142,2,0,L|352:382,1,28,2|0,0:3|0:3,0:3:0:0:
299,347,76532,2,0,L|272:349,1,28,2|0,0:3|0:3,0:3:0:0:
219,384,76922,1,2,0:3:0:0:
219,384,77116,2,0,L|192:382,1,28,2|0,0:3|0:3,0:3:0:0:
149,300,77506,2,0,L|147:327,1,28,2|0,0:3|0:3,0:3:0:0:
137,308,77896,2,0,L|135:335,1,28,2|0,0:3|0:3,0:3:0:0:
107,245,78285,2,0,P|131:232|159:231,1,56,2|0,0:3|0:3,0:3:0:0:
222,263,78870,6,0,P|224:193|255:131,1,140,2|2,0:3|0:3,0:3:0:0:
339,82,80233,2,0,B|309:94|282:82|286:78|289:75|262:61|232:75,1,112,2|0,0:3|0:3,0:3:0:0:
184,123,81207,1,2,0:3:0:0:
122,49,81597,1,2,0:3:0:0:
0,141,81986,5,2,0:3:0:0:
50,180,82181,2,0,L|48:207,1,28,2|0,0:3|0:3,0:3:0:0:
20,265,82571,2,0,L|22:292,1,28,2|0,0:3|0:3,0:3:0:0:
11,362,82960,2,0,P|38:361|63:348,1,56,2|0,0:3|0:3,0:3:0:0:
121,303,83545,2,0,B|141:304|155:282|155:282|163:306|184:310,1,84,2|0,0:3|0:3,0:3:0:0:
245,298,84324,1,2,0:3:0:0:
340,333,84714,1,2,0:3:0:0:
459,277,85103,6,0,L|457:250,1,28,2|0,0:3|0:3,0:3:0:0:
409,197,85493,2,0,L|411:170,1,28,2|0,0:3|0:3,0:3:0:0:
459,117,85883,2,0,L|457:90,1,28,2|0,0:3|0:3,0:3:0:0:
412,40,86272,1,2,0:3:0:0:
412,40,86467,2,0,B|385:42|385:42|383:44|383:44|357:46,1,56,2|0,0:3|0:3,0:3:0:0:
305,82,87051,1,2,0:3:0:0:
343,177,87441,1,2,0:3:0:0:
305,234,87831,1,2,0:3:0:0:
86,2,90363,5,0,1:3:0:0:
93,1,90460,1,0,1:3:0:0:
101,0,90558,1,10,0:3:0:0:
156,48,90753,1,0,1:3:0:0:
36,82,90947,2,0,B|28:92|28:92|31:129,1,49.8749986681939,2|0,1:3|0:3,0:3:0:0:
48,150,91337,6,0,P|90:144|129:162,1,87.5,6|0,1:3|1:3,0:3:0:0:
129,162,91922,1,0,0:3:0:0:
79,214,92116,2,0,L|75:256,1,43.75,8|0,0:3|0:3,0:3:0:0:
151,301,92506,2,0,L|154:258,1,43.75,0|0,1:3|0:3,0:3:0:0:
211,161,92896,6,0,B|213:189|213:189|234:208|234:208|234:208|234:208|237:237,1,87.5,6|0,1:3|1:3,0:3:0:0:
237,238,93480,1,0,0:3:0:0:
283,308,93675,2,0,P|304:313|325:307,1,43.75,8|0,0:3|0:3,0:3:0:0:
383,211,94064,2,0,P|368:226|361:247,1,43.75,0|0,1:3|0:3,0:3:0:0:
449,303,94454,6,0,B|434:306|426:320|426:320|443:292|436:264,1,87.5,6|0,1:3|1:3,0:3:0:0:
436,264,95038,1,0,0:3:0:0:
393,202,95233,2,0,L|435:198,1,43.75,8|0,0:3|0:3,0:3:0:0:
466,124,95623,2,0,L|423:127,1,43.75,0|0,1:3|0:3,0:3:0:0:
351,56,96012,6,0,B|359:37|346:22|346:22|350:40|340:59,1,65.625,6|0,1:3|0:3,0:3:0:0:
325,63,96402,2,0,P|305:68|284:63,1,43.75,0|0,1:3|0:3,0:3:0:0:
192,36,96792,5,8,0:3:0:0:
123,152,96986,1,0,1:3:0:0:
186,133,97181,5,0,1:3:0:0:
117,17,97375,1,8,0:3:0:0:
248,126,97571,6,0,B|230:124|218:132|218:132|206:188,1,87.5,6|0,1:3|1:3,0:3:0:0:
206,187,98155,1,0,0:3:0:0:
160,248,98350,2,0,P|138:253|117:247,1,43.75,8|0,0:3|0:3,0:3:0:0:
64,179,98740,2,0,P|85:173|106:179,1,43.75,0|0,1:3|0:3,0:3:0:0:
170,262,99129,6,0,B|194:281|224:274|224:274|234:255|258:250,1,87.5,6|0,1:3|1:3,0:3:0:0:
245,253,99714,1,0,0:3:0:0:
325,314,99909,2,0,L|282:317,1,43.75,8|0,0:3|0:3,0:3:0:0:
249,384,100298,2,0,L|292:381,1,43.75,0|0,1:3|0:3,0:3:0:0:
389,310,100688,5,10,0:3:0:0:
309,375,100883,1,0,1:3:0:0:
272,331,101077,1,0,1:3:0:0:
187,384,101272,5,8,0:3:0:0:
146,290,101467,1,8,0:3:0:0:
87,312,101662,1,0,1:3:0:0:
158,219,101857,5,8,0:3:0:0:
217,241,102052,1,0,1:3:0:0:
154,154,102246,5,8,0:3:0:0:
266,106,102441,1,8,0:3:0:0:
277,111,102538,1,8,0:3:0:0:
284,121,102636,1,0,1:3:0:0:
279,195,102831,1,0,1:3:0:0:
225,159,103025,5,2,3:3:0:0:
168,210,103220,1,0,3:3:0:0:
94,159,103415,1,2,3:3:0:0:
38,250,103610,1,0,3:3:0:0:
0,107,103805,6,0,B|26:108|26:108|27:110|27:110|52:112,1,55.1249983177186,6|0,1:3|0:3,0:3:0:0:
76,92,104194,2,0,B|102:90|102:90|103:88|103:88|128:86,1,55.1249983177186,4|0,1:3|0:3,0:3:0:0:
172,46,104584,2,0,P|218:74|271:64,1,110.249996635437,8|0,0:3|0:3,0:3:0:0:
323,17,105363,5,2,0:3:0:0:
374,96,105558,1,0,1:3:0:0:
364,110,105753,1,2,1:3:0:0:
463,0,106142,6,0,P|452:35|452:71,1,73.4999977569581,8|0,0:3|0:3,0:3:0:0:
482,120,106922,5,2,0:3:0:0:
397,189,107116,1,0,1:3:0:0:
383,179,107311,1,0,1:3:0:0:
512,267,107701,6,0,B|480:285|480:285|444:275,1,73.4999977569581,10|0,0:3|0:3,0:3:0:0:
389,258,108480,5,6,1:3:0:0:
354,313,108675,1,2,0:3:0:0:
290,239,108870,2,0,L|253:242,1,36.749998878479,2|0,0:3|0:3,0:3:0:0:
363,328,109259,1,10,0:3:0:0:
363,328,109649,1,10,0:3:0:0:
253,384,109844,1,8,0:3:0:0:
144,291,110038,6,0,P|152:264|152:237,1,55.1249983177186,6|0,1:3|0:3,0:3:0:0:
135,212,110428,2,0,P|135:184|143:158,1,55.1249983177186,4|0,1:3|0:3,0:3:0:0:
95,126,110818,2,0,B|124:138|151:126|147:122|144:119|170:105|200:119,1,110.249996635437,8|0,0:3|0:3,0:3:0:0:
244,172,111597,5,2,0:3:0:0:
303,93,111792,1,0,1:3:0:0:
293,79,111987,1,0,1:3:0:0:
398,172,112376,6,0,B|429:190|429:190|465:180,1,73.4999977569581,8|0,0:3|0:3,0:3:0:0:
512,149,113155,5,2,0:3:0:0:
429,84,113350,1,0,1:3:0:0:
415,94,113545,1,0,1:3:0:0:
316,21,113935,6,0,P|280:15|249:33,1,73.4999977569581,8|0,0:3|0:3,0:3:0:0:
225,87,114714,6,0,B|197:123|226:165|226:165|250:157|258:137,1,128.624996074677,6|0,1:3|0:3,0:3:0:0:
292,77,115493,1,14,0:3:0:0:
292,77,115883,1,10,0:3:0:0:
359,173,116077,1,8,0:3:0:0:
268,260,116272,6,0,B|237:232|195:244|195:244|182:268|158:273,1,125.999996154785,6|0,1:3|0:3,0:3:0:0:
126,166,117051,2,0,P|132:186|135:207,1,41.9999987182618,8|0,0:3|0:3,0:3:0:0:
38,170,117441,2,0,P|40:149|46:129,1,41.9999987182618,0|0,1:3|0:3,0:3:0:0:
134,57,117831,6,0,B|148:39|171:38|171:38|148:26|114:33|97:57,1,125.999996154785,2|0,1:3|0:3,0:3:0:0:
191,127,118610,2,0,P|211:124|231:118,1,41.9999987182618,8|0,0:3|0:3,0:3:0:0:
282,20,118999,2,0,P|273:39|269:59,1,41.9999987182618,0|0,1:3|0:3,0:3:0:0:
299,172,119389,6,0,B|313:205|299:235|294:231|291:228|276:257|291:291,1,125.999996154785,2|0,1:3|0:3,0:3:0:0:
397,274,120168,2,0,P|377:267|356:265,1,41.9999987182618,8|0,0:3|0:3,0:3:0:0:
283,353,120558,2,0,P|303:350|323:344,1,41.9999987182618,0|0,1:3|0:3,0:3:0:0:
445,380,120947,2,0,B|431:325|431:325|462:302|456:262,1,125.999996154785,0|0,1:3|0:3,0:3:0:0:
416,136,121727,5,10,0:3:0:0:
307,219,121922,1,2,1:3:0:0:
273,204,122019,1,2,1:3:0:0:
274,167,122116,5,2,1:3:0:0:
404,208,122311,1,0,0:3:0:0:
314,104,122506,6,0,B|282:109|271:145|271:145|250:112|219:114,1,125.999996154785,6|2,1:3|0:3,0:3:0:0:
250,16,123285,2,0,P|257:36|260:57,1,41.9999987182618,8|0,0:3|0:3,0:3:0:0:
160,124,123675,2,0,P|162:103|169:83,1,41.9999987182618,0|0,1:3|0:3,0:3:0:0:
212,208,124064,6,0,B|214:179|189:160|150:170|149:207|155:228|177:253,1,125.999996154785,2|0,1:3|0:3,0:3:0:0:
223,326,124844,2,0,P|243:323|263:316,1,41.9999987182618,10|0,0:3|0:3,0:3:0:0:
349,260,125233,2,0,P|369:262|389:269,1,41.9999987182618,2|0,1:3|0:3,0:3:0:0:
479,359,125623,6,0,B|477:331|477:331|475:330|475:330|473:305,1,55.1249983177186,6|0,1:3|0:3,0:3:0:0:
465,291,126012,6,0,L|470:230,1,60.3750011515618,0|0,3:3|0:3,0:3:0:0:
486,194,126402,6,0,B|494:162|494:162|478:134,1,65.625,0|0,3:3|0:3,0:3:0:0:
421,109,126792,6,0,L|350:115,1,70.8750002703667,0|0,3:3|0:3,0:3:0:0:
293,173,127181,6,0,B|248:155|191:173|236:203|196:225|132:238|91:196|86:159|121:116|154:132|171:146,1,283.500001081467,10|2,0:3|0:3,0:3:0:0:
68,102,128740,6,0,B|47:103|41:122|41:122|54:182,1,97.9999970092774,6|2,1:3|0:3,0:3:0:0:
109,264,129324,1,2,0:3:0:0:
61,337,129519,2,0,P|38:330|20:313,1,48.9999985046387,8|0,0:3|0:3,0:3:0:0:
164,241,129909,2,0,P|169:263|164:287,1,48.9999985046387,0|2,1:3|0:3,0:3:0:0:
115,158,130298,6,0,B|140:146|164:158|161:161|158:163|182:175|208:163,1,97.9999970092774,6|2,1:3|0:3,0:3:0:0:
265,85,130883,1,2,0:3:0:0:
303,177,131077,2,0,P|325:182|349:177,1,48.9999985046387,10|0,0:3|0:3,0:3:0:0:
377,81,131467,2,0,P|354:75|330:81,1,48.9999985046387,0|0,1:3|0:3,0:3:0:0:
413,188,131857,6,0,L|408:235,1,48.9999985046387,6|0,1:3|0:3,0:3:0:0:
308,246,132246,2,0,L|312:293,1,48.9999985046387,2|0,0:3|0:3,0:3:0:0:
399,360,132636,2,0,L|446:355,1,48.9999985046387,10|2,0:3|0:3,0:3:0:0:
457,348,132928,1,2,0:3:0:0:
467,341,133025,1,2,1:3:0:0:
478,255,133220,1,2,0:3:0:0:
375,296,133415,5,4,1:3:0:0:
487,245,133610,2,0,B|490:223|481:204|481:204|485:191|485:191|476:173|483:147,1,97.9999970092774,0|0,0:3|0:3,0:3:0:0:
512,62,134194,1,10,0:3:0:0:
443,99,134389,1,0,1:3:0:0:
334,44,134584,2,0,B|309:45|309:45|308:47|308:47|286:49,1,48.9999985046387,2|2,1:3|0:3,0:3:0:0:
226,52,134876,1,2,1:3:0:0:
215,46,134973,6,0,B|202:67|211:89|211:89|215:85|215:85|223:107|212:129,1,97.9999970092774,6|2,1:3|0:3,0:3:0:0:
163,200,135558,1,2,0:3:0:0:
116,128,135753,2,0,P|93:122|69:128,1,48.9999985046387,8|0,0:3|0:3,0:3:0:0:
140,241,136142,2,0,P|156:224|163:200,1,48.9999985046387,0|2,1:3|0:3,0:3:0:0:
28,189,136532,6,0,B|45:206|45:206|34:256|34:256|51:270,1,97.9999970092774,6|2,1:3|0:3,0:3:0:0:
134,253,137116,1,2,0:3:0:0:
197,309,137311,2,0,L|192:356,1,48.9999985046387,8|0,0:3|0:3,0:3:0:0:
273,272,137701,2,0,L|268:225,1,48.9999985046387,0|2,1:3|0:3,0:3:0:0:
340,330,138090,6,0,P|363:336|387:330,1,48.9999985046387,6|0,1:3|0:3,0:3:0:0:
388,224,138480,2,0,P|371:241|365:265,1,48.9999985046387,2|0,0:3|0:3,0:3:0:0:
455,318,138870,2,0,P|448:294|431:277,1,48.9999985046387,10|0,0:3|0:3,0:3:0:0:
329,326,139259,1,2,1:3:0:0:
329,326,139454,1,2,0:3:0:0:
293,202,139649,5,8,0:3:0:0:
253,310,139844,1,2,1:3:0:0:
198,332,140038,1,0,1:3:0:0:
208,183,140233,5,8,0:3:0:0:
305,265,140428,1,8,0:3:0:0:
196,193,140623,1,0,1:3:0:0:
340,161,140818,5,10,0:3:0:0:
190,119,141012,1,10,0:3:0:0:
156,128,141110,1,2,1:3:0:0:
123,118,141207,6,0,P|79:97|31:104,1,97.9999970092774,6|2,1:3|0:3,0:3:0:0:
0,169,141792,1,0,0:3:0:0:
65,186,141986,2,0,L|60:233,1,48.9999985046387,10|2,0:3|0:3,0:3:0:0:
53,244,142278,1,2,0:3:0:0:
46,254,142375,1,2,1:3:0:0:
160,330,142571,6,0,B|197:340|197:340|231:321,1,78.7500030040742,6|0,1:3|0:3,0:3:0:0:
224,261,142960,2,0,B|186:250|186:250|152:269,1,78.7500030040742,6|0,1:3|0:3,0:3:0:0:
105,307,143350,1,2,0:3:0:0:
159,198,143545,2,0,P|181:190|205:193,1,48.9999985046387,8|2,0:3|0:3,0:3:0:0:
286,253,143935,2,0,P|308:261|332:257,1,48.9999985046387,0|0,0:3|0:3,0:3:0:0:
414,208,144324,5,6,1:3:0:0:
312,321,144519,1,8,0:3:0:0:
423,226,144714,1,8,0:3:0:0:
334,175,144909,1,6,1:3:0:0:
276,245,145103,1,0,1:3:0:0:
204,220,145298,1,0,1:3:0:0:
132,296,145493,6,0,B|126:267|94:258|94:258|134:242|175:261|150:271|189:293|224:279,1,195.999994018555,2|0,1:3|1:3,0:3:0:0:
38,236,146662,2,0,P|32:259|38:283,1,48.9999985046387,10|0,0:3|0:3,0:3:0:0:
113,192,147051,2,0,P|106:169|89:151,1,48.9999985046387,2|2,0:3|0:3,0:3:0:0:
54,94,147344,1,2,1:3:0:0:
44,86,147441,6,0,B|85:74|85:74|101:95|135:94,1,97.9999970092774,6|0,1:3|1:3,0:3:0:0:
204,30,148025,1,2,0:3:0:0:
242,115,148220,2,0,L|290:119,1,48.9999985046387,8|2,0:3|0:3,0:3:0:0:
230,192,148610,2,0,L|181:196,1,48.9999985046387,0|0,1:3|0:3,0:3:0:0:
288,273,148999,6,0,B|289:290|304:296|304:296|296:228,1,97.9999970092774,6|0,0:3|1:3,0:3:0:0:
364,157,149584,1,0,0:3:0:0:
410,251,149779,2,0,P|387:257|363:251,1,48.9999985046387,10|0,0:3|0:3,0:3:0:0:
488,236,150168,2,0,P|504:252|511:276,1,48.9999985046387,2|2,1:3|0:3,0:3:0:0:
482,343,150460,1,2,1:3:0:0:
473,351,150558,6,0,B|445:327|412:337|412:337|403:351|388:359,1,97.9999970092774,6|2,1:3|1:3,0:3:0:0:
275,330,151142,1,0,0:3:0:0:
358,250,151337,2,0,L|353:299,1,48.9999985046387,10|0,0:3|0:3,0:3:0:0:
247,209,151727,2,0,L|251:257,1,48.9999985046387,2|2,1:3|0:3,0:3:0:0:
329,99,152116,5,8,0:3:0:0:
254,196,152311,1,8,0:3:0:0:
220,67,152506,1,2,1:3:0:0:
161,94,152701,1,0,1:3:0:0:
60,25,152896,6,0,P|32:12|62:20,1,91.8750035047532,10|0,0:3|0:3,0:3:0:0:
90,76,153675,6,0,B|104:69|112:55|112:55|95:83|102:111,1,87.5,6|2,1:3|1:3,0:3:0:0:
101,109,154259,1,2,0:3:0:0:
163,169,154454,2,0,L|166:212,1,43.75,8|0,0:3|0:3,0:3:0:0:
87,244,154844,2,0,L|90:201,1,43.75,0|0,1:3|0:3,0:3:0:0:
144,297,155233,6,0,B|172:294|172:294|191:273|191:273|191:273|191:273|221:270,1,87.5,6|0,1:3|1:3,0:3:0:0:
221,269,155818,1,0,0:3:0:0:
298,285,156012,2,0,P|303:306|297:327,1,43.75,8|0,0:3|0:3,0:3:0:0:
278,229,156402,2,0,P|299:224|320:230,1,43.75,0|0,1:3|0:3,0:3:0:0:
401,288,156792,6,0,B|383:283|374:272|374:272|382:215,1,87.5,6|0,1:3|1:3,0:3:0:0:
381,216,157376,1,0,0:3:0:0:
428,162,157571,2,0,L|471:159,1,43.75,8|0,0:3|0:3,0:3:0:0:
376,121,157960,2,0,L|333:118,1,43.75,0|0,1:3|0:3,0:3:0:0:
441,24,158350,6,0,B|460:16|475:29|475:29|457:25|438:35,1,65.625,6|0,1:3|0:3,0:3:0:0:
434,50,158740,2,0,P|429:70|434:91,1,43.75,0|0,1:3|0:3,0:3:0:0:
512,165,159129,5,8,0:3:0:0:
382,216,159324,1,0,1:3:0:0:
353,167,159519,5,0,1:3:0:0:
483,219,159714,1,8,0:3:0:0:
330,281,159909,6,0,B|307:271|285:281|288:283|291:286|270:296|247:286,1,87.5,6|0,1:3|1:3,0:3:0:0:
246,285,160493,1,0,0:3:0:0:
197,231,160688,2,0,P|177:226|156:231,1,43.75,8|0,0:3|0:3,0:3:0:0:
132,310,161077,2,0,P|152:315|173:310,1,43.75,0|0,1:3|0:3,0:3:0:0:
70,248,161467,6,0,B|59:228|66:209|66:209|70:213|70:213|77:193|67:173,1,87.5,6|0,1:3|1:3,0:3:0:0:
66,172,162051,1,0,0:3:0:0:
17,100,162246,2,0,L|60:97,1,43.75,8|0,0:3|0:3,0:3:0:0:
131,150,162636,2,0,L|174:153,1,43.75,0|0,1:3|0:3,0:3:0:0:
258,86,163025,5,10,0:3:0:0:
321,166,163220,1,0,1:3:0:0:
378,142,163415,1,0,1:3:0:0:
479,225,163610,5,8,0:3:0:0:
422,194,163805,1,8,0:3:0:0:
359,292,163999,5,0,1:3:0:0:
416,261,164194,1,8,0:3:0:0:
357,309,164389,1,0,1:3:0:0:
299,288,164584,6,0,L|277:289,3,21.875,10|0|8|8,0:3|0:3|0:3|0:3,0:3:0:0:
226,318,164973,2,0,L|204:316,3,21.875,2|0|0|0,3:3|0:3|3:3|0:3,0:3:0:0:
136,292,165363,1,2,3:3:0:0:
122,284,165460,1,2,0:3:0:0:
116,269,165558,2,0,P|119:258|126:250,1,21.875,2|2,3:3|0:3,0:3:0:0:
240,185,165753,1,2,3:3:0:0:
227,197,165850,1,2,0:3:0:0:
205,206,165947,1,2,3:3:0:0:
174,202,166045,1,2,0:3:0:0:
149,174,166142,6,0,B|142:145|142:145|153:135|153:135|158:107,1,73.4999977569581,6|0,1:3|0:3,0:3:0:0:
172,85,166532,2,0,B|182:77|182:77|219:80,1,48.9999985046387,2|0,0:3|0:3,0:3:0:0:
297,145,166922,2,0,B|320:151|320:151|341:139,1,48.9999985046387,10|2,0:3|0:3,0:3:0:0:
364,127,167214,1,2,0:3:0:0:
364,127,167311,1,2,0:3:0:0:
443,218,167506,6,0,B|449:243|449:243|432:265|432:265|427:285,1,73.4999977569581,6|0,1:3|0:3,0:3:0:0:
413,303,167896,1,6,1:3:0:0:
499,373,168090,2,0,B|511:351|511:351|505:328,1,48.9999985046387,2|0,0:3|1:3,0:3:0:0:
417,384,168480,1,10,0:3:0:0:
329,294,168675,2,0,B|293:290|293:290|288:296|288:296|253:293|253:293|248:298|248:298|212:295,1,122.499996261597,2|0,0:3|0:3,0:3:0:0:
190,283,169259,5,6,1:3:0:0:
73,383,169454,1,10,0:3:0:0:
192,360,169649,1,10,0:3:0:0:
59,249,169844,5,2,1:3:0:0:
129,336,170038,1,10,0:3:0:0:
168,202,170233,1,10,0:3:0:0:
54,263,170428,5,6,1:3:0:0:
202,275,170623,1,2,0:3:0:0:
76,170,170818,1,2,0:3:0:0:
53,170,170915,1,2,0:3:0:0:
42,188,171012,1,2,0:3:0:0:
122,250,171207,5,2,1:3:0:0:
184,128,171402,1,2,0:3:0:0:
263,260,171597,6,0,B|293:268|293:268|317:257|317:257|334:262|334:262|356:258,1,97.9999970092774,10|0,0:3|1:3,0:3:0:0:
421,209,172181,1,0,0:3:0:0:
386,337,172376,5,4,1:3:0:0:
357,258,172571,1,2,0:3:0:0:
450,283,172766,1,2,1:3:0:0:
381,351,172960,1,2,0:3:0:0:
349,244,173155,6,0,B|352:194|352:194|356:193|356:193|359:149,1,97.9999970092774,10|2,0:3|1:3,0:3:0:0:
378,132,173642,1,2,0:3:0:0:
378,132,173740,1,2,0:3:0:0:
315,62,173935,1,6,1:3:0:0:
267,98,174129,1,2,0:3:0:0:
181,0,174324,1,2,1:3:0:0:
181,0,174714,6,0,B|169:14|169:14|173:68,1,73.4999977569581,10|0,0:3|0:3,0:3:0:0:
192,95,175103,2,0,B|203:109|203:109|199:163,1,73.4999977569581,2|0,1:3|0:3,0:3:0:0:
238,205,175493,5,2,1:3:0:0:
225,216,175590,1,2,0:3:0:0:
206,223,175688,1,2,0:3:0:0:
186,220,175785,1,2,0:3:0:0:
165,210,175883,1,2,1:3:0:0:
144,201,175980,1,2,0:3:0:0:
119,198,176077,1,2,0:3:0:0:
95,204,176175,1,2,0:3:0:0:
73,219,176272,1,10,0:3:0:0:
58,241,176370,1,2,0:3:0:0:
51,269,176467,1,2,0:3:0:0:
56,297,176564,1,2,0:3:0:0:
73,323,176662,1,2,1:3:0:0:
99,340,176759,1,2,0:3:0:0:
133,343,176857,1,2,0:3:0:0:
167,330,176954,1,2,0:3:0:0:
195,299,177051,6,0,P|200:277|195:253,1,48.9999985046387,6|0,1:3|0:3,0:3:0:0:
110,137,177441,6,0,L|105:189,1,52.5000020027161,2|0,3:3|0:3,0:3:0:0:
269,70,177831,6,0,L|273:125,1,56,2|0,3:3|0:3,0:3:0:0:
58,0,178220,6,0,L|52:59,1,59.5000011348725,2|0,3:3|0:3,0:3:0:0:
0,384,180947,5,2,0:3:0:0:
11,377,181336,1,2,0:3:0:0:
126,338,181727,6,0,B|129:370|101:390|58:379|57:339|64:315|88:288,1,146.999995513916,2|0,0:3|0:3,0:3:0:0:
10,273,183285,2,0,B|49:290|85:273|80:268|76:264|111:246|151:264,1,146.999995513916,2|0,0:3|0:3,0:3:0:0:
196,336,184844,2,0,P|176:269|184:200,1,140,2|0,0:3|0:3,0:3:0:0:
125,41,187181,5,2,0:3:0:0:
118,52,187570,1,2,0:3:0:0:
0,89,187960,6,0,B|9:66|36:57|36:57|70:105|38:147,1,146.999995513916,2|0,0:3|0:3,0:3:0:0:
0,213,189519,2,0,P|52:164|123:173,1,146.999995513916,2|0,0:3|0:3,0:3:0:0:
213,134,191077,2,0,B|218:115|214:101|198:90|182:94|168:109|163:128|180:142|194:145|196:163|189:186,1,140,2|2,0:3|0:3,0:3:0:0:
189,185,193025,1,2,0:3:0:0:
256,320,193415,1,2,3:3:0:0:
256,320,194194,6,0,B|237:324|228:342|228:342|236:280,1,97.9999970092774,6|2,1:3|0:3,0:3:0:0:
281,192,194779,1,2,0:3:0:0:
326,273,194973,2,0,L|373:278,1,48.9999985046387,8|0,0:3|0:3,0:3:0:0:
420,174,195363,2,0,L|373:179,1,48.9999985046387,0|2,1:3|0:3,0:3:0:0:
263,103,195753,6,0,B|252:89|234:88|234:88|252:79|278:84|291:103,1,97.9999970092774,6|2,1:3|0:3,0:3:0:0:
268,196,196337,1,2,0:3:0:0:
171,112,196532,2,0,P|148:118|130:135,1,48.9999985046387,10|0,0:3|0:3,0:3:0:0:
183,228,196922,2,0,P|189:204|182:180,1,48.9999985046387,0|0,1:3|0:3,0:3:0:0:
69,135,197311,6,0,L|74:182,1,48.9999985046387,6|0,1:3|0:3,0:3:0:0:
5,47,197701,2,0,L|0:94,1,48.9999985046387,2|0,1:3|0:3,0:3:0:0:
86,0,198090,2,0,L|133:5,1,48.9999985046387,10|2,0:3|0:3,0:3:0:0:
144,12,198382,1,2,0:3:0:0:
154,19,198480,1,2,1:3:0:0:
216,61,198675,1,2,0:3:0:0:
130,147,198870,5,4,1:3:0:0:
228,53,199064,2,0,B|247:46|260:60|260:60|273:120,1,97.9999970092774,2|0,0:3|0:3,0:3:0:0:
321,248,199649,5,10,0:3:0:0:
410,136,199844,1,0,1:3:0:0:
345,115,200038,5,2,1:3:0:0:
434,227,200233,1,10,0:3:0:0:
447,259,200331,1,2,1:3:0:0:
435,291,200428,6,0,B|407:267|374:277|374:277|365:291|350:299,1,97.9999970092774,6|2,1:3|0:3,0:3:0:0:
238,286,201012,1,2,0:3:0:0:
297,208,201207,2,0,P|314:225|320:248,1,48.9999985046387,8|0,0:3|0:3,0:3:0:0:
215,327,201597,2,0,P|221:303|238:286,1,48.9999985046387,0|2,1:3|0:3,0:3:0:0:
336,384,201986,6,0,B|353:367|353:367|403:378|403:378|417:361,1,97.9999970092774,6|2,1:3|0:3,0:3:0:0:
463,258,202571,1,2,0:3:0:0:
359,205,202766,2,0,L|312:210,1,48.9999985046387,8|0,0:3|0:3,0:3:0:0:
433,138,203155,2,0,L|480:143,1,48.9999985046387,0|0,1:3|0:3,0:3:0:0:
494,34,203545,5,14,0:3:0:0:
367,87,203740,1,0,1:3:0:0:
310,54,203935,1,2,1:3:0:0:
434,9,204129,5,8,0:3:0:0:
366,152,204324,1,10,0:3:0:0:
419,0,204519,1,0,1:3:0:0:
491,133,204714,5,10,0:3:0:0:
378,82,204909,1,2,1:3:0:0:
463,207,205103,5,8,0:3:0:0:
311,178,205298,1,10,0:3:0:0:
300,145,205396,1,8,0:3:0:0:
317,115,205493,1,0,3:3:0:0:
379,212,205688,1,0,3:3:0:0:
304,297,205883,5,0,3:3:0:0:
218,263,206077,1,0,3:3:0:0:
165,323,206272,1,2,3:3:0:0:
108,297,206467,1,2,3:3:0:0:
80,277,206564,1,2,1:3:0:0:
72,243,206662,6,0,B|60:218|72:194|75:197|77:200|89:176|77:150,1,97.9999970092774,6|2,1:3|1:3,0:3:0:0:
17,107,207246,1,0,0:3:0:0:
84,77,207441,2,0,L|131:82,1,48.9999985046387,10|2,0:3|0:3,0:3:0:0:
142,89,207733,1,2,0:3:0:0:
152,96,207830,1,2,1:3:0:0:
285,120,208025,6,0,B|295:157|295:157|276:191,1,78.7500030040742,6|0,1:3|0:3,0:3:0:0:
216,184,208414,2,0,B|205:146|205:146|224:112,1,78.7500030040742,6|0,1:3|0:3,0:3:0:0:
262,65,208804,1,2,1:3:0:0:
354,158,208999,2,0,P|376:163|400:158,1,48.9999985046387,10|0,0:3|0:3,0:3:0:0:
470,60,209389,2,0,P|454:76|447:99,1,48.9999985046387,0|0,0:3|0:3,0:3:0:0:
494,226,209779,5,6,1:3:0:0:
347,170,209973,1,8,0:3:0:0:
507,212,210168,1,8,0:3:0:0:
362,269,210363,5,6,1:3:0:0:
463,163,210558,1,8,0:3:0:0:
362,287,210753,1,8,0:3:0:0:
277,213,210947,6,0,B|252:218|232:204|232:204|255:232|261:260|257:281|237:294|197:291|198:250,1,195.999994018555,6|0,1:3|1:3,0:3:0:0:
248,335,212116,2,0,P|226:340|202:335,1,48.9999985046387,10|0,0:3|0:3,0:3:0:0:
89,283,212506,2,0,P|111:278|135:283,1,48.9999985046387,2|2,1:3|0:3,0:3:0:0:
46,358,212798,1,2,1:3:0:0:
35,364,212896,6,0,B|38:342|29:323|29:323|33:310|33:310|24:292|31:266,1,97.9999970092774,6|0,1:3|1:3,0:3:0:0:
49,159,213480,1,2,0:3:0:0:
143,216,213675,2,0,L|190:211,1,48.9999985046387,8|2,0:3|0:3,0:3:0:0:
149,121,214064,2,0,L|102:116,1,48.9999985046387,0|0,1:3|0:3,0:3:0:0:
185,36,214454,6,0,P|229:57|277:50,1,97.9999970092774,6|0,1:3|1:3,0:3:0:0:
365,0,215038,1,0,0:3:0:0:
404,95,215233,2,0,P|409:117|404:141,1,48.9999985046387,10|0,0:3|0:3,0:3:0:0:
286,141,215623,2,0,P|304:124|328:118,1,48.9999985046387,2|2,1:3|0:3,0:3:0:0:
405,186,215915,1,2,1:3:0:0:
415,193,216012,6,0,B|414:172|395:166|395:166|335:179,1,97.9999970092774,6|2,1:3|1:3,0:3:0:0:
254,250,216597,1,0,0:3:0:0:
348,308,216792,2,0,P|353:286|348:262,1,48.9999985046387,10|0,0:3|0:3,0:3:0:0:
254,203,217181,2,0,P|249:225|254:249,1,48.9999985046387,2|2,1:3|0:3,0:3:0:0:
353,373,217571,5,8,0:3:0:0:
210,319,217766,1,8,0:3:0:0:
338,251,217960,1,2,3:3:0:0:
265,196,218155,1,0,1:3:0:0:
400,141,218350,6,0,P|428:154|398:146,1,91.8750035047532,10|0,0:3|0:3,0:3:0:0:
354,105,219129,6,0,B|325:103|325:103|303:120|303:120|303:120|303:120|273:118,1,87.5,6|2,1:3|1:3,0:3:0:0:
272,117,219714,1,2,0:3:0:0:
223,65,219909,2,0,L|180:68,1,43.75,8|0,0:3|0:3,0:3:0:0:
137,130,220298,2,0,L|94:127,1,43.75,0|0,1:3|0:3,0:3:0:0:
23,58,220688,6,0,B|34:78|27:97|27:97|23:93|23:93|16:113|26:133,1,87.5,6|0,1:3|1:3,0:3:0:0:
26,133,221272,1,0,0:3:0:0:
88,189,221467,2,0,P|72:203|51:209,1,43.75,8|0,0:3|0:3,0:3:0:0:
0,272,221857,2,0,P|21:277|36:292,1,43.75,0|0,1:3|0:3,0:3:0:0:
100,373,222246,6,0,P|142:379|181:361,1,87.5,6|0,1:3|1:3,0:3:0:0:
181,360,222831,1,0,0:3:0:0:
222,296,223025,2,0,P|243:291|264:297,1,43.75,8|0,0:3|0:3,0:3:0:0:
295,371,223415,2,0,P|274:376|253:370,1,43.75,0|0,1:3|0:3,0:3:0:0:
357,317,223805,6,0,B|338:325|323:312|323:312|341:316|360:306,1,65.625,6|0,1:3|0:3,0:3:0:0:
364,291,224195,2,0,P|369:271|364:250,1,43.75,0|0,1:3|0:3,0:3:0:0:
240,129,224584,5,8,0:3:0:0:
301,241,224779,1,0,0:3:0:0:
240,222,224973,5,0,1:3:0:0:
301,110,225168,1,8,0:3:0:0:
192,177,225363,6,0,B|169:187|147:177|150:175|153:172|132:162|109:172,1,87.5,6|0,1:3|1:3,0:3:0:0:
108,172,225947,1,0,0:3:0:0:
52,122,226142,2,0,P|47:102|52:81,1,43.75,8|0,0:3|0:3,0:3:0:0:
155,80,226532,2,0,P|139:94|118:100,1,43.75,0|0,1:3|0:3,0:3:0:0:
210,51,226922,6,0,B|203:37|189:29|189:29|217:46|245:39,1,87.5,6|0,1:3|1:3,0:3:0:0:
243,39,227506,1,0,0:3:0:0:
320,0,227701,2,0,L|317:43,1,43.75,8|0,0:3|0:3,0:3:0:0:
383,96,228090,2,0,L|386:139,1,43.75,0|0,1:3|0:3,0:3:0:0:
494,242,228480,5,14,0:3:0:0:
468,140,228675,1,0,1:3:0:0:
512,93,228870,1,0,1:3:0:0:
476,0,229064,5,10,0:3:0:0:
394,89,229259,1,10,0:3:0:0:
453,132,229454,1,0,1:3:0:0:
390,25,229649,5,8,0:3:0:0:
331,68,229844,1,0,1:3:0:0:
247,0,230038,5,10,0:3:0:0:
163,76,230233,1,8,0:3:0:0:
150,77,230330,1,8,0:3:0:0:
139,72,230428,1,0,3:3:0:0:
144,11,230623,1,0,3:3:0:0:
241,66,230818,5,2,3:3:0:0:
180,135,231012,1,0,3:3:0:0:
196,207,231207,1,0,3:3:0:0:
157,255,231402,1,0,3:3:0:0:
256,192,231597,5,2,0:3:0:0:
