osu file format v14

[General]
AudioFilename: audio.mp3
AudioLeadIn: 0
PreviewTime: -1
Countdown: 0
SampleSet: Soft
StackLeniency: 0.7
Mode: 0
LetterboxInBreaks: 0
WidescreenStoryboard: 0

[Editor]
Bookmarks: 34380,41237,42094,48094,48952,54952,55809,61809,62666,68666,69523,75523,76380,82380,83237,89237,93523,93952,95237,95452,107237,107666,108952,116666,130380,138952,144094,150952,151809,157809,158666,164666,165523,171523,172380,178380,179237,185237,186094,192094,192952,198952,226380,239880,250380,257237
DistanceSpacing: 1.4
BeatDivisor: 3
GridSize: 4
TimelineZoom: 2.3

[Metadata]
Title:Stargazer
TitleUnicode:Stargazer
Artist:Aether
ArtistUnicode:Aether
Creator:dahammer88
Version:Insane
Source:
Tags:Aether, Stargazer, Dahammer88, Edm, chillstep,
BeatmapID:1687434
BeatmapSetID:803894

[Difficulty]
HPDrainRate:5
CircleSize:4
OverallDifficulty:7.5
ApproachRate:9
SliderMultiplier:1.8
SliderTickRate:1

[Events]
//Background and Video events
0,0,"856363.jpg",0,0
//Break Periods
//Storyboard Layer 0 (Background)
//Storyboard Layer 1 (Fail)
//Storyboard Layer 2 (Pass)
//Storyboard Layer 3 (Foreground)
//Storyboard Sound Samples

[TimingPoints]
1801,428.571428571429,4,1,0,10,1,0
6940,-133.333333333333,4,2,0,20,0,0
34372,-66.6666666666667,4,2,0,60,0,1
41229,-500,4,2,0,20,0,0
42086,-66.6666666666667,4,2,0,60,0,1
48086,-500,4,2,0,20,0,0
48943,-66.6666666666667,4,2,0,60,0,1
54943,-500,4,2,0,20,0,0
55801,-66.6666666666667,4,2,0,60,0,1
61801,-500,4,2,0,20,0,0
62658,-66.6666666666667,4,2,0,60,0,1
68658,-500,4,2,0,20,0,0
69515,-66.6666666666667,4,2,0,60,0,1
75515,-500,4,2,0,20,0,0
76372,-66.6666666666667,4,2,0,60,0,1
82372,-500,4,2,0,20,0,0
83229,-66.6666666666667,4,2,0,60,0,1
87944,-133.333333333333,4,2,0,60,0,1
89229,-250,4,2,0,25,0,0
90086,-133.333333333333,4,2,0,25,0,0
116658,-250,4,2,0,25,0,0
117515,-100,4,2,0,20,0,0
123515,-250,4,2,0,20,0,0
124372,-100,4,2,0,20,0,0
126944,-500,4,2,0,20,0,0
130372,-250,4,2,0,20,0,0
131229,-100,4,2,0,20,0,0
144086,-166.666666666667,4,2,0,20,0,0
144943,-66.6666666666667,4,2,0,60,0,1
150943,-500,4,2,0,20,0,0
151801,-66.6666666666667,4,2,0,60,0,1
157801,-500,4,2,0,20,0,0
158658,-66.6666666666667,4,2,0,60,0,1
164658,-500,4,2,0,20,0,0
165515,-66.6666666666667,4,2,0,60,0,1
171515,-500,4,2,0,20,0,0
172372,-66.6666666666667,4,2,0,60,0,1
175801,-83.3333333333333,4,2,0,60,0,1
176658,-104.166666666667,4,2,0,60,0,1
177515,-104.166666666667,4,2,0,60,0,1
178372,-500,4,2,0,20,0,0
179229,-66.6666666666667,4,2,0,60,0,1
183515,-83.3333333333333,4,2,0,60,0,1
184372,-133.333333333333,4,2,0,60,0,1
185229,-1000,4,2,0,20,0,0
186086,-66.6666666666667,4,2,0,60,0,1
188658,-83.3333333333333,4,2,0,60,0,1
192086,-500,4,2,0,20,0,0
192943,-66.6666666666667,4,2,0,60,0,1
197658,-133.333333333333,4,2,0,62,0,1
198943,-133.333333333333,4,2,0,20,0,0
226372,-200,4,2,0,20,0,0
227229,-133.333333333333,4,2,0,20,0,0
233229,-200,4,2,0,20,0,0
234086,-133.333333333333,4,2,0,20,0,0
236658,-500,4,2,0,20,0,0
240086,-200,4,2,0,20,0,0
250372,-400,4,2,0,20,0,0

[HitObjects]
256,192,1801,12,0,6515,0:0:0:0:
113,233,6944,6,0,L|119:306,1,67.5000025749208
209,358,7372,2,0,L|203:290,1,67.5000025749208
297,210,7801,2,0,P|345:226|369:260,1,67.5000025749208
457,333,8229,2,0,P|477:306|484:273,1,67.5000025749208
459,143,8658,2,0,L|428:76,1,67.5000025749208
308,54,9086,2,0,L|335:115,1,67.5000025749208
285,268,9515,5,0,0:0:0:0:
203,186,9729,1,0,0:0:0:0:
319,189,9944,1,0,0:0:0:0:
407,270,10158,1,0,0:0:0:0:
300,347,10372,6,0,L|227:353,1,67.5000025749208
102,374,10801,2,0,P|82:347|75:314,1,67.5000025749208
33,192,11229,2,0,P|46:161|71:138,1,67.5000025749208
106,37,11658,2,0,P|136:49|159:74,1,67.5000025749208
205,186,12086,2,0,L|211:259,1,67.5000025749208
316,317,12515,2,0,L|311:249,1,67.5000025749208
302,145,12944,5,0,0:0:0:0:
159,74,13158,1,0,0:0:0:0:
265,29,13372,1,0,0:0:0:0:
205,186,13586,1,0,0:0:0:0:
141,302,13801,6,0,P|151:336|178:355,1,67.5000025749208
295,350,14229,2,0,L|362:355,1,67.5000025749208
473,263,14658,2,0,L|405:257,1,67.5000025749208
272,251,15086,2,0,P|246:228|234:197,1,67.5000025749208
346,102,15515,5,0,0:0:0:0:
462,169,15730,1,0,0:0:0:0:
462,34,15944,1,0,0:0:0:0:
413,120,16158,1,0,0:0:0:0:
362,208,16372,1,0,0:0:0:0:
478,275,16587,1,0,0:0:0:0:
478,140,16801,1,0,0:0:0:0:
429,226,17015,1,0,0:0:0:0:
371,314,17229,6,0,P|339:324|306:320,1,67.5000025749208,0|0,0:3|0:3,0:3:0:0:
205,236,17658,2,0,P|236:225|269:229,1,67.5000025749208,0|0,0:3|0:3,0:3:0:0:
145,343,18086,2,0,L|93:299,1,67.5000025749208
82,158,18515,2,0,L|133:201,1,67.5000025749208
266,179,18944,2,0,P|299:177|328:161,1,67.5000025749208,0|0,0:3|0:3,0:3:0:0:
235,65,19372,2,0,P|201:66|172:82,1,67.5000025749208,0|0,0:3|0:3,0:3:0:0:
128,210,19801,5,0,0:0:0:0:
212,315,20015,1,0,0:0:0:0:
343,345,20229,1,0,0:0:0:0:
467,291,20444,1,0,0:0:0:0:
362,205,20658,6,0,L|294:211,1,67.5000025749208
166,170,21086,2,0,L|233:163,1,67.5000025749208
350,95,21515,2,0,L|282:101,1,67.5000025749208
153,60,21944,2,0,L|220:53,1,67.5000025749208
353,45,22372,2,0,P|387:45|417:61,1,67.5000025749208,0|0,0:3|0:3,0:3:0:0:
461,189,22801,2,0,P|443:217|415:235,1,67.5000025749208,0|0,0:3|0:3,0:3:0:0:
334,127,23229,5,0,0:0:0:0:
278,220,23444,1,0,0:0:0:0:
240,148,23658,1,0,0:0:0:0:
211,194,23872,1,0,0:0:0:0:
187,145,24086,1,0,0:0:0:0:
145,215,24301,1,0,0:0:0:0:
98,117,24515,1,0,0:0:0:0:
47,241,24729,1,0,0:0:0:0:
130,347,24944,6,0,L|197:340,1,67.5000025749208
241,242,25372,2,0,L|308:248,1,67.5000025749208
381,327,25801,2,0,P|409:309|426:280,1,67.5000025749208,0|0,0:3|0:3,0:3:0:0:
464,165,26229,2,0,P|446:136|417:119,1,67.5000025749208,0|0,0:3|0:3,0:3:0:0:
310,36,26658,5,0,0:0:0:0:
268,164,26872,1,0,0:0:0:0:
314,290,27086,1,0,0:0:0:0:
217,194,27301,1,0,0:0:0:0:
82,190,27515,6,0,P|74:157|82:124,1,67.5000025749208,0|0,0:3|0:3,0:3:0:0:
185,36,27944,2,0,P|192:68|184:101,1,67.5000025749208,0|0,0:3|0:3,0:3:0:0:
114,226,28372,6,0,P|85:225|89:254,1,67.5000025749208
342,354,28801,2,0,P|370:348|359:320,1,67.5000025749208
225,73,29229,2,0,P|199:56|187:84,1,67.5000025749208
414,166,29658,2,0,P|442:177|426:203,1,67.5000025749208
112,270,30086,2,0,P|84:281|100:306,1,67.5000025749208
342,354,30515,2,0,P|370:348|359:320,1,67.5000025749208
303,131,30944,5,0,0:0:0:0:
187,198,31159,1,0,0:0:0:0:
187,63,31373,1,0,0:0:0:0:
236,149,31587,1,0,0:0:0:0:
287,237,31801,1,0,0:0:0:0:
171,304,32016,1,0,0:0:0:0:
171,169,32230,1,0,0:0:0:0:
220,255,32444,1,0,0:0:0:0:
271,339,32658,6,0,P|303:346|336:338,1,67.5000025749208,0|0,0:3|0:3,0:3:0:0:
456,227,33086,2,0,P|423:219|390:227,1,67.5000025749208,0|0,0:3|0:3,0:3:0:0:
282,198,33515,5,0,0:0:0:0:
193,259,33729,1,0,0:0:0:0:
271,184,33944,1,0,0:0:0:0:
284,76,34158,1,0,0:0:0:0:
395,28,34372,5,0,0:0:0:0:
428,60,34479,1,0,0:0:0:0:
459,95,34586,1,0,0:0:0:0:
378,170,34801,1,0,0:0:0:0:
411,202,34908,1,0,0:0:0:0:
442,237,35015,1,0,0:0:0:0:
375,331,35229,6,0,B|322:264|248:260|248:260|236:209,1,202.500007724762
340,235,35658,2,0,B|265:192|195:216|195:216|165:173,1,202.500007724762
266,162,36086,2,0,B|181:150|125:199|125:199|81:170,1,202.500007724762,0|0,0:3|0:3,0:3:0:0:
174,117,36515,2,0,B|91:138|57:204|57:204|6:193,1,202.500007724762,0|0,0:3|0:3,0:3:0:0:
188,279,36944,6,0,P|176:355|233:302,1,202.500007724762
396,207,37372,2,0,P|468:179|394:156,1,202.500007724762
314,45,37801,5,0,0:0:0:0:
194,229,38015,1,0,0:0:0:0:
106,61,38229,1,0,0:0:0:0:
301,193,38443,1,0,0:0:0:0:
82,285,38658,5,0,0:0:0:0:
203,54,38872,1,0,0:0:0:0:
208,232,39086,1,0,0:0:0:0:
329,41,39301,1,0,0:0:0:0:
450,178,39515,6,0,P|454:243|412:293,1,135.000005149842
271,161,39944,2,0,P|313:211|378:218,1,135.000005149842,8|0,0:0|0:0,0:0:0:0:
398,23,40372,2,0,P|381:60|343:163,1,135.000005149842
266,308,40801,2,0,L|118:278,1,135.000005149842
255,203,41229,6,0,P|226:190|217:167,1,54
310,80,42086,6,0,P|349:33|396:72,1,135.000005149842
444,279,42515,1,0,0:0:0:0:
321,187,42729,1,0,0:0:0:0:
298,335,42944,6,0,P|204:367|110:335,1,202.500007724762
220,315,43372,2,0,P|120:310|45:245,1,202.500007724762
149,270,43801,2,0,P|58:228|13:139,1,202.500007724762
106,201,44229,2,0,P|37:128|29:29,1,202.500007724762
204,92,44658,6,0,B|312:95|405:41|405:41|384:145|419:236,1,405.000015449525
302,340,45515,5,0,0:0:0:0:
129,175,45729,1,0,0:0:0:0:
167,302,45944,1,0,0:0:0:0:
330,138,46158,1,0,0:0:0:0:
217,72,46372,6,0,P|169:33|130:79,1,135.000005149842
264,304,46801,2,0,P|321:282|300:225,1,135.000005149842
331,66,47229,2,0,P|383:35|415:88,1,135.000005149842
404,290,47658,1,0,0:0:0:0:
181,88,47872,1,0,0:0:0:0:
201,228,48086,6,0,L|247:192,1,54
272,35,48944,6,0,B|339:76|345:166|345:166|381:194,1,202.500007724762
350,71,49372,2,0,B|386:164|368:219|368:219|396:266,1,202.500007724762
402,137,49801,2,0,B|400:237|363:281|363:281|370:331,1,202.500007724762
425,216,50229,2,0,B|386:308|335:335|335:335|323:384,1,202.500007724762
220,310,50658,6,0,P|144:324|194:264,1,202.500007724762
398,173,51086,2,0,P|473:155|425:216,1,202.500007724762
295,137,51515,5,0,0:0:0:0:
220,310,51729,1,0,0:0:0:0:
190,152,51944,1,0,0:0:0:0:
331,295,52158,1,0,0:0:0:0:
121,199,52372,5,0,0:0:0:0:
295,137,52586,1,0,0:0:0:0:
220,310,52801,1,0,0:0:0:0:
194,73,53015,1,0,0:0:0:0:
56,145,53229,6,8,P|39:210|66:270,1,135.000005149842
164,261,53658,2,8,P|197:317|258:341,1,135.000005149842
355,274,54086,2,0,P|415:272|415:211,1,135.000005149842
382,88,54515,2,0,L|250:57,1,135.000005149842
161,172,54944,6,0,P|173:195|198:204,1,54
354,101,55801,6,0,P|409:72|443:124,1,135.000005149842
267,218,56229,1,0,0:0:0:0:
442,328,56444,1,0,0:0:0:0:
444,125,56658,6,0,P|387:44|292:16,1,202.500007724762
410,221,57086,2,0,P|425:122|376:36,1,202.500007724762
317,261,57515,2,0,P|396:201|421:104,1,202.500007724762
220,229,57943,2,0,P|318:241|403:188,1,202.500007724762
270,93,58372,6,0,B|162:96|69:42|69:42|90:146|55:237,1,405.000015449525
202,198,59229,5,0,0:0:0:0:
137,327,59444,1,0,0:0:0:0:
364,197,59658,1,0,0:0:0:0:
304,328,59872,1,0,0:0:0:0:
188,170,60086,6,0,P|140:131|101:177,1,135.000005149842
321,110,60515,2,0,P|346:53|291:27,1,135.000005149842
321,274,60944,2,0,P|346:330|291:356,1,135.000005149842
141,241,61372,1,0,0:0:0:0:
336,114,61586,1,0,0:0:0:0:
264,211,61801,6,0,L|233:166,1,54
90,83,62658,5,0,0:0:0:0:
56,263,62872,1,0,0:0:0:0:
202,27,63086,1,0,0:0:0:0:
183,187,63300,1,0,0:0:0:0:
19,163,63515,5,0,0:0:0:0:
266,95,63729,1,0,0:0:0:0:
175,295,63944,1,0,0:0:0:0:
84,42,64158,1,0,0:0:0:0:
276,179,64372,5,0,0:0:0:0:
74,203,64586,1,0,0:0:0:0:
232,115,64801,1,0,0:0:0:0:
68,340,65015,1,0,0:0:0:0:
74,203,65229,6,0,P|161:68|393:60,1,405.000015449525
299,106,66086,2,0,P|152:199|257:362,1,405.000015449525
431,205,66944,5,0,0:0:0:0:
299,106,67158,1,0,0:0:0:0:
486,136,67372,1,0,0:0:0:0:
355,36,67586,1,0,0:0:0:0:
94,42,67801,5,0,0:0:0:0:
241,163,68015,1,0,0:0:0:0:
38,138,68229,1,0,0:0:0:0:
201,33,68444,1,0,0:0:0:0:
201,175,68658,6,0,P|232:179|241:159,1,54
362,84,69515,6,0,L|441:204,1,135.000005149842
208,42,69944,1,0,0:0:0:0:
208,42,70051,1,0,0:0:0:0:
208,42,70158,2,0,L|287:162,1,135.000005149842
220,301,70586,5,0,0:0:0:0:
220,301,70693,1,0,0:0:0:0:
220,301,70801,2,0,L|145:188,1,135.000005149842
395,327,71229,2,0,L|320:214,1,135.000005149842
388,58,71658,1,0,0:0:0:0:
475,197,71872,1,0,0:0:0:0:
233,97,72086,6,0,B|106:46|106:46|160:172|10:286,1,405.000015449525
34,358,72943,2,0,B|149:298|192:165|192:165|208:239|292:266,1,405.000015449525
436,289,73801,6,0,P|485:234|476:170,1,135.000005149842
390,212,74229,2,0,P|385:139|334:100,1,135.000005149842
139,141,74658,1,0,0:0:0:0:
91,93,74872,1,0,0:0:0:0:
139,45,75086,1,0,0:0:0:0:
186,93,75301,1,0,0:0:0:0:
307,194,75515,6,0,P|331:182|358:184,1,54
355,102,76372,6,0,B|270:114|230:176|230:176|179:161,1,202.500007724762
254,84,76801,2,0,B|179:127|165:200|165:200|112:204,1,202.500007724762
154,111,77229,2,0,B|101:178|115:251|115:251|68:275,1,202.500007724762,0|0,0:3|0:3,0:3:0:0:
69,169,77658,2,0,B|45:251|85:313|85:313|50:352,1,202.500007724762,0|0,0:3|0:3,0:3:0:0:
219,251,78087,6,0,P|207:175|264:228,1,202.500007724762
405,256,78515,2,0,P|477:284|403:307,1,202.500007724762
286,302,78944,5,0,0:0:0:0:
123,164,79158,1,0,0:0:0:0:
122,337,79372,1,0,0:0:0:0:
244,151,79586,1,0,0:0:0:0:
306,233,79801,5,0,0:0:0:0:
139,93,80015,1,0,0:0:0:0:
142,268,80229,1,0,0:0:0:0:
264,82,80443,1,0,0:0:0:0:
419,66,80658,6,0,P|464:112|443:173,1,135.000005149842
243,205,81086,2,0,P|307:205|334:263,1,135.000005149842
79,252,81515,2,0,L|173:369,1,135.000005149842
185,51,81944,2,0,L|167:191,1,135.000005149842
281,228,82372,6,0,L|297:173,1,54
386,48,83229,6,0,P|452:108|432:165,1,135.000005149842
425,301,83658,1,0,0:0:0:0:
281,228,83872,1,0,0:0:0:0:
247,133,84086,6,0,P|168:184|200:272,1,202.500007724762
240,210,84515,6,0,P|147:228|144:322,1,202.500007724762
200,272,84944,6,0,P|107:254|69:340,1,202.500007724762
145,323,85373,6,0,P|66:272|-1:337,1,202.500007724762
9,160,85801,5,0,0:0:0:0:
122,27,86015,1,0,0:0:0:0:
223,161,86229,2,0,P|280:127|298:63,1,135.000005149842
359,180,86658,2,0,P|341:243|284:277,1,135.000005149842
434,253,87086,2,0,P|491:219|509:156,1,135.000005149842
269,131,87515,5,0,0:0:0:0:
442,75,87729,1,0,0:0:0:0:
254,39,87944,2,0,P|192:52|186:91,1,101.250003862381
116,153,88372,6,0,L|77:161,1,33.7500012874604
168,224,88586,2,0,L|202:246,1,33.7500012874604
82,250,88801,2,0,L|43:258,1,33.7500012874604
134,321,89015,2,0,L|168:343,1,33.7500012874604
293,332,89229,6,0,P|361:291|373:254,1,108
398,171,90086,2,0,P|417:143|415:110,1,67.5000025749208
297,28,90515,2,0,P|294:61|312:88,1,67.5000025749208
401,210,90944,2,0,P|403:243|385:270,1,67.5000025749208
228,362,91372,2,0,P|202:340|196:307,1,67.5000025749208
244,147,91801,2,0,L|234:54,1,67.5000025749208
160,14,92229,2,0,L|167:81,1,67.5000025749208
64,174,92658,6,0,B|70:340|246:303|246:303|256:224|344:212|344:212|363:274,1,472.500018024445
443,341,94372,2,0,B|512:185|448:74|448:74|401:122|401:122|325:100|288:41,1,472.500018024445
170,69,96086,5,0,0:0:0:0:
97,195,96301,1,0,0:0:0:0:
119,55,96515,1,0,0:0:0:0:
146,212,96729,1,0,0:0:0:0:
269,345,96944,6,0,P|299:348|298:319,1,67.5000025749208
94,279,97372,2,0,P|64:281|67:251,1,67.5000025749208
181,51,97801,2,0,P|210:49|207:79,1,67.5000025749208
21,125,98229,2,0,P|-2:143|20:164,1,67.5000025749208
177,303,98658,2,0,B|219:291|219:291|230:257,1,67.5000025749208
280,77,99086,2,0,B|287:54|287:54|329:42,1,67.5000025749208
431,119,99515,6,0,P|504:180|422:252,1,202.500007724762
285,314,100372,2,0,L|305:228,1,67.5000025749208
236,137,100801,2,0,L|220:202,1,67.5000025749208
146,274,101229,2,0,P|70:303|91:223,1,202.500007724762
283,115,102086,2,0,P|304:35|227:64,1,202.500007724762
156,195,102944,5,0,0:0:0:0:
99,337,103158,1,0,0:0:0:0:
57,238,103372,1,0,0:0:0:0:
198,295,103586,1,0,0:0:0:0:
391,290,103801,6,0,P|423:280|443:254,1,67.5000025749208
405,115,104230,2,0,P|381:138|377:170,1,67.5000025749208
221,302,104659,2,0,P|201:328|170:337,1,67.5000025749208
61,191,105087,2,0,P|35:169|29:136,1,67.5000025749208
273,56,105515,2,0,L|340:49,1,67.5000025749208
275,125,105944,2,0,L|207:132,1,67.5000025749208
54,315,106372,6,0,B|179:215|291:335|291:335|346:210|346:210|382:257|426:218,1,472.500018024445
412,115,108086,2,0,B|323:25|170:44|170:44|217:162|129:244,1,472.500018024445
36,205,109801,5,0,0:0:0:0:
190,163,110015,1,0,0:0:0:0:
44,123,110229,1,0,0:0:0:0:
149,313,110444,1,0,0:0:0:0:
349,318,110658,6,0,P|379:321|378:292,1,67.5000025749208
312,64,111086,2,0,P|293:41|274:64,1,67.5000025749208
177,303,111515,2,0,P|148:305|151:275,1,67.5000025749208
21,125,111943,2,0,P|-2:143|20:164,1,67.5000025749208
292,234,112372,2,0,B|334:222|334:222|345:188,1,67.5000025749208
184,159,112800,2,0,B|142:171|142:171|135:194,1,67.5000025749208
256,192,113229,12,0,116229,0:0:0:0:
110,112,116658,6,0,P|144:69|186:99,1,108
333,49,117515,6,0,P|297:105|309:170,1,135
362,119,117944,2,0,P|303:150|281:212,1,135
350,196,118372,2,0,P|284:193|233:235,1,135
302,256,118801,2,0,P|246:220|181:232,1,135
232,285,119230,2,0,B|204:225|204:225|139:204,1,135
155,273,119658,2,0,B|163:207|163:207|116:156,1,135
194,43,120086,6,0,L|255:109,1,90
318,43,120515,2,0,L|256:109,1,90
194,100,120944,2,0,L|255:166,1,90
318,100,121372,2,0,L|256:166,1,90
194,284,121801,6,0,L|255:217,1,90
318,284,122230,2,0,L|256:217,1,90
194,341,122659,2,0,L|255:274,1,90
318,341,123087,2,0,L|256:274,1,90
122,277,123515,6,0,P|80:249|100:204,1,108
190,59,124372,6,0,P|246:95|311:83,1,135
260,30,124801,2,0,P|291:89|353:111,1,135
337,42,125229,2,0,P|334:108|376:159,1,135
397,90,125658,2,0,P|361:146|373:211,1,135
428,157,126086,2,0,L|313:237,1,135
424,232,126515,2,0,L|284:243,1,135
249,332,126944,6,0,B|154:324|171:263|171:263|188:199|87:193,1,252
196,61,130372,2,0,P|241:80|268:39,1,108
491,110,131229,6,0,P|424:106|374:149,1,135
258,141,131658,2,0,P|324:137|374:180,1,135
491,171,132086,2,0,P|424:167|374:210,1,135
258,202,132515,2,0,P|324:198|374:241,1,135
478,273,132944,2,0,P|431:230|377:262,1,135
268,304,133373,2,0,P|315:260|370:291,1,135
172,297,133801,6,0,L|163:202,1,90
99,211,134229,2,0,L|90:116,1,90
219,10,134658,2,0,L|226:99,1,90
292,96,135086,2,0,L|299:185,1,90
202,235,135515,6,0,P|164:251|150:213,1,90
209,290,135944,2,0,P|171:305|157:267,1,90
389,158,136372,2,0,P|404:195|366:209,1,90
442,151,136801,2,0,P|457:188|419:202,1,90
308,67,137229,2,0,P|249:70|196:97,2,120
219,196,138086,2,0,P|168:228|136:278,2,120
295,286,138944,6,0,L|269:340,2,60
435,262,139372,2,0,L|409:316,2,60
383,171,139801,5,0,0:0:0:0:
363,58,139944,1,0,0:0:0:0:
470,97,140086,1,0,0:0:0:0:
340,120,140229,5,0,0:0:0:0:
428,46,140372,1,0,0:0:0:0:
447,159,140515,1,0,0:0:0:0:
252,47,141515,5,0,0:0:0:0:
406,107,142372,5,0,0:0:0:0:
464,162,144086,6,0,L|468:206,2,35.9999989013672
381,253,144515,2,0,L|385:303,2,35.9999989013672
115,300,144944,5,0,0:0:0:0:
115,300,145086,2,0,L|128:210,1,90.0000034332277
285,49,145372,1,0,0:0:0:0:
285,49,145515,2,0,L|271:138,1,90.0000034332277
63,262,145801,5,0,0:0:0:0:
63,262,145944,2,0,L|76:172,1,90.0000034332277
341,84,146229,1,0,0:0:0:0:
341,84,146372,2,0,L|327:173,1,90.0000034332277
192,151,146658,5,0,0:0:0:0:
111,104,146801,1,0,0:0:0:0:
192,57,146944,1,0,0:0:0:0:
140,148,147086,1,0,0:0:0:0:
138,57,147229,1,0,0:0:0:0:
219,104,147372,1,0,0:0:0:0:
422,108,147515,6,0,L|341:184,2,90.0000034332277
258,348,147944,2,0,L|196:282,2,90.0000034332277
356,169,148372,2,0,L|422:108,2,90.0000034332277
196,282,148801,2,0,L|258:348,2,90.0000034332277
131,227,149229,6,0,B|95:139|95:139|170:82,1,180.000006866455
260,44,149658,2,0,B|354:73|354:73|429:14,1,180.000006866455
454,155,150086,1,0,0:0:0:0:
408,188,150229,1,0,0:0:0:0:
454,222,150372,1,0,0:0:0:0:
285,290,150515,2,0,B|208:331|208:331|141:267,1,180.000006866455
246,131,150944,6,0,P|271:139|284:163,1,54
382,289,151801,5,0,0:0:0:0:
382,289,151944,2,0,L|313:211,1,90.0000034332277
297,115,152229,1,0,0:0:0:0:
297,115,152372,2,0,L|386:62,1,90.0000034332277
410,237,152658,1,0,0:0:0:0:
410,237,152801,2,0,L|341:159,1,90.0000034332277
269,63,153086,1,0,0:0:0:0:
269,63,153229,2,0,L|358:10,1,90.0000034332277
301,188,153515,6,0,L|311:278,2,90.0000034332277
431,131,153944,2,0,L|416:42,2,90.0000034332277
301,188,154372,5,0,0:0:0:0:
263,207,154515,1,0,0:0:0:0:
225,230,154658,1,0,0:0:0:0:
91,200,154801,1,0,0:0:0:0:
129,177,154944,1,0,0:0:0:0:
167,158,155086,1,0,0:0:0:0:
371,43,155229,6,0,P|420:35|438:74,1,90.0000034332277
374,193,155515,1,0,0:0:0:0:
473,206,155658,1,0,0:0:0:0:
412,277,155801,2,0,P|401:319|359:327,1,90.0000034332277
205,267,156086,1,0,0:0:0:0:
118,219,156229,1,0,0:0:0:0:
74,303,156372,1,0,0:0:0:0:
117,218,156515,6,0,P|87:188|99:147,1,90.0000034332277
261,84,156801,2,0,L|281:36,2,45.0000017166138
381,195,157229,2,0,P|395:236|438:240,1,90.0000034332277
444,118,157515,1,0,0:0:0:0:
377,199,157658,1,0,0:0:0:0:
236,205,157801,6,0,L|206:157,1,54
347,72,158658,5,0,0:0:0:0:
347,72,158801,2,0,L|428:109,1,90.0000034332277
316,190,159086,1,0,0:0:0:0:
316,190,159229,2,0,L|367:262,1,90.0000034332277
222,275,159515,1,0,0:0:0:0:
222,275,159658,2,0,L|230:363,1,90.0000034332277
97,303,159944,1,0,0:0:0:0:
97,303,160086,2,0,L|119:187,1,90.0000034332277
56,148,160372,5,0,0:0:0:0:
144,130,160515,1,0,0:0:0:0:
232,114,160658,1,0,0:0:0:0:
245,73,160801,1,0,0:0:0:0:
157,87,160943,1,0,0:0:0:0:
69,106,161086,1,0,0:0:0:0:
151,38,161229,6,0,L|168:126,2,90.0000034332277
246,98,161658,2,0,L|227:186,2,90.0000034332277
306,197,162086,2,0,L|254:270,2,90.0000034332277
332,306,162515,2,0,L|256:355,2,90.0000034332277
422,252,162944,6,0,P|461:218|464:169,1,90.0000034332277
325,184,163229,1,0,0:0:0:0:
442,47,163372,1,0,0:0:0:0:
309,63,163515,2,0,P|274:23|223:22,1,90.0000034332277
224,124,163801,2,0,P|189:84|146:82,1,90.0000034332277
66,187,164086,1,0,0:0:0:0:
223,195,164229,1,0,0:0:0:0:
131,290,164372,2,0,L|119:339,2,45.0000017166138
223,195,164658,6,0,P|231:170|255:157,1,54
443,88,165515,5,0,0:0:0:0:
443,88,165658,2,0,L|416:180,1,90.0000034332277
385,289,165944,1,0,0:0:0:0:
385,289,166086,2,0,L|288:340,1,90.0000034332277
346,88,166372,1,0,0:0:0:0:
346,88,166515,2,0,L|319:180,1,90.0000034332277
288,289,166801,1,0,0:0:0:0:
288,289,166943,2,0,L|191:340,1,90.0000034332277
202,119,167229,6,0,L|115:94,2,90.0000034332277
150,256,167658,2,0,L|63:279,2,90.0000034332277
253,164,168086,5,0,0:0:0:0:
341,91,168229,1,0,0:0:0:0:
233,51,168372,1,0,0:0:0:0:
318,152,168515,1,0,0:0:0:0:
298,40,168657,1,0,0:0:0:0:
210,114,168800,1,0,0:0:0:0:
177,220,168944,6,0,L|94:185,2,90.0000034332277
288,293,169372,2,0,L|203:323,2,90.0000034332277
400,174,169801,2,0,P|469:141|415:86,1,180.000006866455
243,64,170229,2,0,P|171:39|173:115,1,180.000006866455
286,283,170658,2,0,P|210:294|230:220,1,180.000006866455
318,162,171086,5,0,0:0:0:0:
318,54,171229,1,0,0:0:0:0:
411,108,171372,1,0,0:0:0:0:
318,162,171515,6,0,L|291:209,1,54
201,305,172372,6,0,P|164:325|137:293,1,90.0000034332277
220,127,172658,2,0,P|232:87|274:91,1,90.0000034332277
451,91,172944,1,0,0:0:0:0:
375,205,173086,1,0,0:0:0:0:
454,332,173229,2,0,P|417:351|390:319,1,90.0000034332277
169,298,173515,2,0,P|205:317|232:285,1,90.0000034332277
375,205,173801,2,0,P|373:163|332:156,1,90.0000034332277
190,198,174086,5,0,0:0:0:0:
95,68,174229,1,0,0:0:0:0:
248,117,174372,1,0,0:0:0:0:
95,167,174515,1,0,0:0:0:0:
190,37,174658,2,0,P|237:23|282:50,1,90.0000034332277
378,44,174944,6,0,P|473:184|381:326,1,360.000013732911
372,70,175801,2,0,P|451:178|369:285,1,287.999991210938
370,95,176658,2,0,P|433:181|368:267,1,230.400005625
307,179,177515,2,0,P|390:178|307:194,1,230.400005625
242,143,178372,6,0,P|222:160|229:184,1,54
211,303,179229,5,0,0:0:0:0:
119,264,179372,1,0,0:0:0:0:
82,171,179515,1,0,0:0:0:0:
204,223,179658,1,0,0:0:0:0:
143,143,179801,1,0,0:0:0:0:
158,44,179944,1,0,0:0:0:0:
276,51,180086,5,0,0:0:0:0:
408,99,180229,1,0,0:0:0:0:
300,189,180372,1,0,0:0:0:0:
355,36,180515,1,0,0:0:0:0:
380,175,180658,1,0,0:0:0:0:
248,127,180801,1,0,0:0:0:0:
192,264,180944,6,0,L|74:294,2,90.0000034332277
306,227,181372,2,0,L|424:257,2,90.0000034332277
176,113,181801,6,0,P|138:48|213:46,1,180.000006866455
336,113,182229,2,0,P|373:48|298:46,1,180.000006866455
157,176,182658,2,0,P|84:195|136:249,1,180.000006866455
355,176,183086,2,0,P|427:195|375:249,1,180.000006866455
220,242,183515,6,0,L|297:102,1,143.999995605469
243,95,183944,2,0,L|173:221,1,143.999995605469
250,321,184372,2,0,P|352:293|397:214,1,180.000006866455
331,149,185229,6,0,L|313:168,1,27
76,117,186086,6,0,P|151:183|251:187,1,202.500007724762
111,223,186515,2,0,P|205:256|299:223,1,202.500007724762
186,304,186943,2,0,P|286:299|360:234,1,202.500007724762
285,356,187372,2,0,P|376:315|420:226,1,202.500007724762
263,169,187801,6,0,P|275:93|218:146,1,202.500007724762
107,256,188229,2,0,P|35:284|109:307,1,202.500007724762
113,71,188658,6,0,P|382:116|234:345,1,647.99998022461
102,191,190158,1,0,0:0:0:0:
108,143,190265,1,0,0:0:0:0:
133,102,190372,2,0,P|347:155|187:307,1,539.999983520508
160,210,191658,2,0,L|211:79,1,107.999996704102
244,169,192086,6,0,L|222:224,1,54
340,333,192944,6,0,P|311:238|347:146,1,202.500007724762
410,302,193373,2,0,P|347:225|346:126,1,202.500007724762
463,250,193802,2,0,P|376:202|338:110,1,202.500007724762
492,181,194229,2,0,P|393:169|323:98,1,202.500007724762
178,57,194658,2,0,P|97:41|135:113,1,202.500007724762
136,295,195086,2,0,P|64:333|79:253,1,202.500007724762
116,108,195515,5,0,0:0:0:0:
151,149,195658,1,0,0:0:0:0:
187,188,195801,1,0,0:0:0:0:
223,223,195944,2,0,P|280:257|298:321,1,135.000005149842
359,204,196373,2,0,P|341:141|284:107,1,135.000005149842
434,131,196801,2,0,P|491:165|509:228,1,135.000005149842
377,337,197229,5,0,0:0:0:0:
323,344,197372,1,0,0:0:0:0:
269,348,197515,1,0,0:0:0:0:
214,358,197659,2,0,P|166:358|145:315,1,101.250003862381
116,231,198087,6,0,L|77:223,1,33.7500012874604
168,160,198301,2,0,L|202:138,1,33.7500012874604
82,134,198516,2,0,L|43:126,1,33.7500012874604
134,63,198730,2,0,L|168:41,1,33.7500012874604
284,57,198944,5,0,0:0:0:0:
386,89,199158,1,0,0:0:0:0:
489,119,199372,1,0,0:0:0:0:
382,138,199586,1,0,0:0:0:0:
315,223,199801,6,0,P|267:236|237:276,1,101.250003862381
272,162,200229,2,0,P|232:192|219:240,1,101.250003862381,0|0,0:3|0:3,0:3:0:0:
207,133,200658,2,0,P|181:175|188:225,1,101.250003862381
133,118,201086,2,0,P|125:167|149:210,1,101.250003862381,0|0,0:3|0:3,0:3:0:0:
33,221,201515,2,0,P|89:220|87:266,1,101.250003862381
48,317,201944,2,0,P|99:295|114:338,1,101.250003862381
218,330,202372,6,0,L|306:320,1,67.5000025749208
268,273,202801,2,0,L|356:263,1,67.5000025749208
323,216,203229,2,0,L|411:206,1,67.5000025749208
373,159,203658,2,0,L|461:149,1,67.5000025749208
258,53,204087,6,0,L|266:121,1,67.5000025749208
315,103,204515,2,0,L|323:171,1,67.5000025749208
372,158,204943,2,0,L|380:226,1,67.5000025749208
429,208,205372,2,0,L|437:276,1,67.5000025749208
374,347,205801,5,0,0:0:0:0:
263,228,206015,1,0,0:0:0:0:
315,336,206229,1,0,0:0:0:0:
200,220,206444,1,0,0:0:0:0:
99,48,206658,6,0,P|152:61|173:118,1,101.250003862381
187,75,207086,2,0,P|239:62|260:5,1,101.250003862381
281,46,207515,2,0,P|324:77|322:138,1,101.250003862381
351,103,207943,2,0,P|404:110|444:65,1,101.250003862381
454,127,208372,2,0,L|441:235,1,101.250003862381
392,194,208801,2,0,L|379:302,1,101.250003862381
288,329,209229,5,0,0:0:0:0:
262,209,209444,1,0,0:0:0:0:
269,330,209658,1,0,0:0:0:0:
244,211,209872,1,0,0:0:0:0:
128,173,210086,5,0,0:0:0:0:
183,64,210301,1,0,0:0:0:0:
105,164,210515,1,0,0:0:0:0:
156,54,210729,1,0,0:0:0:0:
307,47,210944,5,0,0:0:0:0:
424,16,211158,1,0,0:0:0:0:
313,65,211372,1,0,0:0:0:0:
432,31,211586,1,0,0:0:0:0:
404,162,211801,6,0,P|436:166|460:189,1,67.5000025749208
393,277,212229,2,0,P|389:309|366:333,1,67.5000025749208
228,327,212658,5,0,0:0:0:0:
126,295,212872,1,0,0:0:0:0:
23,265,213086,1,0,0:0:0:0:
130,246,213300,1,0,0:0:0:0:
196,160,213515,6,0,P|244:147|274:107,1,101.250003862381
240,222,213943,2,0,P|279:191|292:143,1,101.250003862381,0|0,0:3|0:3,0:3:0:0:
305,251,214372,2,0,P|330:208|323:158,1,101.250003862381
379,266,214800,2,0,P|386:216|362:173,1,101.250003862381,0|0,0:3|0:3,0:3:0:0:
479,163,215229,2,0,P|423:164|425:118,1,101.250003862381
464,67,215658,2,0,P|412:88|397:45,1,101.250003862381
294,54,216086,6,0,L|206:64,1,67.5000025749208
244,111,216515,2,0,L|156:121,1,67.5000025749208
189,168,216943,2,0,L|101:178,1,67.5000025749208
139,225,217372,2,0,L|51:235,1,67.5000025749208
253,330,217800,6,0,L|246:263,1,67.5000025749208
196,280,218229,2,0,L|189:213,1,67.5000025749208
139,225,218657,2,0,L|132:158,1,67.5000025749208
82,175,219086,2,0,L|75:108,1,67.5000025749208
138,37,219515,5,0,0:0:0:0:
249,156,219729,1,0,0:0:0:0:
197,48,219943,1,0,0:0:0:0:
312,164,220158,1,0,0:0:0:0:
412,335,220372,6,0,P|360:323|339:266,1,101.250003862381
325,309,220800,2,0,P|272:321|251:378,1,101.250003862381
231,338,221229,2,0,P|187:306|189:245,1,101.250003862381
161,281,221657,2,0,P|107:273|67:318,1,101.250003862381
58,257,222086,2,0,L|71:149,1,101.250003862381
120,190,222515,2,0,L|133:82,1,101.250003862381
256,192,222944,12,0,225944,0:0:0:0:
349,63,226372,6,0,P|413:72|438:132,1,135
321,213,227229,6,0,P|271:218|241:256,1,101.250003862381
289,170,227658,2,0,P|239:165|209:127,1,101.250003862381
254,213,228086,2,0,P|204:218|174:256,1,101.250003862381
222,170,228515,2,0,P|172:165|142:127,1,101.250003862381
187,213,228944,2,0,P|137:218|144:265,1,101.250003862381
155,170,229373,2,0,P|105:165|112:116,1,101.250003862381
209,42,229801,6,0,L|222:127,1,67.5000025749208
261,82,230229,2,0,L|274:167,1,67.5000025749208
315,120,230658,2,0,L|328:205,1,67.5000025749208
367,160,231086,2,0,L|380:245,1,67.5000025749208
240,351,231515,6,0,L|229:284,1,67.5000025749208
188,311,231943,2,0,L|177:244,1,67.5000025749208
137,269,232372,2,0,L|126:202,1,67.5000025749208
85,229,232800,2,0,L|74:162,1,67.5000025749208
116,66,233229,6,0,P|184:40|249:61,1,135
320,81,234086,6,0,P|362:108|410:99,1,101.250003862381
321,135,234515,2,0,P|344:179|390:195,1,101.250003862381
302,180,234943,2,0,P|299:229|331:267,1,101.250003862381
248,187,235372,2,0,P|221:229|230:277,1,101.250003862381
209,150,235800,2,0,L|122:210,1,101.250003862381
215,98,236229,2,0,L|110:106,1,101.250003862381
245,51,236658,6,0,B|291:24|309:95|309:95|318:158|318:158|338:235|396:206,1,270
436,303,240086,2,0,P|368:340|299:320,1,135
209,264,240944,6,0,P|180:269|175:239,1,67.5
302,216,241372,2,0,P|331:221|336:191,1,67.5
209,165,241801,2,0,P|179:170|174:140,1,67.5
302,117,242229,2,0,P|331:122|336:92,1,67.5
186,49,242658,2,0,P|153:43|124:60,1,67.5
91,24,243086,2,0,P|64:43|55:75,1,67.5
57,205,243515,6,0,L|66:266,1,45
148,139,243944,2,0,L|157:200,1,45
229,247,244372,2,0,L|238:308,1,45
314,170,244801,2,0,L|323:231,1,45
412,269,245229,6,0,P|412:246|422:227,1,45
372,186,245658,2,0,P|362:165|365:143,1,45
305,130,246086,2,0,P|289:113|285:91,1,45
218,98,246515,2,0,P|198:86|186:68,1,45
116,163,246944,6,0,P|191:169|221:236,1,135
25,332,247801,6,0,L|108:349,1,67.5
99,280,248229,2,0,L|182:297,1,67.5
182,363,248658,2,0,L|265:380,1,67.5
271,313,249086,2,0,L|354:330,1,67.5
406,244,249515,2,0,B|413:202|429:158|429:158|396:173|358:164,1,157.5
247,255,250372,6,0,B|194:199|194:199|118:210|118:210|156:146|156:146|118:75|118:75|195:89|195:89|248:33|248:33|258:112|258:112|326:141|326:141|259:176|259:176|253:211,1,720
