osu file format v14

[General]
AudioFilename: audio.mp3
AudioLeadIn: 0
PreviewTime: 361518
Countdown: 0
SampleSet: Drum
StackLeniency: 0.7
Mode: 0
LetterboxInBreaks: 0
WidescreenStoryboard: 0

[Editor]
Bookmarks: 27518,41232,54947,55232,55518,55804,56089,56375,56661,56947,57232,57518,57804,58089,58375,58661,58947,59232,59518,59804,60089,60375,60661,60947,61232,61518,61804,62089,62375,62661,62947,63232,63518,63804,64089,64375,64661,64947,65232,65518,65804,66089,66375,66661,66947,67232,67518,67804,68089,68375,68661,84089,116661,144089,157803,185232,186946,214375,228089,255518,269232,296661,303518,303803,304089,304375,304661,304946,305232,305518,305803,306089,306375,306661,306946,307232,307518,307803,308089,308375,308661,308946,309232,309518,309803,310375,337803,348089,348375,348661,348946,349232,349518,349803,350089,350375,350661,350946,351232,351518,351803,352089,352375,352661,352946,353232,353518,353803,354089,354375,354661,354946,355232,355518,355803,356089,356375,356661,356946,357232,357518,357803,358089,358375,358661,358946,359232,359518,359803,360089,361803,375518,389232
DistanceSpacing: 0.6
BeatDivisor: 4
GridSize: 8
TimelineZoom: 2.700001

[Metadata]
Title:Elements & Tale of Fire
TitleUnicode:Elements & Tale of Fire
Artist:Aether
ArtistUnicode:Aether
Creator:kerupt
Version:Descendants of Flame
Source:
Tags:symphonic metal rolf pilve aetherial folk metal hiraeth melodeath melodic death metal viking metal winter Wintersun Stratovarius Arion in embers english en
BeatmapID:3131107
BeatmapSetID:1530822

[Difficulty]
HPDrainRate:5
CircleSize:4
OverallDifficulty:9.5
ApproachRate:9.7
SliderMultiplier:1.9
SliderTickRate:1

[Events]
//Background and Video events
0,0,"bg.jpg",0,0
//Break Periods
2,27718,30452
2,31147,33594
2,34575,37309
2,38004,39880
2,55147,68166
2,115004,116166
2,303718,309594
2,348089,360451
//Storyboard Layer 0 (Background)
//Storyboard Layer 1 (Fail)
//Storyboard Layer 2 (Pass)
//Storyboard Layer 3 (Foreground)
//Storyboard Layer 4 (Overlay)
//Storyboard Sound Samples

[TimingPoints]
90,857.142857142857,4,3,1,60,1,0
26947,-66.6666666666667,4,3,1,50,0,0
34375,-62.5,4,3,1,50,0,0
41232,-62.5,4,3,1,60,0,0
54947,-62.5,4,2,1,30,0,0
68661,-62.5,4,3,1,50,0,0
81518,-58.8235294117647,4,3,1,50,0,0
81661,-58.8235294117647,4,3,1,40,0,0
81804,-55.5555555555556,4,3,1,60,0,0
81947,-55.5555555555556,4,3,1,45,0,0
82089,-52.6315789473684,4,3,1,70,0,0
82232,-52.6315789473684,4,3,1,50,0,0
84089,-50,4,3,1,80,0,0
84375,-50,4,3,1,70,0,0
106375,-45.4545454545455,4,3,1,70,0,0
108090,-50,4,3,1,70,0,0
111518,-100,4,3,1,30,0,0
116661,285.714285714286,6,3,1,60,1,0
116661,-100,6,3,1,100,0,1
116732,-100,6,3,1,80,0,1
128661,-83.3333333333333,6,3,1,80,0,1
130375,-100,6,3,1,100,0,1
130446,-100,6,3,1,80,0,1
140661,-83.3333333333333,6,3,1,80,0,1
143232,-83.3333333333333,6,3,1,80,0,1
144089,-100,6,3,1,100,0,0
145803,-100,6,3,1,80,0,0
149232,-222.222222222222,6,3,1,80,0,0
150018,-222.222222222222,6,3,1,5,0,0
150089,-181.818181818182,6,3,1,80,0,0
150875,-181.818181818182,6,3,1,5,0,0
150946,-166.666666666667,6,3,1,80,0,0
156089,-100,6,3,1,80,0,0
156232,-125,6,3,1,70,0,0
157803,-100,6,3,1,100,0,1
157875,-100,6,3,1,80,0,1
170946,-100,6,3,1,70,0,1
171518,-100,6,3,1,100,0,1
171589,-100,6,3,1,80,0,1
181803,-83.3333333333333,6,3,1,80,0,1
184375,-83.3333333333333,6,3,1,80,0,1
185232,-100,6,3,1,80,0,0
186946,-100,6,3,1,80,0,0
188661,-100,6,3,1,60,0,0
190375,-100,6,3,1,80,0,0
192089,-100,6,3,1,60,0,0
193803,-100,6,3,1,80,0,0
196375,-100,6,3,1,70,0,0
197232,-100,6,3,1,80,0,0
202375,-100,6,3,1,60,0,0
204089,-100,6,3,1,80,0,0
205803,-100,6,3,1,60,0,0
207518,-100,6,3,1,80,0,0
210089,-100,6,3,1,70,0,0
210946,-100,6,3,1,80,0,0
213518,-100,6,3,1,70,0,0
214375,-100,6,3,1,100,0,1
214446,-100,6,3,1,80,0,1
215803,-83.3333333333333,6,3,1,80,0,1
216661,-100,6,3,1,80,0,1
216946,-83.3333333333333,6,3,1,80,0,1
217803,-100,6,3,1,80,0,1
219232,-83.3333333333333,6,3,1,80,0,1
220661,-76.9230769230769,6,3,1,80,0,1
221803,-100,6,3,1,80,0,1
222661,-83.3333333333333,6,3,1,80,0,1
223518,-90.9090909090909,6,3,1,80,0,1
223803,-100,6,3,1,80,0,1
226375,-100,6,3,1,70,0,0
228089,-100,6,3,1,80,0,0
229803,-100,6,3,1,60,0,0
231518,-100,6,3,1,80,0,0
234946,-100,6,3,1,80,0,0
237518,-100,6,3,1,70,0,0
238375,-100,6,3,1,80,0,0
245232,-100,6,3,1,80,0,0
248661,-100,6,3,1,80,0,0
252089,-100,6,3,1,80,0,0
252518,-100,6,3,1,70,0,0
252946,-100,6,3,1,80,0,0
255518,-100,6,3,1,80,0,1
265803,-100,6,3,1,80,0,1
267518,-83.3333333333333,6,3,1,80,0,1
268303,-83.3333333333333,6,3,1,80,0,0
268375,-100,6,3,1,80,0,1
268518,-100,6,3,1,80,0,0
268661,-100,6,3,1,80,0,1
268803,-71.4285714285714,6,3,1,80,0,0
268946,-100,6,3,1,80,0,1
269089,-71.4285714285714,6,3,1,80,0,0
269232,-90.9090909090909,6,3,1,100,0,1
269303,-90.9090909090909,6,3,1,90,0,1
279518,-90.9090909090909,6,3,1,80,0,1
282875,-90.9090909090909,6,3,1,70,0,0
282946,-90.9090909090909,6,3,1,100,0,1
283018,-90.9090909090909,6,3,1,90,0,1
296661,-100,6,3,1,100,0,0
296732,-100,6,3,1,60,0,0
303518,-100,6,3,1,30,0,0
310375,-133.333333333333,6,3,1,45,0,0
324089,-133.333333333333,6,3,1,60,0,0
331803,-117.647058823529,6,3,1,60,0,0
337803,-100,6,3,1,70,0,0
346661,-100,6,3,1,40,0,0
346946,-100,6,3,1,20,0,0
347232,-100,6,3,1,10,0,0
347518,-100,6,3,1,5,0,0
360946,-100,6,3,1,60,0,0
361803,-83.3333333333333,6,3,1,100,0,1
361875,-83.3333333333333,6,3,1,90,0,1
375518,-76.9230769230769,6,3,1,80,0,1
376089,-83.3333333333333,6,3,1,80,0,1
388946,-83.3333333333333,6,3,1,80,0,0
389232,-90.9090909090908,6,3,1,80,0,1
389803,-111.111111111111,6,3,1,80,0,1
390089,-111.111111111111,6,3,1,80,0,1
390375,-99.9999999999999,6,3,1,80,0,1
390661,-90.9090909090909,6,3,1,80,0,0
390946,-90.9090909090909,6,3,1,80,0,1
391803,-111.111111111111,6,3,1,80,0,1
392089,-100,6,3,1,80,0,1
392375,-90.9090909090909,6,3,1,80,0,0
392661,-133.333333333333,6,3,1,80,0,1
394089,-133.333333333333,6,3,1,80,0,0
394375,-100,6,3,1,80,0,1
395803,-100,6,3,1,5,0,0

[Colours]
Combo1 : 248,124,142
Combo2 : 255,215,94
Combo3 : 255,150,100
Combo4 : 160,214,245
Combo5 : 78,158,255

[HitObjects]
223,114,26947,53,4,0:0:0:0:
205,258,27232,1,4,0:0:0:0:
339,202,27518,1,4,3:0:0:0:
256,192,30947,53,4,3:0:0:0:
248,317,34089,5,0,3:0:0:0:
384,280,34375,1,4,3:0:0:0:
103,112,37804,53,4,3:0:0:0:
256,192,40375,6,0,L|262:242,1,50.6666666666667
432,377,40661,2,0,L|438:326,1,50.6666666666667,0|0,3:0|3:0,3:0:0:0:
474,191,40947,2,0,L|476:216,3,25.3333333333333
478,242,41232,54,0,B|405:201|320:268|374:318|292:367|205:326,2,304,4|0|0,0:1|2:0|2:0,0:0:0:0:
478,242,43804,5,4,0:0:0:0:
244,174,44090,1,4,0:0:0:0:
442,75,44375,1,4,0:0:0:0:
190,281,44661,54,0,B|129:224|129:224|172:6,2,304,4|0|0,0:0|2:0|2:0,0:0:0:0:
190,281,47233,5,4,0:0:0:0:
321,86,47518,1,4,0:0:0:0:
323,103,47661,1,0,0:0:0:0:
325,121,47804,1,4,0:0:0:0:
42,99,48090,54,0,P|163:68|126:188,2,304,4|0|0,0:0|2:0|2:0,0:0:0:0:
302,370,50661,1,4,0:0:0:0:
224,155,50947,1,4,0:0:0:0:
121,318,51233,1,4,0:0:0:0:
43,236,51518,6,0,B|154:222|154:222|189:250|189:250|335:232,1,304,4|0,0:0|2:0,0:0:0:0:
456,295,53233,53,4,0:0:0:0:
456,295,54090,5,4,0:0:0:0:
211,197,54375,1,0,0:0:0:0:
399,117,54661,1,0,0:0:0:0:
398,132,54947,1,2,2:0:0:0:
30,300,68661,54,0,B|69:277|111:309|95:331|141:358|177:344,1,152,4|0,0:1|0:0,0:0:0:0:
252,237,69232,1,0,0:0:0:0:
252,237,69518,2,0,L|244:300,1,50.6666666666667,4|0,0:0|0:0,0:0:0:0:
126,213,69804,2,0,L|119:162,2,50.6666666666667
65,44,70375,5,4,0:0:0:0:
116,12,70518,1,0,0:0:0:0:
169,28,70661,1,0,0:0:0:0:
206,61,70804,1,0,0:0:0:0:
249,74,70947,1,0,0:0:0:0:
288,65,71089,1,0,0:0:0:0:
322,21,71232,53,4,0:0:0:0:
386,104,71518,1,4,0:0:0:0:
347,202,71804,1,4,0:0:0:0:
463,286,72089,6,0,L|412:279,3,50.6666666666667,4|0|0|0,0:0|0:0|0:0|0:0,0:0:0:0:
313,384,72661,1,0,0:0:0:0:
313,384,72947,2,0,L|424:370,1,101.333333333333
272,269,73375,1,0,0:0:0:0:
272,269,73518,1,0,0:0:0:0:
28,226,73804,54,0,P|70:255|119:251,1,101.333333333333,4|0,0:0|0:0,0:0:0:0:
163,187,74233,1,0,0:0:0:0:
162,177,74375,1,0,0:0:0:0:
47,342,74661,5,4,0:0:0:0:
258,68,74947,1,4,0:0:0:0:
206,55,75090,1,8,0:0:0:0:
155,82,75233,1,4,0:0:0:0:
141,137,75376,1,4,0:0:0:0:
162,177,75518,54,0,B|213:159|239:188|231:199|267:223|318:212,1,152,4|0,0:1|0:0,0:0:0:0:
381,178,76090,1,0,0:0:0:0:
270,21,76375,1,0,0:0:0:0:
165,294,76661,2,0,L|215:287,2,50.6666666666667
381,178,77233,6,0,L|367:289,1,101.333333333333,4|0,0:0|0:0,0:0:0:0:
273,354,77661,1,0,0:0:0:0:
273,354,77804,2,0,L|264:289,1,50.6666666666667
398,371,78090,53,4,0:0:0:0:
181,267,78375,1,4,0:0:0:0:
480,146,78661,1,4,0:0:0:0:
251,68,78947,6,0,P|219:110|228:173,1,101.333333333333,4|0,0:0|0:0,0:0:0:0:
289,233,79375,1,0,0:0:0:0:
289,233,79518,2,0,L|352:225,1,50.6666666666667
314,138,79804,53,0,0:0:0:0:
222,347,80090,2,0,L|272:353,2,50.6666666666667
289,233,80661,6,0,L|416:217,1,101.333333333333,4|0,0:0|0:0,0:0:0:0:
479,144,81090,2,8,L|429:139,1,50.6666666666667,0|0,0:0|0:0,0:0:0:0:
512,248,81375,1,0,0:0:0:0:
416,349,81518,54,0,L|354:340,1,53.8333343601227,4|0,0:0|0:0,0:0:0:0:
225,143,81804,2,0,L|285:134,1,56.9999982604981,4|0,0:0|0:0,0:0:0:0:
142,384,82089,2,0,L|72:375,1,60.1666650600434,4|0,0:0|0:0,0:0:0:0:
48,250,84089,6,0,P|92:206|166:222,1,126.666666666667,6|0,0:1|0:0,0:0:0:0:
234,272,84518,1,8,0:0:0:0:
308,212,84661,2,0,L|300:147,1,63.3333333333333,0|8,0:0|0:0,0:0:0:0:
393,317,84947,54,0,B|326:301|352:369|221:369,1,126.666666666667,6|0,0:0|0:0,0:0:0:0:
159,329,85375,1,8,0:0:0:0:
234,272,85518,1,0,0:0:0:0:
151,240,85661,1,8,0:0:0:0:
224,184,85804,6,0,L|363:167,1,126.666666666667,6|0,0:0|0:0,0:0:0:0:
497,195,86232,1,8,0:0:0:0:
443,132,86375,1,0,0:0:0:0:
408,242,86518,1,8,0:0:0:0:
349,169,86661,2,0,P|338:143|336:108,1,63.3333333333333,6|0,0:0|0:0,0:0:0:0:
463,53,86947,2,0,P|474:79|476:114,1,63.3333333333333,4|0,0:0|0:0,0:0:0:0:
333,183,87232,2,0,P|322:157|320:122,1,63.3333333333333,4|0,0:0|0:0,0:0:0:0:
366,44,87518,53,6,0:1:0:0:
220,7,87804,2,0,L|283:0,2,63.3333333333333,0|8|0,0:0|0:0|0:0,0:0:0:0:
83,112,88375,6,0,B|134:89|177:131|154:145|196:191|259:176,1,190,6|0,0:0|0:0,0:0:0:0:
319,122,88947,1,8,0:0:0:0:
85,197,89232,54,0,L|100:324,1,126.666666666667,6|0,0:0|0:0,0:0:0:0:
166,384,89661,1,8,0:0:0:0:
240,337,89804,2,0,L|247:273,1,63.3333333333333,0|8,0:0|0:0,0:0:0:0:
231,179,90090,5,6,0:0:0:0:
377,246,90375,1,4,0:0:0:0:
99,322,90661,1,4,0:0:0:0:
459,278,90947,54,0,P|424:332|357:331,1,126.666666666667,6|0,0:1|0:0,0:0:0:0:
264,292,91375,2,0,L|271:355,2,63.3333333333333,8|0|8,0:0|0:0|0:0,0:0:0:0:
321,219,91804,5,6,0:0:0:0:
171,254,92090,1,0,0:0:0:0:
177,225,92232,1,8,0:0:0:0:
183,196,92375,1,0,0:0:0:0:
37,315,92661,54,0,B|81:292|115:311|90:331|150:363|190:352,1,126.666666666667,6|0,0:0|0:0,0:0:0:0:
264,292,93090,1,8,0:0:0:0:
171,254,93232,1,0,0:0:0:0:
253,188,93375,1,8,0:0:0:0:
161,169,93518,5,6,0:0:0:0:
256,384,93804,1,4,0:0:0:0:
368,48,94090,1,4,0:0:0:0:
437,288,94375,54,0,P|402:342|335:341,1,126.666666666667,6|0,0:0|0:0,0:0:0:0:
264,292,94804,1,8,0:0:0:0:
264,292,94947,2,0,L|252:201,1,63.3333333333333,0|8,0:0|0:0,0:0:0:0:
305,155,95232,5,6,0:0:0:0:
119,315,95518,1,0,0:0:0:0:
145,309,95661,1,8,0:0:0:0:
171,303,95804,1,0,0:0:0:0:
48,379,96090,54,0,P|21:316|45:257,1,126.666666666667,6|0,0:0|0:0,0:0:0:0:
94,191,96518,1,8,0:0:0:0:
171,303,96661,1,0,0:0:0:0:
164,311,96947,2,0,L|36:295,2,126.666666666667,6|4|6,0:1|0:0|0:0,0:0:0:0:
438,82,97804,6,0,P|476:131|460:205,1,126.666666666667,6|0,0:1|0:0,0:0:0:0:
400,246,98232,1,8,0:0:0:0:
400,246,98375,2,0,L|335:238,1,63.3333333333333,0|8,0:0|0:0,0:0:0:0:
227,129,98661,54,0,B|242:254,1,126.666666666667,6|0,0:0|0:0,0:0:0:0:
225,355,99090,1,8,0:0:0:0:
150,298,99232,1,0,0:0:0:0:
233,266,99375,1,8,0:0:0:0:
88,384,99518,6,0,P|54:338|71:244,1,126.666666666667,6|0,0:0|0:0,0:0:0:0:
87,189,99947,1,8,0:0:0:0:
145,264,100090,1,0,0:0:0:0:
193,167,100232,1,8,0:0:0:0:
116,94,100375,2,0,L|50:102,1,63.3333333333333,6|0,0:0|0:0,0:0:0:0:
145,264,100661,2,0,L|210:273,1,63.3333333333333,4|0,0:0|0:0,0:0:0:0:
353,88,100947,2,0,L|288:97,1,63.3333333333333,4|0,0:0|0:0,0:0:0:0:
193,167,101232,53,6,0:1:0:0:
262,14,101518,2,0,P|225:30|209:52,1,63.3333333333333,0|8,0:0|0:0,0:0:0:0:
65,60,101804,2,0,P|102:76|118:98,1,63.3333333333333,0|8,0:0|0:0,0:0:0:0:
193,167,102090,6,0,B|242:145|280:177|263:190|296:229|361:201,1,126.666666666667,6|0,0:0|0:0,0:0:0:0:
384,148,102518,1,8,0:0:0:0:
384,148,102661,1,0,0:0:0:0:
471,201,102947,54,0,L|455:328,1,126.666666666667,6|0,0:0|0:0,0:0:0:0:
388,383,103375,1,8,0:0:0:0:
326,323,103518,2,0,L|318:259,1,63.3333333333333,0|8,0:0|0:0,0:0:0:0:
388,142,103804,5,6,0:0:0:0:
256,384,104090,1,4,0:0:0:0:
144,80,104375,1,4,0:0:0:0:
48,260,104661,54,0,P|87:307|149:313,1,126.666666666667,6|0,0:1|0:0,0:0:0:0:
246,282,105090,2,0,L|238:345,2,63.3333333333333,8|0|8,0:0|0:0|0:0,0:0:0:0:
183,213,105518,5,6,0:0:0:0:
378,41,105804,1,0,0:0:0:0:
430,28,105947,1,8,0:0:0:0:
481,55,106090,1,0,0:0:0:0:
495,110,106232,1,8,0:0:0:0:
474,150,106375,54,0,B|423:132|397:161|414:169|376:195|292:185,1,139.333337585449,6|0,0:0|0:0,0:0:0:0:
253,48,106804,1,8,0:0:0:0:
345,86,106947,1,0,0:0:0:0:
249,146,107090,1,8,0:0:0:0:
346,186,107232,5,6,0:0:0:0:
253,48,107518,1,4,0:0:0:0:
139,286,107804,1,4,0:0:0:0:
345,85,108090,54,0,P|310:137|249:146,1,126.666666666667,6|0,0:1|0:0,0:0:0:0:
157,115,108518,1,8,0:0:0:0:
104,191,108661,2,0,L|113:254,1,63.3333333333333,0|8,0:0|0:0,0:0:0:0:
157,115,108947,5,6,0:0:0:0:
175,365,109232,2,0,L|112:358,1,63.3333333333333,0|8,0:0|0:0,0:0:0:0:
40,277,109518,2,0,L|102:268,1,63.3333333333333,0|8,0:0|0:0,0:0:0:0:
256,192,109804,54,0,B|231:224|231:224|242:309,1,126.666666666667,6|0,0:0|0:0,0:0:0:0:
342,359,110232,2,0,L|352:279,2,63.3333333333333,8|0|8,0:0|0:0|0:0,0:0:0:0:
430,235,110661,5,6,0:0:0:0:
357,384,110947,1,4,0:0:0:0:
241,171,111232,1,4,0:0:0:0:
294,249,111518,54,0,P|307:239|318:227,5,31.6666666666667,2|0|0|0|0|0,2:0|2:0|2:0|2:0|2:0|2:0,2:0:0:0:
323,118,112375,6,0,P|313:105|301:94,5,31.6666666666667,2|0|0|0|0|0,2:0|2:0|2:0|2:0|2:0|2:0,2:0:0:0:
166,117,113232,54,0,P|176:104|187:94,5,31.6666666666667,2|0|0|0|0|0,2:0|2:0|2:0|2:0|2:0|2:0,2:0:0:0:
193,248,114090,6,0,P|180:238|169:227,5,31.6666666666667,2|0|0|0|0|0,2:0|2:0|2:0|2:0|2:0|2:0,2:0:0:0:
241,171,116661,37,6,0:1:0:0:
241,178,116732,1,0,0:1:0:0:
242,186,116803,1,0,0:1:0:0:
243,194,116875,1,0,0:1:0:0:
244,202,116946,1,2,0:1:0:0:
245,210,117018,1,0,0:1:0:0:
246,218,117089,1,0,0:1:0:0:
247,226,117161,1,0,0:1:0:0:
248,233,117232,1,2,0:1:0:0:
249,241,117303,1,0,0:1:0:0:
250,249,117375,1,0,0:1:0:0:
251,257,117446,1,0,0:1:0:0:
232,290,117518,53,10,3:1:0:0:
194,279,117589,1,0,0:1:0:0:
162,257,117661,1,0,0:1:0:0:
142,223,117732,1,0,0:1:0:0:
135,185,117803,1,0,0:1:0:0:
145,146,117875,1,0,0:1:0:0:
168,114,117946,1,2,0:1:0:0:
202,94,118018,1,0,0:1:0:0:
241,88,118089,1,2,0:1:0:0:
279,99,118161,1,0,0:1:0:0:
310,122,118232,1,0,0:1:0:0:
330,156,118303,1,0,0:1:0:0:
336,195,118375,54,0,P|330:222|303:253,3,47.5,2|0|0|0,0:1|0:1|0:1|0:1,0:1:0:0:
247,188,118661,2,0,P|220:196|180:188,3,47.5,2|0|0|0,0:1|0:1|0:1|0:1,0:1:0:0:
208,107,118946,2,0,P|187:88|174:49,3,47.5,2|0|0|0,0:1|0:1|0:1|0:1,0:1:0:0:
258,32,119232,21,10,0:1:0:0:
286,23,119303,1,0,0:1:0:0:
315,26,119375,1,0,0:1:0:0:
342,39,119446,1,0,0:1:0:0:
363,59,119518,1,2,0:1:0:0:
384,80,119589,1,0,0:1:0:0:
408,97,119661,1,0,0:1:0:0:
437,104,119732,1,0,0:1:0:0:
466,99,119803,2,0,L|471:51,3,47.5,2|0|0|0,0:1|0:1|0:1|0:1,0:1:0:0:
319,238,120089,53,6,3:1:0:0:
319,231,120161,1,0,0:1:0:0:
318,223,120232,1,0,0:1:0:0:
317,215,120303,1,0,0:1:0:0:
316,207,120375,1,2,0:1:0:0:
315,199,120446,1,0,0:1:0:0:
314,191,120518,1,0,0:1:0:0:
313,183,120589,1,0,0:1:0:0:
312,176,120661,1,2,0:1:0:0:
311,168,120732,1,0,0:1:0:0:
310,160,120803,1,0,0:1:0:0:
309,152,120875,1,0,0:1:0:0:
286,112,120946,53,10,3:1:0:0:
314,85,121018,1,0,0:1:0:0:
349,68,121089,1,0,0:1:0:0:
389,68,121161,1,0,0:1:0:0:
425,81,121232,1,0,0:1:0:0:
454,109,121303,1,0,0:1:0:0:
470,145,121375,1,2,0:1:0:0:
470,184,121446,1,0,0:1:0:0:
456,221,121518,1,2,0:1:0:0:
428,248,121589,1,0,0:1:0:0:
392,264,121661,1,0,0:1:0:0:
353,264,121732,1,0,0:1:0:0:
319,238,121803,22,0,L|313:190,3,47.5,2|0|0|0,0:1|0:1|0:1|0:1,0:1:0:0:
248,306,122089,2,0,L|242:353,3,47.5,2|0|0|0,0:1|0:1|0:1|0:1,0:1:0:0:
177,238,122375,2,0,L|171:190,3,47.5,2|0|0|0,0:1|0:1|0:1|0:1,0:1:0:0:
105,306,122661,53,10,0:1:0:0:
79,289,122732,1,0,0:1:0:0:
59,267,122803,1,0,0:1:0:0:
45,241,122875,1,0,0:1:0:0:
37,213,122946,1,2,0:1:0:0:
38,183,123018,1,0,0:1:0:0:
45,154,123089,1,0,0:1:0:0:
59,128,123161,1,0,0:1:0:0:
80,107,123232,2,0,P|104:93|145:93,3,47.5,2|0|0|0,0:1|0:1|0:1|0:1,0:1:0:0:
171,190,123518,53,6,3:1:0:0:
180,190,123589,1,0,0:1:0:0:
193,189,123661,1,0,0:1:0:0:
205,187,123732,1,0,0:1:0:0:
217,186,123803,1,2,0:1:0:0:
229,184,123875,1,0,0:1:0:0:
241,183,123946,1,0,0:1:0:0:
253,181,124018,1,0,0:1:0:0:
264,180,124089,1,2,0:1:0:0:
276,178,124161,1,0,0:1:0:0:
288,177,124232,1,0,0:1:0:0:
300,175,124303,1,0,0:1:0:0:
330,212,124375,21,10,0:1:0:0:
347,163,124446,1,0,0:1:0:0:
344,112,124518,1,0,0:1:0:0:
321,67,124589,1,0,0:1:0:0:
283,33,124661,1,0,0:1:0:0:
234,15,124732,1,0,0:1:0:0:
182,20,124803,1,2,0:1:0:0:
138,45,124875,1,0,0:1:0:0:
106,84,124946,1,2,0:1:0:0:
91,133,125018,1,0,0:1:0:0:
96,184,125089,1,0,0:1:0:0:
121,229,125161,1,0,0:1:0:0:
162,260,125232,53,2,0:1:0:0:
178,238,125303,1,0,0:1:0:0:
201,222,125375,1,0,0:1:0:0:
227,214,125446,1,0,0:1:0:0:
255,215,125518,1,0,0:1:0:0:
281,225,125589,1,0,0:1:0:0:
302,242,125661,1,0,0:1:0:0:
317,265,125732,1,0,0:1:0:0:
324,292,125803,1,2,0:1:0:0:
322,320,125875,1,0,0:1:0:0:
312,345,125946,1,0,0:1:0:0:
294,366,126018,1,0,0:1:0:0:
269,378,126089,54,0,L|214:371,1,47.5,10|0,0:1|0:1,0:1:0:0:
170,267,126232,1,0,0:1:0:0:
170,267,126303,1,0,0:1:0:0:
170,267,126375,2,0,L|224:260,1,47.5,2|0,0:1|0:1,0:1:0:0:
269,156,126518,1,0,0:1:0:0:
269,156,126589,1,0,0:1:0:0:
269,156,126661,2,0,L|214:149,1,47.5,10|0,0:1|0:1,0:1:0:0:
171,45,126803,1,0,0:1:0:0:
171,45,126875,1,0,0:1:0:0:
171,45,126946,22,0,L|226:38,3,47.5,14|0|0|0,0:1|0:1|0:1|0:1,0:1:0:0:
269,156,127232,2,0,L|221:150,3,47.5,2|0|8|0,0:1|0:1|0:1|0:1,0:1:0:0:
312,13,127518,2,0,L|367:6,3,47.5,2|0|0|0,0:1|0:1|0:1|0:1,0:1:0:0:
440,199,127803,53,10,0:1:0:0:
455,188,127875,1,0,0:1:0:0:
467,173,127946,1,0,0:1:0:0:
473,155,128018,1,0,0:1:0:0:
474,136,128089,1,2,0:1:0:0:
469,118,128161,1,0,0:1:0:0:
458,103,128232,1,8,0:1:0:0:
443,91,128303,1,0,0:1:0:0:
425,85,128375,1,2,0:1:0:0:
406,84,128446,1,0,0:1:0:0:
388,90,128518,1,0,0:1:0:0:
372,101,128589,1,0,0:1:0:0:
360,116,128661,54,0,P|353:143|358:171,3,56.9999982604981,14|0|0|0,0:1|0:1|0:1|0:1,0:1:0:0:
291,228,128946,2,0,P|311:247|338:257,3,56.9999982604981,2|0|8|0,0:1|0:1|0:1|0:1,0:1:0:0:
353,346,129232,2,0,P|380:337|401:319,3,56.9999982604981,2|0|0|0,0:1|0:1|0:1|0:1,0:1:0:0:
488,132,129518,21,10,0:1:0:0:
456,128,129589,1,8,0:0:0:0:
424,124,129661,1,8,0:0:0:0:
392,120,129732,1,8,0:0:0:0:
360,116,129803,2,4,L|296:108,3,56.9999982604981,6|4|4|4,0:0|0:0|0:0|0:0,0:0:0:0:
247,273,130089,2,8,L|303:266,3,56.9999982604981,10|8|8|8,0:1|0:1|0:1|0:1,0:1:0:0:
177,137,130375,53,6,0:1:0:0:
174,141,130446,1,0,0:1:0:0:
172,145,130518,1,0,0:1:0:0:
172,150,130589,1,0,0:1:0:0:
176,154,130661,1,2,0:1:0:0:
180,156,130732,1,0,0:1:0:0:
184,156,130803,1,0,0:1:0:0:
189,154,130875,1,0,0:1:0:0:
191,150,130946,1,2,0:1:0:0:
192,145,131018,1,0,0:1:0:0:
190,141,131089,1,0,0:1:0:0:
187,137,131161,1,0,0:1:0:0:
182,136,131232,53,10,0:1:0:0:
195,100,131303,1,0,0:1:0:0:
225,75,131375,1,0,0:1:0:0:
262,61,131446,1,0,0:1:0:0:
302,62,131518,1,0,0:1:0:0:
338,76,131589,1,0,0:1:0:0:
368,102,131661,1,2,0:1:0:0:
386,137,131732,1,0,0:1:0:0:
391,177,131803,1,2,0:1:0:0:
381,215,131875,1,0,0:1:0:0:
359,247,131946,1,0,0:1:0:0:
327,270,132018,1,0,0:1:0:0:
290,280,132089,22,0,P|266:275|246:264,3,47.5,2|0|0|0,0:1|0:1|0:1|0:1,0:1:0:0:
284,148,132375,2,0,P|292:171|292:195,3,47.5,2|0|0|0,0:1|0:1|0:1|0:1,0:1:0:0:
172,218,132661,2,0,P|187:199|208:187,3,47.5,2|0|0|0,0:1|0:1|0:1|0:1,0:1:0:0:
92,340,132946,53,10,0:1:0:0:
90,316,133018,1,0,0:1:0:0:
87,292,133089,1,0,0:1:0:0:
84,269,133161,1,0,0:1:0:0:
81,245,133232,1,2,0:1:0:0:
78,222,133303,1,0,0:1:0:0:
75,198,133375,1,0,0:1:0:0:
72,174,133446,1,0,0:1:0:0:
69,151,133518,2,0,L|62:103,3,47.5,2|0|0|0,0:1|0:1|0:1|0:1,0:1:0:0:
202,84,133803,53,6,0:1:0:0:
199,79,133875,1,0,0:1:0:0:
196,76,133946,1,0,0:1:0:0:
192,73,134018,1,0,0:1:0:0:
187,75,134089,1,2,0:1:0:0:
183,78,134161,1,0,0:1:0:0:
182,81,134232,1,0,0:1:0:0:
181,87,134303,1,0,0:1:0:0:
184,91,134375,1,2,0:1:0:0:
188,94,134446,1,0,0:1:0:0:
192,94,134518,1,0,0:1:0:0:
197,93,134589,1,0,0:1:0:0:
200,88,134661,21,10,3:1:0:0:
186,52,134732,1,0,0:1:0:0:
162,22,134803,1,0,0:1:0:0:
126,5,134875,1,0,0:1:0:0:
87,2,134946,1,0,0:1:0:0:
49,15,135018,1,0,0:1:0:0:
20,41,135089,1,2,0:1:0:0:
3,76,135161,1,0,0:1:0:0:
0,115,135232,1,2,0:1:0:0:
14,152,135303,1,0,0:1:0:0:
40,181,135375,1,0,0:1:0:0:
75,198,135446,1,0,0:1:0:0:
116,188,135518,54,0,L|110:139,3,47.5,2|0|0|0,0:1|0:1|0:1|0:1,0:1:0:0:
190,258,135803,2,0,L|184:305,3,47.5,2|0|0|0,0:1|0:1|0:1|0:1,0:1:0:0:
278,188,136089,2,0,L|272:140,3,47.5,2|0|0|0,0:1|0:1|0:1|0:1,0:1:0:0:
323,18,136375,53,10,0:1:0:0:
351,23,136446,1,0,0:1:0:0:
378,34,136518,1,0,0:1:0:0:
401,54,136589,1,0,0:1:0:0:
420,76,136661,1,2,0:1:0:0:
431,105,136732,1,0,0:1:0:0:
437,134,136803,1,0,0:1:0:0:
433,164,136875,1,0,0:1:0:0:
422,190,136946,2,0,P|408:210|389:224,3,47.5,2|0|0|0,0:1|0:1|0:1|0:1,0:1:0:0:
272,140,137232,21,6,0:1:0:0:
276,126,137303,1,0,0:1:0:0:
286,116,137375,1,0,0:1:0:0:
299,111,137446,1,0,0:1:0:0:
314,114,137518,1,2,0:1:0:0:
325,122,137589,1,0,0:1:0:0:
331,135,137661,1,0,0:1:0:0:
330,150,137732,1,0,0:1:0:0:
323,162,137803,1,2,0:1:0:0:
311,170,137875,1,0,0:1:0:0:
297,171,137946,1,0,0:1:0:0:
283,165,138018,1,0,0:1:0:0:
272,140,138089,53,10,0:1:0:0:
304,174,138161,1,0,0:1:0:0:
322,215,138232,1,0,0:1:0:0:
322,260,138303,1,0,0:1:0:0:
307,301,138375,1,0,0:1:0:0:
274,336,138446,1,0,0:1:0:0:
233,354,138518,1,2,0:1:0:0:
188,350,138589,1,0,0:1:0:0:
146,334,138661,1,2,0:1:0:0:
116,300,138732,1,0,0:1:0:0:
98,258,138803,1,0,0:1:0:0:
100,212,138875,1,0,0:1:0:0:
120,171,138946,53,2,0:1:0:0:
161,163,139018,1,0,0:1:0:0:
198,170,139089,1,0,0:1:0:0:
231,191,139161,1,0,0:1:0:0:
258,217,139232,1,0,0:1:0:0:
287,244,139303,1,0,0:1:0:0:
322,260,139375,1,0,0:1:0:0:
359,265,139446,1,0,0:1:0:0:
397,255,139518,1,2,0:1:0:0:
427,231,139589,1,0,0:1:0:0:
448,198,139661,1,0,0:1:0:0:
456,160,139732,1,0,0:1:0:0:
448,117,139803,22,0,P|436:96|418:80,3,47.5,10|0|0|0,0:1|0:1|0:1|0:1,0:1:0:0:
323,159,140089,2,0,P|346:159|369:151,3,47.5,2|0|0|0,0:1|0:1|0:1|0:1,0:1:0:0:
342,29,140375,2,0,P|330:49|325:72,3,47.5,10|0|0|0,0:1|0:1|0:1|0:1,0:1:0:0:
501,241,140661,54,0,B|477:264|477:264|396:254,1,113.999996520996,14|0,0:1|0:0,0:0:0:0:
191,203,140946,1,2,0:0:0:0:
368,151,141089,1,8,0:1:0:0:
294,368,141232,2,0,P|263:320|269:264,1,113.999996520996,2|0,0:0|0:0,0:0:0:0:
368,151,141518,54,0,L|240:135,1,113.999996520996,14|0,0:1|0:0,0:0:0:0:
61,360,141803,2,0,L|188:344,1,113.999996520996,2|8,0:1|0:1,0:0:0:0:
379,138,142089,2,0,L|251:122,1,113.999996520996,2|0,0:1|0:0,0:0:0:0:
7,177,142375,21,14,0:1:0:0:
191,203,142518,1,0,0:0:0:0:
24,292,142661,1,2,0:0:0:0:
108,124,142803,1,8,0:1:0:0:
142,310,142946,1,2,0:0:0:0:
7,177,143089,1,0,0:0:0:0:
265,124,143232,54,0,P|283:145|292:179,1,56.9999982604981,14|8,0:1|0:0,0:1:0:0:
382,231,143375,1,4,0:0:0:0:
382,231,143446,1,4,0:0:0:0:
382,231,143518,2,0,P|372:257|347:281,1,56.9999982604981,10|8,0:1|0:0,0:1:0:0:
299,372,143661,1,4,0:0:0:0:
299,372,143732,1,4,0:0:0:0:
299,372,143803,2,0,P|276:356|258:325,1,56.9999982604981,10|8,0:1|0:0,0:1:0:0:
142,310,143946,53,10,0:1:0:0:
146,265,144018,1,10,0:1:0:0:
151,220,144089,1,6,3:1:0:0:
84,45,145803,21,6,0:1:0:0:
464,177,146661,1,6,0:1:0:0:
46,300,147518,1,6,0:1:0:0:
144,17,149232,54,0,B|108:52|108:52|120:143|120:143|125:140|125:140|140:232,1,235.124992824555,4|0,0:1|2:1,0:1:0:0:
207,272,150089,2,0,B|276:224|356:286|311:319|390:381|454:349,1,287.375008769989,6|0,0:1|0:0,0:0:0:0:
512,291,150946,53,4,0:1:0:0:
322,58,152661,21,6,3:1:0:0:
254,344,153518,1,6,3:1:0:0:
95,109,154375,1,6,3:1:0:0:
81,248,156089,54,0,B|178:236,1,95,4|0,0:1|0:1,0:1:0:0:
256,192,156375,1,8,0:0:0:0:
257,183,156446,1,8,0:0:0:0:
258,174,156518,2,0,L|262:136,2,38,4|0|0,0:0|0:0|0:0,0:0:0:0:
206,71,156803,1,0,0:0:0:0:
337,277,156946,53,8,0:0:0:0:
323,291,157018,1,8,0:0:0:0:
308,301,157089,1,4,0:0:0:0:
290,307,157161,1,4,0:0:0:0:
271,308,157232,1,4,0:0:0:0:
81,248,157375,1,0,0:1:0:0:
258,174,157518,1,4,3:0:0:0:
185,384,157661,1,0,3:0:0:0:
94,134,157803,22,0,L|149:140,11,47.5,6|0|0|0|2|0|0|0|2|0|0|0,0:1|0:1|0:1|0:1|0:1|0:1|0:1|0:1|0:1|0:1|0:1|0:1,0:1:0:0:
185,384,158661,53,10,3:1:0:0:
147,373,158732,1,0,0:1:0:0:
115,351,158803,1,0,0:1:0:0:
95,317,158875,1,0,0:1:0:0:
88,279,158946,1,0,0:1:0:0:
98,240,159018,1,0,0:1:0:0:
121,208,159089,1,2,0:1:0:0:
155,188,159161,1,0,0:1:0:0:
194,182,159232,1,2,0:1:0:0:
232,193,159303,1,0,0:1:0:0:
263,216,159375,1,0,0:1:0:0:
283,250,159446,1,0,0:1:0:0:
286,288,159518,54,0,P|278:314|249:343,3,47.5,2|0|0|0,0:1|0:1|0:1|0:1,0:1:0:0:
194,273,159803,2,0,P|166:279|127:268,3,47.5,2|0|0|0,0:1|0:1|0:1|0:1,0:1:0:0:
155,188,160089,2,0,P|135:167|125:127,3,47.5,2|0|0|0,0:1|0:1|0:1|0:1,0:1:0:0:
222,119,160375,21,10,0:1:0:0:
250,110,160446,1,0,0:1:0:0:
279,113,160518,1,0,0:1:0:0:
306,126,160589,1,0,0:1:0:0:
327,146,160661,1,2,0:1:0:0:
348,167,160732,1,0,0:1:0:0:
372,184,160803,1,0,0:1:0:0:
401,191,160875,1,0,0:1:0:0:
430,186,160946,2,0,L|435:138,3,47.5,2|0|0|0,0:1|0:1|0:1|0:1,0:1:0:0:
296,40,161232,53,6,3:1:0:0:
296,47,161303,1,0,0:1:0:0:
297,55,161375,1,0,0:1:0:0:
298,63,161446,1,0,0:1:0:0:
299,71,161518,1,2,0:1:0:0:
300,79,161589,1,0,0:1:0:0:
301,87,161661,1,0,0:1:0:0:
302,95,161732,1,0,0:1:0:0:
303,102,161803,1,2,0:1:0:0:
304,110,161875,1,0,0:1:0:0:
305,118,161946,1,0,0:1:0:0:
306,126,162018,1,0,0:1:0:0:
309,164,162089,53,10,3:1:0:0:
301,199,162161,1,0,0:1:0:0:
285,233,162232,1,0,0:1:0:0:
257,257,162303,1,0,0:1:0:0:
224,268,162375,1,0,0:1:0:0:
184,264,162446,1,0,0:1:0:0:
151,249,162518,1,2,0:1:0:0:
129,220,162589,1,0,0:1:0:0:
116,183,162661,1,2,0:1:0:0:
122,147,162732,1,0,0:1:0:0:
139,114,162803,1,0,0:1:0:0:
167,91,162875,1,0,0:1:0:0:
204,84,162946,22,0,L|251:89,3,47.5,2|0|0|0,0:1|0:1|0:1|0:1,0:1:0:0:
301,199,163232,2,0,L|253:204,3,47.5,2|0|0|0,0:1|0:1|0:1|0:1,0:1:0:0:
204,314,163518,2,0,L|252:319,3,47.5,2|0|0|0,0:1|0:1|0:1|0:1,0:1:0:0:
410,228,163803,53,10,0:1:0:0:
381,250,163875,1,0,0:1:0:0:
368,282,163946,1,0,0:1:0:0:
373,317,164018,1,0,0:1:0:0:
395,346,164089,1,2,0:1:0:0:
428,358,164161,1,0,0:1:0:0:
463,355,164232,1,0,0:1:0:0:
491,332,164303,1,0,0:1:0:0:
504,299,164375,1,10,0:1:0:0:
499,264,164446,1,0,0:1:0:0:
477,236,164518,1,0,0:1:0:0:
445,223,164589,1,0,0:1:0:0:
410,228,164661,53,6,0:1:0:0:
398,273,164732,1,0,0:1:0:0:
373,317,164803,1,0,0:1:0:0:
339,346,164875,1,0,0:1:0:0:
297,367,164946,1,2,0:1:0:0:
250,375,165018,1,0,0:1:0:0:
203,369,165089,1,0,0:1:0:0:
160,349,165161,1,0,0:1:0:0:
124,318,165232,1,2,0:1:0:0:
99,279,165303,1,0,0:1:0:0:
86,233,165375,1,0,0:1:0:0:
86,186,165446,1,0,0:1:0:0:
107,143,165518,21,10,0:1:0:0:
153,134,165589,1,0,0:1:0:0:
194,142,165661,1,0,0:1:0:0:
230,165,165732,1,0,0:1:0:0:
260,195,165803,1,0,0:1:0:0:
292,224,165875,1,0,0:1:0:0:
331,242,165946,1,2,0:1:0:0:
373,247,166018,1,0,0:1:0:0:
415,236,166089,1,2,0:1:0:0:
448,210,166161,1,0,0:1:0:0:
464,170,166232,1,0,0:1:0:0:
457,126,166303,1,0,0:1:0:0:
425,101,166375,53,2,0:0:0:0:
397,123,166446,1,0,0:0:0:0:
376,151,166518,1,0,0:0:0:0:
361,184,166589,1,0,0:0:0:0:
354,219,166661,1,0,0:0:0:0:
355,254,166732,1,0,0:0:0:0:
364,289,166803,1,0,0:0:0:0:
381,320,166875,1,0,0:0:0:0:
404,347,166946,54,0,L|468:339,3,47.5,2|0|0|0,0:1|0:1|0:1|0:1,0:1:0:0:
512,246,167232,2,0,L|448:238,3,47.5,10|0|0|0,0:1|0:1|0:1|0:1,0:1:0:0:
376,151,167518,2,0,L|440:143,3,47.5,2|0|0|0,0:1|0:1|0:1|0:1,0:1:0:0:
484,50,167803,2,0,L|420:42,3,47.5,10|0|0|0,0:1|0:1|0:1|0:1,0:1:0:0:
244,22,168089,21,14,0:1:0:0:
235,25,168161,1,0,0:0:0:0:
228,32,168232,1,0,0:0:0:0:
224,40,168303,1,0,0:0:0:0:
225,50,168375,1,2,0:0:0:0:
228,58,168446,1,0,0:0:0:0:
235,65,168518,1,8,0:1:0:0:
244,68,168589,1,0,0:0:0:0:
253,68,168661,1,2,0:0:0:0:
262,64,168732,1,0,0:0:0:0:
268,57,168803,1,0,0:0:0:0:
271,48,168875,1,0,0:0:0:0:
267,21,168946,53,14,0:1:0:0:
249,28,169018,1,0,0:0:0:0:
236,41,169089,1,0,0:0:0:0:
228,58,169161,1,0,0:0:0:0:
229,77,169232,1,2,0:0:0:0:
236,94,169303,1,0,0:0:0:0:
250,108,169375,1,8,0:1:0:0:
268,114,169446,1,0,0:0:0:0:
287,113,169518,1,2,0:0:0:0:
304,105,169589,1,0,0:0:0:0:
316,91,169661,1,0,0:0:0:0:
322,73,169732,1,0,0:0:0:0:
321,54,169803,53,14,0:1:0:0:
293,24,169875,1,0,0:0:0:0:
253,24,169946,1,0,0:0:0:0:
218,43,170018,1,0,0:0:0:0:
191,72,170089,1,2,0:0:0:0:
171,107,170161,1,0,0:0:0:0:
138,130,170232,1,8,0:1:0:0:
99,139,170303,1,0,0:0:0:0:
59,132,170375,2,8,L|51:71,3,47.5,10|8|8|8,0:0|0:0|0:0|0:0,0:0:0:0:
135,0,170661,22,0,P|123:20|118:44,3,47.5,2|4|4|4,0:1|0:0|0:0|0:0,0:1:0:0:
28,96,170946,2,0,P|40:116|58:131,3,47.5,10|8|8|8,0:1|0:0|0:0|0:0,0:1:0:0:
57,236,171232,2,0,P|80:235|102:227,3,47.5,10|8|8|8,0:1|0:1|0:1|0:1,0:1:0:0:
271,269,171518,53,6,3:1:0:0:
278,269,171589,1,0,0:1:0:0:
286,268,171661,1,0,0:1:0:0:
294,267,171732,1,0,0:1:0:0:
302,266,171803,1,2,0:1:0:0:
310,265,171875,1,0,0:1:0:0:
318,263,171946,1,0,0:1:0:0:
326,263,172018,1,0,0:1:0:0:
333,261,172089,1,2,0:1:0:0:
341,261,172161,1,0,0:1:0:0:
349,260,172232,1,0,0:1:0:0:
357,259,172303,1,0,0:1:0:0:
398,273,172375,53,10,3:1:0:0:
425,245,172446,1,0,0:1:0:0:
442,210,172518,1,0,0:1:0:0:
442,170,172589,1,0,0:1:0:0:
429,134,172661,1,0,0:1:0:0:
401,105,172732,1,0,0:1:0:0:
365,89,172803,1,2,0:1:0:0:
326,89,172875,1,0,0:1:0:0:
289,103,172946,1,2,0:1:0:0:
262,131,173018,1,0,0:1:0:0:
246,167,173089,1,0,0:1:0:0:
246,206,173161,1,0,0:1:0:0:
260,241,173232,22,0,P|272:261|290:276,3,47.5,2|0|0|0,0:1|0:1|0:1|0:1,0:1:0:0:
370,333,173518,2,0,P|382:312|386:289,3,47.5,2|0|0|0,0:1|0:1|0:1|0:1,0:1:0:0:
395,192,173803,2,0,P|370:192|348:200,3,47.5,2|0|0|0,0:1|0:1|0:1|0:1,0:1:0:0:
483,103,174089,53,10,0:1:0:0:
459,101,174161,1,0,0:1:0:0:
435,98,174232,1,0,0:1:0:0:
412,95,174303,1,0,0:1:0:0:
388,92,174375,1,2,0:1:0:0:
365,89,174446,1,0,0:1:0:0:
341,86,174518,1,0,0:1:0:0:
317,83,174589,1,0,0:1:0:0:
293,80,174661,2,0,L|245:73,3,47.5,2|0|0|0,0:1|0:1|0:1|0:1,0:1:0:0:
192,164,174946,53,6,0:1:0:0:
189,160,175018,1,0,0:1:0:0:
187,156,175089,1,0,0:1:0:0:
187,151,175161,1,0,0:1:0:0:
191,147,175232,1,2,0:1:0:0:
195,145,175303,1,0,0:1:0:0:
199,145,175375,1,0,0:1:0:0:
204,147,175446,1,0,0:1:0:0:
206,151,175518,1,2,0:1:0:0:
207,156,175589,1,0,0:1:0:0:
205,160,175661,1,0,0:1:0:0:
197,157,175732,1,0,0:1:0:0:
197,157,175803,21,10,0:1:0:0:
210,121,175875,1,0,0:1:0:0:
240,96,175946,1,0,0:1:0:0:
277,82,176018,1,0,0:1:0:0:
317,83,176089,1,0,0:1:0:0:
353,97,176161,1,0,0:1:0:0:
383,123,176232,1,2,0:1:0:0:
401,158,176303,1,0,0:1:0:0:
406,198,176375,1,2,0:1:0:0:
396,236,176446,1,0,0:1:0:0:
374,268,176518,1,0,0:1:0:0:
342,291,176589,1,0,0:1:0:0:
303,292,176661,54,0,L|254:286,3,47.5,2|0|0|0,0:1|0:1|0:1|0:1,0:1:0:0:
197,157,176946,2,0,L|244:151,3,47.5,2|0|0|0,0:1|0:1|0:1|0:1,0:1:0:0:
171,345,177232,2,0,L|124:339,3,47.5,2|0|0|0,0:1|0:1|0:1|0:1,0:1:0:0:
136,49,177518,53,10,0:1:0:0:
110,66,177589,1,0,0:1:0:0:
90,88,177661,1,0,0:1:0:0:
76,114,177732,1,0,0:1:0:0:
68,142,177803,1,2,0:1:0:0:
69,172,177875,1,0,0:1:0:0:
76,201,177946,1,0,0:1:0:0:
90,227,178018,1,0,0:1:0:0:
111,248,178089,2,0,L|175:255,3,47.5,10|0|0|0,0:1|0:1|0:1|0:1,0:1:0:0:
197,157,178375,21,6,3:1:0:0:
204,157,178446,1,0,0:1:0:0:
212,156,178518,1,0,0:1:0:0:
220,155,178589,1,0,0:1:0:0:
228,154,178661,1,2,0:1:0:0:
236,153,178732,1,0,0:1:0:0:
244,151,178803,1,0,0:1:0:0:
252,151,178875,1,0,0:1:0:0:
259,149,178946,1,2,0:1:0:0:
267,149,179018,1,0,0:1:0:0:
275,148,179089,1,0,0:1:0:0:
283,147,179161,1,0,0:1:0:0:
300,118,179232,53,10,0:1:0:0:
337,152,179303,1,0,0:1:0:0:
357,198,179375,1,0,0:1:0:0:
357,248,179446,1,0,0:1:0:0:
341,294,179518,1,0,0:1:0:0:
304,332,179589,1,0,0:1:0:0:
258,352,179661,1,2,0:1:0:0:
208,348,179732,1,0,0:1:0:0:
162,330,179803,1,2,0:1:0:0:
128,292,179875,1,0,0:1:0:0:
109,246,179946,1,0,0:1:0:0:
111,195,180018,1,0,0:1:0:0:
133,149,180089,53,2,0:0:0:0:
168,166,180161,1,0,0:0:0:0:
193,196,180232,1,0,0:0:0:0:
205,233,180303,1,0,0:0:0:0:
200,272,180375,1,0,0:0:0:0:
181,307,180446,1,0,0:0:0:0:
150,330,180518,1,0,0:0:0:0:
111,339,180589,1,0,0:0:0:0:
73,333,180661,1,2,0:0:0:0:
40,311,180732,1,0,0:0:0:0:
18,278,180803,1,0,0:0:0:0:
11,240,180875,1,0,0:0:0:0:
14,202,180946,22,0,L|21:147,1,47.5,10|0,0:1|0:1,0:1:0:0:
126,101,181089,1,0,0:1:0:0:
126,101,181161,1,0,0:1:0:0:
126,101,181232,2,0,L|133:155,1,47.5,2|0,0:1|0:1,0:1:0:0:
238,202,181375,1,0,0:0:0:0:
238,202,181446,1,0,0:0:0:0:
238,202,181518,2,0,L|245:148,1,47.5,10|0,0:1|0:1,0:1:0:0:
373,31,181661,1,0,0:1:0:0:
373,31,181732,1,0,0:1:0:0:
373,31,181803,54,0,P|353:62|275:69,1,113.999996520996,14|0,0:1|0:0,0:0:0:0:
177,8,182089,1,2,0:0:0:0:
238,202,182232,1,8,0:1:0:0:
34,142,182375,2,0,P|69:99|125:100,1,113.999996520996,2|0,0:1|0:0,0:0:0:0:
243,221,182661,54,0,L|115:205,1,113.999996520996,10|0,0:1|0:0,0:0:0:0:
211,383,182946,2,0,L|338:367,1,113.999996520996,2|8,0:1|0:1,0:0:0:0:
437,127,183232,2,0,L|309:111,1,113.999996520996,2|0,0:1|0:0,0:0:0:0:
39,243,183518,21,14,0:1:0:0:
243,221,183661,1,0,0:0:0:0:
89,361,183803,1,2,0:0:0:0:
133,161,183946,1,8,0:1:0:0:
219,348,184089,1,0,0:0:0:0:
39,243,184232,1,0,0:0:0:0:
243,221,184375,54,0,L|249:277,3,56.9999982604981,10|0|0|0,0:1|0:0|0:0|0:0,0:0:0:0:
133,161,184661,2,0,L|139:104,3,56.9999982604981,10|8|8|0,0:0|0:0|0:0|0:0,0:0:0:0:
314,27,184946,1,10,0:1:0:0:
317,55,185018,1,8,0:1:0:0:
320,83,185089,1,8,0:1:0:0:
323,112,185161,1,8,0:1:0:0:
326,140,185232,1,6,0:1:0:0:
127,56,186946,54,0,B|91:85|91:85|150:121|228:86|186:66|265:33|332:64,1,285,4|0,0:1|0:0,0:0:0:0:
433,129,187518,1,2,0:0:0:0:
359,232,187661,1,0,0:1:0:0:
335,229,187732,1,0,0:1:0:0:
311,226,187803,2,0,L|216:214,1,95,14|0,0:1|0:1,0:1:0:0:
304,360,188089,2,0,L|398:348,1,95,2|0,0:1|0:1,0:1:0:0:
301,209,188375,2,0,L|206:197,1,95,2|0,0:1|0:1,0:1:0:0:
71,361,188661,21,2,0:0:0:0:
96,336,188732,1,0,0:0:0:0:
110,303,188803,1,0,0:0:0:0:
110,268,188875,1,0,0:0:0:0:
95,236,188946,1,2,0:0:0:0:
3,288,189089,1,0,0:0:0:0:
184,370,189232,1,2,0:0:0:0:
165,173,189375,1,0,0:0:0:0:
60,132,189518,53,10,0:1:0:0:
221,97,189661,1,0,0:0:0:0:
158,195,189803,1,2,0:0:0:0:
123,34,189946,1,0,0:1:0:0:
350,0,190089,53,10,0:1:0:0:
345,35,190161,1,0,0:0:0:0:
341,70,190232,1,0,0:0:0:0:
336,106,190303,1,0,0:0:0:0:
332,141,190375,22,0,B|270:99|186:158|230:190|155:241|72:201,1,285,6|0,0:1|0:0,0:0:0:0:
124,108,190946,1,2,0:0:0:0:
239,292,191089,1,0,0:1:0:0:
262,288,191161,1,0,0:1:0:0:
287,286,191232,2,0,L|381:274,1,95,14|0,0:1|0:1,0:1:0:0:
426,152,191518,2,0,L|331:140,1,95,2|0,0:1|0:1,0:1:0:0:
261,12,191803,2,0,L|355:0,1,95,2|0,0:1|0:1,0:1:0:0:
148,233,192089,53,2,0:0:0:0:
123,208,192161,1,0,0:0:0:0:
109,175,192232,1,0,0:0:0:0:
109,140,192303,1,0,0:0:0:0:
124,108,192375,1,2,0:0:0:0:
216,160,192518,1,0,0:0:0:0:
35,242,192661,1,2,0:0:0:0:
239,292,192803,1,0,0:0:0:0:
124,108,192946,53,10,0:1:0:0:
104,335,193089,1,0,0:0:0:0:
311,239,193232,1,2,0:1:0:0:
179,206,193375,1,0,0:0:0:0:
402,32,193518,21,10,0:1:0:0:
427,57,193589,1,0,0:0:0:0:
441,90,193661,1,0,0:0:0:0:
441,125,193732,1,0,0:0:0:0:
426,157,193803,54,0,B|319:143|319:143|272:172|272:172|140:156,1,285,6|0,0:1|0:0,0:0:0:0:
88,74,194375,1,2,0:0:0:0:
217,4,194518,1,0,0:0:0:0:
217,4,194589,1,0,0:0:0:0:
217,4,194661,54,0,B|190:56|222:104|232:84|268:131|245:197,1,190,14|2,0:1|0:0,0:0:0:0:
204,269,195089,1,8,0:1:0:0:
56,169,195232,2,0,L|151:157,1,95,2|0,0:1|0:1,0:1:0:0:
213,289,195518,2,0,L|118:277,1,95,2|0,0:1|0:1,0:1:0:0:
249,181,195803,1,2,0:0:0:0:
300,358,195946,1,8,0:1:0:0:
379,205,196089,1,2,0:0:0:0:
419,346,196232,1,0,0:1:0:0:
475,78,196375,21,10,0:1:0:0:
439,73,196446,1,0,0:0:0:0:
404,69,196518,1,0,0:0:0:0:
368,64,196589,1,0,0:0:0:0:
339,83,196661,53,8,0:3:0:0:
311,86,196732,1,8,0:3:0:0:
282,90,196803,1,8,0:3:0:0:
254,93,196875,1,8,0:3:0:0:
235,120,196946,53,4,0:3:0:0:
212,117,197018,1,4,0:3:0:0:
189,114,197089,1,4,0:3:0:0:
167,112,197161,1,4,0:3:0:0:
134,95,197232,22,0,P|117:139|128:184,1,95,6|0,0:1|0:1,0:1:0:0:
276,295,197518,2,0,P|245:259|201:245,1,95,2|0,0:1|0:1,0:1:0:0:
31,317,197803,2,0,P|77:308|111:276,1,95,2|0,0:1|0:1,0:1:0:0:
52,103,198089,54,0,B|14:142|14:142|101:132|101:132|98:136|98:136|253:117,1,285,14|0,0:1|0:1,0:1:0:0:
474,89,198661,1,10,0:1:0:0:
296,31,198803,1,8,0:1:0:0:
374,241,198946,2,0,P|400:202|400:155,1,95,2|0,0:1|0:1,0:1:0:0:
158,47,199232,2,0,P|131:85|131:132,1,95,2|8,0:1|0:1,0:1:0:0:
301,177,199518,1,2,0:1:0:0:
197,204,199661,1,0,0:1:0:0:
453,299,199803,54,0,L|504:292,3,47.5,14|0|0|0,0:1|0:1|0:1|0:1,0:1:0:0:
386,370,200089,1,0,0:0:0:0:
364,341,200161,1,0,0:0:0:0:
354,307,200232,1,0,0:0:0:0:
358,272,200303,1,0,0:0:0:0:
374,241,200375,1,12,0:1:0:0:
418,75,200661,22,0,B|454:104|454:104|395:140|317:105|359:85|280:52|213:83,1,285,4|0,0:1|0:0,0:0:0:0:
106,243,201232,1,2,0:0:0:0:
30,143,201375,1,0,0:1:0:0:
33,119,201446,1,0,0:1:0:0:
36,94,201518,2,0,L|48:0,1,95,14|0,0:1|0:1,0:1:0:0:
240,171,201803,2,0,L|228:77,1,95,2|0,0:1|0:1,0:1:0:0:
106,243,202089,2,0,L|118:149,1,95,2|0,0:1|0:1,0:1:0:0:
322,238,202375,53,2,0:0:0:0:
319,261,202446,1,0,0:0:0:0:
316,285,202518,1,0,0:0:0:0:
313,308,202589,1,0,0:0:0:0:
310,332,202661,1,2,0:0:0:0:
204,261,202803,1,0,0:0:0:0:
379,169,202946,1,2,0:0:0:0:
375,380,203089,1,0,0:0:0:0:
240,171,203232,53,10,0:1:0:0:
422,260,203375,1,0,0:0:0:0:
310,332,203518,1,2,0:0:0:0:
322,238,203661,1,0,0:0:0:0:
464,350,203803,21,2,0:0:0:0:
204,261,203946,1,0,0:0:0:0:
379,169,204089,54,0,B|354:367|354:367|337:276,1,285,6|0,0:1|0:0,0:0:0:0:
272,49,204661,1,2,0:0:0:0:
185,117,204803,1,0,0:1:0:0:
188,141,204875,1,0,0:1:0:0:
191,166,204946,2,0,L|203:260,1,95,14|0,0:1|0:1,0:1:0:0:
326,377,205232,2,0,L|338:283,1,95,2|0,0:0|0:1,0:1:0:0:
461,166,205518,2,0,L|473:260,1,95,2|0,0:0|0:1,0:1:0:0:
296,142,205803,53,2,0:0:0:0:
299,119,205875,1,0,0:0:0:0:
302,95,205946,1,0,0:0:0:0:
305,72,206018,1,0,0:0:0:0:
308,48,206089,1,2,0:0:0:0:
394,115,206232,1,0,0:0:0:0:
191,166,206375,1,2,0:0:0:0:
243,0,206518,1,0,0:0:0:0:
368,205,206661,21,10,0:1:0:0:
213,85,206803,1,0,0:0:0:0:
308,48,206946,1,2,0:0:0:0:
296,142,207089,1,0,0:0:0:0:
243,0,207232,53,10,0:1:0:0:
368,205,207375,1,0,0:0:0:0:
466,32,207518,54,0,B|404:0|348:58|348:58|334:48|334:48|287:111|205:82,1,285,6|0,0:1|0:0,0:0:0:0:
122,20,208089,1,2,0:0:0:0:
22,124,208232,1,0,0:0:0:0:
22,124,208303,1,0,0:0:0:0:
22,124,208375,2,0,P|92:118|139:222,1,190,10|2,0:1|0:0,0:0:0:0:
54,275,208803,1,0,0:0:0:0:
138,352,208946,2,0,L|280:334,1,142.5,2|0,0:0|2:2,0:0:0:0:
347,384,209232,22,0,B|303:346|303:346|319:215,1,190,2|2,0:0|0:0,0:0:0:0:
405,298,209661,1,8,0:1:0:0:
478,237,209803,2,0,L|466:142,1,95,2|0,0:0|0:2,0:0:0:0:
399,21,210089,53,10,0:1:0:0:
387,67,210161,1,8,0:0:0:0:
352,98,210232,1,4,0:0:0:0:
306,105,210303,1,4,0:0:0:0:
263,86,210375,2,0,L|268:38,3,47.5,10|8|4|4,0:0|0:0|0:0|0:0,0:0:0:0:
188,152,210661,1,10,0:1:0:0:
175,107,210732,1,8,0:1:0:0:
140,76,210803,1,8,0:1:0:0:
94,69,210875,1,8,0:1:0:0:
52,89,210946,1,14,0:1:0:0:
52,89,211518,53,2,0:0:0:0:
55,107,211589,1,0,0:0:0:0:
57,126,211661,1,0,0:0:0:0:
60,145,211732,1,0,0:0:0:0:
65,167,211803,2,0,B|132:131|206:179|172:212|250:274|326:228,1,285,14|0,0:1|0:0,0:0:0:0:
275,144,212375,21,10,0:1:0:0:
108,254,212518,1,8,0:1:0:0:
290,384,212661,2,0,B|333:341|333:341|305:118,1,285,6|8,0:1|0:1,0:0:0:0:
188,37,213375,53,0,3:0:0:0:
108,254,213518,2,0,L|155:259,3,47.5,8|8|8|8,0:0|0:0|0:0|0:0,0:0:0:0:
72,149,213803,2,0,L|24:154,3,47.5,4|4|4|4,0:0|0:0|0:0|0:0,0:0:0:0:
152,346,214089,1,10,0:1:0:0:
210,167,214375,53,6,0:1:0:0:
227,136,214446,1,0,0:0:0:0:
258,119,214518,1,0,0:0:0:0:
293,122,214589,1,0,0:0:0:0:
323,140,214661,1,2,0:0:0:0:
337,173,214732,1,0,0:0:0:0:
336,208,214803,1,0,0:0:0:0:
314,236,214875,1,0,0:0:0:0:
283,251,214946,2,0,L|219:243,3,47.5,14|0|0|0,0:1|0:0|0:0|0:0,0:0:0:0:
475,91,215232,21,6,0:1:0:0:
454,53,215303,1,0,0:0:0:0:
417,33,215375,1,0,0:0:0:0:
375,36,215446,1,0,0:0:0:0:
339,58,215518,1,2,0:0:0:0:
322,98,215589,1,0,0:0:0:0:
323,140,215661,1,0,0:0:0:0:
350,173,215732,1,0,0:0:0:0:
387,191,215803,2,0,L|463:181,3,56.9999982604981,14|0|0|0,0:1|0:0|0:0|0:0,0:0:0:0:
267,275,216089,53,6,0:1:0:0:
240,262,216161,1,0,0:0:0:0:
210,260,216232,1,0,0:0:0:0:
182,271,216303,1,0,0:0:0:0:
160,291,216375,1,2,0:0:0:0:
138,312,216446,1,0,0:0:0:0:
113,326,216518,1,0,0:0:0:0:
83,330,216589,1,0,0:0:0:0:
54,324,216661,2,0,L|48:276,3,47.5,14|0|0|0,0:1|0:0|0:0|0:0,0:0:0:0:
22,133,216946,54,0,P|41:153|68:162,3,56.9999982604981,6|0|0|0,0:1|0:0|0:0|0:0,0:0:0:0:
154,194,217232,2,0,P|161:166|156:139,3,56.9999982604981,14|0|0|0,0:1|0:0|0:0|0:0,0:0:0:0:
141,49,217518,2,0,P|113:55|92:74,3,56.9999982604981,14|0|0|0,0:1|0:0|0:0|0:0,0:0:0:0:
227,278,217803,21,6,0:1:0:0:
210,309,217875,1,0,0:0:0:0:
179,326,217946,1,0,0:0:0:0:
144,323,218018,1,0,0:0:0:0:
114,305,218089,1,2,0:0:0:0:
100,272,218161,1,0,0:0:0:0:
101,237,218232,1,0,0:0:0:0:
123,209,218303,1,0,0:0:0:0:
154,194,218375,2,0,L|218:202,3,47.5,14|0|0|0,0:1|0:0|0:0|0:0,0:0:0:0:
403,75,218661,53,6,0:1:0:0:
382,37,218732,1,0,0:0:0:0:
345,17,218803,1,0,0:0:0:0:
303,20,218875,1,0,0:0:0:0:
267,42,218946,1,2,0:0:0:0:
250,82,219018,1,0,0:0:0:0:
251,124,219089,1,0,0:0:0:0:
278,157,219161,1,0,0:0:0:0:
315,175,219232,2,0,L|391:165,3,56.9999982604981,14|0|0|0,0:1|0:0|0:0|0:0,0:0:0:0:
143,382,219518,53,6,0:1:0:0:
97,356,219589,1,0,0:0:0:0:
73,312,219661,1,0,0:0:0:0:
77,261,219732,1,0,0:0:0:0:
103,218,219803,1,2,0:0:0:0:
151,198,219875,1,0,0:0:0:0:
201,205,219946,1,0,0:0:0:0:
240,238,220018,1,0,0:0:0:0:
256,286,220089,2,0,L|248:342,3,56.9999982604981,14|0|0|0,0:1|0:0|0:0|0:0,0:0:0:0:
143,382,220375,21,14,0:1:0:0:
139,344,220446,1,8,0:1:0:0:
134,306,220518,1,8,0:1:0:0:
129,268,220589,1,8,0:1:0:0:
103,218,220661,53,14,0:1:0:0:
151,198,220732,1,0,0:0:0:0:
201,205,220803,1,0,0:0:0:0:
247,236,220875,1,0,0:0:0:0:
295,262,220946,1,14,0:1:0:0:
342,245,221018,1,8,0:0:0:0:
363,207,221089,1,4,0:0:0:0:
354,170,221161,1,4,0:0:0:0:
327,155,221232,53,6,0:1:0:0:
320,178,221303,1,0,0:0:0:0:
319,202,221375,1,0,0:0:0:0:
327,225,221446,1,0,0:0:0:0:
342,245,221518,1,2,0:0:0:0:
359,264,221589,1,0,0:0:0:0:
368,288,221661,1,0,0:0:0:0:
370,312,221732,1,0,0:0:0:0:
368,337,221803,2,0,P|358:363|339:386,3,47.5,14|0|0|0,0:1|0:0|0:0|0:0,0:0:0:0:
181,205,222089,21,6,0:1:0:0:
163,243,222161,1,0,0:0:0:0:
170,285,222232,1,0,0:0:0:0:
199,316,222303,1,0,0:0:0:0:
242,322,222375,1,2,0:0:0:0:
281,304,222446,1,0,0:0:0:0:
304,267,222518,1,0,0:0:0:0:
342,245,222589,1,0,0:0:0:0:
386,242,222661,2,0,P|413:250|437:267,3,56.9999982604981,14|0|0|0,0:1|0:0|0:0|0:0,0:0:0:0:
453,101,222946,53,6,0:1:0:0:
436,132,223018,1,0,0:0:0:0:
405,149,223089,1,0,0:0:0:0:
370,146,223161,1,0,0:0:0:0:
340,128,223232,1,2,0:0:0:0:
326,95,223303,1,0,0:0:0:0:
327,60,223375,1,0,0:0:0:0:
349,32,223446,1,0,0:0:0:0:
380,17,223518,2,0,L|444:25,3,52.2500015945435,14|0|0|0,0:1|0:0|0:0|0:0,0:0:0:0:
206,6,223803,53,6,0:1:0:0:
210,44,223875,1,0,0:0:0:0:
215,82,223946,1,0,0:0:0:0:
220,120,224018,1,0,0:0:0:0:
224,157,224089,2,0,L|229:204,3,47.5,10|0|0|0,0:1|0:0|0:0|0:0,0:0:0:0:
107,157,224375,2,0,L|112:109,3,47.5,6|0|0|0,0:1|0:0|0:0|0:0,0:0:0:0:
59,273,224661,21,6,0:1:0:0:
86,261,224732,1,0,0:0:0:0:
116,262,224803,1,0,0:0:0:0:
144,274,224875,1,0,0:0:0:0:
164,296,224946,1,2,0:1:0:0:
185,318,225018,1,0,0:0:0:0:
209,334,225089,1,0,0:0:0:0:
238,340,225161,1,0,0:0:0:0:
268,336,225232,2,0,L|274:286,1,47.5,6|0,0:1|0:0,0:0:0:0:
355,238,225375,2,0,L|361:288,1,47.5,0|0,0:1|0:0,0:0:0:0:
443,334,225518,54,0,P|411:368|366:382,1,95,14|0,0:1|0:0,0:0:0:0:
354,184,225803,2,0,P|399:194|434:226,1,95,4|0,0:1|0:0,0:0:0:0:
268,336,226089,2,0,P|254:291|264:245,1,95,4|0,0:0|2:2,0:0:0:0:
291,69,226375,53,12,0:1:0:0:
124,225,226518,2,0,L|130:274,2,47.5,8|8|8,0:0|0:0|0:0,0:0:0:0:
62,121,226803,1,8,0:0:0:0:
224,157,226946,1,4,0:0:0:0:
166,33,227089,1,0,0:0:0:0:
124,225,227232,21,4,0:0:0:0:
291,69,227375,1,0,0:0:0:0:
62,121,227518,1,4,0:0:0:0:
273,288,227661,53,8,0:1:0:0:
166,33,227803,1,8,0:1:0:0:
118,247,227946,1,8,0:1:0:0:
291,69,228089,54,0,B|337:52|381:93|360:112|413:157|479:134,1,190,4|2,0:1|0:0,0:0:0:0:
447,47,228518,1,0,0:0:0:0:
297,154,228661,1,2,0:0:0:0:
444,233,228803,1,0,0:0:0:0:
444,233,228875,1,0,0:0:0:0:
444,233,228946,2,0,L|457:121,1,95,14|0,0:1|0:0,0:0:0:0:
297,154,229232,2,0,L|310:265,1,95,2|0,0:1|0:0,0:0:0:0:
464,312,229518,2,0,L|477:200,1,95,2|0,0:1|0:0,0:0:0:0:
224,306,229803,21,2,0:0:0:0:
245,335,229875,1,0,0:0:0:0:
275,353,229946,1,0,0:0:0:0:
310,359,230018,1,0,0:0:0:0:
344,349,230089,1,2,0:0:0:0:
308,248,230232,1,0,0:0:0:0:
230,384,230375,1,2,0:0:0:0:
150,248,230518,1,0,0:0:0:0:
224,306,230661,53,10,0:1:0:0:
59,245,230803,1,0,0:1:0:0:
227,196,230946,1,2,0:1:0:0:
118,334,231089,1,0,0:1:0:0:
124,161,231232,53,2,0:0:0:0:
112,165,231303,1,0,0:0:0:0:
112,178,231375,1,0,0:0:0:0:
124,182,231446,1,0,0:0:0:0:
131,172,231518,22,0,P|168:85|120:2,1,190,6|2,0:1|0:0,0:0:0:0:
65,92,231946,1,0,0:0:0:0:
227,196,232089,1,2,0:0:0:0:
354,52,232232,1,0,0:0:0:0:
354,52,232303,1,0,0:0:0:0:
354,52,232375,2,0,L|242:39,1,95,14|0,0:1|0:0,0:0:0:0:
345,219,232661,2,0,L|456:206,1,95,2|0,0:1|0:0,0:0:0:0:
447,19,232946,2,0,L|335:6,1,95,2|0,0:1|0:0,0:0:0:0:
227,196,233232,53,2,0:0:0:0:
230,219,233303,1,0,0:0:0:0:
233,243,233375,1,0,0:0:0:0:
236,266,233446,1,0,0:0:0:0:
239,290,233518,1,2,0:0:0:0:
345,219,233661,1,0,0:0:0:0:
170,127,233803,1,2,0:0:0:0:
174,338,233946,1,0,0:0:0:0:
309,129,234089,53,10,0:1:0:0:
127,218,234232,1,0,0:0:0:0:
239,290,234375,1,2,0:0:0:0:
227,196,234518,1,0,0:0:0:0:
85,308,234661,21,2,0:0:0:0:
47,278,234732,1,0,0:0:0:0:
28,234,234803,1,0,0:0:0:0:
33,186,234875,1,0,0:0:0:0:
58,146,234946,54,0,B|123:109|196:162|142:200|245:266|304:231,1,285,6|0,0:1|0:0,0:0:0:0:
418,144,235518,1,2,0:0:0:0:
238,17,235661,1,0,0:0:0:0:
238,17,235732,1,0,0:0:0:0:
237,16,235803,2,0,B|209:51|209:51|226:195,1,190,14|2,0:1|0:0,0:0:0:0:
339,328,236232,1,8,0:1:0:0:
406,238,236375,2,0,L|417:142,1,95,2|0,0:0|0:0,0:0:0:0:
249,320,236661,54,0,B|204:294|157:327|180:345|122:384|72:359,1,190,6|2,0:1|0:0,0:0:0:0:
0,305,237089,1,8,0:1:0:0:
48,214,237232,2,0,L|143:225,1,95,2|0,0:0|0:0,0:0:0:0:
417,143,237518,21,10,0:1:0:0:
373,127,237589,1,8,0:0:0:0:
332,148,237661,1,8,0:0:0:0:
318,192,237732,1,8,0:0:0:0:
339,232,237803,53,6,0:0:0:0:
371,252,237875,1,4,0:0:0:0:
385,287,237946,1,4,0:0:0:0:
378,324,238018,1,4,0:0:0:0:
350,350,238089,53,10,0:1:0:0:
326,350,238161,1,8,0:1:0:0:
302,347,238232,1,8,0:1:0:0:
278,345,238303,1,8,0:1:0:0:
254,343,238375,22,0,L|159:331,1,95,6|0,0:1|0:0,0:0:0:0:
48,237,238661,2,0,L|142:225,1,95,2|0,0:1|0:0,0:0:0:0:
254,131,238946,2,0,L|159:119,1,95,2|0,0:1|0:0,0:0:0:0:
371,252,239161,1,0,0:0:0:0:
371,252,239232,54,0,B|399:217|399:217|382:73,1,190,14|2,0:1|0:0,0:0:0:0:
295,27,239661,1,0,0:0:0:0:
505,140,239803,1,10,0:1:0:0:
505,140,239946,1,8,0:1:0:0:
371,252,240089,54,0,B|295:242|295:242|265:259|265:259|177:248,1,190,6|2,0:1|0:0,0:0:0:0:
65,131,240518,2,0,L|159:119,1,95,8|2,0:1|0:0,0:0:0:0:
64,375,240803,1,0,0:0:0:0:
64,375,240875,1,0,0:0:0:0:
64,375,240946,22,0,L|57:327,3,47.5,10|0|0|0,0:1|0:1|0:1|0:1,0:1:0:0:
186,249,241232,2,0,L|179:296,3,47.5,10|0|0|0,0:1|0:1|0:1|0:1,0:1:0:0:
271,357,241518,53,10,0:1:0:0:
83,231,241661,1,8,0:1:0:0:
348,58,241803,54,0,B|323:256|323:256|310:164,1,285,6|0,0:1|0:0,0:0:0:0:
272,8,242375,1,2,0:0:0:0:
102,128,242518,1,0,0:0:0:0:
102,128,242589,1,0,0:0:0:0:
102,128,242661,2,0,L|89:16,1,95,14|0,0:1|0:0,0:0:0:0:
220,99,242946,2,0,L|209:193,1,95,2|0,0:1|0:0,0:0:0:0:
17,243,243232,2,0,L|4:131,1,95,2|0,0:1|0:0,0:0:0:0:
270,262,243518,21,2,0:0:0:0:
253,280,243589,1,0,0:0:0:0:
230,291,243661,1,0,0:0:0:0:
206,293,243732,1,0,0:0:0:0:
183,284,243803,1,2,0:0:0:0:
209,193,243946,1,0,0:0:0:0:
277,372,244089,1,2,0:0:0:0:
91,327,244232,1,0,0:0:0:0:
270,262,244375,53,10,0:1:0:0:
184,384,244518,1,0,0:0:0:0:
183,284,244661,1,2,0:0:0:0:
277,372,244803,1,0,0:1:0:0:
28,211,244946,53,2,0:0:0:0:
45,193,245018,1,0,0:0:0:0:
68,182,245089,1,0,0:0:0:0:
92,180,245161,1,0,0:0:0:0:
115,189,245232,22,0,B|159:231|159:231|386:183,1,285,6|0,0:1|0:0,0:0:0:0:
468,115,245803,1,2,0:0:0:0:
203,24,245946,1,0,0:0:0:0:
203,24,246018,1,0,0:0:0:0:
203,24,246089,2,0,L|190:136,1,95,14|0,0:1|0:0,0:0:0:0:
378,184,246375,2,0,L|367:89,1,95,2|0,0:1|0:0,0:0:0:0:
115,189,246661,2,0,L|104:283,1,95,2|0,0:1|0:0,0:0:0:0:
324,339,246946,53,2,0:0:0:0:
321,316,247018,1,0,0:0:0:0:
318,292,247089,1,0,0:0:0:0:
315,269,247161,1,0,0:0:0:0:
312,245,247232,1,2,0:0:0:0:
218,294,247375,1,0,0:0:0:0:
420,361,247518,1,2,0:0:0:0:
378,184,247661,1,0,0:0:0:0:
247,384,247803,53,10,0:1:0:0:
434,266,247946,1,0,0:0:0:0:
312,245,248089,1,2,0:0:0:0:
324,339,248232,1,0,0:0:0:0:
378,184,248375,21,10,0:1:0:0:
247,384,248518,1,0,0:0:0:0:
146,206,248661,54,0,P|261:184|217:293,1,285,6|0,0:1|0:0,0:0:0:0:
9,265,249232,1,2,0:0:0:0:
55,363,249375,1,0,0:0:0:0:
55,363,249446,1,0,0:0:0:0:
55,363,249518,2,0,B|74:322|47:284|47:284|57:269|57:269|29:224|50:171,1,190,14|2,0:1|0:0,0:0:0:0:
145,16,249946,2,0,P|173:54|176:101,2,95,8|2|0,0:1|0:0|0:0,0:0:0:0:
82,85,250375,54,0,L|276:61,1,190,6|2,0:1|0:0,0:0:0:0:
383,194,250803,1,8,0:1:0:0:
316,265,250946,2,0,L|204:251,1,95,2|0,0:0|0:0,0:0:0:0:
448,58,251232,21,6,0:1:0:0:
402,70,251303,1,0,0:1:0:0:
371,105,251375,1,0,0:0:0:0:
364,151,251446,1,0,0:0:0:0:
383,194,251518,2,0,L|431:189,3,47.5,10|8|8|8,0:1|0:1|0:1|0:1,0:0:0:0:
303,353,251803,1,10,0:0:0:0:
323,311,251875,1,8,0:0:0:0:
316,265,251946,1,4,0:0:0:0:
285,230,252018,1,4,0:0:0:0:
240,217,252089,1,6,0:1:0:0:
160,136,252518,53,8,0:1:0:0:
122,317,252661,1,2,0:0:0:0:
145,314,252732,1,0,0:0:0:0:
169,311,252803,1,0,0:0:0:0:
192,308,252875,1,0,0:0:0:0:
216,305,252946,54,0,B|301:294|301:294|317:307|317:307|409:296,1,190,14|2,0:1|0:0,0:0:0:0:
485,247,253375,1,8,0:1:0:0:
337,376,253518,2,0,P|306:340|301:293,1,95,2|0,0:0|0:0,0:0:0:0:
458,26,253803,22,0,L|362:14,1,95,6|0,0:1|0:0,0:0:0:0:
276,152,254089,2,0,L|371:140,1,95,2|8,0:0|0:1,0:0:0:0:
190,20,254375,1,2,0:0:0:0:
116,189,254518,1,0,0:0:0:0:
116,189,254589,1,0,0:0:0:0:
116,189,254661,54,8,L|109:133,3,47.5,10|8|8|8,0:1|0:1|0:1|0:1,0:1:0:0:
190,20,254946,2,8,L|183:75,3,47.5,10|8|8|8,0:0|0:0|0:0|0:0,0:0:0:0:
261,189,255232,2,4,L|255:141,3,47.5,6|4|4|4,0:0|0:0|0:0|0:0,0:0:0:0:
440,108,255518,53,6,3:1:0:0:
433,106,255589,1,0,0:1:0:0:
425,105,255661,1,0,0:1:0:0:
417,104,255732,1,0,0:1:0:0:
409,103,255803,1,2,0:1:0:0:
401,102,255875,1,0,0:1:0:0:
392,102,255946,1,8,0:1:0:0:
385,100,256018,1,0,0:1:0:0:
377,100,256089,1,2,0:1:0:0:
370,98,256161,1,0,0:1:0:0:
362,97,256232,1,0,0:1:0:0:
354,96,256303,1,0,0:1:0:0:
314,79,256375,21,2,3:1:0:0:
315,119,256446,1,0,0:1:0:0:
329,155,256518,1,0,0:1:0:0:
357,183,256589,1,0,0:1:0:0:
392,199,256661,1,0,0:1:0:0:
432,198,256732,1,0,0:1:0:0:
469,184,256803,1,10,0:1:0:0:
497,156,256875,1,0,0:1:0:0:
512,119,256946,1,2,0:1:0:0:
510,80,257018,1,0,0:1:0:0:
495,44,257089,1,0,0:1:0:0:
467,17,257161,1,0,0:1:0:0:
431,1,257232,54,0,P|403:0|366:18,3,47.5,2|0|0|0,0:1|0:1|0:1|0:1,0:1:0:0:
305,42,257518,2,0,P|316:63|333:80,3,47.5,2|0|8|0,0:1|0:1|0:1|0:1,0:1:0:0:
399,131,257803,2,0,P|413:111|418:89,3,47.5,2|0|0|0,0:1|0:1|0:1|0:1,0:1:0:0:
228,112,258089,53,2,0:1:0:0:
229,136,258161,1,0,0:1:0:0:
232,160,258232,1,0,0:1:0:0:
235,183,258303,1,0,0:1:0:0:
238,207,258375,1,2,0:1:0:0:
241,230,258446,1,0,0:1:0:0:
244,255,258518,1,8,0:1:0:0:
247,278,258589,1,0,0:1:0:0:
250,301,258661,2,0,L|257:349,3,47.5,2|0|0|0,0:1|0:1|0:1|0:1,0:1:0:0:
76,331,258946,21,6,0:1:0:0:
80,334,259018,1,0,0:1:0:0:
84,336,259089,1,0,0:1:0:0:
89,336,259161,1,0,0:1:0:0:
93,332,259232,1,2,0:1:0:0:
95,328,259303,1,0,0:1:0:0:
95,324,259375,1,8,0:1:0:0:
93,319,259446,1,0,0:1:0:0:
89,317,259518,1,2,0:1:0:0:
84,316,259589,1,0,0:1:0:0:
80,318,259661,1,0,0:1:0:0:
76,321,259732,1,0,0:1:0:0:
75,326,259803,53,2,0:1:0:0:
39,313,259875,1,0,0:1:0:0:
14,283,259946,1,0,0:1:0:0:
0,246,260018,1,0,0:1:0:0:
1,206,260089,1,0,0:1:0:0:
15,170,260161,1,0,0:1:0:0:
40,140,260232,1,10,0:1:0:0:
75,122,260303,1,0,0:1:0:0:
116,117,260375,1,2,0:1:0:0:
154,127,260446,1,0,0:1:0:0:
186,149,260518,1,0,0:1:0:0:
209,181,260589,1,0,0:1:0:0:
219,218,260661,54,0,P|214:242|202:262,3,47.5,2|0|0|0,0:1|0:1|0:1|0:1,0:1:0:0:
115,207,260946,2,0,P|91:214|68:215,3,47.5,2|0|8|0,0:1|0:1|0:1|0:1,0:1:0:0:
75,122,261232,2,0,P|56:105|44:86,3,47.5,2|0|0|0,0:1|0:1|0:1|0:1,0:1:0:0:
152,49,261518,21,2,0:1:0:0:
180,40,261589,1,0,0:1:0:0:
209,43,261661,1,0,0:1:0:0:
236,56,261732,1,0,0:1:0:0:
257,76,261803,1,2,0:1:0:0:
278,97,261875,1,0,0:1:0:0:
302,114,261946,1,8,0:1:0:0:
331,121,262018,1,0,0:1:0:0:
360,116,262089,2,0,L|365:68,3,47.5,2|0|0|0,0:1|0:1|0:1|0:1,0:1:0:0:
429,217,262375,53,6,3:1:0:0:
420,219,262446,1,0,0:1:0:0:
407,221,262518,1,0,0:1:0:0:
395,222,262589,1,0,0:1:0:0:
383,224,262661,1,2,0:1:0:0:
371,225,262732,1,0,0:1:0:0:
359,227,262803,1,8,0:1:0:0:
347,228,262875,1,0,0:1:0:0:
336,229,262946,1,2,0:1:0:0:
324,230,263018,1,0,0:1:0:0:
312,232,263089,1,0,0:1:0:0:
300,233,263161,1,0,0:1:0:0:
274,257,263232,53,2,0:1:0:0:
246,216,263303,1,0,0:1:0:0:
238,169,263375,1,0,0:1:0:0:
248,122,263446,1,0,0:1:0:0:
275,82,263518,1,0,0:1:0:0:
316,55,263589,1,0,0:1:0:0:
365,47,263661,1,10,0:1:0:0:
410,61,263732,1,0,0:1:0:0:
449,89,263803,1,2,0:1:0:0:
473,130,263875,1,0,0:1:0:0:
481,178,263946,1,0,0:1:0:0:
468,224,264018,1,0,0:1:0:0:
438,250,264089,21,2,0:1:0:0:
422,228,264161,1,0,0:1:0:0:
399,212,264232,1,0,0:1:0:0:
373,204,264303,1,0,0:1:0:0:
345,205,264375,1,0,0:1:0:0:
319,215,264446,1,0,0:1:0:0:
298,232,264518,1,8,0:1:0:0:
283,255,264589,1,0,0:1:0:0:
276,282,264661,1,2,0:1:0:0:
278,310,264732,1,0,0:1:0:0:
288,335,264803,1,0,0:1:0:0:
306,356,264875,1,0,0:1:0:0:
336,369,264946,54,0,L|391:362,1,47.5,2|0,0:1|0:1,0:1:0:0:
446,257,265089,1,0,0:1:0:0:
446,257,265161,1,0,0:1:0:0:
446,257,265232,2,0,L|392:250,1,47.5,2|0,0:1|0:1,0:1:0:0:
298,153,265375,1,8,0:1:0:0:
298,153,265446,1,0,0:1:0:0:
298,153,265518,2,0,L|353:146,1,47.5,2|0,0:1|0:1,0:1:0:0:
445,55,265661,1,0,0:1:0:0:
445,55,265732,1,0,0:1:0:0:
445,55,265803,54,0,L|452:110,3,47.5,14|0|0|0,0:1|0:1|0:1|0:1,0:1:0:0:
398,250,266089,2,0,L|403:202,3,47.5,2|0|8|0,0:1|0:1|0:1|0:1,0:1:0:0:
292,105,266375,2,0,L|297:152,3,47.5,2|0|0|0,0:1|0:1|0:1|0:1,0:1:0:0:
214,322,266661,21,10,0:1:0:0:
229,311,266732,1,0,0:1:0:0:
241,296,266803,1,0,0:1:0:0:
247,278,266875,1,0,0:1:0:0:
248,259,266946,1,2,0:1:0:0:
243,241,267018,1,0,0:1:0:0:
232,226,267089,1,8,0:1:0:0:
217,214,267161,1,0,0:1:0:0:
199,208,267232,1,2,0:1:0:0:
180,207,267303,1,0,0:1:0:0:
162,213,267375,1,0,0:1:0:0:
146,224,267446,1,0,0:1:0:0:
133,238,267518,54,0,P|126:265|131:293,3,56.9999982604981,14|0|0|0,0:1|0:1|0:1|0:1,0:1:0:0:
215,267,267803,2,0,P|241:259|263:241,3,56.9999982604981,2|0|8|0,0:1|0:1|0:1|0:1,0:1:0:0:
199,181,268089,2,0,P|179:161|152:151,3,56.9999982604981,2|0|0|0,0:1|0:1|0:1|0:1,0:1:0:0:
133,238,268375,53,10,0:1:0:0:
99,83,268518,1,0,0:0:0:0:
263,241,268661,21,10,0:1:0:0:
39,176,268803,1,0,0:0:0:0:
368,48,268946,1,10,0:1:0:0:
357,39,269232,53,6,0:1:0:0:
345,46,269303,1,0,0:0:0:0:
335,57,269375,1,0,0:0:0:0:
327,68,269446,1,0,0:0:0:0:
322,82,269518,1,0,0:0:0:0:
319,96,269589,1,0,0:0:0:0:
320,110,269661,1,0,0:0:0:0:
323,124,269732,1,0,0:0:0:0:
329,137,269803,1,0,0:0:0:0:
338,148,269875,1,0,0:0:0:0:
348,157,269946,1,0,0:0:0:0:
361,164,270018,1,0,0:0:0:0:
379,157,270089,53,14,3:1:0:0:
371,192,270161,1,0,0:1:0:0:
355,226,270232,1,0,0:1:0:0:
327,250,270303,1,0,0:1:0:0:
294,261,270375,1,0,0:1:0:0:
254,257,270446,1,0,0:1:0:0:
221,242,270518,1,2,0:1:0:0:
199,213,270589,1,0,0:1:0:0:
186,176,270661,1,2,0:1:0:0:
192,140,270732,1,0,0:1:0:0:
209,107,270803,1,0,0:1:0:0:
237,84,270875,1,0,0:1:0:0:
274,77,270946,22,0,L|330:83,3,52.2500015945435,2|0|0|0,0:1|0:1|0:1|0:1,0:1:0:0:
355,226,271232,2,0,L|297:232,3,52.2500015945435,2|0|0|0,0:1|0:1|0:1|0:1,0:1:0:0:
403,20,271518,2,0,L|455:26,3,52.2500015945435,2|0|0|0,0:1|0:1|0:1|0:1,0:1:0:0:
449,297,271803,53,14,0:1:0:0:
478,275,271875,1,0,0:1:0:0:
491,243,271946,1,0,0:1:0:0:
486,208,272018,1,0,0:1:0:0:
464,179,272089,1,2,0:1:0:0:
431,167,272161,1,0,0:1:0:0:
396,170,272232,1,0,0:1:0:0:
368,193,272303,1,0,0:1:0:0:
355,226,272375,1,2,0:1:0:0:
360,261,272446,1,0,0:1:0:0:
382,289,272518,1,0,0:1:0:0:
414,302,272589,1,0,0:1:0:0:
449,297,272661,53,6,0:1:0:0:
452,293,272732,1,0,0:1:0:0:
454,289,272803,1,0,0:1:0:0:
454,284,272875,1,0,0:1:0:0:
450,280,272946,1,2,0:1:0:0:
446,278,273018,1,0,0:1:0:0:
442,278,273089,1,0,0:1:0:0:
437,280,273161,1,0,0:1:0:0:
435,284,273232,1,2,0:1:0:0:
434,289,273303,1,0,0:1:0:0:
436,293,273375,1,0,0:1:0:0:
439,297,273446,1,0,0:1:0:0:
449,297,273518,21,14,0:1:0:0:
477,275,273589,1,0,0:1:0:0:
489,237,273661,1,0,0:1:0:0:
490,198,273732,1,0,0:1:0:0:
476,160,273803,1,0,0:1:0:0:
450,132,273875,1,0,0:1:0:0:
414,113,273946,1,2,0:1:0:0:
376,107,274018,1,0,0:1:0:0:
337,117,274089,1,2,0:1:0:0:
305,138,274161,1,0,0:1:0:0:
282,170,274232,1,0,0:1:0:0:
271,208,274303,1,0,0:1:0:0:
274,246,274375,54,0,L|281:309,3,52.2500015945435,2|0|0|0,0:1|0:1|0:1|0:1,0:1:0:0:
197,153,274661,2,0,L|203:102,3,52.2500015945435,2|0|0|0,0:1|0:1|0:1|0:1,0:1:0:0:
120,246,274946,2,0,L|126:298,3,52.2500015945435,2|0|0|0,0:1|0:1|0:1|0:1,0:1:0:0:
44,57,275232,53,14,0:1:0:0:
21,74,275303,1,0,0:1:0:0:
11,100,275375,1,0,0:1:0:0:
15,128,275446,1,0,0:1:0:0:
32,151,275518,1,2,0:1:0:0:
59,161,275589,1,0,0:1:0:0:
87,158,275661,1,0,0:1:0:0:
109,140,275732,1,0,0:1:0:0:
120,114,275803,1,2,0:1:0:0:
116,86,275875,1,0,0:1:0:0:
98,63,275946,1,0,0:1:0:0:
72,53,276018,1,0,0:1:0:0:
44,57,276089,21,6,3:1:0:0:
42,71,276161,1,0,0:1:0:0:
41,84,276232,1,0,0:1:0:0:
39,96,276303,1,0,0:1:0:0:
38,108,276375,1,2,0:1:0:0:
36,120,276446,1,0,0:1:0:0:
35,132,276518,1,0,0:1:0:0:
33,144,276589,1,0,0:1:0:0:
32,155,276661,1,2,0:1:0:0:
30,167,276732,1,0,0:1:0:0:
29,179,276803,1,0,0:1:0:0:
27,191,276875,1,0,0:1:0:0:
0,214,276946,53,14,0:1:0:0:
37,251,277018,1,0,0:1:0:0:
84,269,277089,1,0,0:1:0:0:
135,268,277161,1,0,0:1:0:0:
182,248,277232,1,0,0:1:0:0:
219,211,277303,1,0,0:1:0:0:
236,162,277375,1,2,0:1:0:0:
232,111,277446,1,0,0:1:0:0:
210,66,277518,1,2,0:1:0:0:
173,32,277589,1,0,0:1:0:0:
125,15,277661,1,0,0:1:0:0:
72,18,277732,1,0,0:1:0:0:
44,57,277803,53,2,0:1:0:0:
46,85,277875,1,0,0:1:0:0:
59,110,277946,1,0,0:1:0:0:
77,131,278018,1,0,0:1:0:0:
102,144,278089,1,0,0:1:0:0:
129,148,278161,1,0,0:1:0:0:
155,144,278232,1,0,0:1:0:0:
181,131,278303,1,0,0:1:0:0:
200,112,278375,1,2,0:1:0:0:
211,86,278446,1,0,0:1:0:0:
216,60,278518,1,0,0:1:0:0:
210,34,278589,1,0,0:1:0:0:
197,9,278661,22,0,L|141:2,1,52.2500015945435,14|0,0:1|0:1,0:1:0:0:
218,216,278803,1,0,0:0:0:0:
218,216,278875,1,0,0:0:0:0:
218,216,278946,2,0,L|273:209,1,52.2500015945435,2|0,0:1|0:1,0:1:0:0:
353,77,279089,1,0,0:0:0:0:
353,77,279161,1,0,0:0:0:0:
353,77,279232,2,0,L|297:70,1,52.2500015945435,2|0,0:1|0:1,0:1:0:0:
441,229,279375,1,0,0:0:0:0:
441,229,279446,1,0,0:0:0:0:
441,229,279518,53,14,0:1:0:0:
438,216,279589,1,0,0:1:0:0:
429,207,279661,1,0,0:1:0:0:
417,202,279732,1,0,0:1:0:0:
404,205,279803,1,2,0:1:0:0:
394,212,279875,1,0,0:1:0:0:
388,224,279946,1,8,0:1:0:0:
389,238,280018,1,0,0:1:0:0:
396,248,280089,1,2,0:1:0:0:
406,256,280161,1,0,0:1:0:0:
419,256,280232,1,0,0:1:0:0:
432,251,280303,1,0,0:1:0:0:
441,229,280375,53,14,0:1:0:0:
427,194,280446,1,0,0:1:0:0:
390,177,280518,1,0,0:1:0:0:
349,177,280589,1,0,0:1:0:0:
313,191,280661,1,0,0:1:0:0:
281,221,280732,1,0,0:1:0:0:
265,258,280803,1,10,0:1:0:0:
268,298,280875,1,0,0:1:0:0:
283,336,280946,1,2,0:1:0:0:
313,363,281018,1,0,0:1:0:0:
351,378,281089,1,0,0:1:0:0:
393,377,281161,1,0,0:1:0:0:
412,355,281232,21,14,0:1:0:0:
410,339,281303,1,0,0:1:0:0:
408,323,281375,1,0,0:1:0:0:
406,307,281446,1,0,0:1:0:0:
404,291,281518,1,0,0:1:0:0:
402,275,281589,1,0,0:1:0:0:
400,259,281661,1,8,0:1:0:0:
398,244,281732,1,0,0:1:0:0:
396,228,281803,1,2,0:1:0:0:
394,212,281875,1,0,0:1:0:0:
392,196,281946,1,0,0:1:0:0:
390,177,282018,1,0,0:1:0:0:
414,137,282089,53,14,0:1:0:0:
364,118,282161,1,0,0:0:0:0:
313,130,282232,1,0,0:0:0:0:
278,169,282303,1,0,0:0:0:0:
247,211,282375,1,10,0:0:0:0:
207,244,282446,1,8,0:0:0:0:
164,264,282518,1,4,0:0:0:0:
122,258,282589,1,4,0:0:0:0:
95,231,282661,1,10,0:1:0:0:
92,199,282732,1,8,0:1:0:0:
108,179,282803,1,8,0:1:0:0:
129,179,282875,1,8,0:1:0:0:
142,186,282946,54,0,L|149:238,11,52.2500015945435,6|0|0|0|0|0|0|0|0|0|0|0,0:1|0:0|0:0|0:0|0:0|0:0|0:0|0:0|0:0|0:0|0:0|0:0,0:0:0:0:
149,73,283803,21,14,3:1:0:0:
187,84,283875,1,0,0:1:0:0:
219,106,283946,1,0,0:1:0:0:
239,140,284018,1,0,0:1:0:0:
246,178,284089,1,0,0:1:0:0:
236,217,284161,1,0,0:1:0:0:
213,249,284232,1,2,0:1:0:0:
179,269,284303,1,0,0:1:0:0:
140,275,284375,1,2,0:1:0:0:
102,264,284446,1,0,0:1:0:0:
71,241,284518,1,0,0:1:0:0:
51,207,284589,1,0,0:1:0:0:
48,169,284661,54,0,P|56:143|85:114,3,52.2500015945435,2|0|0|0,0:1|0:1|0:1|0:1,0:1:0:0:
142,186,284946,2,0,P|170:180|209:191,3,52.2500015945435,2|0|0|0,0:1|0:1|0:1|0:1,0:1:0:0:
179,269,285232,2,0,P|199:290|209:330,3,52.2500015945435,2|0|0|0,0:1|0:1|0:1|0:1,0:1:0:0:
313,384,285518,53,14,0:1:0:0:
317,360,285589,1,0,0:1:0:0:
320,336,285661,1,0,0:1:0:0:
322,313,285732,1,0,0:1:0:0:
325,289,285803,1,2,0:1:0:0:
328,266,285875,1,0,0:1:0:0:
331,242,285946,1,0,0:1:0:0:
334,218,286018,1,0,0:1:0:0:
336,195,286089,2,0,L|341:137,3,52.2500015945435,2|0|0|0,0:1|0:1|0:1|0:1,0:1:0:0:
190,137,286375,21,6,0:1:0:0:
194,141,286446,1,0,0:1:0:0:
197,144,286518,1,0,0:1:0:0:
198,149,286589,1,0,0:1:0:0:
196,154,286661,1,2,0:1:0:0:
192,157,286732,1,0,0:1:0:0:
188,158,286803,1,0,0:1:0:0:
183,157,286875,1,0,0:1:0:0:
180,154,286946,1,2,0:1:0:0:
178,149,287018,1,0,0:1:0:0:
179,145,287089,1,0,0:1:0:0:
181,140,287161,1,0,0:1:0:0:
190,137,287232,53,14,0:1:0:0:
222,158,287303,1,0,0:1:0:0:
239,193,287375,1,0,0:1:0:0:
244,232,287446,1,0,0:1:0:0:
233,271,287518,1,0,0:1:0:0:
211,302,287589,1,0,0:1:0:0:
178,325,287661,1,2,0:1:0:0:
139,334,287732,1,0,0:1:0:0:
100,329,287803,1,2,0:1:0:0:
65,311,287875,1,0,0:1:0:0:
40,281,287946,1,0,0:1:0:0:
28,243,288018,1,0,0:1:0:0:
31,201,288089,54,0,L|37:150,3,52.2500015945435,2|0|0|0,0:0|0:0|0:0|0:0,0:0:0:0:
105,56,288375,2,0,L|111:108,3,52.2500015945435,2|0|0|0,0:0|0:0|0:0|0:0,0:0:0:0:
196,195,288661,2,0,L|202:144,3,52.2500015945435,2|0|0|0,0:0|0:0|0:0|0:0,0:0:0:0:
217,39,288946,21,14,0:1:0:0:
245,30,289018,1,0,0:1:0:0:
274,33,289089,1,0,0:1:0:0:
301,46,289161,1,0,0:1:0:0:
322,66,289232,1,2,0:1:0:0:
343,87,289303,1,0,0:1:0:0:
367,104,289375,1,0,0:1:0:0:
396,111,289446,1,0,0:1:0:0:
425,106,289518,2,0,L|430:53,3,52.2500015945435,2|0|0|0,0:1|0:1|0:1|0:1,0:1:0:0:
288,235,289803,53,6,0:1:0:0:
295,223,289875,1,0,0:1:0:0:
307,216,289946,1,0,0:1:0:0:
321,214,290018,1,0,0:1:0:0:
335,221,290089,1,2,0:1:0:0:
343,232,290161,1,0,0:1:0:0:
346,246,290232,1,0,0:1:0:0:
341,260,290303,1,0,0:1:0:0:
331,270,290375,1,2,0:1:0:0:
317,275,290446,1,0,0:1:0:0:
304,272,290518,1,0,0:1:0:0:
292,262,290589,1,0,0:1:0:0:
281,243,290661,53,14,0:1:0:0:
282,197,290732,1,0,0:1:0:0:
298,155,290803,1,0,0:1:0:0:
330,123,290875,1,0,0:1:0:0:
370,105,290946,1,0,0:1:0:0:
418,103,291018,1,0,0:1:0:0:
459,120,291089,1,2,0:1:0:0:
488,154,291161,1,0,0:1:0:0:
507,195,291232,1,2,0:1:0:0:
504,241,291303,1,0,0:1:0:0:
487,283,291375,1,0,0:1:0:0:
454,316,291446,1,0,0:1:0:0:
426,338,291518,21,2,0:1:0:0:
407,301,291589,1,0,0:1:0:0:
404,263,291661,1,0,0:1:0:0:
416,226,291732,1,0,0:1:0:0:
435,193,291803,1,0,0:1:0:0:
453,158,291875,1,0,0:1:0:0:
459,120,291946,1,2,0:1:0:0:
454,83,292018,1,0,0:1:0:0:
435,49,292089,1,0,0:1:0:0:
404,26,292161,1,0,0:1:0:0:
367,15,292232,1,0,0:1:0:0:
328,17,292303,1,0,0:1:0:0:
289,35,292375,54,0,P|269:50|255:78,1,52.2500015945435,14|0,0:1|0:0,0:0:0:0:
355,158,292518,1,0,0:0:0:0:
355,158,292589,1,0,0:0:0:0:
355,158,292661,2,0,P|352:134|335:108,1,52.2500015945435,2|0,0:1|0:0,0:0:0:0:
211,158,292803,1,0,0:0:0:0:
211,158,292875,1,0,0:0:0:0:
211,158,292946,2,0,P|233:168|264:166,1,52.2500015945435,2|0,0:1|0:0,0:0:0:0:
289,35,293089,1,0,0:0:0:0:
289,35,293161,1,0,0:0:0:0:
289,35,293232,54,0,B|250:82|250:82|268:229,1,209.000006378174,14|2,0:1|0:0,0:0:0:0:
325,375,293661,1,14,0:1:0:0:
463,299,293803,2,0,L|451:196,1,104.500003189087,2|0,0:0|0:0,0:0:0:0:
484,91,294089,22,0,B|434:59|351:100|382:126|329:167|257:155,1,209.000006378174,14|2,0:1|0:0,0:0:0:0:
98,112,294518,1,12,0:1:0:0:
167,264,294661,1,2,0:0:0:0:
243,39,294803,1,0,0:0:0:0:
162,285,294946,54,0,P|211:300|258:270,1,104.500003189087,14|0,0:1|0:0,0:0:0:0:
313,16,295232,1,2,0:0:0:0:
274,16,295303,1,0,0:0:0:0:
243,39,295375,1,8,0:0:0:0:
230,75,295446,1,8,0:0:0:0:
240,112,295518,1,6,0:0:0:0:
359,150,295661,1,0,0:0:0:0:
162,285,295803,54,0,L|146:158,1,104.500003189087,14|8,0:1|0:0,0:0:0:0:
375,281,296089,2,0,L|362:384,1,104.500003189087,6|4,0:0|0:0,0:0:0:0:
53,261,296375,21,10,0:1:0:0:
359,150,296518,1,8,0:1:0:0:
5,48,296661,1,6,0:1:0:0:
256,192,296732,12,0,303518,0:0:0:0:
459,122,310089,53,0,3:0:0:0:
458,121,310375,2,0,P|387:46|286:61,1,213.750008153916,4|8,0:1|0:0,0:0:0:0:
229,125,310946,2,0,L|237:195,1,71.2500027179719
367,323,311232,2,0,L|384:181,1,142.500005435944,4|0,0:0|0:0,0:0:0:0:
213,117,311661,2,0,L|221:187,2,71.2500027179719
367,323,312089,54,0,B|317:291|252:333|293:351|234:400|166:367,1,213.750008153916,4|0,0:0|0:0,0:0:0:0:
94,325,312661,1,0,0:0:0:0:
94,325,312946,2,0,L|116:166,1,142.500005435944,4|0,0:0|0:0,0:0:0:0:
205,222,313375,2,0,L|197:292,2,71.2500027179719
256,65,313803,22,0,P|223:80|201:108,1,71.2500027179719,4|0,0:0|0:0,0:0:0:0:
314,231,314089,2,0,P|317:195|304:163,1,71.2500027179719,0|8,0:0|0:0,0:0:0:0:
142,198,314375,2,0,P|170:218|205:223,1,71.2500027179719
436,324,314661,2,0,B|456:288|456:288|443:182,1,142.500005435944,4|0,0:0|0:0,0:0:0:0:
329,192,315089,1,0,0:0:0:0:
329,192,315232,2,0,L|337:122,1,71.2500027179719
357,28,315518,54,0,P|330:94|182:91,1,213.750008153916,4|0,0:0|0:0,0:0:0:0:
99,68,316089,2,0,L|107:139,1,71.2500027179719,4|0,0:0|0:0,0:0:0:0:
20,263,316375,54,0,B|85:224|144:268|118:283|180:331|233:310,1,213.750008153916,8|0,0:0|0:0,0:0:0:0:
288,363,316946,2,0,P|324:337|370:334,1,71.2500027179719,4|8,0:0|0:0,0:0:0:0:
439,384,317232,21,4,0:0:0:0:
499,214,317518,1,0,0:0:0:0:
499,214,317661,2,0,L|419:223,2,71.2500027179719,8|4|0,0:0|0:0|0:0,0:0:0:0:
349,332,318089,2,0,P|299:258|324:137,1,213.750008153916,4|0,0:0|0:0,0:0:0:0:
462,75,318661,2,0,L|391:67,1,71.2500027179719,8|4,0:0|0:0,0:0:0:0:
161,29,318946,54,0,L|178:170,1,142.500005435944,4|0,0:0|0:0,0:0:0:0:
312,211,319375,1,0,0:0:0:0:
312,211,319518,2,0,L|320:140,1,71.2500027179719
148,45,319803,2,0,L|165:186,1,142.500005435944,4|0,0:0|0:0,0:0:0:0:
261,59,320232,1,8,0:0:0:0:
261,59,320375,1,0,0:0:0:0:
40,348,320661,54,0,P|40:260|111:311,1,213.750008153916,4|0,0:0|0:0,0:0:0:0:
165,186,321232,1,0,0:0:0:0:
235,360,321518,1,8,0:0:0:0:
377,281,321803,2,0,L|307:272,2,71.2500027179719,8|0|4,0:0|0:0|0:0,0:0:0:0:
331,180,322232,1,4,0:0:0:0:
331,180,322375,21,4,0:0:0:0:
235,360,322661,1,8,0:0:0:0:
118,96,322946,1,8,0:0:0:0:
377,281,323232,53,8,0:1:0:0:
26,199,323518,2,0,L|35:280,1,71.2500027179719
329,66,323803,2,0,L|319:147,1,71.2500027179719
228,383,324089,54,0,B|185:339|185:339|208:157,1,213.750008153916,6|0,0:1|0:0,0:0:0:0:
118,96,324803,1,0,0:0:0:0:
118,96,324875,1,0,0:0:0:0:
118,96,324946,22,0,B|168:59|216:88|216:88|230:89|230:89|297:183|381:166,1,285.000010871888,14|2,0:1|0:0,0:0:0:0:
488,111,325803,2,0,L|466:285,1,142.500005435944,2|2,0:0|0:0,0:0:0:0:
433,360,326232,1,8,0:0:0:0:
433,360,326518,1,0,0:0:0:0:
433,360,326589,1,0,0:0:0:0:
433,360,326661,2,0,P|389:309|308:324,1,142.500005435944,10|10,0:1|0:0,0:0:0:0:
210,263,327089,2,0,L|218:333,2,71.2500027179719,0|6|4,0:0|0:0|0:0,0:0:0:0:
64,118,327518,54,0,B|31:105|14:72|16:22|73:-10|143:9|166:67|136:80|198:157|278:149,1,356.25001358986,6|0,0:1|0:0,0:0:0:0:
374,148,328375,2,0,P|341:99|356:6,2,142.500005435944,10|2|2,0:1|0:0|0:0,0:0:0:0:
468,257,329089,1,0,0:0:0:0:
468,257,329161,1,0,0:0:0:0:
468,257,329232,2,0,B|433:234|433:234|319:265,1,142.500005435944,2|2,0:0|0:0,0:0:0:0:
142,338,329661,1,8,0:1:0:0:
224,294,329946,53,0,0:0:0:0:
224,294,330018,1,0,0:0:0:0:
224,294,330089,2,0,P|234:308|237:325,3,35.625001358986,10|0|0|0,0:1|0:0|0:0|0:0,0:0:0:0:
124,240,330375,2,0,P|126:222|136:208,3,35.625001358986,10|0|0|0,0:1|0:0|0:0|0:0,0:0:0:0:
231,187,330661,21,10,0:1:0:0:
142,338,330803,1,8,0:1:0:0:
55,63,330946,54,0,L|102:57,2,47.5000018119813,6|0|0,0:1|2:0|2:0,0:0:0:0:
29,154,331232,2,0,L|76:148,2,47.5000018119813,2|0|0,0:1|2:0|2:0,0:0:0:0:
231,86,331518,1,0,0:0:0:0:
228,101,331613,1,0,2:0:0:0:
226,116,331708,1,0,2:0:0:0:
224,133,331803,54,0,L|233:204,2,53.8333343601227,14|0|0,0:1|2:0|2:0,0:0:0:0:
363,92,332089,2,0,L|354:20,2,53.8333343601227,2|0|0,2:0|2:0|2:0,2:0:0:0:
485,240,332375,1,2,0:0:0:0:
443,242,332470,1,0,2:0:0:0:
424,279,332565,1,0,2:0:0:0:
448,319,332661,21,2,0:0:0:0:
471,253,332756,53,0,2:3:0:0:
463,183,332851,53,0,2:3:0:0:
426,123,332946,21,2,2:3:0:0:
363,92,333041,53,0,2:3:0:0:
292,98,333137,53,0,2:3:0:0:
231,142,333232,21,2,2:3:0:0:
182,199,333327,53,2,2:3:0:0:
107,206,333422,53,2,2:3:0:0:
43,164,333518,21,14,0:1:0:0:
37,175,333803,54,0,L|46:254,1,80.750001540184,8|8,0:0|0:0,0:0:0:0:
182,306,334089,1,0,0:0:0:0:
83,363,334232,1,0,0:0:0:0:
148,101,334375,54,0,B|218:47|328:117|277:150|363:209|454:169,1,323.000006160736,6|2,0:1|0:0,0:0:0:0:
398,58,335089,1,0,0:0:0:0:
398,58,335161,1,0,0:0:0:0:
398,58,335232,2,0,B|356:102|356:102|379:290,1,242.250004620552,10|0,0:1|0:0,0:0:0:0:
466,359,335803,2,0,L|478:290,2,53.8333343601227,2|0|0,0:0|2:0|2:0,0:0:0:0:
330,380,336089,21,0,0:0:0:0:
378,282,336375,1,0,0:0:0:0:
378,282,336518,2,0,L|278:294,1,80.750001540184,8|2,0:1|0:0,0:0:0:0:
198,332,336803,1,0,0:0:0:0:
198,332,336875,1,0,0:0:0:0:
198,332,336946,54,0,P|174:360|125:368,1,80.750001540184,10|8,0:1|0:1,0:0:0:0:
0,333,337232,2,0,P|24:305|73:297,1,80.750001540184,10|8,0:0|0:3,0:0:0:0:
177,157,337518,1,10,0:0:0:0:
179,177,337589,1,8,0:0:0:0:
181,197,337661,1,4,0:0:0:0:
184,217,337732,1,4,0:0:0:0:
186,237,337803,54,0,L|198:340,1,95,6|0,0:1|0:0,0:0:0:0:
26,273,338089,2,0,L|37:178,1,95,0|0,0:1|0:0,0:0:0:0:
273,105,338375,2,0,L|284:199,1,95,0|0,0:1|0:0,0:0:0:0:
90,96,338661,1,12,0:1:0:0:
90,96,338803,1,0,0:0:0:0:
177,157,338946,1,0,0:0:0:0:
177,157,339089,1,0,0:0:0:0:
273,105,339232,1,0,0:0:0:0:
273,105,339375,1,0,0:0:0:0:
207,35,339518,22,0,P|178:72|177:119,1,95,4|0,0:1|0:0,0:0:0:0:
358,153,339803,2,0,P|339:109|299:85,1,95
181,225,340089,2,0,P|227:230|268:208,1,95,0|0,0:1|0:0,0:0:0:0:
437,72,340375,1,12,0:1:0:0:
437,72,340518,1,0,0:0:0:0:
358,153,340661,1,0,0:0:0:0:
358,153,340803,1,0,0:0:0:0:
428,235,340946,1,8,0:1:0:0:
428,235,341089,1,0,0:0:0:0:
362,334,341232,54,0,L|266:322,1,95,4|0,0:1|0:0,0:0:0:0:
174,220,341518,2,0,L|268:208,1,95,0|0,0:1|0:0,0:0:0:0:
178,384,341803,2,0,L|83:372,1,95,0|0,0:1|0:0,0:0:0:0:
83,143,342089,1,12,0:1:0:0:
83,143,342232,1,0,0:0:0:0:
174,220,342375,1,0,0:0:0:0:
174,220,342518,1,0,0:0:0:0:
58,261,342661,1,0,0:0:0:0:
58,261,342803,1,0,0:0:0:0:
268,208,342946,54,0,P|277:162|259:119,1,95,4|0,0:1|0:0,0:0:0:0:
83,143,343232,2,0,P|117:174|164:180,1,95,0|0,0:1|0:0,0:0:0:0:
232,16,343518,2,0,P|187:30|159:67,1,95,0|0,0:1|0:0,0:0:0:0:
223,303,343803,22,0,L|290:311,3,47.5,12|0|0|0,0:1|0:0|0:0|0:0,0:0:0:0:
315,202,344089,2,0,L|247:210,3,47.5,0|0|0|0,0:1|0:0|0:0|0:0,0:0:0:0:
407,371,344375,1,4,0:1:0:0:
387,357,344446,1,0,0:0:0:0:
372,332,344518,1,0,0:0:0:0:
378,285,344589,1,0,0:0:0:0:
432,237,344661,54,0,B|464:200|464:200|443:35,1,190,6|8,0:1|0:0,0:0:0:0:
213,17,345089,2,0,L|201:111,2,95,0|4|4,0:0|0:0|0:0,0:0:0:0:
185,239,345518,54,0,P|98:215|34:279,2,190,10|0|0,0:1|0:0|0:0,0:0:0:0:
70,52,346375,2,0,B|101:87|100:121|100:121|96:129|96:129|105:155|88:203|88:203|131:90|282:77|355:207|340:283|285:371|197:393|130:373|105:291|147:248|203:233,1,760,6|0,3:1|2:2,2:0:0:0:
119,208,360946,22,0,P|132:228|140:251,3,47.5,8|8|8|8,0:0|0:0|0:0|0:0,0:0:0:0:
26,312,361232,2,0,P|33:289|46:269,3,47.5,4|4|4|4,0:0|0:0|0:0|0:0,0:0:0:0:
107,360,361518,1,14,0:1:0:0:
302,186,361803,53,6,0:1:0:0:
284,173,361875,1,0,0:0:0:0:
266,163,361946,1,0,0:0:0:0:
245,158,362018,1,0,0:0:0:0:
225,155,362089,1,0,0:0:0:0:
205,156,362161,1,0,0:0:0:0:
185,159,362232,1,0,0:0:0:0:
165,167,362303,1,0,0:0:0:0:
148,178,362375,1,0,0:0:0:0:
132,192,362446,1,0,0:0:0:0:
119,208,362518,1,0,0:0:0:0:
108,226,362589,1,0,0:0:0:0:
100,260,362661,53,14,0:1:0:0:
63,226,362732,1,0,0:1:0:0:
43,180,362803,1,0,0:1:0:0:
43,130,362875,1,0,0:1:0:0:
59,84,362946,1,0,0:1:0:0:
96,46,363018,1,0,0:1:0:0:
142,26,363089,1,2,0:1:0:0:
192,30,363161,1,0,0:1:0:0:
238,48,363232,1,2,0:1:0:0:
272,86,363303,1,0,0:1:0:0:
291,132,363375,1,0,0:1:0:0:
289,183,363446,1,0,0:1:0:0:
267,229,363518,21,2,0:0:0:0:
232,212,363589,1,0,0:0:0:0:
207,182,363661,1,0,0:0:0:0:
195,145,363732,1,0,0:0:0:0:
200,106,363803,1,2,0:0:0:0:
219,71,363875,1,0,0:0:0:0:
250,48,363946,1,0,0:0:0:0:
289,39,364018,1,0,0:0:0:0:
327,45,364089,1,2,0:0:0:0:
360,67,364161,1,0,0:0:0:0:
382,100,364232,1,0,0:0:0:0:
389,138,364303,1,0,0:0:0:0:
387,178,364375,54,0,L|379:235,3,56.9999982604981,14|0|0|0,0:1|0:0|0:1|0:0,0:0:0:0:
273,285,364661,2,0,L|265:227,3,56.9999982604981,2|0|0|0,0:1|0:0|0:0|0:0,0:0:0:0:
414,328,364946,2,0,L|406:385,3,56.9999982604981,2|0|0|0,0:1|0:0|0:0|0:0,0:0:0:0:
103,350,365232,53,6,0:1:0:0:
95,337,365303,1,0,0:1:0:0:
95,323,365375,1,0,0:1:0:0:
101,310,365446,1,0,0:1:0:0:
114,301,365518,1,2,0:1:0:0:
127,299,365589,1,0,0:1:0:0:
141,304,365661,1,0,0:1:0:0:
151,316,365732,1,0,0:1:0:0:
154,329,365803,1,2,0:1:0:0:
151,343,365875,1,0,0:1:0:0:
142,354,365946,1,0,0:1:0:0:
128,359,366018,1,0,0:1:0:0:
101,357,366089,21,14,0:1:0:0:
69,323,366161,1,0,0:1:0:0:
51,282,366232,1,0,0:1:0:0:
51,237,366303,1,0,0:1:0:0:
66,195,366375,1,0,0:1:0:0:
99,161,366446,1,0,0:1:0:0:
140,142,366518,1,2,0:1:0:0:
185,147,366589,1,0,0:1:0:0:
227,163,366661,1,2,0:1:0:0:
257,197,366732,1,0,0:1:0:0:
275,239,366803,1,0,0:1:0:0:
273,285,366875,1,0,0:1:0:0:
253,321,366946,53,2,0:0:0:0:
217,310,367018,1,0,0:0:0:0:
187,287,367089,1,0,0:0:0:0:
167,255,367161,1,0,0:0:0:0:
160,218,367232,1,2,0:0:0:0:
166,180,367303,1,0,0:0:0:0:
185,147,367375,1,0,0:0:0:0:
213,123,367446,1,0,0:0:0:0:
249,111,367518,1,2,0:0:0:0:
287,111,367589,1,0,0:0:0:0:
322,125,367661,1,0,0:0:0:0:
350,150,367732,1,0,0:0:0:0:
368,184,367803,54,0,P|376:211|374:239,3,56.9999982604981,14|0|0|0,0:1|0:0|0:0|0:0,0:0:0:0:
264,217,368089,2,0,P|236:210|212:195,3,56.9999982604981,2|0|0|0,0:1|0:0|0:0|0:0,0:0:0:0:
287,111,368375,2,0,P|306:90|331:77,3,56.9999982604981,2|0|0|0,0:1|0:0|0:0|0:0,0:0:0:0:
353,313,368661,21,6,3:1:0:0:
353,303,368732,1,0,0:1:0:0:
355,290,368803,1,0,0:1:0:0:
356,279,368875,1,0,0:1:0:0:
358,267,368946,1,2,0:1:0:0:
359,255,369018,1,0,0:1:0:0:
361,242,369089,1,0,0:1:0:0:
362,231,369161,1,0,0:1:0:0:
364,220,369232,1,2,0:1:0:0:
365,208,369303,1,0,0:1:0:0:
367,196,369375,1,0,0:1:0:0:
368,184,369446,1,0,0:1:0:0:
394,153,369518,53,14,0:1:0:0:
343,127,369589,1,0,0:0:0:0:
287,125,369661,1,0,0:0:0:0:
235,146,369732,1,0,0:0:0:0:
197,188,369803,1,0,0:0:0:0:
180,242,369875,1,0,0:0:0:0:
187,298,369946,1,2,0:0:0:0:
218,346,370018,1,0,0:0:0:0:
266,376,370089,1,2,0:0:0:0:
322,383,370161,1,0,0:0:0:0:
376,366,370232,1,0,0:0:0:0:
417,328,370303,1,0,0:0:0:0:
409,283,370375,53,2,0:1:0:0:
368,260,370446,1,0,0:0:0:0:
324,260,370518,1,0,0:0:0:0:
283,278,370589,1,0,0:0:0:0:
251,310,370661,1,0,0:0:0:0:
222,343,370732,1,0,0:0:0:0:
185,368,370803,1,0,0:0:0:0:
143,383,370875,1,0,0:0:0:0:
99,382,370946,1,2,0:0:0:0:
59,359,371018,1,0,0:0:0:0:
33,321,371089,1,0,0:0:0:0:
27,275,371161,1,0,0:0:0:0:
44,239,371232,21,14,0:1:0:0:
79,221,371303,1,0,0:0:0:0:
118,227,371375,1,0,0:0:0:0:
152,246,371446,1,0,0:0:0:0:
189,260,371518,1,2,0:0:0:0:
228,258,371589,1,0,0:0:0:0:
261,235,371661,1,0,0:0:0:0:
273,203,371732,1,0,0:0:0:0:
267,169,371803,1,10,0:1:0:0:
245,150,371875,1,0,0:0:0:0:
222,149,371946,1,0,0:1:0:0:
207,158,372018,1,0,0:0:0:0:
199,173,372089,54,0,L|206:236,3,56.9999982604981,14|0|0|0,0:1|0:0|0:0|0:0,0:0:0:0:
344,307,372375,2,0,L|350:250,3,56.9999982604981,2|0|8|0,0:1|0:0|0:1|0:0,0:0:0:0:
489,173,372661,2,0,L|495:229,3,56.9999982604981,2|0|0|0,0:1|0:0|0:1|0:0,0:0:0:0:
355,52,372946,53,14,0:1:0:0:
337,59,373018,1,0,0:0:0:0:
324,72,373089,1,0,0:0:0:0:
316,89,373161,1,0,0:0:0:0:
317,108,373232,1,2,0:0:0:0:
324,125,373303,1,0,0:0:0:0:
338,139,373375,1,8,0:1:0:0:
356,145,373446,1,0,0:0:0:0:
375,144,373518,1,2,0:0:0:0:
392,136,373589,1,0,0:0:0:0:
404,122,373661,1,0,0:0:0:0:
410,104,373732,1,0,0:0:0:0:
409,85,373803,21,14,0:1:0:0:
381,55,373875,1,0,0:0:0:0:
341,55,373946,1,0,0:0:0:0:
306,74,374018,1,0,0:0:0:0:
279,103,374089,1,2,0:0:0:0:
259,138,374161,1,0,0:0:0:0:
226,161,374232,1,8,0:1:0:0:
187,170,374303,1,0,0:0:0:0:
147,163,374375,2,0,P|137:137|139:102,3,56.9999982604981,2|0|0|0,0:0|0:0|0:0|0:0,0:0:0:0:
185,34,374661,54,0,L|241:27,3,56.9999982604981,14|8|8|8,0:1|0:0|0:0|0:0,0:0:0:0:
96,236,374946,2,0,L|39:229,3,56.9999982604981,10|4|4|4,0:1|0:0|0:0|0:0,0:0:0:0:
207,358,375232,1,14,0:1:0:0:
419,158,375518,54,0,B|383:126|328:143|328:143|303:219|204:218,1,246.999988693238,6|2,0:1|0:1,0:1:0:0:
147,163,375946,1,4,0:1:0:0:
356,343,376089,2,0,P|380:292|371:237,1,113.999996520996,2|0,0:1|0:1,0:1:0:0:
55,48,376375,22,0,B|11:89|11:89|22:180|22:180|18:188|18:188|29:254,1,227.999993041992,14|2,0:1|0:1,0:1:0:0:
89,334,376803,1,4,0:1:0:0:
259,176,376946,2,0,L|139:161,1,113.999996520996,6|0,0:1|0:1,0:1:0:0:
231,381,377232,2,0,L|350:366,1,113.999996520996,6|0,0:1|0:1,0:1:0:0:
405,91,377518,1,0,0:0:0:0:
372,238,377661,2,0,L|491:223,2,113.999996520996,6|0|0,0:1|0:1|0:1,0:1:0:0:
152,24,378089,53,14,0:1:0:0:
94,254,378232,1,0,0:1:0:0:
259,176,378375,1,2,0:1:0:0:
69,117,378518,1,0,0:1:0:0:
188,374,378661,2,0,P|212:323|203:268,1,113.999996520996,6|0,0:1|0:1,0:1:0:0:
7,184,378946,54,0,B|50:219|50:219|217:178,1,227.999993041992,6|0,0:1|0:1,0:1:0:0:
405,91,379375,1,4,0:1:0:0:
308,0,379518,2,0,P|283:50|292:105,1,113.999996520996,2|0,0:1|0:1,0:1:0:0:
485,224,379803,22,0,L|371:210,2,113.999996520996,14|0|0,0:1|0:1|0:1,0:1:0:0:
405,91,380232,1,6,0:1:0:0:
314,340,380375,1,6,0:1:0:0:
208,188,380518,1,0,0:1:0:0:
120,331,380661,54,0,P|175:327|219:291,1,113.999996520996,6|0,0:1|0:1,0:1:0:0:
109,29,380946,2,0,P|85:79|94:134,1,113.999996520996,2|4,0:1|0:1,0:1:0:0:
376,171,381232,2,0,P|344:125|292:105,1,113.999996520996,2|0,0:1|0:1,0:1:0:0:
208,188,381518,54,0,L|228:357,1,170.999994781494,14|0,0:1|0:1,0:1:0:0:
233,384,381803,1,2,0:1:0:0:
50,268,381946,1,0,0:1:0:0:
292,105,382089,2,0,L|411:119,1,113.999996520996,14|0,0:1|0:0,0:0:0:0:
189,200,382375,22,0,B|139:159|139:159|171:0,1,227.999993041992,6|2,0:1|0:1,0:1:0:0:
452,210,382803,1,4,0:1:0:0:
228,357,382946,2,0,L|108:342,1,113.999996520996,2|0,0:1|0:0,0:0:0:0:
496,117,383232,54,0,B|437:80|365:127|410:150|350:201|270:166,1,227.999993041992,14|2,0:1|0:0,0:0:0:0:
50,86,383661,1,4,0:1:0:0:
171,0,383803,2,0,P|195:51|186:106,1,113.999996520996,2|0,0:1|0:1,0:1:0:0:
7,213,384089,54,0,L|121:199,2,113.999996520996,6|0|0,0:1|0:1|0:1,0:1:0:0:
50,86,384518,1,6,0:1:0:0:
211,360,384661,1,2,0:1:0:0:
294,173,384803,1,0,0:1:0:0:
120,199,384946,21,14,0:1:0:0:
360,298,385089,1,0,0:0:0:0:
211,360,385232,2,0,B|187:328|187:328|200:240,1,113.999996520996,6|0,0:1|0:0,0:0:0:0:
412,55,385518,2,0,B|436:87|436:87|423:175,1,113.999996520996,6|0,0:1|0:0,0:0:0:0:
182,88,385803,53,14,0:1:0:0:
360,298,385946,1,0,0:0:0:0:
361,298,386089,1,2,0:0:0:0:
75,184,386232,53,12,0:1:0:0:
355,122,386375,1,2,0:0:0:0:
355,122,386518,1,0,0:0:0:0:
126,339,386661,21,14,0:1:0:0:
186,71,386803,1,0,0:0:0:0:
373,313,386946,1,0,0:0:0:0:
66,166,387089,53,14,0:1:0:0:
358,109,387232,1,0,0:0:0:0:
132,356,387375,1,0,0:0:0:0:
189,55,387518,54,0,B|245:31|304:71|266:107|333:169|397:132,1,227.999993041992,14|2,0:1|0:0,0:0:0:0:
450,66,387946,1,12,0:1:0:0:
187,162,388089,1,0,0:0:0:0:
426,330,388232,1,0,0:0:0:0:
426,330,388303,1,0,0:0:0:0:
426,330,388375,22,0,B|445:290|445:290|421:198,1,113.999996520996,14|0,0:1|0:0,0:0:0:0:
189,55,388661,2,0,B|170:95|170:95|194:187,1,113.999996520996,8|8,0:0|0:0,0:0:0:0:
224,288,388946,1,4,0:1:0:0:
224,288,389089,1,4,0:0:0:0:
355,45,389232,54,0,B|273:-5|193:66|235:101|151:162|69:118,1,313.500009567261,14|0,0:1|0:0,0:0:0:0:
0,72,389803,1,2,0:0:0:0:
60,288,389946,1,0,0:0:0:0:
60,288,390018,1,0,0:0:0:0:
60,288,390089,2,0,L|144:277,1,85.4999973907472,14|0,0:1|0:0,0:0:0:0:
377,156,390375,2,0,L|275:143,1,95,10|8,0:0|0:0,0:0:0:0:
154,129,390661,1,4,0:1:0:0:
154,129,390803,1,4,0:0:0:0:
297,338,390946,54,0,B|235:275|235:275|265:31,1,313.500009567261,14|0,0:1|0:0,0:0:0:0:
377,156,391518,1,2,0:0:0:0:
73,300,391661,1,0,0:0:0:0:
73,300,391732,1,0,0:0:0:0:
73,300,391803,21,14,0:1:0:0:
56,255,391875,1,8,0:0:0:0:
77,214,391946,1,8,0:0:0:0:
121,200,392018,1,8,0:0:0:0:
162,220,392089,53,6,0:0:0:0:
181,253,392161,1,4,0:0:0:0:
217,267,392232,1,4,0:0:0:0:
254,260,392303,1,4,0:0:0:0:
279,232,392375,53,10,0:1:0:0:
275,191,392446,1,8,0:1:0:0:
272,149,392518,1,8,0:1:0:0:
268,107,392589,1,8,0:1:0:0:
262,51,392661,21,12,3:1:0:0:
256,192,392732,12,8,394089,0:0:0:0:
156,302,394232,53,4,0:0:0:0:
156,302,394375,2,0,B|104:249|126:167|126:167|141:206|184:220|184:220|261:163|239:78|195:39|195:39|239:78|293:127|198:202|271:249|341:252|386:196|386:196|407:236|412:348|312:376,1,950,6|0,0:1|2:0,0:0:0:0:
