osu file format v14

[General]
AudioFilename: audio.mp3
AudioLeadIn: 0
PreviewTime: 22111
Countdown: 0
SampleSet: Soft
StackLeniency: 0.7
Mode: 0
LetterboxInBreaks: 0
EpilepsyWarning: 1
WidescreenStoryboard: 1

[Editor]
Bookmarks: -2659,168,10454,11140,20740,22111,44054,46797,55711,65997,75597,88625,92397,94111,97883,103368,105854,109883
DistanceSpacing: 1
BeatDivisor: 4
GridSize: 8
TimelineZoom: 1

[Metadata]
Title:Raccoon City (feat Veela)
TitleUnicode:Raccoon City (feat Veela)
Artist:Aether & sizzlebird
ArtistUnicode:Aether & sizzlebird
Creator:xXRosalineXx
Version:Normal
Source:
Tags:
BeatmapID:1020576
BeatmapSetID:467702

[Difficulty]
HPDrainRate:3.5
CircleSize:3.5
OverallDifficulty:4.5
ApproachRate:5
SliderMultiplier:0.9
SliderTickRate:1

[Events]
//Background and Video events
0,0,"cute-anime-girl-wallpaper-2560x1440.jpg",0,0
//Break Periods
2,44254,45477
2,66197,87305
//Storyboard Layer 0 (Background)
Sprite,Background,Centre,"cute-anime-girl-wallpaper-2560x1440.jpg",320,240 M,0,0,,320,240 S,0,0,,0.6449031 C,0,0,17654,0,0,0,192,192,192 R,0,15768,,0 C,0,17654,20397,192,192,192,0,0,0 C,0,20397,22025,0,0,0 C,0,22111,65997,255,255,255 F,0,64625,,0.9958709 C,0,65997,88625,255,255,255,192,192,192 C,0,88625,97883,192,192,192,180,180,180 C,0,97883,103368,180,180,180,122,122,122 C,0,103368,107140,122,122,122,91,91,91 C,0,107140,111516,91,91,91,0,0,0
Sprite,Background,Centre,"cute-anime-girl-wallpaper-2560x1440.jpg",320,240 M,0,10454,,320.8258,239.1742 C,0,10454,,159,96,96 F,0,10454,11140,1,0 S,0,10454,11140,0.6449031,0.6779354
Sprite,Background,Centre,"cute-anime-girl-wallpaper-2560x1440.jpg",320,240 M,0,21425,,320,240 C,0,21425,,255,0,0 F,0,21425,22111,1,0 S,0,21425,22111,0.6449031,0.6779354
Sprite,Background,Centre,"cute-anime-girl-wallpaper-2560x1440.jpg",320,240 C,0,22111,,255,255,255 F,0,22111,22797,1,0 S,0,22111,22797,0.6449032,0.6696774
Sprite,Background,Centre,"cute-anime-girl-wallpaper-2560x1440.jpg",320,240 C,0,22797,,255,255,255 F,0,22797,23483,1,0 S,0,22797,23483,0.6449032,0.6696774
Sprite,Background,Centre,"cute-anime-girl-wallpaper-2560x1440.jpg",320,240 C,0,23483,,255,255,255 F,0,23483,24169,1,0 S,0,23483,24169,0.6449032,0.6696774
Sprite,Background,Centre,"cute-anime-girl-wallpaper-2560x1440.jpg",320,240 C,0,24854,,255,255,255 F,0,24854,25540,1,0 S,0,24854,25540,0.6449032,0.6696774
Sprite,Background,Centre,"cute-anime-girl-wallpaper-2560x1440.jpg",320,240 C,0,24168,,255,255,255 F,0,24168,24854,1,0 S,0,24168,24854,0.6449032,0.6696774
Sprite,Background,Centre,"cute-anime-girl-wallpaper-2560x1440.jpg",320,240 C,0,25540,,255,255,255 F,0,25540,26226,1,0 S,0,25540,26226,0.6449032,0.6696774
Sprite,Background,Centre,"cute-anime-girl-wallpaper-2560x1440.jpg",320,240 C,0,26225,,255,255,255 F,0,26225,26911,1,0 S,0,26225,26911,0.6449032,0.6696774
Sprite,Background,Centre,"cute-anime-girl-wallpaper-2560x1440.jpg",320,240 C,0,26911,,255,255,255 F,0,26911,27597,1,0 S,0,26911,27597,0.6449032,0.6696774
Sprite,Background,Centre,"SB\seperatebgsb\cute-anime-girl-wallpaper-2560x1440 brightwhite.jpg",320,240 M,0,27597,,320,240 F,0,27597,28283,1,0 S,0,27597,28283,0.5458064,0.5623226
Sprite,Background,Centre,"cute-anime-girl-wallpaper-2560x1440.jpg",320,240 C,0,28283,,255,255,255 F,0,28283,28969,1,0 S,0,28283,28969,0.6449032,0.6696774
Sprite,Background,Centre,"SB\seperatebgsb\cute-anime-girl-wallpaper-2560x1440 brightwhite.jpg",320,240 M,0,28968,,320,240 F,0,28968,29654,1,0 S,0,28968,29654,0.5458064,0.5623226
Sprite,Background,Centre,"cute-anime-girl-wallpaper-2560x1440.jpg",320,240 C,0,29654,,255,255,255 F,0,29654,30340,1,0 S,0,29654,30340,0.6449032,0.6696774
Sprite,Background,Centre,"SB\seperatebgsb\cute-anime-girl-wallpaper-2560x1440 brightwhite.jpg",320,240 M,0,30340,,320,240 F,0,30340,31026,1,0 S,0,30340,31026,0.5458064,0.5623226
Sprite,Background,Centre,"cute-anime-girl-wallpaper-2560x1440.jpg",320,240 C,0,31025,,255,255,255 F,0,31025,31711,1,0 S,0,31025,31711,0.6449032,0.6696774
Sprite,Background,Centre,"SB\seperatebgsb\cute-anime-girl-wallpaper-2560x1440 brightwhite.jpg",320,240 M,0,31711,,320,240 F,0,31711,32397,1,0 S,0,31711,32397,0.5458064,0.5623226
Sprite,Background,Centre,"cute-anime-girl-wallpaper-2560x1440.jpg",320,240 C,0,32397,,255,255,255 F,0,32397,33083,1,0 S,0,32397,33083,0.6449032,0.6696774
Sprite,Background,Centre,"SB\seperatebgsb\cute-anime-girl-wallpaper-2560x1440 bright.png",320,240 F,0,33083,33768,1,0 S,0,33083,33768,0.6449032,0.6779355
Sprite,Background,Centre,"cute-anime-girl-wallpaper-2560x1440.jpg",320,240 C,0,33768,,255,255,255 F,0,33768,34454,1,0 S,0,33768,34454,0.6449032,0.6696774
Sprite,Background,Centre,"SB\seperatebgsb\cute-anime-girl-wallpaper-2560x1440 bright.png",320,240 F,0,34454,35139,1,0 S,0,34454,35139,0.6449032,0.6779355
Sprite,Background,Centre,"cute-anime-girl-wallpaper-2560x1440.jpg",320,240 C,0,35140,,255,255,255 F,0,35140,35826,1,0 S,0,35140,35826,0.6449032,0.6696774
Sprite,Background,Centre,"SB\seperatebgsb\cute-anime-girl-wallpaper-2560x1440 bright.png",320,240 F,0,35825,36510,1,0 S,0,35825,36510,0.6449032,0.6779355
Sprite,Background,Centre,"cute-anime-girl-wallpaper-2560x1440.jpg",320,240 C,0,36511,,255,255,255 F,0,36511,37197,1,0 S,0,36511,37197,0.6449032,0.6696774
Sprite,Background,Centre,"SB\seperatebgsb\cute-anime-girl-wallpaper-2560x1440 bright.png",320,240 F,0,37197,37882,1,0 S,0,37197,37882,0.6449032,0.6779355
Sprite,Background,Centre,"cute-anime-girl-wallpaper-2560x1440.jpg",320,240 C,0,37883,,255,255,255 F,0,37883,38569,1,0 S,0,37883,38569,0.6449032,0.6696774
Sprite,Background,Centre,"SB\seperatebgsb\cute-anime-girl-wallpaper-2560x1440 diagonal lines.png",320,240 F,0,38568,39254,1,0 S,0,38568,39254,0.5458064,0.5623226
Sprite,Background,Centre,"cute-anime-girl-wallpaper-2560x1440.jpg",320,240 C,0,39254,,255,255,255 F,0,39254,39940,1,0 S,0,39254,39940,0.6449032,0.6696774
Sprite,Background,Centre,"SB\seperatebgsb\cute-anime-girl-wallpaper-2560x1440 diagonal lines.png",320,240 F,0,39940,40626,1,0 S,0,39940,40626,0.5458064,0.5623226
Sprite,Background,Centre,"cute-anime-girl-wallpaper-2560x1440.jpg",320,240 C,0,40625,,255,255,255 F,0,40625,41311,1,0 S,0,40625,41311,0.6449032,0.6696774
Sprite,Background,Centre,"SB\seperatebgsb\cute-anime-girl-wallpaper-2560x1440 diagonal lines.png",320,240 F,0,41311,41997,1,0 S,0,41311,41997,0.5458064,0.5623226
Sprite,Background,Centre,"cute-anime-girl-wallpaper-2560x1440.jpg",320,240 C,0,41997,,255,255,255 F,0,41997,42683,1,0 S,0,41997,42683,0.6449032,0.6696774
Sprite,Background,Centre,"SB\seperatebgsb\cute-anime-girl-wallpaper-2560x1440 diagonal lines.png",320,240 F,0,42683,43369,1,0 S,0,42683,43369,0.5458064,0.5623226
Sprite,Background,Centre,"cute-anime-girl-wallpaper-2560x1440.jpg",320,240 C,0,43368,,255,255,255 F,0,43368,44054,1,0 S,0,43368,44054,0.6449032,0.6696774
Sprite,Background,Centre,"SB\seperatebgsb\cute-anime-girl-wallpaper-2560x1440 glow.png",320,240 M,0,46797,,320,240 S,0,46797,,0.5375487 C,0,46797,,192,192,192 F,0,46797,47483,1,0
Sprite,Background,Centre,"SB\seperatebgsb\cute-anime-girl-wallpaper-2560x1440 glow.png",320,240 M,0,48168,,320,240 S,0,48168,,0.5375487 C,0,48168,,192,192,192 F,0,48168,48854,1,0
Sprite,Background,Centre,"SB\seperatebgsb\cute-anime-girl-wallpaper-2560x1440 glow.png",320,240 M,0,49540,,320,240 S,0,49540,,0.5375487 C,0,49540,,192,192,192 F,0,49540,50226,1,0
Sprite,Background,Centre,"SB\seperatebgsb\cute-anime-girl-wallpaper-2560x1440 glow.png",320,240 M,0,50911,,320,240 S,0,50911,,0.5375487 C,0,50911,,192,192,192 F,0,50911,51597,1,0
Sprite,Background,Centre,"SB\seperatebgsb\cute-anime-girl-wallpaper-2560x1440 glow.png",320,240 M,0,52283,,320,240 S,0,52283,,0.5375487 C,0,52283,,192,192,192 F,0,52283,52969,1,0
Sprite,Background,Centre,"SB\seperatebgsb\cute-anime-girl-wallpaper-2560x1440 glow.png",320,240 M,0,53654,,320,240 S,0,53654,,0.5375487 C,0,53654,,192,192,192 F,0,53654,54340,1,0
Sprite,Background,Centre,"SB\seperatebgsb\cute-anime-girl-wallpaper-2560x1440 glow.png",320,240 M,0,55025,,320,240 S,0,55025,,0.5375487 C,0,55025,,255,255,255 F,0,55025,55711,1,0
Sprite,Background,Centre,"SB\seperatebgsb\cute-anime-girl-wallpaper-2560x1440 glow.png",320,240 M,0,56397,,320,240 S,0,56397,,0.5375487 C,0,56397,,255,255,255 F,0,56397,57083,1,0
Sprite,Background,Centre,"SB\seperatebgsb\cute-anime-girl-wallpaper-2560x1440 glow.png",320,240 M,0,57768,,320,240 S,0,57768,,0.5375487 C,0,57768,,255,255,255 F,0,57768,58454,1,0
Sprite,Background,Centre,"SB\seperatebgsb\cute-anime-girl-wallpaper-2560x1440 glow.png",320,240 M,0,59140,,320,240 S,0,59140,,0.5375487 C,0,59140,,255,255,255 F,0,59140,59826,1,0
Sprite,Background,Centre,"SB\seperatebgsb\cute-anime-girl-wallpaper-2560x1440 glow.png",320,240 M,0,60511,,320,240 S,0,60511,,0.5375487 C,0,60511,,255,255,255 F,0,60511,61197,1,0
Sprite,Background,Centre,"SB\seperatebgsb\cute-anime-girl-wallpaper-2560x1440 glow.png",320,240 M,0,61883,,320,240 S,0,61883,,0.5375487 C,0,61883,,255,255,255 F,0,61883,62569,1,0
Sprite,Background,Centre,"SB\seperatebgsb\cute-anime-girl-wallpaper-2560x1440 glow.png",320,240 M,0,63254,,320,240 S,0,63254,,0.5375487 C,0,63254,,255,255,255 F,0,63254,63940,1,0
Sprite,Background,Centre,"SB\seperatebgsb\cute-anime-girl-wallpaper-2560x1440 glow.png",320,240 M,0,64625,,320,240 S,0,64625,,0.5375487 C,0,64625,,255,255,255 F,0,64625,65311,0.6903226,0
Sprite,Background,Centre,"SB\seperatebgsb\cute-anime-girl-wallpaper-2560x1440 glow.png",320,240 M,0,65997,,320,240 S,0,65997,,0.5375487 C,0,65997,,255,255,255 F,0,65997,66683,0.2609031,0
//Storyboard Layer 1 (Fail)
//Storyboard Layer 2 (Pass)
//Storyboard Layer 3 (Foreground)
//Storyboard Sound Samples

[TimingPoints]
168.8224852071,342.857142857143,4,2,0,30,1,0
169,-100,4,2,0,30,0,0
10453,-100,4,2,0,50,0,0
11141,-100,4,2,0,40,0,0
20568,-100,4,3,1,50,0,0
20825,-100,4,2,1,40,0,0
21424,-100,4,2,1,60,0,0
22110,-100,4,2,1,40,0,0
22283,-100,4,2,1,40,0,1
27596,-100,4,2,1,40,0,0
27597,-100,4,2,1,40,0,1
33082,-100,4,2,1,40,0,0
33083,-100,4,2,1,40,0,1
38567,-100,4,2,1,40,0,0
38568,-100,4,2,1,40,0,1
44054,-133.333333333333,4,2,1,40,0,0
46797,-100,4,2,1,50,0,0
88624,-100,4,2,0,50,0,0
94111,-100,4,2,1,50,0,0
97883,-100,4,2,1,40,0,0
103368,-100,4,2,1,30,0,0
105854,-100,4,2,1,20,0,0
107140,-100,4,2,1,15,0,0
108511,-100,4,2,1,10,0,0
109883,-100,4,2,1,5,0,0

[Colours]
Combo1 : 77,77,77
Combo2 : 13,255,122
Combo3 : 0,174,74
Combo4 : 133,253,0
Combo5 : 83,138,0
Combo6 : 249,255,17
Combo7 : 66,170,255
Combo8 : 50,53,97

[HitObjects]
88,191,168,118,0,P|114:162|240:193,1,180
328,184,1197,1,0,0:0:0:0:
368,264,1540,2,0,P|342:293|216:262,1,180
272,192,2568,1,0,0:0:0:0:
328,120,2911,1,0,0:0:0:0:
480,24,3597,102,0,P|503:61|496:109,1,90
408,96,4283,2,0,P|361:108|317:185,1,135
352,208,4968,2,0,P|346:239|246:289,1,135
216,288,5654,1,0,0:0:0:0:
464,104,6683,5,0,0:0:0:0:
424,128,6854,1,0,0:0:0:0:
384,144,7025,2,0,P|322:165|302:232,1,135
344,240,7711,2,0,P|338:276|258:324,1,135
200,299,8397,1,0,0:0:0:0:
134,186,9597,53,0,0:0:0:0:
134,186,9768,2,0,P|176:232|208:232,1,90
248,152,10454,2,0,P|307:104|397:153,1,180
336,248,11825,85,0,0:0:0:0:
249,223,12168,2,0,P|198:207|187:87,1,180
261,134,13197,2,0,P|285:124|346:141,1,90
288,210,13883,2,0,B|236:204|236:204|218:220|161:202|133:154|126:130,1,180
222,131,14911,69,0,0:0:0:0:
267,131,15083,1,0,0:0:0:0:
311,132,15254,2,0,P|365:116|384:-6,1,180
301,12,16283,1,0,0:0:0:0:
264,37,16454,1,0,0:0:0:0:
225,59,16625,1,0,0:0:0:0:
138,83,16968,2,0,P|117:138|130:171,1,90
214,146,17654,5,0,0:0:0:0:
214,146,17825,1,0,0:0:0:0:
246,84,17997,2,0,P|278:120|214:224,1,180
405,230,19368,2,0,P|366:169|442:87,1,180
117,283,21425,2,0,B|171:329|180:343|180:343|190:329|249:282,1,180
276,195,22454,6,0,L|276:102,2,90
185,192,23483,1,0,0:0:0:0:
95,191,23825,2,0,L|95:284,2,90
178,157,24854,1,0,0:0:0:0:
178,157,25197,1,0,0:0:0:0:
178,157,25540,2,0,L|234:158,2,45
87,159,26225,2,0,B|92:87|92:87|167:94|195:69|195:69|225:97|303:89|303:89|305:164,1,360
228,205,27940,21,0,0:0:0:0:
262,288,28283,2,0,L|262:344,2,45
327,225,28968,1,0,0:0:0:0:
319,135,29311,1,0,0:0:0:0:
230,152,29654,2,0,L|229:210,2,45
149,110,30340,1,0,0:0:0:0:
72,156,30683,21,0,0:0:0:0:
137,217,31025,2,0,P|123:264|136:314,1,90
212,265,31711,2,0,B|211:195|296:147|392:175|401:272,1,270
309,270,33083,6,0,P|340:324|417:346,2,135
227,232,34454,2,0,L|227:382,2,135
141,259,35825,2,0,P|110:313|33:335,2,135
206,196,37197,2,0,P|247:175|334:215,2,135
116,186,38568,37,0,0:0:0:0:
116,276,38911,1,0,0:0:0:0:
193,321,39254,2,0,L|250:321,2,45
234,240,39940,1,0,0:0:0:0:
282,163,40283,1,0,0:0:0:0:
228,90,40625,2,0,P|200:84|177:105,2,45
282,163,41311,6,0,B|215:155|153:230|44:354|175:410|320:366|360:222|187:214|154:213|54:188|42:251,1,540
72,320,44054,1,0,0:0:0:0:
120,176,46797,6,0,B|128:152|176:104|176:104|176:136|208:192,1,180
256,248,47825,1,0,0:0:0:0:
312,192,48168,2,0,B|336:136|336:104|336:104|384:152|392:192,1,180
352,40,49540,38,0,B|216:32,2,135
216,128,50911,2,0,L|368:136,2,135
128,192,52283,1,0,0:0:0:0:
184,256,52625,2,0,P|200:280|264:264,2,90
200,176,53654,2,0,P|216:192|288:176,1,90
232,104,54340,2,0,P|248:112|272:104,2,45
120,144,55025,1,0,0:0:0:0:
168,256,55368,38,0,L|265:282,1,90
232,144,56054,1,0,0:0:0:0:
301,39,56397,2,0,B|349:53|349:53|374:91,1,90
344,168,57083,1,0,0:0:0:0:
256,176,57425,1,0,0:0:0:0:
168,192,57768,1,0,0:0:0:0:
256,294,58283,1,0,0:0:0:0:
379,239,58797,2,0,L|315:239,2,45
296,272,59825,2,0,P|248:304|208:312,1,90
133,346,60511,21,0,0:0:0:0:
104,272,60854,2,0,P|64:232|32:232,2,90
189,243,61883,2,0,P|221:235|277:259,2,90
256,192,63254,12,0,65997,0:0:0:0:
104,144,88625,6,0,B|128:112|184:120|192:176|272:128,1,180
170,222,89997,2,0,P|208:232|272:216,2,90
339,73,91540,2,0,B|288:96|288:96|250:138|276:183,1,135
332,336,92740,86,0,P|365:317|418:347,2,90
268,272,93768,1,0,0:0:0:0:
94,222,94454,1,0,0:0:0:0:
110,133,94797,2,0,P|191:179|187:226,2,135
75,220,96168,1,0,0:0:0:0:
56,336,97368,2,0,L|72:272,1,45
130,228,97883,1,0,0:0:0:0:
249,165,98397,2,0,B|282:168|282:168|265:189|289:205|321:205|324:176|324:176|353:189,1,135
336,96,99597,2,0,P|344:72|360:64,2,45
410,147,100283,1,0,0:0:0:0:
256,128,100968,1,0,0:0:0:0:
256,192,101311,1,0,0:0:0:0:
256,256,101654,1,0,0:0:0:0:
168,152,102340,6,0,B|216:160|256:128|256:128|296:160|344:152,1,180
344,232,103711,2,0,B|296:224|256:256|256:256|216:224|168:232,1,180
256,184,105083,2,0,B|256:152|256:152|248:144|248:144|256:136|256:136|256:80,2,90
256,272,106111,1,0,0:0:0:0:
256,192,106454,12,0,109883,0:0:0:0:
