osu file format v14

[General]
AudioFilename: audio.mp3
AudioLeadIn: 0
PreviewTime: 22111
Countdown: 0
SampleSet: Soft
StackLeniency: 0.7
Mode: 0
LetterboxInBreaks: 0
EpilepsyWarning: 1
WidescreenStoryboard: 1

[Editor]
Bookmarks: 168,10454,11140,20740,22111,44054,46797,55711,65997,75597,88625,92397,94111,97883,103368,105854,109883
DistanceSpacing: 0.6
BeatDivisor: 4
GridSize: 8
TimelineZoom: 1

[Metadata]
Title:Raccoon City (feat Veela)
TitleUnicode:Raccoon City (feat Veela)
Artist:Aether & sizzlebird
ArtistUnicode:Aether & sizzlebird
Creator:xXRosalineXx
Version:Easy
Source:
Tags:
BeatmapID:1020808
BeatmapSetID:467702

[Difficulty]
HPDrainRate:2
CircleSize:3
OverallDifficulty:3
ApproachRate:3
SliderMultiplier:0.7
SliderTickRate:1

[Events]
//Background and Video events
0,0,"bg2.jpg",0,0
//Break Periods
2,64825,86500
//Storyboard Layer 0 (Background)
Sprite,Background,Centre,"bg2.jpg",320,240 M,0,0,,320,240 S,0,0,17654,0.7357419 C,0,0,17654,0,0,0,192,192,192 C,0,17654,20054,192,192,192,0,0,0 C,0,20054,22025,0,0,0 C,0,22111,65997,255,255,255 C,0,65997,88625,255,255,255,192,192,192 C,0,88625,105854,192,192,192,128,128,128 C,0,105854,111516,128,128,128,0,0,0
Sprite,Background,Centre,"bg2.jpg",320,240 C,0,10454,,210,174,174 F,0,10454,11140,1,0 S,0,10454,11140,0.735742,0.8018066
Sprite,Background,Centre,"bg2.jpg",320,240 C,0,21425,,255,0,0 F,0,21425,22111,1,0 S,0,21425,22111,0.735742,0.8018066 M,0,21768,,316.6968,249.0839
Sprite,Background,Centre,"bg2.jpg",320,240 C,0,22111,,255,255,255 F,0,22111,22797,1,0 S,0,22111,22797,0.7357419,0.7687741
Sprite,Background,Centre,"bg2.jpg",320,240 C,0,22797,,255,255,255 F,0,22797,23483,1,0 S,0,22797,23483,0.7357419,0.7687741
Sprite,Background,Centre,"bg2.jpg",320,240 C,0,23483,,255,255,255 F,0,23483,24169,1,0 S,0,23483,24169,0.7357419,0.7687741
Sprite,Background,Centre,"bg2.jpg",320,240 C,0,24168,,255,255,255 F,0,24168,24854,1,0 S,0,24168,24854,0.7357419,0.7687741
Sprite,Background,Centre,"bg2.jpg",320,240 C,0,24854,,255,255,255 F,0,24854,25540,1,0 S,0,24854,25540,0.7357419,0.7687741
Sprite,Background,Centre,"bg2.jpg",320,240 C,0,25540,,255,255,255 F,0,25540,26226,1,0 S,0,25540,26226,0.7357419,0.7687741
Sprite,Background,Centre,"bg2.jpg",320,240 C,0,26225,,255,255,255 F,0,26225,26911,1,0 S,0,26225,26911,0.7357419,0.7687741
Sprite,Background,Centre,"bg2.jpg",320,240 C,0,26911,,255,255,255 F,0,26911,27597,1,0 S,0,26911,27597,0.7357419,0.7687741
Sprite,Background,Centre,"SB\seperatebgsb\bg2 brightwhite.png",320,240 F,0,27597,28283,1,0 S,0,27597,28283,0.735742,0.7687743
Sprite,Background,Centre,"bg2.jpg",320,240 C,0,28283,,255,255,255 F,0,28283,28969,1,0 S,0,28283,28969,0.7357419,0.7687741
Sprite,Background,Centre,"SB\seperatebgsb\bg2 brightwhite.png",320,240 F,0,28968,29654,1,0 S,0,28968,29654,0.735742,0.7687743
Sprite,Background,Centre,"bg2.jpg",320,240 C,0,29654,,255,255,255 F,0,29654,30340,1,0 S,0,29654,30340,0.7357419,0.7687741
Sprite,Background,Centre,"SB\seperatebgsb\bg2 brightwhite.png",320,240 F,0,30340,31026,1,0 S,0,30340,31026,0.735742,0.7687743
Sprite,Background,Centre,"bg2.jpg",320,240 C,0,31025,,255,255,255 F,0,31025,31711,1,0 S,0,31025,31711,0.7357419,0.7687741
Sprite,Background,Centre,"SB\seperatebgsb\bg2 brightwhite.png",320,240 F,0,31711,32397,1,0 S,0,31711,32397,0.735742,0.7687743
Sprite,Background,Centre,"bg2.jpg",320,240 C,0,32397,,255,255,255 F,0,32397,33083,1,0 S,0,32397,33083,0.7357419,0.7687741
Sprite,Background,Centre,"SB\seperatebgsb\bg2 white.png",320,240 C,0,33083,,192,192,192 F,0,33083,33768,1,0 S,0,33083,33768,0.735742,0.7605163
Sprite,Background,Centre,"bg2.jpg",320,240 C,0,33768,,255,255,255 F,0,33768,34454,1,0 S,0,33768,34454,0.7357419,0.7687741
Sprite,Background,Centre,"SB\seperatebgsb\bg2 white.png",320,240 C,0,34454,,192,192,192 F,0,34454,35139,1,0 S,0,34454,35139,0.735742,0.7605163
Sprite,Background,Centre,"bg2.jpg",320,240 C,0,35140,,255,255,255 F,0,35140,35826,1,0 S,0,35140,35826,0.7357419,0.7687741
Sprite,Background,Centre,"SB\seperatebgsb\bg2 white.png",320,240 C,0,35825,,192,192,192 F,0,35825,36510,1,0 S,0,35825,36510,0.735742,0.7605163
Sprite,Background,Centre,"bg2.jpg",320,240 C,0,36511,,255,255,255 F,0,36511,37197,1,0 S,0,36511,37197,0.7357419,0.7687741
Sprite,Background,Centre,"SB\seperatebgsb\bg2 white.png",320,240 C,0,37197,,192,192,192 F,0,37197,37882,1,0 S,0,37197,37882,0.735742,0.7605163
Sprite,Background,Centre,"bg2.jpg",320,240 C,0,37883,,255,255,255 F,0,37883,38569,1,0 S,0,37883,38569,0.7357419,0.7687741
Sprite,Background,Centre,"SB\seperatebgsb\bg2 diagonal lines.png",320,240 S,0,38568,,0.735742 C,0,38568,,255,255,255 F,0,38568,39254,1,0
Sprite,Background,Centre,"bg2.jpg",320,240 C,0,39254,,255,255,255 F,0,39254,39940,1,0 S,0,39254,39940,0.7357419,0.7687741
Sprite,Background,Centre,"SB\seperatebgsb\bg2 diagonal lines.png",320,240 S,0,39940,,0.735742 C,0,39940,,255,255,255 F,0,39940,40626,1,0
Sprite,Background,Centre,"bg2.jpg",320,240 C,0,40625,,255,255,255 F,0,40625,41311,1,0 S,0,40625,41311,0.7357419,0.7687741
Sprite,Background,Centre,"SB\seperatebgsb\bg2 diagonal lines.png",320,240 S,0,41311,,0.735742 C,0,41311,,255,255,255 F,0,41311,41997,1,0
Sprite,Background,Centre,"bg2.jpg",320,240 C,0,41997,,255,255,255 F,0,41997,42683,1,0 S,0,41997,42683,0.7357419,0.7687741
Sprite,Background,Centre,"SB\seperatebgsb\bg2 diagonal lines.png",320,240 S,0,42683,,0.735742 C,0,42683,,255,255,255 F,0,42683,43369,1,0
Sprite,Background,Centre,"bg2.jpg",320,240 C,0,43368,,255,255,255 F,0,43368,44054,1,0 S,0,43368,44054,0.7357419,0.7687741
Sprite,Background,Centre,"SB\seperatebgsb\bg1 glow.png",320,240 S,0,46797,,0.735742 C,0,46797,,192,192,192 F,0,46797,47483,0.6779354,0
Sprite,Background,Centre,"SB\seperatebgsb\bg1 glow.png",320,240 S,0,48168,,0.735742 C,0,48168,,192,192,192 F,0,48168,48854,0.6779354,0
Sprite,Background,Centre,"SB\seperatebgsb\bg1 glow.png",320,240 S,0,49540,,0.735742 C,0,49540,,192,192,192 F,0,49540,50226,0.6779354,0
Sprite,Background,Centre,"SB\seperatebgsb\bg1 glow.png",320,240 S,0,50911,,0.735742 C,0,50911,,192,192,192 F,0,50911,51597,0.6779354,0
Sprite,Background,Centre,"SB\seperatebgsb\bg1 glow.png",320,240 S,0,52283,,0.735742 C,0,52283,,192,192,192 F,0,52283,52969,0.6779354,0
Sprite,Background,Centre,"SB\seperatebgsb\bg1 glow.png",320,240 S,0,53654,,0.735742 C,0,53654,,192,192,192 F,0,53654,54340,0.6779354,0
Sprite,Background,Centre,"SB\seperatebgsb\bg1 glow.png",320,240 S,0,55025,,0.735742 C,0,55025,,255,255,255 F,0,55025,55711,1,0
Sprite,Background,Centre,"SB\seperatebgsb\bg1 glow.png",320,240 S,0,56397,,0.735742 C,0,56397,,255,255,255 F,0,56397,57083,1,0
Sprite,Background,Centre,"SB\seperatebgsb\bg1 glow.png",320,240 S,0,57768,,0.735742 C,0,57768,,255,255,255 F,0,57768,58454,1,0
Sprite,Background,Centre,"SB\seperatebgsb\bg1 glow.png",320,240 S,0,59140,,0.735742 C,0,59140,,255,255,255 F,0,59140,59826,1,0
Sprite,Background,Centre,"SB\seperatebgsb\bg1 glow.png",320,240 S,0,60511,,0.735742 C,0,60511,,255,255,255 F,0,60511,61197,1,0
Sprite,Background,Centre,"SB\seperatebgsb\bg1 glow.png",320,240 S,0,61883,,0.735742 C,0,61883,,255,255,255 F,0,61883,62569,1,0
Sprite,Background,Centre,"SB\seperatebgsb\bg1 glow.png",320,240 S,0,63254,,0.735742 C,0,63254,,255,255,255 F,0,63254,63940,1,0
Sprite,Background,Centre,"SB\seperatebgsb\bg1 glow.png",320,240 S,0,64625,,0.735742 C,0,64625,,255,255,255 F,0,64625,65311,0.6696775,0 F,0,65311,,0
Sprite,Background,Centre,"SB\seperatebgsb\bg1 glow.png",320,240 S,0,65997,,0.735742 C,0,65997,,255,255,255 F,0,65997,66683,0.3145808,0
//Storyboard Layer 1 (Fail)
//Storyboard Layer 2 (Pass)
//Storyboard Layer 3 (Foreground)
//Storyboard Sound Samples

[TimingPoints]
168.8224852071,342.857142857143,4,2,0,30,1,0
169,-100,4,2,0,30,0,0
10453,-100,4,2,0,50,0,0
11141,-100,4,2,0,40,0,0
20568,-100,4,3,1,50,0,0
20825,-100,4,2,1,40,0,0
21424,-100,4,2,1,60,0,0
22110,-100,4,2,1,40,0,1
27596,-100,4,2,1,40,0,0
27597,-100,4,2,1,40,0,1
33082,-100,4,2,1,40,0,0
33083,-100,4,2,1,40,0,1
38567,-100,4,2,1,40,0,0
38568,-100,4,2,1,40,0,1
44054,-133.333333333333,4,2,1,40,0,0
46797,-100,4,2,1,50,0,0
88624,-100,4,2,0,40,0,0
94111,-100,4,2,1,40,0,0
97883,-100,4,2,1,40,0,0
103368,-100,4,2,1,30,0,0
105854,-100,4,2,1,20,0,0
107140,-100,4,2,1,15,0,0
108511,-100,4,2,1,10,0,0
109883,-100,4,2,1,5,0,0

[Colours]
Combo1 : 77,77,77
Combo2 : 255,13,19
Combo3 : 106,0,9
Combo4 : 19,151,0
Combo5 : 153,153,153
Combo6 : 249,255,17
Combo7 : 66,170,255
Combo8 : 50,53,97

[HitObjects]
96,200,168,118,0,P|152:216|248:208,1,140
240,112,1540,2,0,P|296:96|384:120,1,140
376,162,2568,1,0,0:0:0:0:
375,211,2911,1,0,0:0:0:0:
280,208,3597,102,0,L|128:208,3,140
175,116,6340,1,0,0:0:0:0:
248,51,7025,2,0,B|319:48|319:48|400:51,2,140
256,360,10454,22,0,B|253:325|253:325|259:262|259:262|256:216,1,140
160,192,11825,101,0,0:0:0:0:
232,128,12511,1,0,0:0:0:0:
305,192,13197,2,0,B|341:157|341:157|407:160|421:105,1,140
349,72,14568,2,0,P|331:30|301:17,1,70
270,29,15254,2,0,B|226:73|226:98|246:108|246:108|289:156|287:176|287:176|252:207,1,210
261,275,16625,1,0,0:0:0:0:
343,259,17311,102,0,L|423:259,2,70
260,244,18683,1,0,0:0:0:0:
256,160,19368,1,0,0:0:0:0:
256,312,21425,21,0,0:0:0:0:
224,216,22111,22,0,P|208:184|224:80,2,140
288,152,24168,1,0,0:0:0:0:
360,216,24854,2,0,P|376:184|360:80,2,140
264,240,26911,1,0,0:0:0:0:
168,224,27597,6,0,B|168:120|168:120|200:80,1,140
248,168,28968,2,0,B|248:272|248:272|208:304,1,140
120,288,30340,1,0,0:0:0:0:
120,192,31025,1,0,0:0:0:0:
216,192,31711,6,0,L|320:192,2,105
173,192,33083,1,0,0:0:0:0:
200,96,33768,6,0,B|224:112|224:112|240:184|256:112|256:112|280:96,1,140
328,168,35140,2,0,B|352:152|352:152|368:80|384:152|384:152|408:168,1,140
368,256,36511,1,0,0:0:0:0:
320,256,36854,1,0,0:0:0:0:
272,256,37197,2,0,B|232:224|224:128|224:128|168:168|144:240,1,280
175,328,39254,38,0,P|221:335|253:332,1,70
286,334,39940,2,0,P|342:294|358:222,1,140
352,184,40968,1,0,0:0:0:0:
344,136,41311,2,0,B|272:104|256:200|256:200|160:168|160:272,2,280
22,37,46797,22,0,P|132:70|142:96,2,140
60,112,48854,2,0,P|36:184|52:248,2,140
135,149,50911,1,0,0:0:0:0:
201,200,51597,5,0,0:0:0:0:
273,158,52283,2,0,B|233:118|233:118|289:54|289:54|241:-2,2,210
259,240,55025,5,0,0:0:0:0:
297,255,55368,1,0,0:0:0:0:
336,239,55711,2,0,P|407:172|424:119,1,140
340,110,57083,5,0,0:0:0:0:
304,131,57425,1,0,0:0:0:0:
262,137,57768,2,0,P|159:102|136:72,1,140
56,64,59140,1,0,0:0:0:0:
229,91,60511,6,0,L|309:91,1,70
341,88,61197,2,0,L|341:240,1,140
267,186,62568,2,0,L|187:186,1,70
165,158,63254,2,0,B|165:78|165:78|237:78,1,140
290,130,64625,1,0,0:0:0:0:
256,192,87940,5,0,0:0:0:0:
192,120,88625,2,0,B|208:88|256:88|280:136|328:96,2,140
120,192,90683,1,0,0:0:0:0:
184,264,91368,2,0,P|232:312|240:312,2,70
184,168,92740,102,0,P|232:120|240:120,2,70
200,264,94111,2,0,B|232:296|232:296|280:272|320:304,1,140
400,240,95483,1,0,0:0:0:0:
384,144,96168,2,0,B|320:136|320:136|336:176|296:208,2,140
384,240,98225,38,0,L|384:312,2,70
288,240,99597,1,0,0:0:0:0:
192,240,100283,1,0,0:0:0:0:
144,152,100968,2,0,P|168:112|200:96,2,70
136,248,102340,86,0,B|176:272|208:256|232:224|272:224,2,140
40,248,104397,1,0,0:0:0:0:
40,152,105083,2,0,L|40:80,2,70
256,192,106454,12,0,109883,0:0:0:0:
