osu file format v14

[General]
AudioFilename: audio.mp3
AudioLeadIn: 0
PreviewTime: 155557
Countdown: 0
SampleSet: Soft
StackLeniency: 0.7
Mode: 2
LetterboxInBreaks: 0
WidescreenStoryboard: 0

[Editor]
DistanceSpacing: 2.1
BeatDivisor: 4
GridSize: 32
TimelineZoom: 3.599998

[Metadata]
Title:Raccoon City (feat. Veela)
TitleUnicode:Raccoon City (feat. Veela)
Artist:Aether & Sizzlebird
ArtistUnicode:Aether & Sizzlebird
Creator:Jakkubon
Version:The Place Where It All Started...
Source:
Tags:english electronic verti juansy- dnb drum and bass fa featured artist osu! ft. liquicity alchemy 1
BeatmapID:3174037
BeatmapSetID:1553563

[Difficulty]
HPDrainRate:6
CircleSize:4.5
OverallDifficulty:9.1
ApproachRate:9.1
SliderMultiplier:1.6
SliderTickRate:2

[Events]
//Background and Video events
0,0,"bg.png",0,0
//Break Periods
2,110157,113128
//Storyboard Layer 0 (Background)
//Storyboard Layer 1 (Fail)
//Storyboard Layer 2 (Pass)
//Storyboard Layer 3 (Foreground)
//Storyboard Layer 4 (Overlay)
//Storyboard Sound Samples

[TimingPoints]
243,342.857142857143,4,2,1,26,1,0
928,-100,4,2,1,15,0,0
1271,-100,4,2,1,33,0,0
1957,-100,4,2,1,15,0,0
2300,-100,4,2,1,33,0,0
3328,-100,4,2,1,15,0,0
3843,-100,4,2,1,33,0,0
6071,-100,4,2,1,15,0,0
6757,-100,4,2,1,33,0,0
8814,-100,4,2,1,15,0,0
9671,-100,4,2,1,33,0,0
12928,-100,4,2,1,15,0,0
13271,-100,4,2,1,33,0,0
14300,-100,4,2,1,15,0,0
14814,-100,4,2,1,33,0,0
17043,-100,4,2,1,15,0,0
17385,-100,4,2,1,33,0,0
22014,-100,4,2,1,15,0,0
22185,-100,4,3,1,71,0,0
42757,-100,4,1,1,25,0,0
43014,-100,4,1,1,15,0,0
43614,-100,4,1,1,25,0,0
44128,-100,4,2,1,30,0,0
44463,-100,4,2,1,15,0,0
44814,-100,4,2,1,33,0,0
46100,-100,4,2,1,15,0,0
46185,-100,4,2,1,32,0,0
46528,-100,4,3,1,71,0,0
66071,-100,4,2,1,25,0,0
66414,-100,4,2,1,15,0,0
66757,-100,4,2,1,30,0,0
67614,-100,4,2,1,14,0,0
68471,-100,4,2,1,30,0,0
68643,-100,4,2,1,15,0,0
68814,-100,4,2,1,30,0,0
69157,-100,4,2,1,15,0,0
69500,-100,4,2,1,30,0,0
69671,-100,4,2,1,15,0,0
70185,-100,4,2,1,30,0,0
71728,-100,4,2,1,15,0,0
72243,-100,4,2,1,29,0,0
73100,-100,4,2,1,15,0,0
73785,-100,4,2,1,30,0,0
73957,-100,4,2,1,15,0,0
74300,-100,4,2,1,30,0,0
74471,-100,4,2,1,15,0,0
75328,-100,4,2,1,30,0,0
75500,-100,4,2,1,15,0,0
75671,-100,4,2,1,30,0,0
75843,-100,4,2,1,15,0,0
77043,-100,4,2,1,30,0,0
77214,-100,4,2,1,15,0,0
77728,-100,4,2,1,30,0,0
78585,-100,4,2,1,15,0,0
79443,-100,4,2,1,30,0,0
79614,-100,4,2,1,15,0,0
79785,-100,4,2,1,30,0,0
79957,-100,4,2,1,15,0,0
81157,-100,4,2,1,30,0,0
82700,-100,4,2,1,15,0,0
83385,-100,4,2,1,30,0,0
83728,-100,4,2,1,15,0,0
83900,-100,4,2,1,30,0,0
84071,-100,4,2,1,15,0,0
84757,-100,4,2,1,30,0,0
84928,-100,4,2,1,15,0,0
85271,-100,4,2,1,30,0,0
85443,-100,4,2,1,15,0,0
86300,-100,4,2,1,30,0,0
88014,-100,4,2,1,25,0,0
99500,-100,4,2,1,15,0,0
99671,-100,4,2,1,30,0,0
101900,-100,4,2,1,15,0,0
102585,-100,4,2,1,30,0,0
103271,-100,4,2,1,15,0,0
103443,-100,4,2,1,30,0,0
107385,-100,4,2,1,20,0,0
107900,-100,4,2,1,15,0,0
108585,-100,4,2,1,10,0,0
109271,-100,4,2,1,5,0,0
113728,-100,4,2,1,20,0,0
114414,-100,4,2,1,15,0,0
115443,-100,4,2,1,25,0,0
115614,-100,4,2,1,15,0,0
120243,-100,4,2,1,20,0,0
121614,-100,4,2,1,15,0,0
121785,-100,4,2,1,20,0,0
122643,-100,4,2,1,15,0,0
122985,-100,4,2,1,20,0,0
124014,-100,4,2,1,15,0,0
125043,-100,4,2,1,20,0,0
125728,-100,4,2,1,15,0,0
126071,-100,4,2,1,20,0,0
127100,-100,4,2,1,15,0,0
131900,-100,4,3,1,71,0,0
152471,-100,4,1,1,26,0,0
153328,-100,4,1,1,15,0,0
153843,-100,4,2,1,25,0,0
155557,-100,4,2,1,15,0,0
156243,-100,4,3,1,71,0,0
156585,-100,4,3,1,71,0,1
174414,-100,4,1,1,39,0,0
175614,-100,4,1,1,15,0,0
175785,-100,4,3,1,71,0,0
196357,-100,4,1,1,25,0,0
197728,-100,4,2,1,25,0,0
199443,-100,4,2,1,15,0,0
199785,-100,4,2,1,25,0,0
200300,-100,4,2,1,15,0,0
200471,-100,4,2,1,25,0,0
200814,-100,4,2,1,15,0,0
202528,-100,4,2,1,26,0,0
202700,-100,4,2,1,15,0,0
203214,-100,4,2,1,25,0,0
203557,-100,4,2,1,15,0,0
203900,-100,4,2,1,25,0,0
204928,-100,4,2,1,15,0,0
205271,-100,4,2,1,25,0,0
205957,-100,4,2,1,20,0,0
206643,-100,4,2,1,15,0,0
207328,-100,4,2,1,10,0,0
208014,-100,4,2,1,15,0,0
208700,-100,4,2,1,25,0,0
210414,-100,4,2,1,15,0,0
210757,-100,4,2,1,25,0,0
211785,-100,4,2,1,15,0,0
213500,-100,4,2,1,25,0,0
213671,-100,4,2,1,15,0,0
214185,-100,4,2,1,25,0,0
215900,-100,4,2,1,15,0,0
216243,-100,4,2,1,25,0,0

[Colours]
Combo1 : 69,88,165
Combo2 : 218,87,31
Combo3 : 53,153,133
Combo4 : 171,176,184

[HitObjects]
252,189,243,5,8,0:0:0:0:
92,184,928,2,0,L|204:184,1,80
252,189,1271,1,2,0:0:0:0:
132,192,1443,1,4,0:0:0:0:
272,209,1614,6,0,L|82:212,1,160,8|0,0:0|0:0,0:0:0:0:
232,190,2128,1,0,0:0:0:0:
352,171,2300,2,0,L|256:168,1,80,2|4,0:0|0:0,0:0:0:0:
152,171,2643,2,0,L|153:54,1,80,2|4,0:0|0:0,0:0:0:0:
292,94,2985,6,0,L|119:93,1,160,8|0,0:0|0:0,0:0:0:0:
226,87,3671,1,0,0:0:0:0:
166,132,3843,1,2,0:0:0:0:
166,132,4014,1,2,0:0:0:0:
225,186,4185,1,4,0:0:0:0:
365,208,4357,6,0,L|248:209,1,80,8|0,0:0|0:0,0:0:0:0:
365,208,4700,1,4,0:0:0:0:
445,204,4871,1,2,0:0:0:0:
325,193,5043,2,0,L|212:193,1,80,8|0,0:0|0:0,0:0:0:0:
325,193,5385,1,4,0:0:0:0:
245,192,5557,1,2,0:0:0:0:
385,197,5728,6,0,L|203:196,1,160,8|0,0:0|0:0,0:0:0:0:
67,187,6585,6,0,L|170:189,2,80,0|2|4,0:0|0:0|0:0,0:0:0:0:
208,190,7100,6,0,L|26:192,1,160,8|4,0:0|0:0,0:0:0:0:
148,187,7614,1,2,0:0:0:0:
268,191,7785,2,0,L|370:194,1,80,2|4,0:0|0:0,0:0:0:0:
228,174,8128,2,4,L|230:59,1,80
370,84,8471,6,0,L|201:80,1,160,8|0,0:0|0:0,0:0:0:0:
95,196,9671,1,2,0:0:0:0:
235,201,9843,1,12,0:0:0:0:
80,179,10528,2,0,L|77:279,1,80,2|4,0:0|0:0,0:0:0:0:
218,261,10871,2,0,L|217:153,1,80,2|4,0:0|0:0,0:0:0:0:
394,183,11214,5,8,0:0:0:0:
150,187,11900,5,2,0:0:0:0:
270,189,12071,1,4,0:0:0:0:
150,187,12243,1,2,0:0:0:0:
270,189,12414,1,4,0:0:0:0:
130,185,12585,6,0,L|308:187,1,160,8|0,0:0|0:0,0:0:0:0:
229,181,13100,1,0,0:0:0:0:
89,186,13271,1,4,0:0:0:0:
209,184,13442,1,2,0:0:0:0:
89,186,13613,1,4,0:0:0:0:
209,184,13785,1,2,0:0:0:0:
338,190,13957,6,0,L|178:190,1,160,8|0,0:0|0:0,0:0:0:0:
381,201,14643,1,0,0:0:0:0:
461,179,14814,1,0,0:0:0:0:
461,179,14985,1,2,0:0:0:0:
381,201,15157,1,4,0:0:0:0:
241,206,15328,6,0,L|348:206,1,80,8|0,0:0|0:0,0:0:0:0:
180,204,15671,1,4,0:0:0:0:
100,203,15843,1,2,0:0:0:0:
220,204,16014,2,0,L|329:202,1,80,8|0,0:0|0:0,0:0:0:0:
180,192,16357,1,4,0:0:0:0:
80,202,16528,1,2,0:0:0:0:
221,157,16700,6,0,L|415:156,1,160,8|0,0:0|0:0,0:0:0:0:
221,187,17385,2,0,L|112:187,1,80,2|4,0:0|0:0,0:0:0:0:
261,155,17728,2,0,L|261:65,1,80,2|4,0:0|0:0,0:0:0:0:
120,70,18071,6,0,L|292:67,1,160,8|4,0:0|0:0,0:0:0:0:
159,67,18585,1,2,0:0:0:0:
316,72,18757,1,4,0:0:0:0:
91,132,18928,2,0,L|157:133,1,40,8|0,0:0|0:0,0:0:0:0:
212,134,19100,2,0,L|260:132,2,40,4|0|0,0:0|0:0|0:0,0:0:0:0:
67,141,19443,6,0,L|76:240,1,80,8|0,0:0|0:0,0:0:0:0:
218,216,19785,2,0,L|260:217,2,40,4|0|0,0:0|0:0|0:0,0:0:0:0:
106,221,20128,2,0,L|107:104,1,80,8|0,0:0|0:0,0:0:0:0:
219,145,20471,2,0,L|267:146,2,40,4|0|0,0:0|0:0|0:0,0:0:0:0:
106,141,20814,2,0,L|106:47,1,80,8|0,0:0|0:0,0:0:0:0:
186,65,21157,1,4,0:0:0:0:
408,82,21500,5,2,0:0:0:0:
248,79,21671,1,4,0:0:0:0:
108,86,21843,2,0,L|108:191,1,80,2|0,0:0|0:0,0:0:0:0:
340,179,22185,6,4,L|237:179,1,80,8|0,0:0|0:0,0:0:0:0:
35,191,22528,1,4,0:0:0:0:
196,124,22700,1,0,0:0:0:0:
152,118,22785,1,0,0:0:0:0:
129,82,22871,1,0,0:0:0:0:
157,50,22957,1,0,0:0:0:0:
199,50,23042,1,0,0:0:0:0:
488,84,23214,2,0,L|408:84,1,80,4|0,0:0|0:0,0:0:0:0:
183,107,23557,6,0,L|183:202,1,80,8|0,0:0|0:0,0:0:0:0:
408,209,23900,5,4,0:0:0:0:
241,215,24071,1,0,0:0:0:0:
291,209,24157,1,0,0:0:0:0:
341,211,24243,1,0,0:0:0:0:
390,208,24328,1,0,0:0:0:0:
341,211,24414,1,0,0:0:0:0:
83,158,24585,2,0,L|189:157,1,80,4|0,0:0|0:0,0:0:0:0:
388,157,24928,6,0,L|281:158,1,80,8|0,0:0|0:0,0:0:0:0:
83,160,25271,1,4,0:0:0:0:
244,168,25443,1,0,0:0:0:0:
293,153,25528,1,0,0:0:0:0:
284,114,25614,1,0,0:0:0:0:
234,95,25700,1,0,0:0:0:0:
184,91,25785,1,0,0:0:0:0:
410,153,25957,2,0,L|494:152,1,80,4|0,0:0|0:0,0:0:0:0:
265,154,26300,6,0,L|265:50,1,80,8|0,0:0|0:0,0:0:0:0:
40,76,26643,1,4,0:0:0:0:
200,74,26814,2,0,L|269:75,1,40
281,84,26985,2,0,L|221:87,1,40
179,105,27157,1,8,0:0:0:0:
403,76,27328,1,4,0:0:0:0:
178,66,27500,1,8,0:0:0:0:
403,76,27671,6,0,L|492:78,1,80,8|0,0:0|0:0,0:0:0:0:
258,66,28014,1,4,0:0:0:0:
98,64,28185,2,0,L|164:63,1,40
180,75,28357,2,0,L|119:82,1,40
80,78,28528,1,0,0:0:0:0:
305,64,28700,2,0,L|414:64,1,80,4|0,0:0|0:0,0:0:0:0:
160,73,29043,6,0,L|160:172,1,80,8|0,0:0|0:0,0:0:0:0:
384,157,29385,1,4,0:0:0:0:
224,149,29557,2,0,L|173:147,1,40
144,151,29728,2,0,L|145:89,1,40
206,96,29900,1,0,0:0:0:0:
430,86,30071,2,0,L|356:42,1,80,4|0,0:0|0:0,0:0:0:0:
136,88,30414,6,0,L|135:191,1,80,8|0,0:0|0:0,0:0:0:0:
368,164,30757,1,4,0:0:0:0:
208,170,30928,1,0,0:0:0:0:
160,159,31014,1,0,0:0:0:0:
156,115,31100,1,0,0:0:0:0:
206,107,31185,1,0,0:0:0:0:
261,103,31271,1,0,0:0:0:0:
36,106,31443,2,0,L|136:106,1,80,4|0,0:0|0:0,0:0:0:0:
340,110,31785,6,0,L|226:109,1,80,8|0,0:0|0:0,0:0:0:0:
35,110,32128,1,4,0:0:0:0:
196,113,32300,1,0,0:0:0:0:
245,96,32385,1,0,0:0:0:0:
237,60,32471,1,0,0:0:0:0:
193,62,32557,1,0,0:0:0:0:
143,65,32643,1,8,0:0:0:0:
367,67,32814,1,4,0:0:0:0:
142,72,32985,1,8,0:0:0:0:
383,72,33157,6,0,L|473:70,1,80,8|0,0:0|0:0,0:0:0:0:
238,73,33500,1,4,0:0:0:0:
397,135,33671,2,0,L|391:68,1,40
343,94,33843,2,0,L|281:92,1,40
236,97,34014,1,0,0:0:0:0:
461,89,34185,2,0,L|462:186,1,80,4|0,0:0|0:0,0:0:0:0:
236,87,34528,6,0,L|238:176,1,80,8|0,0:0|0:0,0:0:0:0:
463,186,34871,1,4,0:0:0:0:
302,194,35043,2,0,L|245:196,1,40
212,196,35214,2,0,L|226:143,1,40
283,132,35385,1,0,0:0:0:0:
58,134,35557,2,0,L|166:131,1,80,4|0,0:0|0:0,0:0:0:0:
363,127,35900,6,0,L|366:221,1,80,8|0,0:0|0:0,0:0:0:0:
133,220,36243,1,4,0:0:0:0:
293,215,36414,1,0,0:0:0:0:
245,216,36500,1,0,0:0:0:0:
195,215,36585,1,0,0:0:0:0:
166,190,36671,1,0,0:0:0:0:
156,151,36757,1,0,0:0:0:0:
380,146,36928,2,0,L|271:146,1,80,4|0,0:0|0:0,0:0:0:0:
75,143,37271,6,0,L|186:146,1,80,8|0,0:0|0:0,0:0:0:0:
380,146,37614,1,4,0:0:0:0:
220,148,37785,2,0,L|222:84,1,40
272,107,37957,2,0,L|329:110,1,40
280,94,38128,1,8,0:0:0:0:
55,154,38300,1,4,0:0:0:0:
280,147,38471,1,8,0:0:0:0:
55,154,38643,6,0,L|155:152,1,80,8|0,0:0|0:0,0:0:0:0:
359,142,38985,1,4,0:0:0:0:
198,138,39157,1,0,0:0:0:0:
159,135,39242,1,0,0:0:0:0:
129,98,39328,1,0,0:0:0:0:
169,59,39414,1,0,0:0:0:0:
209,60,39499,1,0,0:0:0:0:
441,61,39671,2,0,L|334:62,1,80,4|0,0:0|0:0,0:0:0:0:
136,68,40014,6,0,L|138:167,1,80,8|0,0:0|0:0,0:0:0:0:
370,146,40357,1,4,0:0:0:0:
210,159,40528,1,0,0:0:0:0:
160,159,40614,1,0,0:0:0:0:
110,157,40700,1,0,0:0:0:0:
110,157,40785,1,0,0:0:0:0:
160,159,40871,1,0,0:0:0:0:
402,144,41043,2,0,L|401:45,1,80,4|0,0:0|0:0,0:0:0:0:
170,66,41385,6,0,L|70:68,1,80,8|0,0:0|0:0,0:0:0:0:
315,62,41728,1,4,0:0:0:0:
154,126,41900,1,0,0:0:0:0:
196,126,41985,1,0,0:0:0:0:
240,125,42071,1,0,0:0:0:0:
286,130,42157,1,0,0:0:0:0:
334,129,42243,1,0,0:0:0:0:
110,157,42414,2,0,L|206:158,1,80,4|8,0:0|0:0,0:0:0:0:
434,163,42757,6,0,L|299:162,2,120,8|2|0,0:0|0:0|0:0,0:0:0:0:
314,176,43443,2,0,L|405:177,1,80,0|4,0:0|0:0,0:0:0:0:
274,160,43785,2,0,L|275:74,1,80,2|4,0:0|0:0,0:0:0:0:
451,73,44128,1,8,0:0:0:0:
180,64,44471,2,0,L|284:65,1,80
119,72,44814,2,0,L|121:159,1,80,12|2,0:0|0:0,0:0:0:0:
261,154,45157,6,0,L|260:43,1,80,4|2,0:0|0:0,0:0:0:0:
421,72,45500,5,8,0:0:0:0:
229,64,45843,2,0,L|362:63,1,120,2|0,0:0|0:0,0:0:0:0:
299,69,46185,1,10,0:0:0:0:
178,62,46357,1,4,0:0:0:0:
402,71,46528,1,0,0:0:0:0:
433,94,46614,1,0,0:0:0:0:
390,102,46700,1,0,0:0:0:0:
348,70,46785,1,0,0:0:0:0:
187,69,46871,6,0,L|77:65,1,80,8|0,0:0|0:0,0:0:0:0:
332,63,47214,1,4,0:0:0:0:
172,71,47385,1,0,0:0:0:0:
215,92,47471,1,0,0:0:0:0:
215,92,47557,1,0,0:0:0:0:
168,95,47643,1,0,0:0:0:0:
122,72,47728,1,8,0:0:0:0:
347,75,47900,2,0,L|436:75,1,80,4|0,0:0|0:0,0:0:0:0:
201,71,48243,6,0,L|107:72,1,80,8|0,0:0|0:0,0:0:0:0:
346,35,48585,1,4,0:0:0:0:
185,43,48757,1,0,0:0:0:0:
136,45,48843,1,0,0:0:0:0:
138,89,48928,1,0,0:0:0:0:
191,89,49014,1,0,0:0:0:0:
241,46,49100,1,8,0:0:0:0:
17,54,49271,1,4,0:0:0:0:
243,66,49443,1,8,0:0:0:0:
467,68,49614,6,0,L|351:69,1,80,8|0,0:0|0:0,0:0:0:0:
161,71,49957,1,4,0:0:0:0:
305,74,50128,2,0,L|361:73,1,40
203,76,50300,2,0,L|147:77,1,40
279,72,50471,1,8,0:0:0:0:
54,70,50643,1,4,0:0:0:0:
279,72,50814,1,8,0:0:0:0:
54,70,50985,6,0,L|55:158,1,80,8|0,0:0|0:0,0:0:0:0:
281,149,51328,1,4,0:0:0:0:
120,147,51500,2,0,L|49:149,2,40
345,151,51843,1,8,0:0:0:0:
120,147,52014,2,0,L|120:61,1,80,4|8,0:0|0:0,0:0:0:0:
345,151,52357,5,0,0:0:0:0:
65,152,52700,1,4,0:0:0:0:
226,144,52871,1,0,0:0:0:0:
176,147,52957,1,0,0:0:0:0:
126,144,53043,1,0,0:0:0:0:
264,143,53214,1,8,0:0:0:0:
424,152,53385,2,0,L|327:150,1,80,4|0,0:0|0:0,0:0:0:0:
56,139,53728,6,0,L|56:237,1,80,8|0,0:0|0:0,0:0:0:0:
281,217,54071,1,4,0:0:0:0:
120,219,54243,1,0,0:0:0:0:
62,223,54328,1,0,0:0:0:0:
120,219,54414,1,0,0:0:0:0:
170,219,54500,1,0,0:0:0:0:
219,222,54585,1,8,0:0:0:0:
444,219,54757,2,0,L|339:221,1,80,4|8,0:0|0:0,0:0:0:0:
139,214,55100,6,0,L|248:212,1,80,8|0,0:0|0:0,0:0:0:0:
444,215,55443,1,4,0:0:0:0:
282,219,55614,2,0,L|236:218,2,40
443,234,55957,1,8,0:0:0:0:
219,228,56128,1,4,0:0:0:0:
380,220,56300,2,0,L|422:220,1,40,8|0,0:0|0:0,0:0:0:0:
279,209,56471,6,0,L|279:113,1,80,8|0,0:0|0:0,0:0:0:0:
53,123,56814,1,4,0:0:0:0:
213,109,56985,2,0,L|266:110,1,40
395,112,57157,2,0,L|396:197,1,80,0|8,0:0|0:0,0:0:0:0:
154,133,57500,1,4,0:0:0:0:
314,131,57671,1,8,0:0:0:0:
89,155,57843,6,0,L|90:237,1,80,8|0,0:0|0:0,0:0:0:0:
314,226,58185,1,4,0:0:0:0:
149,232,58357,1,0,0:0:0:0:
89,179,58443,1,0,0:0:0:0:
89,179,58528,1,0,0:0:0:0:
149,232,58614,1,0,0:0:0:0:
230,231,58700,2,0,L|229:138,1,80,0|4,0:0|0:0,0:0:0:0:
455,146,59043,1,8,0:0:0:0:
230,134,59214,6,0,L|228:37,1,80,8|0,0:0|0:0,0:0:0:0:
454,40,59557,1,4,0:0:0:0:
294,51,59728,1,0,0:0:0:0:
234,88,59814,1,0,0:0:0:0:
234,88,59900,1,0,0:0:0:0:
294,51,59985,1,0,0:0:0:0:
435,55,60071,1,8,0:0:0:0:
209,51,60243,1,4,0:0:0:0:
441,48,60414,1,8,0:0:0:0:
216,58,60585,6,0,L|124:58,1,80,8|0,0:0|0:0,0:0:0:0:
361,54,60928,2,0,L|446:55,1,80,4|0,0:0|0:0,0:0:0:0:
280,59,61271,1,0,0:0:0:0:
230,59,61357,1,0,0:0:0:0:
230,59,61443,1,0,0:0:0:0:
280,59,61528,1,0,0:0:0:0:
139,97,61614,2,0,L|138:203,1,80,4|0,0:0|0:0,0:0:0:0:
424,76,61957,6,0,L|426:168,1,80,8|0,0:0|0:0,0:0:0:0:
199,159,62300,1,4,0:0:0:0:
358,163,62471,1,0,0:0:0:0:
408,165,62557,1,0,0:0:0:0:
358,163,62643,1,0,0:0:0:0:
312,161,62728,1,0,0:0:0:0:
267,160,62814,1,8,0:0:0:0:
491,165,62985,2,0,L|489:78,1,80,4|8,0:0|0:0,0:0:0:0:
264,66,63328,6,0,L|172:63,1,80,8|0,0:0|0:0,0:0:0:0:
409,63,63671,1,4,0:0:0:0:
248,65,63843,2,0,L|202:65,2,40
472,65,64185,1,8,0:0:0:0:
222,69,64357,2,0,L|118:70,1,80,4|8,0:0|0:0,0:0:0:0:
368,65,64700,6,0,L|372:165,1,80,8|0,0:0|0:0,0:0:0:0:
146,155,65043,1,4,0:0:0:0:
306,160,65214,1,0,0:0:0:0:
356,159,65300,1,0,0:0:0:0:
306,160,65385,1,0,0:0:0:0:
261,162,65471,1,0,0:0:0:0:
215,163,65557,1,8,0:0:0:0:
447,158,65728,1,4,0:0:0:0:
222,162,65900,1,8,0:0:0:0:
447,158,66071,5,8,0:0:0:0:
247,162,66414,2,0,L|156:161,1,80
87,158,66757,1,2,0:0:0:0:
27,151,66928,1,4,0:0:0:0:
27,151,67100,1,2,0:0:0:0:
87,158,67271,1,4,0:0:0:0:
248,113,67443,1,8,0:0:0:0:
248,113,68128,1,0,0:0:0:0:
348,124,68300,1,0,0:0:0:0:
188,151,68471,2,0,L|93:153,1,80,2|0,0:0|0:0,0:0:0:0:
249,151,68814,6,0,B|332:151|332:151|333:235,1,160,10|0,0:0|0:0,0:0:0:0:
332,227,69671,1,0,0:0:0:0:
232,223,69843,2,0,L|233:141,1,80
393,142,70185,6,0,L|280:143,1,80,8|4,0:0|0:0,0:0:0:0:
229,58,70528,1,2,0:0:0:0:
127,56,70700,1,4,0:0:0:0:
247,58,70871,2,0,L|333:59,2,80,2|4|2,0:0|0:0|0:0,0:0:0:0:
167,57,71385,1,4,0:0:0:0:
328,98,71557,2,0,L|329:282,1,160,8|0,0:0|0:0,0:0:0:0:
201,49,72585,2,0,L|98:48,1,80,2|4,0:0|0:0,0:0:0:0:
243,42,72928,6,0,P|290:53|231:110,1,160,8|0,0:0|0:0,0:0:0:0:
244,118,73614,1,0,0:0:0:0:
144,132,73785,2,0,L|144:39,1,80,2|0,0:0|0:0,0:0:0:0:
223,123,74128,1,0,0:0:0:0:
383,113,74300,2,0,P|426:131|361:194,1,160,10|0,0:0|0:0,0:0:0:0:
219,119,74985,6,0,L|396:119,1,160,2|2,0:0|0:0,0:0:0:0:
218,197,75671,1,8,0:0:0:0:
138,204,76014,2,0,L|139:92,1,80
239,104,76357,1,0,0:0:0:0:
319,153,76528,1,0,0:0:0:0:
319,153,76700,1,0,0:0:0:0:
239,104,76871,1,0,0:0:0:0:
78,81,77043,2,0,L|263:82,1,160,10|2,0:0|0:0,0:0:0:0:
157,157,77728,1,2,0:0:0:0:
77,91,77900,1,4,0:0:0:0:
77,91,78071,1,2,0:0:0:0:
157,157,78243,1,4,0:0:0:0:
317,163,78414,6,0,P|374:157|312:83,1,200,2|0,0:0|0:0,0:0:0:0:
319,78,79100,1,0,0:0:0:0:
219,73,79271,2,0,L|219:161,1,80
380,162,79614,2,0,P|436:144|352:50,1,240,4|0,0:0|0:0,0:0:0:0:
202,51,80471,1,0,0:0:0:0:
302,54,80643,2,0,L|303:161,1,80
61,117,81157,6,0,L|166:118,1,80,8|4,0:0|0:0,0:0:0:0:
241,108,81500,1,2,0:0:0:0:
145,101,81671,1,4,0:0:0:0:
285,105,81843,2,0,L|284:213,1,80,2|4,0:0|0:0,0:0:0:0:
184,176,82185,2,0,L|184:71,1,80,2|4,0:0|0:0,0:0:0:0:
344,74,82528,5,0,0:0:0:0:
341,62,82871,2,0,L|343:157,1,80,2|4,0:0|0:0,0:0:0:0:
205,141,83214,2,0,L|302:140,1,80,2|2,0:0|0:0,0:0:0:0:
123,134,83557,2,0,L|121:37,1,80,0|2,0:0|0:0,0:0:0:0:
298,47,83900,1,4,0:0:0:0:
298,47,84585,1,0,0:0:0:0:
398,45,84757,2,0,L|398:138,1,80,4|0,0:0|0:0,0:0:0:0:
238,134,85271,2,0,L|410:136,1,160,10|0,0:0|0:0,0:0:0:0:
238,134,85957,2,0,L|54:130,1,160,2|8,0:0|0:0,0:0:0:0:
239,88,86985,1,2,0:0:0:0:
159,91,87157,2,0,L|263:90,1,80,4|2,0:0|0:0,0:0:0:0:
379,93,87500,2,0,L|483:96,2,80,4|2|0,0:0|0:0|0:0,0:0:0:0:
153,169,88014,5,8,0:0:0:0:
460,133,88700,2,0,L|461:223,1,80,2|4,0:0|0:0,0:0:0:0:
381,218,89043,2,0,L|378:124,1,80,2|4,0:0|0:0,0:0:0:0:
219,139,89385,5,8,0:0:0:0:
436,145,90071,1,2,0:0:0:0:
296,141,90414,2,0,L|190:139,1,80,4|2,0:0|0:0,0:0:0:0:
357,140,90757,5,8,0:0:0:0:
58,160,91614,1,4,0:0:0:0:
218,162,91957,1,4,0:0:0:0:
58,160,92128,5,10,0:0:0:0:
377,145,92814,2,0,L|276:147,1,80,2|4,0:0|0:0,0:0:0:0:
177,148,93157,2,0,L|269:150,1,80,2|4,0:0|0:0,0:0:0:0:
116,133,93500,5,10,0:0:0:0:
318,179,94357,2,0,L|429:180,1,80,2|4,0:0|0:0,0:0:0:0:
118,184,94871,5,12,0:0:0:0:
318,190,95385,2,0,L|315:73,1,80,2|4,0:0|0:0,0:0:0:0:
75,128,95900,2,0,L|181:129,1,80,4|2,0:0|0:0,0:0:0:0:
296,130,96243,5,10,0:0:0:0:
37,166,97443,2,0,L|38:247,1,80,4|10,0:0|0:0,0:0:0:0:
357,238,98300,2,0,L|249:239,1,80,2|4,0:0|0:0,0:0:0:0:
418,173,98643,2,0,L|324:172,1,80,2|4,0:0|0:0,0:0:0:0:
178,159,98985,6,0,L|432:154,1,240,8|0,0:0|0:0,0:0:0:0:
276,114,99671,1,2,0:0:0:0:
192,172,99843,1,4,0:0:0:0:
280,249,100014,1,2,0:0:0:0:
380,248,100185,1,4,0:0:0:0:
218,250,100357,6,0,L|106:249,1,80,10|4,0:0|0:0,0:0:0:0:
257,262,100700,1,2,0:0:0:0:
119,184,101043,2,0,L|221:187,1,80,2|4,0:0|0:0,0:0:0:0:
339,188,101385,2,0,L|249:190,1,80,2|4,0:0|0:0,0:0:0:0:
118,192,101728,6,0,L|118:80,1,80,8|0,0:0|0:0,0:0:0:0:
219,91,102071,2,0,L|55:91,1,160
179,92,102585,1,2,0:0:0:0:
419,90,102928,1,2,0:0:0:0:
279,84,103100,6,0,L|278:179,1,80,12|0,0:0|0:0,0:0:0:0:
176,167,103443,1,2,0:0:0:0:
379,172,103785,1,2,0:0:0:0:
459,128,103957,1,4,0:0:0:0:
459,128,104128,1,2,0:0:0:0:
379,172,104300,1,4,0:0:0:0:
239,219,104471,6,0,P|142:200|239:74,1,320,8|0,0:0|0:0,0:0:0:0:
392,91,105500,1,2,0:0:0:0:
112,103,105843,5,12,0:0:0:0:
273,220,106185,2,0,L|379:222,2,80,2|4|2,0:0|0:0|0:0,0:0:0:0:
132,219,106700,1,4,0:0:0:0:
307,222,106871,2,0,L|380:222,1,40,2|2,0:0|0:0,0:0:0:0:
266,222,107043,1,4,0:0:0:0:
41,221,107214,5,8,0:0:0:0:
256,192,107385,12,2,109957,0:0:0:0:
206,155,113728,5,2,0:0:0:0:
446,159,114071,6,0,L|266:160,1,160,8|0,0:0|0:0,0:0:0:0:
166,156,114585,2,0,L|166:269,1,80
306,246,114928,2,0,L|466:246,1,160
325,237,115443,6,0,L|323:137,1,80,8|0,0:0|0:0,0:0:0:0:
148,181,115785,2,0,P|65:177|162:74,1,320
261,79,116643,1,2,0:0:0:0:
159,71,116814,5,12,0:0:0:0:
444,60,117500,2,0,L|447:165,1,80,2|0,0:0|0:0,0:0:0:0:
346,124,117843,2,0,L|440:126,1,80,4|2,0:0|0:0,0:0:0:0:
286,118,118185,5,8,0:0:0:0:
126,126,118528,2,0,L|206:126,1,80
306,122,118871,2,0,L|138:118,1,160,0|2,0:0|0:0,0:0:0:0:
246,124,119385,1,4,0:0:0:0:
104,123,119557,6,0,L|103:288,1,160,10|0,0:0|0:0,0:0:0:0:
344,258,120243,2,0,L|440:260,1,80,2|4,0:0|0:0,0:0:0:0:
284,243,120585,2,0,L|285:152,1,80,2|4,0:0|0:0,0:0:0:0:
108,187,120928,6,0,P|60:157|205:84,1,320,8|0,0:0|0:0,0:0:0:0:
292,60,121785,1,2,0:0:0:0:
192,66,121957,1,4,0:0:0:0:
424,66,122300,6,0,L|259:64,1,160,8|0,0:0|0:0,0:0:0:0:
152,66,122985,1,2,0:0:0:0:
365,71,123328,2,0,L|448:72,1,80,4|2,0:0|0:0,0:0:0:0:
304,70,123671,5,8,0:0:0:0:
104,67,124014,2,0,L|103:172,1,80
224,144,124357,2,0,L|123:145,1,80
266,146,124700,2,0,L|263:50,1,80
123,70,125043,6,0,L|299:69,1,160,10|2,0:0|0:0,0:0:0:0:
138,67,125728,1,0,0:0:0:0:
58,117,125900,1,0,0:0:0:0:
58,117,126071,1,2,0:0:0:0:
138,67,126243,1,4,0:0:0:0:
313,60,126414,6,0,P|375:92|272:249,1,320,8|0,0:0|0:0,0:0:0:0:
178,238,127271,1,2,0:0:0:0:
77,235,127443,2,0,L|181:236,1,80,4|0,0:0|0:0,0:0:0:0:
297,249,127785,6,0,L|128:248,1,160,8|0,0:0|0:0,0:0:0:0:
238,230,128300,1,2,0:0:0:0:
118,199,128471,2,0,L|116:107,1,80,4|0,0:0|0:0,0:0:0:0:
257,118,128814,2,0,L|169:119,1,80,4|2,0:0|0:0,0:0:0:0:
318,118,129157,5,8,0:0:0:0:
99,116,129671,1,0,0:0:0:0:
239,115,129843,2,0,L|337:117,1,80
199,106,130185,2,0,L|201:17,1,80
342,83,130528,6,0,L|247:82,1,80,8|0,0:0|0:0,0:0:0:0:
142,92,130871,2,0,L|260:93,1,80
342,104,131214,2,0,L|250:100,1,80,4|2,0:0|0:0,0:0:0:0:
403,59,131557,2,0,L|310:59,1,80,4|2,0:0|0:0,0:0:0:0:
97,60,131900,6,0,L|193:62,1,80,8|0,0:0|0:0,0:0:0:0:
403,59,132243,2,0,L|326:60,1,40,4|0,0:0|0:0,0:0:0:0:
281,61,132414,2,0,L|344:60,1,40
423,63,132585,2,0,L|423:161,1,80,0|8,0:0|0:0,0:0:0:0:
197,151,132928,2,0,L|308:153,1,80,4|0,0:0|0:0,0:0:0:0:
51,160,133271,6,0,L|53:57,1,80,8|0,0:0|0:0,0:0:0:0:
279,97,133614,1,4,0:0:0:0:
319,101,133699,1,0,0:0:0:0:
354,88,133785,1,0,0:0:0:0:
360,51,133871,1,0,0:0:0:0:
220,57,133957,2,0,L|299:57,1,80,0|8,0:0|0:0,0:0:0:0:
73,56,134300,2,0,L|76:169,1,80,4|0,0:0|0:0,0:0:0:0:
301,148,134643,6,0,L|415:147,1,80,8|0,0:0|0:0,0:0:0:0:
156,138,134985,2,0,L|153:44,1,80,4|0,0:0|0:0,0:0:0:0:
315,51,135328,1,0,0:0:0:0:
376,51,135414,1,0,0:0:0:0:
436,49,135500,1,0,0:0:0:0:
420,54,135585,1,0,0:0:0:0:
279,89,135671,2,0,L|162:89,1,80,4|0,0:0|0:0,0:0:0:0:
425,75,136014,6,0,L|427:162,1,80,8|0,0:0|0:0,0:0:0:0:
200,132,136357,1,4,0:0:0:0:
151,126,136442,1,0,0:0:0:0:
164,73,136528,1,0,0:0:0:0:
215,61,136614,1,0,0:0:0:0:
385,128,136700,2,0,L|272:131,1,80,0|8,0:0|0:0,0:0:0:0:
78,131,137043,1,4,0:0:0:0:
303,123,137214,1,8,0:0:0:0:
78,131,137385,6,0,L|166:134,1,80,8|0,0:0|0:0,0:0:0:0:
384,143,137728,2,0,L|386:237,1,80,4|0,0:0|0:0,0:0:0:0:
159,228,138071,1,0,0:0:0:0:
99,217,138157,1,0,0:0:0:0:
99,217,138243,1,8,0:0:0:0:
159,228,138328,1,0,0:0:0:0:
300,225,138414,2,0,L|196:224,1,80,4|0,0:0|0:0,0:0:0:0:
446,210,138757,6,0,L|446:112,1,80,8|0,0:0|0:0,0:0:0:0:
220,125,139100,1,4,0:0:0:0:
161,125,139185,1,0,0:0:0:0:
101,121,139271,1,0,0:0:0:0:
101,84,139357,1,0,0:0:0:0:
161,125,139443,2,0,L|267:123,1,80,0|8,0:0|0:0,0:0:0:0:
465,122,139785,1,4,0:0:0:0:
415,123,139871,1,0,0:0:0:0:
365,122,139957,1,0,0:0:0:0:
140,119,140128,6,0,L|141:217,1,80,8|0,0:0|0:0,0:0:0:0:
368,265,140471,1,4,0:0:0:0:
418,256,140557,1,0,0:0:0:0:
468,244,140643,1,0,0:0:0:0:
408,223,140728,1,0,0:0:0:0:
346,202,140814,1,0,0:0:0:0:
121,200,140985,1,8,0:0:0:0:
347,211,141157,1,4,0:0:0:0:
121,200,141328,1,8,0:0:0:0:
346,202,141500,6,0,L|345:97,1,80,8|0,0:0|0:0,0:0:0:0:
120,107,141843,1,4,0:0:0:0:
70,105,141928,1,0,0:0:0:0:
120,107,142014,1,0,0:0:0:0:
166,110,142100,1,0,0:0:0:0:
305,106,142185,1,0,0:0:0:0:
79,106,142357,1,8,0:0:0:0:
305,106,142528,1,4,0:0:0:0:
79,106,142700,1,8,0:0:0:0:
305,106,142871,6,0,L|401:105,1,80,8|0,0:0|0:0,0:0:0:0:
159,107,143214,2,0,L|162:192,1,80,4|0,0:0|0:0,0:0:0:0:
323,180,143557,2,0,L|212:182,1,80,0|8,0:0|0:0,0:0:0:0:
469,181,143900,2,0,L|470:93,1,80,4|0,0:0|0:0,0:0:0:0:
243,72,144243,6,0,L|129:72,1,80,8|0,0:0|0:0,0:0:0:0:
388,72,144585,1,4,0:0:0:0:
449,95,144671,1,0,0:0:0:0:
449,95,144757,1,0,0:0:0:0:
388,72,144843,1,0,0:0:0:0:
287,72,144928,2,0,L|384:71,1,80
141,65,145271,2,0,L|143:151,1,80,4|0,0:0|0:0,0:0:0:0:
369,147,145614,6,0,L|274:146,1,80,8|0,0:0|0:0,0:0:0:0:
63,160,145957,2,0,L|64:71,1,80,4|0,0:0|0:0,0:0:0:0:
225,75,146300,1,0,0:0:0:0:
274,74,146385,1,0,0:0:0:0:
324,73,146471,1,8,0:0:0:0:
274,74,146557,1,0,0:0:0:0:
133,74,146643,1,4,0:0:0:0:
358,75,146814,1,8,0:0:0:0:
133,74,146985,6,0,L|46:72,1,80,8|0,0:0|0:0,0:0:0:0:
279,88,147328,1,4,0:0:0:0:
229,90,147414,1,0,0:0:0:0:
179,88,147500,1,0,0:0:0:0:
227,81,147585,1,0,0:0:0:0:
340,137,147671,2,0,L|451:139,1,80,0|8,0:0|0:0,0:0:0:0:
194,131,148014,2,0,L|194:32,1,80,4|8,0:0|0:0,0:0:0:0:
420,36,148357,6,0,L|326:38,1,80,8|0,0:0|0:0,0:0:0:0:
114,45,148700,2,0,L|196:45,1,80,4|0,0:0|0:0,0:0:0:0:
33,51,149043,1,0,0:0:0:0:
16,102,149128,1,0,0:0:0:0:
66,134,149214,1,8,0:0:0:0:
126,135,149300,1,0,0:0:0:0:
266,132,149385,2,0,L|181:131,1,80,4|0,0:0|0:0,0:0:0:0:
412,140,149728,6,0,L|495:109,1,80,8|0,0:0|0:0,0:0:0:0:
260,69,150071,1,4,0:0:0:0:
210,70,150157,1,0,0:0:0:0:
160,71,150243,1,0,0:0:0:0:
210,70,150328,1,0,0:0:0:0:
351,67,150414,2,0,L|352:161,1,80,0|8,0:0|0:0,0:0:0:0:
126,143,150757,2,0,L|125:51,1,80,4|0,0:0|0:0,0:0:0:0:
352,120,151100,6,0,L|468:123,1,80,8|0,0:0|0:0,0:0:0:0:
206,91,151443,1,4,0:0:0:0:
146,120,151528,1,0,0:0:0:0:
146,120,151614,1,0,0:0:0:0:
206,91,151700,1,0,0:0:0:0:
306,90,151785,2,0,L|408:89,1,80,0|8,0:0|0:0,0:0:0:0:
160,90,152128,1,4,0:0:0:0:
386,111,152300,1,8,0:0:0:0:
160,90,152471,5,8,0:0:0:0:
359,172,153328,2,0,L|465:172,2,80,2|4|2,0:0|0:0|0:0,0:0:0:0:
132,182,153843,6,0,P|85:179|176:68,1,320,0|4,0:0|0:0,0:0:0:0:
270,61,154700,1,2,0:0:0:0:
150,67,154871,2,0,L|151:161,1,80,4|2,0:0|0:0,0:0:0:0:
291,143,155214,5,0,0:0:0:0:
91,185,155557,2,0,L|251:182,1,160
411,187,156243,2,0,L|411:104,1,80,4|8,0:0|0:0,0:0:0:0:
186,128,156585,6,0,L|286:127,1,80,8|0,0:0|0:0,0:0:0:0:
40,129,156928,2,0,L|40:213,1,80,4|0,0:0|0:0,0:0:0:0:
201,204,157271,1,0,0:0:0:0:
251,202,157357,1,0,0:0:0:0:
301,202,157443,1,8,0:0:0:0:
301,202,157528,1,0,0:0:0:0:
161,145,157614,2,0,L|251:147,1,80,4|0,0:0|0:0,0:0:0:0:
467,152,157957,5,8,0:0:0:0:
307,149,158128,1,0,0:0:0:0:
467,152,158300,2,0,L|360:150,1,80,4|0,0:0|0:0,0:0:0:0:
161,144,158643,1,0,0:0:0:0:
131,114,158728,1,0,0:0:0:0:
187,108,158814,1,0,0:0:0:0:
243,107,158900,1,0,0:0:0:0:
403,100,158985,1,4,0:0:0:0:
177,94,159157,1,8,0:0:0:0:
403,100,159328,6,0,L|297:99,1,80,8|0,0:0|0:0,0:0:0:0:
97,93,159671,1,4,0:0:0:0:
37,142,159757,1,0,0:0:0:0:
37,142,159843,1,0,0:0:0:0:
97,93,159928,1,0,0:0:0:0:
238,87,160014,2,0,L|332:88,1,80,0|8,0:0|0:0,0:0:0:0:
92,87,160357,1,4,0:0:0:0:
317,87,160528,1,8,0:0:0:0:
91,93,160700,6,0,L|90:175,1,80,8|0,0:0|0:0,0:0:0:0:
316,181,161043,1,4,0:0:0:0:
366,181,161128,1,0,0:0:0:0:
417,182,161214,1,0,0:0:0:0:
366,181,161300,1,0,0:0:0:0:
265,180,161385,1,0,0:0:0:0:
39,173,161557,1,0,0:0:0:0:
265,180,161728,2,0,L|325:179,1,40,4|0,0:0|0:0,0:0:0:0:
203,180,161900,1,0,0:0:0:0:
429,185,162071,6,0,L|336:183,1,80,8|0,0:0|0:0,0:0:0:0:
123,182,162414,1,4,0:0:0:0:
83,137,162500,1,0,0:0:0:0:
132,118,162585,1,0,0:0:0:0:
192,118,162671,1,0,0:0:0:0:
293,112,162757,2,0,L|380:113,1,80,0|8,0:0|0:0,0:0:0:0:
147,74,163100,2,0,L|146:173,1,80,4|0,0:0|0:0,0:0:0:0:
373,166,163443,6,0,L|466:166,1,80,8|0,0:0|0:0,0:0:0:0:
228,167,163785,1,4,0:0:0:0:
177,157,163870,1,0,0:0:0:0:
177,157,163956,1,0,0:0:0:0:
227,144,164042,1,0,0:0:0:0:
368,105,164128,2,0,L|255:106,1,80,0|8,0:0|0:0,0:0:0:0:
62,112,164471,2,0,L|161:114,1,80,4|8,0:0|0:0,0:0:0:0:
368,110,164814,6,0,L|373:206,1,80,8|0,0:0|0:0,0:0:0:0:
146,177,165157,1,4,0:0:0:0:
128,141,165242,1,0,0:0:0:0:
178,126,165328,1,0,0:0:0:0:
227,125,165414,1,0,0:0:0:0:
368,130,165500,1,0,0:0:0:0:
144,123,165671,1,8,0:0:0:0:
371,145,165843,2,0,L|268:145,1,80,4|0,0:0|0:0,0:0:0:0:
66,148,166185,6,0,L|181:146,1,80,8|0,0:0|0:0,0:0:0:0:
372,151,166528,1,4,0:0:0:0:
432,129,166614,1,0,0:0:0:0:
432,129,166700,1,0,0:0:0:0:
372,151,166785,1,0,0:0:0:0:
282,152,166871,1,0,0:0:0:0:
56,156,167043,1,8,0:0:0:0:
282,152,167214,2,0,L|384:152,1,80,4|0,0:0|0:0,0:0:0:0:
136,158,167557,6,0,L|138:246,1,80,8|0,0:0|0:0,0:0:0:0:
363,229,167900,1,4,0:0:0:0:
413,211,167985,1,0,0:0:0:0:
366,179,168071,1,0,0:0:0:0:
316,164,168157,1,0,0:0:0:0:
217,172,168243,2,0,L|100:177,1,80,0|8,0:0|0:0,0:0:0:0:
362,136,168585,2,0,L|475:135,1,80,4|0,0:0|0:0,0:0:0:0:
216,89,168928,5,8,0:0:0:0:
376,78,169100,1,0,0:0:0:0:
216,89,169271,1,4,0:0:0:0:
157,86,169356,1,0,0:0:0:0:
95,80,169442,1,0,0:0:0:0:
95,80,169528,1,0,0:0:0:0:
196,91,169614,2,0,L|197:170,1,80,0|8,0:0|0:0,0:0:0:0:
423,156,169957,1,4,0:0:0:0:
198,175,170128,1,8,0:0:0:0:
424,189,170300,6,0,L|317:189,1,80,8|0,0:0|0:0,0:0:0:0:
118,184,170643,1,4,0:0:0:0:
89,136,170728,1,0,0:0:0:0:
145,127,170814,1,0,0:0:0:0:
201,118,170900,1,0,0:0:0:0:
341,134,170985,2,0,L|443:134,1,80,0|8,0:0|0:0,0:0:0:0:
195,118,171328,1,4,0:0:0:0:
421,113,171500,1,8,0:0:0:0:
195,118,171671,6,0,L|106:117,1,80,8|0,0:0|0:0,0:0:0:0:
341,116,172014,1,4,0:0:0:0:
391,115,172100,1,0,0:0:0:0:
441,116,172185,1,0,0:0:0:0:
391,115,172271,1,0,0:0:0:0:
290,115,172357,1,0,0:0:0:0:
65,126,172528,2,0,L|132:127,1,40,8|0,0:0|0:0,0:0:0:0:
247,124,172700,1,4,0:0:0:0:
104,126,172785,2,0,L|51:128,1,40,0|8,0:0|0:0,0:0:0:0:
295,138,173043,5,8,0:0:0:0:
135,134,173214,1,0,0:0:0:0:
275,138,173385,1,4,0:0:0:0:
335,130,173471,1,0,0:0:0:0:
335,130,173557,1,0,0:0:0:0:
273,137,173643,1,0,0:0:0:0:
161,140,173728,1,0,0:0:0:0:
322,143,173900,1,8,0:0:0:0:
97,141,174071,1,4,0:0:0:0:
258,147,174243,1,8,0:0:0:0:
483,128,174414,6,0,B|161:122|161:122|162:361,1,560,8|4,0:0|0:0,0:0:0:0:
387,335,175785,6,0,L|281:335,1,80,8|0,0:0|0:0,0:0:0:0:
81,324,176128,1,4,0:0:0:0:
241,280,176300,2,0,L|302:283,2,40
80,264,176643,1,8,0:0:0:0:
308,268,176814,1,4,0:0:0:0:
83,273,176985,1,0,0:0:0:0:
309,284,177157,6,0,L|311:192,1,80,8|0,0:0|0:0,0:0:0:0:
84,203,177500,1,4,0:0:0:0:
244,186,177671,1,0,0:0:0:0:
194,188,177757,1,0,0:0:0:0:
144,188,177843,1,0,0:0:0:0:
304,187,178014,1,8,0:0:0:0:
79,173,178185,2,0,L|80:89,1,80,4|0,0:0|0:0,0:0:0:0:
306,88,178528,6,0,L|203:88,1,80,8|0,0:0|0:0,0:0:0:0:
452,82,178871,1,4,0:0:0:0:
291,88,179043,1,0,0:0:0:0:
341,88,179128,1,0,0:0:0:0:
391,86,179214,1,0,0:0:0:0:
231,96,179385,1,8,0:0:0:0:
457,92,179557,2,0,L|456:183,1,80,4|8,0:0|0:0,0:0:0:0:
230,186,179900,6,0,L|128:187,1,80,8|0,0:0|0:0,0:0:0:0:
376,162,180243,1,4,0:0:0:0:
214,145,180414,2,0,L|174:145,2,40
440,139,180757,1,8,0:0:0:0:
214,145,180928,1,4,0:0:0:0:
440,139,181100,1,8,0:0:0:0:
214,145,181271,6,0,L|116:146,1,80,8|0,0:0|0:0,0:0:0:0:
360,143,181614,1,4,0:0:0:0:
200,109,181785,1,0,0:0:0:0:
241,110,181871,1,0,0:0:0:0:
281,108,181957,1,0,0:0:0:0:
121,110,182128,1,8,0:0:0:0:
347,117,182300,2,0,L|451:114,1,80,4|0,0:0|0:0,0:0:0:0:
200,119,182643,6,0,L|201:209,1,80,8|0,0:0|0:0,0:0:0:0:
426,194,182985,1,4,0:0:0:0:
264,196,183157,1,0,0:0:0:0:
314,199,183243,1,0,0:0:0:0:
364,197,183328,1,0,0:0:0:0:
202,210,183500,1,8,0:0:0:0:
426,194,183671,2,0,L|425:101,1,80,4|0,0:0|0:0,0:0:0:0:
198,107,184014,5,8,0:0:0:0:
361,103,184357,1,4,0:0:0:0:
200,102,184528,1,0,0:0:0:0:
250,103,184614,1,0,0:0:0:0:
300,104,184700,1,0,0:0:0:0:
140,98,184871,1,8,0:0:0:0:
366,99,185043,2,0,L|279:99,1,80,4|0,0:0|0:0,0:0:0:0:
61,97,185385,6,0,L|168:97,1,80,8|0,0:0|0:0,0:0:0:0:
368,96,185728,1,4,0:0:0:0:
207,92,185900,2,0,L|156:91,2,40
433,98,186243,1,8,0:0:0:0:
209,93,186414,1,4,0:0:0:0:
433,98,186585,1,8,0:0:0:0:
206,108,186757,6,0,L|93:106,1,80,8|0,0:0|0:0,0:0:0:0:
352,106,187100,1,4,0:0:0:0:
193,114,187271,1,0,0:0:0:0:
132,114,187357,2,0,L|133:63,1,40
293,67,187614,1,8,0:0:0:0:
68,62,187785,2,0,L|164:63,1,80,4|0,0:0|0:0,0:0:0:0:
375,62,188128,6,0,L|378:155,1,80,8|0,0:0|0:0,0:0:0:0:
151,143,188471,1,4,0:0:0:0:
312,145,188643,1,0,0:0:0:0:
372,145,188728,2,0,L|370:86,1,40
144,105,188985,1,8,0:0:0:0:
370,92,189157,1,4,0:0:0:0:
144,105,189328,1,0,0:0:0:0:
370,92,189500,6,0,L|266:94,1,80,8|0,0:0|0:0,0:0:0:0:
64,97,189843,1,4,0:0:0:0:
224,104,190014,2,0,L|225:52,1,40
159,62,190185,1,0,0:0:0:0:
320,57,190357,1,8,0:0:0:0:
95,62,190528,2,0,L|201:63,1,80,4|8,0:0|0:0,0:0:0:0:
401,61,190871,6,0,L|401:147,1,80,8|0,0:0|0:0,0:0:0:0:
175,161,191214,1,4,0:0:0:0:
335,165,191385,2,0,L|335:119,1,40
274,123,191557,1,0,0:0:0:0:
49,127,191728,1,8,0:0:0:0:
275,134,191900,1,4,0:0:0:0:
49,127,192071,1,8,0:0:0:0:
275,147,192243,6,0,L|388:147,1,80,8|0,0:0|0:0,0:0:0:0:
130,136,192585,1,4,0:0:0:0:
291,120,192757,1,0,0:0:0:0:
241,119,192843,1,0,0:0:0:0:
191,120,192928,1,0,0:0:0:0:
30,121,193100,1,8,0:0:0:0:
255,119,193271,2,0,L|370:117,1,80,4|0,0:0|0:0,0:0:0:0:
109,129,193614,6,0,L|211:125,1,80,8|0,0:0|0:0,0:0:0:0:
415,124,193957,1,4,0:0:0:0:
255,126,194128,2,0,L|201:127,2,40
416,137,194471,1,8,0:0:0:0:
190,152,194643,2,0,L|296:151,1,80,4|0,0:0|0:0,0:0:0:0:
495,149,194985,6,0,L|402:149,1,80,8|0,0:0|0:0,0:0:0:0:
188,152,195328,1,4,0:0:0:0:
27,137,195500,1,0,0:0:0:0:
76,138,195585,1,0,0:0:0:0:
126,137,195671,1,0,0:0:0:0:
287,131,195843,1,8,0:0:0:0:
63,151,196014,2,0,L|63:242,1,80,4|8,0:0|0:0,0:0:0:0:
305,227,196357,5,8,0:0:0:0:
106,171,197214,1,4,0:0:0:0:
226,171,197385,1,2,0:0:0:0:
106,171,197557,1,4,0:0:0:0:
331,177,197728,5,8,0:0:0:0:
172,125,198414,1,4,0:0:0:0:
72,154,198585,1,2,0:0:0:0:
72,154,198757,1,4,0:0:0:0:
172,125,198928,1,2,0:0:0:0:
313,129,199100,6,0,L|146:127,1,160,8|0,0:0|0:0,0:0:0:0:
393,129,199785,2,0,L|395:216,1,80,4|2,0:0|0:0,0:0:0:0:
295,206,200128,2,0,L|402:206,1,80,4|0,0:0|0:0,0:0:0:0:
212,207,200471,6,0,L|386:206,1,160,10|0,0:0|0:0,0:0:0:0:
113,179,201500,2,0,L|210:179,1,80
293,181,201843,6,0,L|291:93,1,80
211,102,202185,1,0,0:0:0:0:
291,101,202357,1,0,0:0:0:0:
151,100,202528,2,0,L|67:99,1,80,10|8,0:0|0:0,0:0:0:0:
191,98,202871,2,0,L|305:99,1,80
432,106,203214,6,0,L|266:104,1,160,8|0,0:0|0:0,0:0:0:0:
98,176,203900,1,4,0:0:0:0:
178,178,204071,1,2,0:0:0:0:
258,181,204243,1,4,0:0:0:0:
178,178,204414,1,2,0:0:0:0:
318,165,204585,6,0,L|150:166,1,160,8|0,0:0|0:0,0:0:0:0:
83,201,205271,2,0,L|195:202,1,80,2|4,0:0|0:0,0:0:0:0:
340,208,205614,2,0,L|341:268,1,40,2|2,0:0|0:0,0:0:0:0:
76,221,205957,6,0,L|186:224,1,80,2|4,0:0|0:0,0:0:0:0:
302,209,206300,2,0,L|304:256,1,40,2|2,0:0|0:0,0:0:0:0:
87,206,206643,2,0,L|167:207,1,80,2|4,0:0|0:0,0:0:0:0:
279,218,206985,2,0,L|280:273,1,40,2|2,0:0|0:0,0:0:0:0:
111,237,207328,6,0,L|190:238,1,80,2|4,0:0|0:0,0:0:0:0:
272,223,207671,2,0,L|270:275,1,40,2|2,0:0|0:0,0:0:0:0:
388,218,208014,1,2,0:0:0:0:
68,213,208700,5,4,0:0:0:0:
320,221,209385,1,4,0:0:0:0:
420,178,209557,1,2,0:0:0:0:
420,178,209728,1,4,0:0:0:0:
320,221,209900,1,2,0:0:0:0:
160,220,210071,6,0,L|327:221,1,160,8|0,0:0|0:0,0:0:0:0:
119,214,210757,2,0,L|39:216,2,80,2|4|2,0:0|0:0|0:0,0:0:0:0:
400,215,211443,6,0,L|399:41,1,160,8|0,0:0|0:0,0:0:0:0:
158,57,212471,2,0,L|53:57,1,80
178,60,212814,6,0,L|265:60,1,80
138,58,213157,2,0,L|138:146,1,80
279,144,213500,2,0,L|368:142,1,80,4|0,0:0|0:0,0:0:0:0:
279,144,213843,2,0,L|277:48,1,80
118,61,214185,5,8,0:0:0:0:
386,64,214871,2,0,L|387:150,1,80,4|2,0:0|0:0,0:0:0:0:
226,133,215214,2,0,L|228:34,1,80,4|2,0:0|0:0,0:0:0:0:
387,53,215557,6,0,L|221:52,1,160,8|0,0:0|0:0,0:0:0:0:
82,59,216243,2,0,L|184:59,1,80,2|4,0:0|0:0,0:0:0:0:
322,66,216585,2,0,L|373:66,1,40,2|2,0:0|0:0,0:0:0:0:
23,89,216928,5,8,0:0:0:0:
