osu file format v14

[General]
AudioFilename: audio.mp3
AudioLeadIn: 0
PreviewTime: 132724
Countdown: 0
SampleSet: Normal
StackLeniency: 0.7
Mode: 1
LetterboxInBreaks: 0
WidescreenStoryboard: 1

[Editor]
Bookmarks: 62553,76602,83620,102357,104699,114065,123430,178454,181669,183425,185181,186937,188401,190157,191913,193669,195132,196889,198645,200401,201864,203620,205376,207132,208596,210352,212108,213864,215328,217084,218840,220010,238746,241088,259817
DistanceSpacing: 0.1
BeatDivisor: 4
GridSize: 32
TimelineZoom: 4.299999

[Metadata]
Title:Damascus Gate
TitleUnicode:Damascus Gate
Artist:Aeternam
ArtistUnicode:Aeternam
Creator:Raiden
Version:Oni
Source:
Tags:ruins of empires symphonic folk death metal english syrian egyptian ancient greenshell grunschale gruenschale
BeatmapID:3527223
BeatmapSetID:1550463

[Difficulty]
HPDrainRate:6.4
CircleSize:2
OverallDifficulty:6
ApproachRate:10
SliderMultiplier:1.4
SliderTickRate:1

[Events]
//Background and Video events
0,0,"NUdyg8E.jpg",0,100
//Break Periods
//Storyboard Layer 0 (Background)
//Storyboard Layer 1 (Fail)
//Storyboard Layer 2 (Pass)
//Storyboard Layer 3 (Foreground)
//Storyboard Layer 4 (Overlay)
//Storyboard Sound Samples

[TimingPoints]
30943,292.682926829268,3,1,0,70,1,0
30943,-133.333333333333,3,1,0,70,0,0
47329,-133.333333333333,3,1,0,70,0,0
47475,-128,3,1,0,70,0,0
47621,-123.076923076923,3,1,0,70,0,0
47768,-118.518518518519,3,1,0,70,0,0
47841,-116.363636363636,3,1,0,70,0,0
47914,-114.285714285714,3,1,0,70,0,0
48060,-110.344827586207,3,1,0,70,0,0
48207,-106.666666666667,3,1,0,70,0,0
48353,-103.225806451613,3,1,0,70,0,0
48499,-100,3,1,0,90,0,0
81829,-62.5,3,1,0,90,0,0
82963,-83.3333333333333,3,1,0,90,0,0
83625,292.682926829268,4,1,0,100,1,8
83626,292.682926829268,4,1,0,100,1,0
83626,-100,4,1,0,100,0,0
102284,-100,4,1,0,100,0,0
104699,-100,4,1,0,100,0,0
135138,-95.2380952380952,4,1,0,100,0,1
153869,292.682926829268,3,1,0,100,1,0
153869,-100,3,1,0,100,0,0
178381,-83.3333333333333,3,1,0,100,0,0
180210,292.682926829268,5,1,0,100,1,0
180210,-83.3333333333333,4,1,0,100,0,0
181673,292.682926829268,3,1,0,100,1,0
181673,-83.3333333333333,3,1,0,100,0,0
186941,292.682926829268,5,1,0,100,1,0
186941,-83.3333333333333,3,1,0,100,0,0
188404,292.682926829268,3,1,0,100,1,0
188404,-90.9090909090909,3,1,0,100,0,0
191916,-100,3,1,0,100,0,0
193672,292.682926829268,5,1,0,100,1,0
193672,-100,3,1,0,100,0,0
195135,292.682926829268,3,1,0,100,1,0
195135,-100,3,1,0,100,0,0
200404,292.682926829268,5,1,0,100,1,0
200404,-100,3,1,0,100,0,0
201867,292.682926829268,3,1,0,100,1,0
207135,292.682926829268,5,1,0,100,1,0
208599,292.682926829268,3,1,0,100,1,0
213867,292.682926829268,5,1,0,100,1,0
215331,292.682926829268,3,1,0,100,1,0
218843,292.682926829268,4,1,0,100,1,0
220013,292.682926829268,4,1,0,100,1,0
241086,-125,4,1,0,100,0,0
249134,-125,4,1,0,100,0,0
249208,-122.876539796639,4,1,0,100,0,0
249281,-120.824019815139,4,1,0,100,0,0
249427,-116.918040453642,4,1,0,100,0,0
249500,-115.058380622328,4,1,0,100,0,0
249573,-113.256824573107,4,1,0,100,0,0
249720,-109.817823213072,4,1,0,100,0,0
249866,-106.581515141503,4,1,0,100,0,0
250012,-103.53049335386,4,1,0,100,0,0
250086,-102.0695624482,4,1,0,100,0,0
250159,-100.649389863399,4,1,0,100,0,0
250305,-97.9242027501033,4,1,0,100,0,0
250452,-95.2380952380952,4,1,0,100,0,1
259817,-90.9090909090909,4,1,0,100,0,1
277964,-90.9090909090909,4,1,0,100,0,1
278037,-91.9540229885058,4,1,0,100,0,1
278110,-93.0232558139535,4,1,0,100,0,1
278183,-94.1176470588235,4,1,0,100,0,1
278256,-95.2380952380952,4,1,0,100,0,1
278330,-96.3855421686747,4,1,0,100,0,1
278403,-97.5609756097561,4,1,0,100,0,1
278476,-98.7654320987654,4,1,0,100,0,1
278549,-100,4,1,0,100,0,0

[HitObjects]
256,192,34456,5,0,0:0:0:0:
256,192,34894,5,0,0:0:0:0:
256,192,35040,5,0,0:0:0:0:
256,192,35333,5,8,0:0:0:0:
256,192,35773,5,0,0:0:0:0:
256,192,35919,5,0,0:0:0:0:
256,192,36065,5,0,0:0:0:0:
256,192,36212,5,8,0:0:0:0:
256,192,36504,5,0,0:0:0:0:
256,192,36651,5,8,0:0:0:0:
256,192,36797,5,0,0:0:0:0:
256,192,37090,5,8,0:0:0:0:
256,192,37382,5,0,0:0:0:0:
256,192,37480,5,8,0:0:0:0:
256,192,37577,5,8,0:0:0:0:
256,192,37675,5,0,0:0:0:0:
256,192,37821,5,0,0:0:0:0:
256,192,37968,5,8,0:0:0:0:
256,192,38407,5,0,0:0:0:0:
256,192,38553,5,0,0:0:0:0:
256,192,38846,5,8,0:0:0:0:
256,192,39138,5,0,0:0:0:0:
256,192,39285,5,8,0:0:0:0:
256,192,39431,5,0,0:0:0:0:
256,192,39577,5,0,0:0:0:0:
256,192,39724,5,8,0:0:0:0:
256,192,40016,5,0,0:0:0:0:
256,192,40309,5,0,0:0:0:0:
256,192,40602,5,8,0:0:0:0:
256,192,40895,5,8,0:0:0:0:
256,192,40992,5,8,0:0:0:0:
256,192,41090,5,8,0:0:0:0:
256,192,41187,5,0,0:0:0:0:
256,192,41334,5,0,0:0:0:0:
256,192,41480,5,8,0:0:0:0:
256,192,41919,5,0,0:0:0:0:
256,192,42065,5,0,0:0:0:0:
256,192,42358,5,8,0:0:0:0:
256,192,42651,5,0,0:0:0:0:
256,192,42797,5,0,0:0:0:0:
256,192,42943,5,8,0:0:0:0:
256,192,43090,5,0,0:0:0:0:
256,192,43236,5,8,0:0:0:0:
256,192,43529,5,0,0:0:0:0:
256,192,43821,5,0,0:0:0:0:
256,192,44114,5,8,0:0:0:0:
256,192,44407,5,8,0:0:0:0:
256,192,44504,5,0,0:0:0:0:
256,192,44602,5,0,0:0:0:0:
256,192,44699,5,8,0:0:0:0:
256,192,44846,5,0,0:0:0:0:
256,192,44992,5,8,0:0:0:0:
256,192,45431,5,0,0:0:0:0:
256,192,45577,5,0,0:0:0:0:
256,192,45870,5,8,0:0:0:0:
256,192,46163,5,0,0:0:0:0:
256,192,46309,5,8,0:0:0:0:
256,192,46455,5,0,0:0:0:0:
256,192,46602,5,8,0:0:0:0:
256,192,46748,5,8,0:0:0:0:
256,192,47041,5,0,0:0:0:0:
256,192,47334,5,0,0:0:0:0:
256,192,47480,5,0,0:0:0:0:
256,192,47626,5,12,0:0:0:0:
256,192,47773,5,0,0:0:0:0:
256,192,47846,5,0,0:0:0:0:
256,192,47919,5,0,0:0:0:0:
256,192,48065,5,0,0:0:0:0:
256,192,48212,5,8,0:0:0:0:
256,192,48358,5,8,0:0:0:0:
256,192,48504,5,4,0:0:0:0:
256,192,48797,5,0,0:0:0:0:
256,192,48943,5,0,0:0:0:0:
256,192,49236,5,0,0:0:0:0:
256,192,49382,5,8,0:0:0:0:
256,192,49675,5,0,0:0:0:0:
256,192,49968,5,0,0:0:0:0:
256,192,50260,5,0,0:0:0:0:
256,192,50553,5,8,0:0:0:0:
256,192,50699,5,0,0:0:0:0:
256,192,50992,5,0,0:0:0:0:
256,192,51138,5,8,0:0:0:0:
256,192,51431,5,8,0:0:0:0:
256,192,51529,5,8,0:0:0:0:
256,192,51626,5,8,0:0:0:0:
256,192,51724,5,0,0:0:0:0:
256,192,51870,5,0,0:0:0:0:
256,192,52016,5,12,0:0:0:0:
256,192,52309,5,0,0:0:0:0:
256,192,52455,5,0,0:0:0:0:
256,192,52748,5,0,0:0:0:0:
256,192,52895,5,8,0:0:0:0:
256,192,53187,5,0,0:0:0:0:
256,192,53480,5,0,0:0:0:0:
256,192,53773,5,12,0:0:0:0:
256,192,54065,5,8,0:0:0:0:
256,192,54212,5,0,0:0:0:0:
256,192,54504,5,0,0:0:0:0:
256,192,54651,5,8,0:0:0:0:
256,192,54943,5,0,0:0:0:0:
256,192,55090,5,8,0:0:0:0:
256,192,55382,5,0,0:0:0:0:
256,192,55529,5,12,0:0:0:0:
256,192,55675,5,8,0:0:0:0:
256,192,55821,5,8,0:0:0:0:
256,192,55968,5,0,0:0:0:0:
256,192,56260,5,0,0:0:0:0:
256,192,56407,5,8,0:0:0:0:
256,192,56699,5,0,0:0:0:0:
256,192,56992,5,0,0:0:0:0:
256,192,57285,5,8,0:0:0:0:
256,192,57577,5,0,0:0:0:0:
256,192,57724,5,8,0:0:0:0:
256,192,58016,5,0,0:0:0:0:
256,192,58090,5,0,0:0:0:0:
256,192,58163,5,8,0:0:0:0:
256,192,58309,5,8,0:0:0:0:
256,192,58455,5,0,0:0:0:0:
256,192,58602,5,8,0:0:0:0:
256,192,58748,5,0,0:0:0:0:
256,192,58895,5,0,0:0:0:0:
256,192,59041,5,12,0:0:0:0:
256,192,59334,5,8,0:0:0:0:
256,192,59480,5,0,0:0:0:0:
256,192,59626,5,0,0:0:0:0:
256,192,59773,5,0,0:0:0:0:
256,192,59919,5,8,0:0:0:0:
256,192,60212,5,0,0:0:0:0:
256,192,60309,5,8,0:0:0:0:
256,192,60407,5,8,0:0:0:0:
256,192,60504,5,0,0:0:0:0:
256,192,60651,5,0,0:0:0:0:
256,192,60797,5,8,0:0:0:0:
256,192,61090,5,0,0:0:0:0:
256,192,61236,5,8,0:0:0:0:
256,192,61382,5,0,0:0:0:0:
256,192,61529,5,0,0:0:0:0:
256,192,61675,5,8,0:0:0:0:
256,192,61968,5,8,0:0:0:0:
256,192,62065,5,0,0:0:0:0:
256,192,62163,5,0,0:0:0:0:
256,192,62260,5,8,0:0:0:0:
256,192,62407,5,8,0:0:0:0:
256,192,62553,5,4,0:0:0:0:
256,192,62846,5,0,0:0:0:0:
256,192,62992,5,0,0:0:0:0:
256,192,63285,5,0,0:0:0:0:
256,192,63431,5,8,0:0:0:0:
256,192,63724,5,0,0:0:0:0:
256,192,64016,5,0,0:0:0:0:
256,192,64309,5,0,0:0:0:0:
256,192,64602,5,8,0:0:0:0:
256,192,64748,5,0,0:0:0:0:
256,192,65041,5,0,0:0:0:0:
256,192,65187,5,8,0:0:0:0:
256,192,65480,5,8,0:0:0:0:
256,192,65577,5,0,0:0:0:0:
256,192,65675,5,0,0:0:0:0:
256,192,65773,5,8,0:0:0:0:
256,192,65919,5,8,0:0:0:0:
256,192,66065,5,12,0:0:0:0:
256,192,66358,5,0,0:0:0:0:
256,192,66504,5,0,0:0:0:0:
256,192,66797,5,0,0:0:0:0:
256,192,66943,5,8,0:0:0:0:
256,192,67236,5,0,0:0:0:0:
256,192,67529,5,4,0:0:0:0:
256,192,67821,5,12,0:0:0:0:
256,192,68114,5,8,0:0:0:0:
256,192,68260,5,0,0:0:0:0:
256,192,68553,5,0,0:0:0:0:
256,192,68699,5,8,0:0:0:0:
256,192,68992,5,0,0:0:0:0:
256,192,69138,5,8,0:0:0:0:
256,192,69431,5,0,0:0:0:0:
256,192,69577,5,12,0:0:0:0:
256,192,69724,5,8,0:0:0:0:
256,192,69870,5,8,0:0:0:0:
256,192,70016,5,0,0:0:0:0:
256,192,70309,5,0,0:0:0:0:
256,192,70455,5,8,0:0:0:0:
256,192,70748,5,0,0:0:0:0:
256,192,71041,5,0,0:0:0:0:
256,192,71334,5,8,0:0:0:0:
256,192,71626,5,0,0:0:0:0:
256,192,71773,5,8,0:0:0:0:
256,192,72065,5,0,0:0:0:0:
256,192,72138,5,0,0:0:0:0:
256,192,72212,5,8,0:0:0:0:
256,192,72358,5,8,0:0:0:0:
256,192,72504,5,0,0:0:0:0:
256,192,72651,5,8,0:0:0:0:
256,192,72797,5,0,0:0:0:0:
256,192,72943,5,0,0:0:0:0:
256,192,73090,5,12,0:0:0:0:
256,192,73382,5,8,0:0:0:0:
256,192,73529,5,0,0:0:0:0:
256,192,73675,5,0,0:0:0:0:
256,192,73821,5,0,0:0:0:0:
256,192,73968,5,8,0:0:0:0:
256,192,74260,5,0,0:0:0:0:
256,192,74358,5,8,0:0:0:0:
256,192,74455,5,8,0:0:0:0:
256,192,74553,5,0,0:0:0:0:
256,192,74699,5,0,0:0:0:0:
256,192,74846,5,8,0:0:0:0:
256,192,75138,5,0,0:0:0:0:
256,192,75285,5,8,0:0:0:0:
256,192,75431,5,8,0:0:0:0:
256,192,75577,5,0,0:0:0:0:
256,192,75724,5,12,0:0:0:0:
256,192,75870,5,8,0:0:0:0:
256,192,76016,5,0,0:0:0:0:
256,192,76163,5,0,0:0:0:0:
256,192,76309,5,8,0:0:0:0:
256,192,76455,5,8,0:0:0:0:
256,192,76602,5,4,0:0:0:0:
256,192,76895,5,0,0:0:0:0:
256,192,77041,5,8,0:0:0:0:
256,192,77334,5,0,0:0:0:0:
256,192,77480,5,0,0:0:0:0:
256,192,77626,5,0,0:0:0:0:
256,192,77773,5,0,0:0:0:0:
256,192,77919,5,0,0:0:0:0:
256,192,78065,5,8,0:0:0:0:
256,192,78358,5,0,0:0:0:0:
256,192,78651,5,0,0:0:0:0:
256,192,78797,5,8,0:0:0:0:
256,192,79090,5,0,0:0:0:0:
256,192,79236,5,0,0:0:0:0:
256,192,79382,5,0,0:0:0:0:
256,192,79529,5,0,0:0:0:0:
256,192,79675,5,0,0:0:0:0:
256,192,79821,5,8,0:0:0:0:
256,192,80114,5,0,0:0:0:0:
256,192,80407,5,0,0:0:0:0:
256,192,80553,5,8,0:0:0:0:
256,192,80846,5,0,0:0:0:0:
256,192,80992,5,0,0:0:0:0:
256,192,81138,5,0,0:0:0:0:
256,192,81285,5,0,0:0:0:0:
256,192,81431,5,0,0:0:0:0:
256,192,81577,5,8,0:0:0:0:
256,192,81724,5,0,0:0:0:0:
256,192,81870,5,12,0:0:0:0:
256,192,82309,5,12,0:0:0:0:
256,192,82455,5,12,0:0:0:0:
256,192,82602,5,12,0:0:0:0:
256,192,82748,5,12,0:0:0:0:
256,192,83041,5,0,0:0:0:0:
256,192,83114,5,0,0:0:0:0:
256,192,83187,5,0,0:0:0:0:
256,192,83334,5,12,0:0:0:0:
256,192,83626,5,4,0:0:0:0:
256,192,83918,5,0,0:0:0:0:
256,192,84065,5,8,0:0:0:0:
256,192,84211,5,0,0:0:0:0:
256,192,84357,5,0,0:0:0:0:
256,192,84504,5,8,0:0:0:0:
256,192,84650,5,0,0:0:0:0:
256,192,84796,5,8,0:0:0:0:
256,192,84943,5,0,0:0:0:0:
256,192,85089,5,8,0:0:0:0:
256,192,85162,5,0,0:0:0:0:
256,192,85235,5,8,0:0:0:0:
256,192,85528,5,0,0:0:0:0:
256,192,85674,5,8,0:0:0:0:
256,192,85821,5,0,0:0:0:0:
256,192,85967,5,8,0:0:0:0:
256,192,86040,5,8,0:0:0:0:
256,192,86113,5,0,0:0:0:0:
256,192,86260,5,0,0:0:0:0:
256,192,86406,5,8,0:0:0:0:
256,192,86699,5,0,0:0:0:0:
256,192,86845,5,8,0:0:0:0:
256,192,86918,5,8,0:0:0:0:
256,192,86991,5,0,0:0:0:0:
256,192,87138,5,8,0:0:0:0:
256,192,87284,5,8,0:0:0:0:
256,192,87430,5,0,0:0:0:0:
256,192,87577,5,0,0:0:0:0:
256,192,87723,5,12,0:0:0:0:
256,192,87869,5,0,0:0:0:0:
256,192,88016,5,12,0:0:0:0:
256,192,88308,5,8,0:0:0:0:
256,192,88455,5,0,0:0:0:0:
256,192,88601,5,8,0:0:0:0:
256,192,88747,5,0,0:0:0:0:
256,192,88894,5,8,0:0:0:0:
256,192,89040,5,8,0:0:0:0:
256,192,89186,5,8,0:0:0:0:
256,192,89333,5,0,0:0:0:0:
256,192,89479,5,8,0:0:0:0:
256,192,89626,5,0,0:0:0:0:
256,192,89772,5,8,0:0:0:0:
256,192,89845,5,0,0:0:0:0:
256,192,89918,5,8,0:0:0:0:
256,192,90211,5,0,0:0:0:0:
256,192,90357,5,8,0:0:0:0:
256,192,90430,5,8,0:0:0:0:
256,192,90504,5,0,0:0:0:0:
256,192,90650,5,8,0:0:0:0:
256,192,90796,5,0,0:0:0:0:
256,192,90943,5,8,0:0:0:0:
256,192,91089,5,8,0:0:0:0:
256,192,91382,5,0,0:0:0:0:
256,192,91528,5,8,0:0:0:0:
256,192,91601,5,8,0:0:0:0:
256,192,91674,5,0,0:0:0:0:
256,192,91821,5,8,0:0:0:0:
256,192,91967,5,0,0:0:0:0:
256,192,92113,5,8,0:0:0:0:
256,192,92260,5,0,0:0:0:0:
256,192,92406,5,12,0:0:0:0:
256,192,92552,5,0,0:0:0:0:
256,192,92699,5,12,0:0:0:0:
256,192,92845,5,0,0:0:0:0:
256,192,92991,5,12,0:0:0:0:
256,192,93284,5,0,0:0:0:0:
256,192,93430,5,8,0:0:0:0:
256,192,93504,5,8,0:0:0:0:
256,192,93577,5,0,0:0:0:0:
256,192,93723,5,0,0:0:0:0:
256,192,93869,5,8,0:0:0:0:
256,192,94016,5,0,0:0:0:0:
256,192,94162,5,8,0:0:0:0:
256,192,94308,5,0,0:0:0:0:
256,192,94382,5,0,0:0:0:0:
256,192,94455,5,8,0:0:0:0:
256,192,94601,5,8,0:0:0:0:
256,192,94747,5,0,0:0:0:0:
256,192,95040,5,8,0:0:0:0:
256,192,95186,5,0,0:0:0:0:
256,192,95333,5,8,0:0:0:0:
256,192,95479,5,0,0:0:0:0:
256,192,95625,5,8,0:0:0:0:
256,192,95772,5,8,0:0:0:0:
256,192,95918,5,0,0:0:0:0:
256,192,96065,5,0,0:0:0:0:
256,192,96211,5,8,0:0:0:0:
256,192,96284,5,0,0:0:0:0:
256,192,96357,5,0,0:0:0:0:
256,192,96504,5,8,0:0:0:0:
256,192,96650,5,8,0:0:0:0:
256,192,96796,5,0,0:0:0:0:
256,192,97089,5,12,0:0:0:0:
256,192,97235,5,0,0:0:0:0:
256,192,97382,5,12,0:0:0:0:
256,192,97528,5,0,0:0:0:0:
256,192,97674,5,12,0:0:0:0:
256,192,97967,5,0,0:0:0:0:
256,192,98113,5,8,0:0:0:0:
256,192,98260,5,8,0:0:0:0:
256,192,98333,5,8,0:0:0:0:
256,192,98406,5,0,0:0:0:0:
256,192,98552,5,8,0:0:0:0:
256,192,98699,5,0,0:0:0:0:
256,192,98845,5,8,0:0:0:0:
256,192,98991,5,0,0:0:0:0:
256,192,99065,5,0,0:0:0:0:
256,192,99138,5,8,0:0:0:0:
256,192,99284,5,8,0:0:0:0:
256,192,99430,5,0,0:0:0:0:
256,192,99723,5,8,0:0:0:0:
256,192,99796,5,8,0:0:0:0:
256,192,99869,5,0,0:0:0:0:
256,192,100016,5,8,0:0:0:0:
256,192,100162,5,8,0:0:0:0:
256,192,100308,5,0,0:0:0:0:
256,192,100455,5,8,0:0:0:0:
256,192,100747,5,0,0:0:0:0:
256,192,100894,5,8,0:0:0:0:
256,192,100967,5,8,0:0:0:0:
256,192,101040,5,8,0:0:0:0:
256,192,101186,5,8,0:0:0:0:
256,192,101333,5,0,0:0:0:0:
256,192,101479,5,0,0:0:0:0:
256,192,101625,5,8,0:0:0:0:
256,192,101772,5,4,0:0:0:0:
256,192,101991,5,8,0:0:0:0:
256,192,102065,5,8,0:0:0:0:
256,192,102211,5,8,0:0:0:0:
256,192,102357,5,4,0:0:0:0:
256,192,102796,5,12,0:0:0:0:
256,192,103235,5,12,0:0:0:0:
256,192,103528,5,8,0:0:0:0:
256,192,103625,5,8,0:0:0:0:
256,192,103723,5,8,0:0:0:0:
256,192,103821,5,0,0:0:0:0:
256,192,104113,5,0,0:0:0:0:
256,192,104211,5,8,0:0:0:0:
256,192,104308,5,8,0:0:0:0:
256,192,104406,5,0,0:0:0:0:
256,192,104699,5,4,0:0:0:0:
256,192,104845,5,0,0:0:0:0:
256,192,104991,5,8,0:0:0:0:
256,192,105138,5,0,0:0:0:0:
256,192,105284,5,0,0:0:0:0:
256,192,105430,5,0,0:0:0:0:
256,192,105577,5,8,0:0:0:0:
256,192,105723,5,8,0:0:0:0:
256,192,105869,5,0,0:0:0:0:
256,192,106162,5,8,0:0:0:0:
256,192,106308,5,8,0:0:0:0:
256,192,106455,5,0,0:0:0:0:
256,192,106601,5,0,0:0:0:0:
256,192,106747,5,8,0:0:0:0:
256,192,106894,5,0,0:0:0:0:
256,192,107040,5,12,0:0:0:0:
256,192,107333,5,8,0:0:0:0:
256,192,107479,5,8,0:0:0:0:
256,192,107625,5,0,0:0:0:0:
256,192,107772,5,0,0:0:0:0:
256,192,107918,5,8,0:0:0:0:
256,192,108065,5,0,0:0:0:0:
256,192,108211,5,8,0:0:0:0:
256,192,108357,5,8,0:0:0:0:
256,192,108504,5,8,0:0:0:0:
256,192,108650,5,0,0:0:0:0:
256,192,108796,5,8,0:0:0:0:
256,192,108943,5,8,0:0:0:0:
256,192,109089,5,12,0:0:0:0:
256,192,109235,5,8,0:0:0:0:
256,192,109382,5,4,0:0:0:0:
256,192,109674,5,8,0:0:0:0:
256,192,109821,5,0,0:0:0:0:
256,192,109967,5,0,0:0:0:0:
256,192,110113,5,0,0:0:0:0:
256,192,110260,5,8,0:0:0:0:
256,192,110406,5,0,0:0:0:0:
256,192,110552,5,8,0:0:0:0:
256,192,110845,5,8,0:0:0:0:
256,192,110991,5,0,0:0:0:0:
256,192,111138,5,0,0:0:0:0:
256,192,111284,5,0,0:0:0:0:
256,192,111430,5,8,0:0:0:0:
256,192,111577,5,0,0:0:0:0:
256,192,111723,5,12,0:0:0:0:
256,192,112016,5,8,0:0:0:0:
256,192,112162,5,8,0:0:0:0:
256,192,112308,5,0,0:0:0:0:
256,192,112455,5,0,0:0:0:0:
256,192,112601,5,8,0:0:0:0:
256,192,112747,5,0,0:0:0:0:
256,192,112894,5,12,0:0:0:0:
256,192,113040,5,8,0:0:0:0:
256,192,113113,5,8,0:0:0:0:
256,192,113186,5,8,0:0:0:0:
256,192,113333,5,8,0:0:0:0:
256,192,113479,5,8,0:0:0:0:
256,192,113625,5,8,0:0:0:0:
256,192,113699,5,8,0:0:0:0:
256,192,113772,5,8,0:0:0:0:
256,192,113918,5,8,0:0:0:0:
256,192,114065,5,4,0:0:0:0:
256,192,114357,5,0,0:0:0:0:
256,192,114504,5,8,0:0:0:0:
256,192,114577,5,8,0:0:0:0:
256,192,114650,5,0,0:0:0:0:
256,192,114796,5,0,0:0:0:0:
256,192,114943,5,8,0:0:0:0:
256,192,115089,5,0,0:0:0:0:
256,192,115235,5,8,0:0:0:0:
256,192,115382,5,0,0:0:0:0:
256,192,115455,5,0,0:0:0:0:
256,192,115528,5,8,0:0:0:0:
256,192,115674,5,8,0:0:0:0:
256,192,115967,5,0,0:0:0:0:
256,192,116113,5,8,0:0:0:0:
256,192,116186,5,0,0:0:0:0:
256,192,116260,5,0,0:0:0:0:
256,192,116406,5,8,0:0:0:0:
256,192,116552,5,0,0:0:0:0:
256,192,116699,5,8,0:0:0:0:
256,192,116845,5,8,0:0:0:0:
256,192,116991,5,8,0:0:0:0:
256,192,117138,5,0,0:0:0:0:
256,192,117284,5,8,0:0:0:0:
256,192,117357,5,0,0:0:0:0:
256,192,117430,5,0,0:0:0:0:
256,192,117577,5,8,0:0:0:0:
256,192,117723,5,8,0:0:0:0:
256,192,118016,5,0,0:0:0:0:
256,192,118162,5,12,0:0:0:0:
256,192,118308,5,0,0:0:0:0:
256,192,118455,5,12,0:0:0:0:
256,192,118601,5,8,0:0:0:0:
256,192,118747,5,4,0:0:0:0:
256,192,119040,5,8,0:0:0:0:
256,192,119186,1,0,0:0:0:0:
256,192,119333,5,8,0:0:0:0:
256,192,119479,5,0,0:0:0:0:
256,192,119625,5,8,0:0:0:0:
256,192,119699,5,0,0:0:0:0:
256,192,119772,5,8,0:0:0:0:
256,192,120065,5,0,0:0:0:0:
256,192,120211,5,8,0:0:0:0:
256,192,120357,5,0,0:0:0:0:
256,192,120504,5,8,0:0:0:0:
256,192,120650,5,8,0:0:0:0:
256,192,120796,5,8,0:0:0:0:
256,192,120869,5,8,0:0:0:0:
256,192,120943,5,0,0:0:0:0:
256,192,121016,5,0,0:0:0:0:
256,192,121089,5,8,0:0:0:0:
256,192,121235,5,0,0:0:0:0:
256,192,121382,5,8,0:0:0:0:
256,192,121528,5,8,0:0:0:0:
256,192,121821,5,0,0:0:0:0:
256,192,121967,5,8,0:0:0:0:
256,192,122040,1,8,0:0:0:0:
256,192,122113,5,0,0:0:0:0:
256,192,122260,5,8,0:0:0:0:
256,192,122406,5,0,0:0:0:0:
256,192,122479,1,0,0:0:0:0:
256,192,122552,1,0,0:0:0:0:
256,192,122699,5,0,0:0:0:0:
256,192,122845,5,12,0:0:0:0:
256,192,122991,5,0,0:0:0:0:
256,192,123138,5,8,0:0:0:0:
256,192,123284,5,0,0:0:0:0:
256,192,123430,5,12,0:0:0:0:
256,192,123723,5,0,0:0:0:0:
256,192,123869,5,8,0:0:0:0:
256,192,124016,5,8,0:0:0:0:
256,192,124162,5,0,0:0:0:0:
256,192,124308,5,8,0:0:0:0:
256,192,124382,5,0,0:0:0:0:
256,192,124455,5,0,0:0:0:0:
256,192,124528,5,0,0:0:0:0:
256,192,124601,5,8,0:0:0:0:
256,192,124747,5,0,0:0:0:0:
256,192,124894,5,8,0:0:0:0:
256,192,125040,5,0,0:0:0:0:
256,192,125186,5,8,0:0:0:0:
256,192,125479,5,0,0:0:0:0:
256,192,125625,1,0,0:0:0:0:
256,192,125772,5,8,0:0:0:0:
256,192,125918,5,0,0:0:0:0:
256,192,126065,5,8,0:0:0:0:
256,192,126211,5,0,0:0:0:0:
256,192,126357,5,8,0:0:0:0:
256,192,126504,5,0,0:0:0:0:
256,192,126650,5,8,0:0:0:0:
256,192,126723,5,0,0:0:0:0:
256,192,126796,5,0,0:0:0:0:
256,192,126869,5,0,0:0:0:0:
256,192,126943,5,8,0:0:0:0:
256,192,127089,5,8,0:0:0:0:
256,192,127235,5,0,0:0:0:0:
256,192,127528,5,8,0:0:0:0:
256,192,127674,5,8,0:0:0:0:
256,192,127821,5,8,0:0:0:0:
256,192,127967,5,0,0:0:0:0:
256,192,128113,5,12,0:0:0:0:
256,192,128260,5,0,0:0:0:0:
256,192,128406,5,8,0:0:0:0:
256,192,128552,5,0,0:0:0:0:
256,192,128699,5,8,0:0:0:0:
256,192,128845,5,0,0:0:0:0:
256,192,128991,5,8,0:0:0:0:
256,192,129065,5,8,0:0:0:0:
256,192,129138,5,0,0:0:0:0:
256,192,129211,5,0,0:0:0:0:
256,192,129284,5,8,0:0:0:0:
256,192,129577,5,8,0:0:0:0:
256,192,129723,5,8,0:0:0:0:
256,192,129869,5,0,0:0:0:0:
256,192,130016,5,0,0:0:0:0:
256,192,130162,5,8,0:0:0:0:
256,192,130308,5,0,0:0:0:0:
256,192,130455,5,8,0:0:0:0:
256,192,130601,5,8,0:0:0:0:
256,192,130747,5,0,0:0:0:0:
256,192,130894,5,8,0:0:0:0:
256,192,131040,5,8,0:0:0:0:
256,192,131186,5,0,0:0:0:0:
256,192,131333,5,8,0:0:0:0:
256,192,131406,5,8,0:0:0:0:
256,192,131479,5,0,0:0:0:0:
256,192,131552,5,0,0:0:0:0:
256,192,131625,5,8,0:0:0:0:
256,192,131918,5,0,0:0:0:0:
256,192,132065,5,8,0:0:0:0:
256,192,132211,5,12,0:0:0:0:
256,192,132357,5,0,0:0:0:0:
256,192,132430,5,8,0:0:0:0:
256,192,132504,5,8,0:0:0:0:
256,192,132650,5,8,0:0:0:0:
256,192,132796,5,4,0:0:0:0:
256,192,133235,5,12,0:0:0:0:
256,192,133674,5,12,0:0:0:0:
256,192,133967,5,8,0:0:0:0:
256,192,134065,5,8,0:0:0:0:
256,192,134162,5,8,0:0:0:0:
256,192,134260,5,0,0:0:0:0:
256,192,134552,5,0,0:0:0:0:
256,192,134650,5,8,0:0:0:0:
256,192,134747,5,8,0:0:0:0:
256,192,134845,5,0,0:0:0:0:
256,192,135138,5,12,0:0:0:0:
256,192,135284,5,8,0:0:0:0:
256,192,135430,5,0,0:0:0:0:
256,192,135577,5,0,0:0:0:0:
256,192,135723,5,8,0:0:0:0:
256,192,135796,5,8,0:0:0:0:
256,192,135869,5,0,0:0:0:0:
256,192,136016,5,0,0:0:0:0:
256,192,136162,5,0,0:0:0:0:
256,192,136308,5,8,0:0:0:0:
256,192,136455,5,0,0:0:0:0:
256,192,136528,5,0,0:0:0:0:
256,192,136601,5,8,0:0:0:0:
256,192,136674,5,0,0:0:0:0:
256,192,136747,5,8,0:0:0:0:
256,192,136894,5,0,0:0:0:0:
256,192,137040,5,0,0:0:0:0:
256,192,137113,5,0,0:0:0:0:
256,192,137186,5,8,0:0:0:0:
256,192,137333,5,0,0:0:0:0:
256,192,137479,5,8,0:0:0:0:
256,192,137552,5,0,0:0:0:0:
256,192,137625,5,8,0:0:0:0:
256,192,137772,5,0,0:0:0:0:
256,192,137918,5,8,0:0:0:0:
256,192,138211,5,0,0:0:0:0:
256,192,138357,5,0,0:0:0:0:
256,192,138504,5,0,0:0:0:0:
256,192,138650,5,8,0:0:0:0:
256,192,138723,5,8,0:0:0:0:
256,192,138796,5,0,0:0:0:0:
256,192,138869,5,0,0:0:0:0:
256,192,138943,5,8,0:0:0:0:
256,192,139089,5,8,0:0:0:0:
256,192,139235,5,0,0:0:0:0:
256,192,139382,5,0,0:0:0:0:
256,192,139528,5,12,0:0:0:0:
256,192,139674,5,0,0:0:0:0:
256,192,139821,5,8,0:0:0:0:
256,192,140113,5,0,0:0:0:0:
256,192,140260,5,0,0:0:0:0:
256,192,140406,5,8,0:0:0:0:
256,192,140479,5,0,0:0:0:0:
256,192,140552,5,0,0:0:0:0:
256,192,140699,5,0,0:0:0:0:
256,192,140845,5,0,0:0:0:0:
256,192,140991,5,8,0:0:0:0:
256,192,141065,5,8,0:0:0:0:
256,192,141138,5,0,0:0:0:0:
256,192,141284,5,0,0:0:0:0:
256,192,141430,5,8,0:0:0:0:
256,192,141504,5,0,0:0:0:0:
256,192,141577,5,0,0:0:0:0:
256,192,141723,5,0,0:0:0:0:
256,192,141869,5,8,0:0:0:0:
256,192,142016,5,0,0:0:0:0:
256,192,142162,5,12,0:0:0:0:
256,192,142455,5,0,0:0:0:0:
256,192,142601,5,8,0:0:0:0:
256,192,142674,5,8,0:0:0:0:
256,192,142747,5,8,0:0:0:0:
256,192,142894,5,0,0:0:0:0:
256,192,143040,5,8,0:0:0:0:
256,192,143333,5,12,0:0:0:0:
256,192,143479,5,8,0:0:0:0:
256,192,143625,5,0,0:0:0:0:
256,192,143772,5,0,0:0:0:0:
256,192,143918,5,12,0:0:0:0:
256,192,144065,5,0,0:0:0:0:
256,192,144211,5,8,0:0:0:0:
256,192,144357,5,0,0:0:0:0:
256,192,144504,5,12,0:0:0:0:
256,192,144796,5,0,0:0:0:0:
256,192,144943,5,0,0:0:0:0:
256,192,145089,5,8,0:0:0:0:
256,192,145162,5,8,0:0:0:0:
256,192,145235,5,0,0:0:0:0:
256,192,145382,5,0,0:0:0:0:
256,192,145528,5,0,0:0:0:0:
256,192,145601,5,0,0:0:0:0:
256,192,145674,5,8,0:0:0:0:
256,192,145821,5,0,0:0:0:0:
256,192,145967,5,8,0:0:0:0:
256,192,146040,5,0,0:0:0:0:
256,192,146113,5,8,0:0:0:0:
256,192,146406,5,0,0:0:0:0:
256,192,146552,5,8,0:0:0:0:
256,192,146699,5,0,0:0:0:0:
256,192,146845,5,8,0:0:0:0:
256,192,146918,5,0,0:0:0:0:
256,192,146991,5,8,0:0:0:0:
256,192,147138,5,0,0:0:0:0:
256,192,147284,5,8,0:0:0:0:
256,192,147577,5,0,0:0:0:0:
256,192,147723,5,8,0:0:0:0:
256,192,147869,5,0,0:0:0:0:
256,192,148016,5,8,0:0:0:0:
256,192,148089,5,8,0:0:0:0:
256,192,148162,5,8,0:0:0:0:
256,192,148308,5,0,0:0:0:0:
256,192,148455,5,8,0:0:0:0:
256,192,148528,5,8,0:0:0:0:
256,192,148601,5,8,0:0:0:0:
256,192,148747,5,0,0:0:0:0:
256,192,148894,5,8,0:0:0:0:
256,192,148967,5,8,0:0:0:0:
256,192,149040,5,0,0:0:0:0:
256,192,149186,5,12,0:0:0:0:
256,192,149479,5,0,0:0:0:0:
256,192,149625,5,8,0:0:0:0:
256,192,149772,5,0,0:0:0:0:
256,192,149918,5,0,0:0:0:0:
256,192,150065,5,8,0:0:0:0:
256,192,150138,5,8,0:0:0:0:
256,192,150211,5,0,0:0:0:0:
256,192,150357,5,8,0:0:0:0:
256,192,150504,5,0,0:0:0:0:
256,192,150650,5,8,0:0:0:0:
256,192,150723,5,0,0:0:0:0:
256,192,150796,5,8,0:0:0:0:
256,192,150943,5,0,0:0:0:0:
256,192,151235,5,8,0:0:0:0:
256,192,151382,5,0,0:0:0:0:
256,192,151528,5,12,0:0:0:0:
256,192,151674,5,8,0:0:0:0:
256,192,151821,5,0,0:0:0:0:
256,192,151894,5,0,0:0:0:0:
256,192,151967,5,8,0:0:0:0:
256,192,152113,5,8,0:0:0:0:
256,192,152260,5,0,0:0:0:0:
256,192,152406,5,8,0:0:0:0:
256,192,152699,5,12,0:0:0:0:
256,192,152845,5,8,0:0:0:0:
256,192,152918,5,8,0:0:0:0:
256,192,152991,5,8,0:0:0:0:
256,192,153138,5,8,0:0:0:0:
256,192,153284,5,0,0:0:0:0:
256,192,153357,5,0,0:0:0:0:
256,192,153430,5,0,0:0:0:0:
256,192,153577,5,8,0:0:0:0:
256,192,153723,5,8,0:0:0:0:
256,192,153869,5,4,0:0:0:0:
256,192,154161,5,0,0:0:0:0:
256,192,154454,5,0,0:0:0:0:
256,192,154600,5,0,0:0:0:0:
256,192,154747,5,8,0:0:0:0:
256,192,154893,5,0,0:0:0:0:
256,192,155186,5,0,0:0:0:0:
256,192,155478,5,8,0:0:0:0:
256,192,155625,5,0,0:0:0:0:
256,192,155917,5,0,0:0:0:0:
256,192,156210,5,0,0:0:0:0:
256,192,156356,5,0,0:0:0:0:
256,192,156503,5,8,0:0:0:0:
256,192,156649,5,4,0:0:0:0:
256,192,156942,5,4,0:0:0:0:
256,192,157381,5,4,0:0:0:0:
256,192,157673,5,0,0:0:0:0:
256,192,157966,5,0,0:0:0:0:
256,192,158112,5,0,0:0:0:0:
256,192,158259,5,8,0:0:0:0:
256,192,158405,5,0,0:0:0:0:
256,192,158698,5,0,0:0:0:0:
256,192,158990,5,0,0:0:0:0:
256,192,159137,5,8,0:0:0:0:
256,192,159429,5,4,0:0:0:0:
256,192,159576,5,8,0:0:0:0:
256,192,159722,5,4,0:0:0:0:
256,192,159869,5,0,0:0:0:0:
256,192,160015,5,12,0:0:0:0:
256,192,160308,5,0,0:0:0:0:
256,192,160454,5,8,0:0:0:0:
256,192,160600,5,0,0:0:0:0:
256,192,160747,5,0,0:0:0:0:
256,192,160893,5,12,0:0:0:0:
256,192,161186,5,0,0:0:0:0:
256,192,161332,5,0,0:0:0:0:
256,192,161625,5,0,0:0:0:0:
256,192,161771,5,8,0:0:0:0:
256,192,162064,5,0,0:0:0:0:
256,192,162356,5,0,0:0:0:0:
256,192,162649,5,12,0:0:0:0:
256,192,162942,5,0,0:0:0:0:
256,192,163088,5,0,0:0:0:0:
256,192,163381,5,0,0:0:0:0:
256,192,163454,5,0,0:0:0:0:
256,192,163527,5,8,0:0:0:0:
256,192,163820,5,0,0:0:0:0:
256,192,164112,5,8,0:0:0:0:
256,192,164259,5,8,0:0:0:0:
256,192,164405,5,4,0:0:0:0:
256,192,164698,5,0,0:0:0:0:
256,192,164990,5,0,0:0:0:0:
256,192,165137,5,0,0:0:0:0:
256,192,165283,5,8,0:0:0:0:
256,192,165429,5,0,0:0:0:0:
256,192,165722,5,0,0:0:0:0:
256,192,166015,5,0,0:0:0:0:
256,192,166161,5,8,0:0:0:0:
256,192,166454,5,4,0:0:0:0:
256,192,166600,5,8,0:0:0:0:
256,192,166747,5,12,0:0:0:0:
256,192,166893,5,0,0:0:0:0:
256,192,167039,5,12,0:0:0:0:
256,192,167332,5,0,0:0:0:0:
256,192,167478,5,8,0:0:0:0:
256,192,167625,5,0,0:0:0:0:
256,192,167771,5,0,0:0:0:0:
256,192,167917,5,12,0:0:0:0:
256,192,168210,5,0,0:0:0:0:
256,192,168356,5,0,0:0:0:0:
256,192,168649,5,0,0:0:0:0:
256,192,168795,5,8,0:0:0:0:
256,192,169088,5,0,0:0:0:0:
256,192,169381,5,8,0:0:0:0:
256,192,169673,5,12,0:0:0:0:
256,192,169966,5,0,0:0:0:0:
256,192,170112,5,0,0:0:0:0:
256,192,170405,5,0,0:0:0:0:
256,192,170551,5,8,0:0:0:0:
256,192,170844,5,0,0:0:0:0:
256,192,170990,5,0,0:0:0:0:
256,192,171137,5,8,0:0:0:0:
256,192,171283,5,8,0:0:0:0:
256,192,171429,5,4,0:0:0:0:
256,192,171722,5,0,0:0:0:0:
256,192,172015,5,0,0:0:0:0:
256,192,172161,5,8,0:0:0:0:
256,192,172308,5,8,0:0:0:0:
256,192,172454,5,0,0:0:0:0:
256,192,172747,5,0,0:0:0:0:
256,192,173039,5,0,0:0:0:0:
256,192,173186,5,8,0:0:0:0:
256,192,173478,5,0,0:0:0:0:
256,192,173625,5,8,0:0:0:0:
256,192,173771,5,0,0:0:0:0:
256,192,173917,5,0,0:0:0:0:
256,192,173990,5,0,0:0:0:0:
256,192,174064,5,8,0:0:0:0:
256,192,174356,5,0,0:0:0:0:
256,192,174503,5,0,0:0:0:0:
256,192,174649,5,8,0:0:0:0:
256,192,174795,5,8,0:0:0:0:
256,192,174942,5,4,0:0:0:0:
256,192,175234,5,0,0:0:0:0:
256,192,175527,5,0,0:0:0:0:
256,192,175673,5,0,0:0:0:0:
256,192,175820,5,8,0:0:0:0:
256,192,175966,5,0,0:0:0:0:
256,192,176259,5,0,0:0:0:0:
256,192,176551,5,0,0:0:0:0:
256,192,176698,5,8,0:0:0:0:
256,192,176990,5,0,0:0:0:0:
256,192,177137,5,8,0:0:0:0:
256,192,177283,5,0,0:0:0:0:
256,192,177429,5,0,0:0:0:0:
256,192,177576,5,12,0:0:0:0:
256,192,177868,5,0,0:0:0:0:
256,192,178015,5,8,0:0:0:0:
256,192,178161,5,0,0:0:0:0:
256,192,178308,5,0,0:0:0:0:
256,192,178454,5,8,0:0:0:0:
256,192,178600,5,8,0:0:0:0:
256,192,178747,5,8,0:0:0:0:
256,192,178893,5,8,0:0:0:0:
256,192,180064,5,8,0:0:0:0:
256,192,180137,5,8,0:0:0:0:
256,192,180210,5,8,0:0:0:0:
256,192,180502,5,8,0:0:0:0:
256,192,180649,5,8,0:0:0:0:
256,192,181527,5,8,0:0:0:0:
256,192,181600,5,8,0:0:0:0:
256,192,181673,5,8,0:0:0:0:
256,192,181819,5,8,0:0:0:0:
256,192,181965,5,8,0:0:0:0:
256,192,182112,5,8,0:0:0:0:
256,192,183282,5,8,0:0:0:0:
256,192,183355,5,8,0:0:0:0:
256,192,183429,5,8,0:0:0:0:
256,192,183721,5,8,0:0:0:0:
256,192,183868,5,8,0:0:0:0:
256,192,185038,5,8,0:0:0:0:
256,192,185112,5,8,0:0:0:0:
256,192,185185,5,8,0:0:0:0:
256,192,185331,5,8,0:0:0:0:
256,192,185477,5,8,0:0:0:0:
256,192,185624,5,8,0:0:0:0:
256,192,186794,5,8,0:0:0:0:
256,192,186868,5,8,0:0:0:0:
256,192,186941,5,8,0:0:0:0:
256,192,187233,5,8,0:0:0:0:
256,192,187380,5,8,0:0:0:0:
256,192,188404,5,4,0:0:0:0:
256,192,188843,5,8,0:0:0:0:
256,192,189282,5,0,0:0:0:0:
256,192,189355,5,0,0:0:0:0:
256,192,189428,5,0,0:0:0:0:
256,192,189501,5,0,0:0:0:0:
256,192,189574,5,8,0:0:0:0:
256,192,189867,5,8,0:0:0:0:
256,192,190160,5,4,0:0:0:0:
256,192,190379,5,8,0:0:0:0:
256,192,190452,5,8,0:0:0:0:
256,192,190599,5,8,0:0:0:0:
256,192,190891,5,0,0:0:0:0:
256,192,191038,5,8,0:0:0:0:
256,192,191184,5,0,0:0:0:0:
256,192,191257,5,0,0:0:0:0:
256,192,191330,5,0,0:0:0:0:
256,192,191404,5,0,0:0:0:0:
256,192,191477,5,0,0:0:0:0:
256,192,191623,5,8,0:0:0:0:
256,192,191916,5,4,0:0:0:0:
256,192,192208,5,0,0:0:0:0:
256,192,192355,5,8,0:0:0:0:
256,192,192647,5,0,0:0:0:0:
256,192,192794,5,8,0:0:0:0:
256,192,192867,5,8,0:0:0:0:
256,192,192940,5,8,0:0:0:0:
256,192,193086,5,0,0:0:0:0:
256,192,193233,5,0,0:0:0:0:
256,192,193379,5,8,0:0:0:0:
256,192,193452,5,8,0:0:0:0:
256,192,193525,5,0,0:0:0:0:
256,192,193672,5,4,0:0:0:0:
256,192,193964,5,0,0:0:0:0:
256,192,194111,5,8,0:0:0:0:
256,192,194403,5,0,0:0:0:0:
256,192,194550,5,8,0:0:0:0:
256,192,194623,5,8,0:0:0:0:
256,192,194696,5,0,0:0:0:0:
256,192,194842,5,8,0:0:0:0:
256,192,194989,5,0,0:0:0:0:
256,192,195135,5,4,0:0:0:0:
256,192,195427,5,0,0:0:0:0:
256,192,195574,5,8,0:0:0:0:
256,192,195866,5,0,0:0:0:0:
256,192,196013,5,8,0:0:0:0:
256,192,196086,5,8,0:0:0:0:
256,192,196159,5,8,0:0:0:0:
256,192,196305,5,0,0:0:0:0:
256,192,196452,5,0,0:0:0:0:
256,192,196598,5,8,0:0:0:0:
256,192,196671,5,0,0:0:0:0:
256,192,196744,5,0,0:0:0:0:
256,192,196891,5,4,0:0:0:0:
256,192,197183,5,0,0:0:0:0:
256,192,197330,5,8,0:0:0:0:
256,192,197622,5,8,0:0:0:0:
256,192,197769,5,0,0:0:0:0:
256,192,197915,5,8,0:0:0:0:
256,192,197988,5,8,0:0:0:0:
256,192,198061,5,0,0:0:0:0:
256,192,198208,5,8,0:0:0:0:
256,192,198354,5,8,0:0:0:0:
256,192,198500,5,8,0:0:0:0:
256,192,198647,5,4,0:0:0:0:
256,192,198939,5,0,0:0:0:0:
256,192,199086,5,8,0:0:0:0:
256,192,199378,5,0,0:0:0:0:
256,192,199525,5,8,0:0:0:0:
256,192,199598,5,0,0:0:0:0:
256,192,199671,5,8,0:0:0:0:
256,192,199817,5,8,0:0:0:0:
256,192,199964,5,0,0:0:0:0:
256,192,200110,5,8,0:0:0:0:
256,192,200183,5,8,0:0:0:0:
256,192,200256,5,8,0:0:0:0:
256,192,200403,5,4,0:0:0:0:
256,192,200696,5,0,0:0:0:0:
256,192,200843,5,8,0:0:0:0:
256,192,201135,5,0,0:0:0:0:
256,192,201282,5,8,0:0:0:0:
256,192,201355,5,0,0:0:0:0:
256,192,201428,5,0,0:0:0:0:
256,192,201574,5,8,0:0:0:0:
256,192,201721,5,0,0:0:0:0:
256,192,201867,5,12,0:0:0:0:
256,192,202159,5,0,0:0:0:0:
256,192,202306,5,8,0:0:0:0:
256,192,202598,5,0,0:0:0:0:
256,192,202745,5,8,0:0:0:0:
256,192,202891,5,0,0:0:0:0:
256,192,203037,5,8,0:0:0:0:
256,192,203184,5,0,0:0:0:0:
256,192,203330,5,8,0:0:0:0:
256,192,203623,5,12,0:0:0:0:
256,192,203818,5,8,0:0:0:0:
256,192,203915,5,8,0:0:0:0:
256,192,204013,5,0,0:0:0:0:
256,192,204110,5,0,0:0:0:0:
256,192,204208,5,8,0:0:0:0:
256,192,204403,5,8,0:0:0:0:
256,192,204501,5,0,0:0:0:0:
256,192,204598,5,8,0:0:0:0:
256,192,204696,5,8,0:0:0:0:
256,192,204793,5,0,0:0:0:0:
256,192,205086,5,8,0:0:0:0:
256,192,205379,5,4,0:0:0:0:
256,192,205671,5,0,0:0:0:0:
256,192,205818,5,8,0:0:0:0:
256,192,206110,5,0,0:0:0:0:
256,192,206257,5,8,0:0:0:0:
256,192,206330,5,8,0:0:0:0:
256,192,206403,5,0,0:0:0:0:
256,192,206549,5,8,0:0:0:0:
256,192,206696,5,0,0:0:0:0:
256,192,206842,5,8,0:0:0:0:
256,192,206915,5,8,0:0:0:0:
256,192,206988,5,8,0:0:0:0:
256,192,207135,5,4,0:0:0:0:
256,192,207427,5,0,0:0:0:0:
256,192,207574,5,8,0:0:0:0:
256,192,207866,5,0,0:0:0:0:
256,192,208013,5,8,0:0:0:0:
256,192,208086,5,8,0:0:0:0:
256,192,208159,5,8,0:0:0:0:
256,192,208305,5,8,0:0:0:0:
256,192,208452,5,8,0:0:0:0:
256,192,208598,5,4,0:0:0:0:
256,192,208891,5,0,0:0:0:0:
256,192,209038,5,8,0:0:0:0:
256,192,209330,5,0,0:0:0:0:
256,192,209477,5,8,0:0:0:0:
256,192,209550,5,0,0:0:0:0:
256,192,209623,5,8,0:0:0:0:
256,192,209769,5,8,0:0:0:0:
256,192,209916,5,0,0:0:0:0:
256,192,210062,5,8,0:0:0:0:
256,192,210135,5,8,0:0:0:0:
256,192,210208,5,0,0:0:0:0:
256,192,210355,5,4,0:0:0:0:
256,192,210647,5,0,0:0:0:0:
256,192,210794,5,8,0:0:0:0:
256,192,211086,5,0,0:0:0:0:
256,192,211233,5,8,0:0:0:0:
256,192,211306,5,0,0:0:0:0:
256,192,211379,5,0,0:0:0:0:
256,192,211525,5,8,0:0:0:0:
256,192,211672,5,0,0:0:0:0:
256,192,211818,5,8,0:0:0:0:
256,192,211964,5,8,0:0:0:0:
256,192,212111,5,4,0:0:0:0:
256,192,212403,5,0,0:0:0:0:
256,192,212550,5,8,0:0:0:0:
256,192,212842,5,0,0:0:0:0:
256,192,212989,5,8,0:0:0:0:
256,192,213062,5,8,0:0:0:0:
256,192,213135,5,8,0:0:0:0:
256,192,213281,5,8,0:0:0:0:
256,192,213428,5,0,0:0:0:0:
256,192,213574,5,8,0:0:0:0:
256,192,213647,5,8,0:0:0:0:
256,192,213720,5,8,0:0:0:0:
256,192,213867,5,4,0:0:0:0:
256,192,214159,5,0,0:0:0:0:
256,192,214306,5,8,0:0:0:0:
256,192,214598,5,0,0:0:0:0:
256,192,214745,5,8,0:0:0:0:
256,192,214818,5,8,0:0:0:0:
256,192,214891,5,0,0:0:0:0:
256,192,215037,5,8,0:0:0:0:
256,192,215184,5,0,0:0:0:0:
256,192,215330,5,12,0:0:0:0:
256,192,215623,5,0,0:0:0:0:
256,192,215770,5,8,0:0:0:0:
256,192,216062,5,0,0:0:0:0:
256,192,216209,5,8,0:0:0:0:
256,192,216355,5,8,0:0:0:0:
256,192,216501,5,8,0:0:0:0:
256,192,216648,5,0,0:0:0:0:
256,192,216794,5,8,0:0:0:0:
256,192,216940,5,0,0:0:0:0:
256,192,217087,5,12,0:0:0:0:
256,192,217379,5,0,0:0:0:0:
256,192,217526,5,8,0:0:0:0:
256,192,217818,5,0,0:0:0:0:
256,192,217965,5,8,0:0:0:0:
256,192,218038,5,8,0:0:0:0:
256,192,218111,5,8,0:0:0:0:
256,192,218184,5,8,0:0:0:0:
256,192,218257,5,0,0:0:0:0:
256,192,218404,5,0,0:0:0:0:
256,192,218550,5,8,0:0:0:0:
256,192,218623,5,8,0:0:0:0:
256,192,218696,5,0,0:0:0:0:
256,192,218770,5,0,0:0:0:0:
256,192,218843,5,8,0:0:0:0:
256,192,219135,5,8,0:0:0:0:
256,192,219233,5,8,0:0:0:0:
256,192,219330,5,8,0:0:0:0:
256,192,219428,5,0,0:0:0:0:
256,192,219623,5,0,0:0:0:0:
256,192,219721,5,8,0:0:0:0:
256,192,219818,5,8,0:0:0:0:
256,192,219916,5,8,0:0:0:0:
256,192,220013,5,0,0:0:0:0:
256,192,220305,5,0,0:0:0:0:
256,192,220452,5,8,0:0:0:0:
256,192,220598,5,0,0:0:0:0:
256,192,220744,5,0,0:0:0:0:
256,192,220891,5,8,0:0:0:0:
256,192,220964,5,8,0:0:0:0:
256,192,221037,5,0,0:0:0:0:
256,192,221183,5,8,0:0:0:0:
256,192,221476,5,0,0:0:0:0:
256,192,221622,5,8,0:0:0:0:
256,192,221769,5,0,0:0:0:0:
256,192,221915,5,8,0:0:0:0:
256,192,222061,5,0,0:0:0:0:
256,192,222134,5,8,0:0:0:0:
256,192,222208,5,0,0:0:0:0:
256,192,222281,5,0,0:0:0:0:
256,192,222354,5,8,0:0:0:0:
256,192,222647,5,0,0:0:0:0:
256,192,222793,5,8,0:0:0:0:
256,192,222939,5,0,0:0:0:0:
256,192,223086,5,0,0:0:0:0:
256,192,223232,5,8,0:0:0:0:
256,192,223305,5,0,0:0:0:0:
256,192,223378,5,8,0:0:0:0:
256,192,223452,5,0,0:0:0:0:
256,192,223525,5,8,0:0:0:0:
256,192,223671,1,0,0:0:0:0:
256,192,223817,5,8,0:0:0:0:
256,192,223891,5,8,0:0:0:0:
256,192,223964,5,0,0:0:0:0:
256,192,224110,5,12,0:0:0:0:
256,192,224403,5,12,0:0:0:0:
256,192,224549,5,0,0:0:0:0:
256,192,224695,5,8,0:0:0:0:
256,192,224891,5,8,0:0:0:0:
256,192,224988,5,0,0:0:0:0:
256,192,225086,5,0,0:0:0:0:
256,192,225183,5,0,0:0:0:0:
256,192,225281,5,8,0:0:0:0:
256,192,225476,5,0,0:0:0:0:
256,192,225573,5,0,0:0:0:0:
256,192,225671,5,0,0:0:0:0:
256,192,225769,5,0,0:0:0:0:
256,192,225866,5,8,0:0:0:0:
256,192,226061,5,0,0:0:0:0:
256,192,226159,5,8,0:0:0:0:
256,192,226256,5,8,0:0:0:0:
256,192,226354,5,0,0:0:0:0:
256,192,226452,5,8,0:0:0:0:
256,192,226647,5,8,0:0:0:0:
256,192,226744,5,0,0:0:0:0:
256,192,226842,5,0,0:0:0:0:
256,192,226939,5,0,0:0:0:0:
256,192,227037,5,8,0:0:0:0:
256,192,227330,5,8,0:0:0:0:
256,192,227403,1,8,0:0:0:0:
256,192,227476,5,0,0:0:0:0:
256,192,227622,5,8,0:0:0:0:
256,192,227769,5,8,0:0:0:0:
256,192,227915,5,0,0:0:0:0:
256,192,228061,5,0,0:0:0:0:
256,192,228134,5,0,0:0:0:0:
256,192,228208,5,8,0:0:0:0:
256,192,228500,5,0,0:0:0:0:
256,192,228573,5,0,0:0:0:0:
256,192,228647,5,8,0:0:0:0:
256,192,228793,5,0,0:0:0:0:
256,192,228939,5,8,0:0:0:0:
256,192,229013,5,8,0:0:0:0:
256,192,229086,5,8,0:0:0:0:
256,192,229232,5,8,0:0:0:0:
256,192,229378,5,4,0:0:0:0:
256,192,229671,5,0,0:0:0:0:
256,192,229817,5,8,0:0:0:0:
256,192,229964,5,0,0:0:0:0:
256,192,230110,5,0,0:0:0:0:
256,192,230256,5,8,0:0:0:0:
256,192,230403,5,0,0:0:0:0:
256,192,230549,5,8,0:0:0:0:
256,192,230842,5,0,0:0:0:0:
256,192,230988,5,0,0:0:0:0:
256,192,231134,5,8,0:0:0:0:
256,192,231281,5,8,0:0:0:0:
256,192,231427,5,0,0:0:0:0:
256,192,231500,5,0,0:0:0:0:
256,192,231573,5,0,0:0:0:0:
256,192,231647,5,0,0:0:0:0:
256,192,231720,5,8,0:0:0:0:
256,192,232013,5,0,0:0:0:0:
256,192,232159,5,8,0:0:0:0:
256,192,232305,5,0,0:0:0:0:
256,192,232452,5,8,0:0:0:0:
256,192,232598,5,0,0:0:0:0:
256,192,232671,5,0,0:0:0:0:
256,192,232744,5,0,0:0:0:0:
256,192,232891,5,8,0:0:0:0:
256,192,233037,5,0,0:0:0:0:
256,192,233183,5,0,0:0:0:0:
256,192,233330,5,8,0:0:0:0:
256,192,233476,5,0,0:0:0:0:
256,192,233622,5,0,0:0:0:0:
256,192,233769,5,12,0:0:0:0:
256,192,233915,5,0,0:0:0:0:
256,192,234061,5,12,0:0:0:0:
256,192,234208,5,8,0:0:0:0:
256,192,234354,5,8,0:0:0:0:
256,192,234500,5,0,0:0:0:0:
256,192,234793,5,8,0:0:0:0:
256,192,234939,5,0,0:0:0:0:
256,192,235086,5,8,0:0:0:0:
256,192,235232,5,8,0:0:0:0:
256,192,235525,5,0,0:0:0:0:
256,192,235671,5,8,0:0:0:0:
256,192,235817,5,8,0:0:0:0:
256,192,236012,5,0,0:0:0:0:
256,192,236110,5,8,0:0:0:0:
256,192,236208,5,8,0:0:0:0:
256,192,236305,5,0,0:0:0:0:
256,192,236403,5,8,0:0:0:0:
256,192,236598,5,8,0:0:0:0:
256,192,236695,5,0,0:0:0:0:
256,192,236793,5,0,0:0:0:0:
256,192,236891,5,0,0:0:0:0:
256,192,236988,5,8,0:0:0:0:
256,192,237134,1,0,0:0:0:0:
256,192,237281,5,8,0:0:0:0:
256,192,237427,5,0,0:0:0:0:
256,192,237573,5,12,0:0:0:0:
256,192,237866,5,8,0:0:0:0:
256,192,238012,5,8,0:0:0:0:
256,192,238159,5,0,0:0:0:0:
256,192,238305,5,0,0:0:0:0:
256,192,238452,5,8,0:0:0:0:
256,192,238598,5,0,0:0:0:0:
256,192,238744,5,12,0:0:0:0:
256,192,239183,5,4,0:0:0:0:
256,192,239622,5,12,0:0:0:0:
256,192,239915,5,8,0:0:0:0:
256,192,240012,5,8,0:0:0:0:
256,192,240110,5,8,0:0:0:0:
256,192,240208,5,0,0:0:0:0:
256,192,240500,5,0,0:0:0:0:
256,192,240598,5,8,0:0:0:0:
256,192,240695,5,8,0:0:0:0:
256,192,240793,5,0,0:0:0:0:
256,192,241086,5,4,0:0:0:0:
256,192,242256,5,12,0:0:0:0:
256,192,243427,5,4,0:0:0:0:
256,192,244598,5,4,0:0:0:0:
256,192,245183,5,4,0:0:0:0:
256,192,245769,5,4,0:0:0:0:
256,192,246939,5,12,0:0:0:0:
256,192,248110,5,4,0:0:0:0:
256,192,249134,5,0,0:0:0:0:
256,192,249208,5,0,0:0:0:0:
256,192,249281,5,8,0:0:0:0:
256,192,249427,5,8,0:0:0:0:
256,192,249500,5,8,0:0:0:0:
256,192,249573,5,8,0:0:0:0:
256,192,249720,5,0,0:0:0:0:
256,192,249866,5,8,0:0:0:0:
256,192,250012,5,8,0:0:0:0:
256,192,250086,5,8,0:0:0:0:
256,192,250159,5,8,0:0:0:0:
256,192,250305,5,0,0:0:0:0:
256,192,250452,5,12,0:0:0:0:
256,192,250744,5,0,0:0:0:0:
256,192,250891,5,0,0:0:0:0:
256,192,251037,5,8,0:0:0:0:
256,192,251110,5,8,0:0:0:0:
256,192,251183,5,0,0:0:0:0:
256,192,251330,5,0,0:0:0:0:
256,192,251476,5,0,0:0:0:0:
256,192,251549,5,0,0:0:0:0:
256,192,251622,5,8,0:0:0:0:
256,192,251769,5,0,0:0:0:0:
256,192,251915,5,8,0:0:0:0:
256,192,251988,5,0,0:0:0:0:
256,192,252061,5,8,0:0:0:0:
256,192,252354,5,0,0:0:0:0:
256,192,252500,5,8,0:0:0:0:
256,192,252647,5,0,0:0:0:0:
256,192,252793,5,8,0:0:0:0:
256,192,252866,5,0,0:0:0:0:
256,192,252939,5,8,0:0:0:0:
256,192,253086,5,0,0:0:0:0:
256,192,253232,5,8,0:0:0:0:
256,192,253525,5,0,0:0:0:0:
256,192,253671,5,8,0:0:0:0:
256,192,253817,5,0,0:0:0:0:
256,192,253964,5,8,0:0:0:0:
256,192,254037,5,8,0:0:0:0:
256,192,254110,5,8,0:0:0:0:
256,192,254256,5,0,0:0:0:0:
256,192,254403,5,8,0:0:0:0:
256,192,254476,5,8,0:0:0:0:
256,192,254549,5,8,0:0:0:0:
256,192,254695,5,0,0:0:0:0:
256,192,254842,5,8,0:0:0:0:
256,192,254915,5,8,0:0:0:0:
256,192,254988,5,0,0:0:0:0:
256,192,255134,5,12,0:0:0:0:
256,192,255427,5,0,0:0:0:0:
256,192,255573,5,8,0:0:0:0:
256,192,255720,5,0,0:0:0:0:
256,192,255866,5,0,0:0:0:0:
256,192,256013,5,8,0:0:0:0:
256,192,256086,5,8,0:0:0:0:
256,192,256159,5,0,0:0:0:0:
256,192,256305,5,8,0:0:0:0:
256,192,256452,5,0,0:0:0:0:
256,192,256598,5,8,0:0:0:0:
256,192,256671,5,0,0:0:0:0:
256,192,256744,5,8,0:0:0:0:
256,192,256891,5,0,0:0:0:0:
256,192,257183,5,8,0:0:0:0:
256,192,257330,5,0,0:0:0:0:
256,192,257476,5,12,0:0:0:0:
256,192,257622,5,8,0:0:0:0:
256,192,257769,5,0,0:0:0:0:
256,192,257842,5,0,0:0:0:0:
256,192,257915,5,8,0:0:0:0:
256,192,258061,5,8,0:0:0:0:
256,192,258208,5,0,0:0:0:0:
256,192,258354,5,8,0:0:0:0:
256,192,258647,1,8,0:0:0:0:
256,192,258793,5,0,0:0:0:0:
256,192,258939,5,8,0:0:0:0:
256,192,259086,5,8,0:0:0:0:
256,192,259232,5,0,0:0:0:0:
256,192,259378,5,0,0:0:0:0:
256,192,259452,5,8,0:0:0:0:
256,192,259525,5,8,0:0:0:0:
256,192,259671,5,8,0:0:0:0:
256,192,259817,5,12,0:0:0:0:
256,192,260110,5,0,0:0:0:0:
256,192,260256,5,0,0:0:0:0:
256,192,260403,5,8,0:0:0:0:
256,192,260476,5,8,0:0:0:0:
256,192,260549,5,0,0:0:0:0:
256,192,260695,5,0,0:0:0:0:
256,192,260842,5,0,0:0:0:0:
256,192,260988,5,8,0:0:0:0:
256,192,261134,5,0,0:0:0:0:
256,192,261208,5,0,0:0:0:0:
256,192,261281,5,8,0:0:0:0:
256,192,261427,5,8,0:0:0:0:
256,192,261573,5,0,0:0:0:0:
256,192,261720,5,0,0:0:0:0:
256,192,261793,5,0,0:0:0:0:
256,192,261866,5,8,0:0:0:0:
256,192,261939,5,8,0:0:0:0:
256,192,262012,5,0,0:0:0:0:
256,192,262159,5,8,0:0:0:0:
256,192,262305,5,8,0:0:0:0:
256,192,262452,5,0,0:0:0:0:
256,192,262525,5,0,0:0:0:0:
256,192,262598,5,8,0:0:0:0:
256,192,262891,5,0,0:0:0:0:
256,192,263037,5,8,0:0:0:0:
256,192,263183,5,0,0:0:0:0:
256,192,263330,5,8,0:0:0:0:
256,192,263403,5,8,0:0:0:0:
256,192,263476,5,0,0:0:0:0:
256,192,263549,5,0,0:0:0:0:
256,192,263622,5,8,0:0:0:0:
256,192,263769,5,8,0:0:0:0:
256,192,263915,5,0,0:0:0:0:
256,192,264061,5,0,0:0:0:0:
256,192,264208,5,12,0:0:0:0:
256,192,264354,5,0,0:0:0:0:
256,192,264500,5,12,0:0:0:0:
256,192,264793,5,0,0:0:0:0:
256,192,264939,5,0,0:0:0:0:
256,192,265086,5,8,0:0:0:0:
256,192,265159,5,0,0:0:0:0:
256,192,265232,5,0,0:0:0:0:
256,192,265378,5,0,0:0:0:0:
256,192,265525,5,0,0:0:0:0:
256,192,265671,5,8,0:0:0:0:
256,192,265744,5,8,0:0:0:0:
256,192,265817,5,0,0:0:0:0:
256,192,265964,5,0,0:0:0:0:
256,192,266110,5,8,0:0:0:0:
256,192,266183,5,8,0:0:0:0:
256,192,266256,5,0,0:0:0:0:
256,192,266403,5,0,0:0:0:0:
256,192,266549,5,8,0:0:0:0:
256,192,266622,5,8,0:0:0:0:
256,192,266695,5,0,0:0:0:0:
256,192,266842,5,12,0:0:0:0:
256,192,267134,5,0,0:0:0:0:
256,192,267281,5,8,0:0:0:0:
256,192,267354,5,8,0:0:0:0:
256,192,267427,5,8,0:0:0:0:
256,192,267573,5,0,0:0:0:0:
256,192,267720,5,8,0:0:0:0:
256,192,267866,5,0,0:0:0:0:
256,192,268012,5,8,0:0:0:0:
256,192,268159,5,8,0:0:0:0:
256,192,268305,5,4,0:0:0:0:
256,192,268452,5,0,0:0:0:0:
256,192,268598,5,12,0:0:0:0:
256,192,268744,5,0,0:0:0:0:
256,192,268817,5,8,0:0:0:0:
256,192,268891,5,8,0:0:0:0:
256,192,269037,5,0,0:0:0:0:
256,192,269183,5,12,0:0:0:0:
256,192,269476,5,0,0:0:0:0:
256,192,269622,5,0,0:0:0:0:
256,192,269769,5,8,0:0:0:0:
256,192,269842,5,8,0:0:0:0:
256,192,269915,5,0,0:0:0:0:
256,192,270061,5,0,0:0:0:0:
256,192,270208,5,0,0:0:0:0:
256,192,270354,5,8,0:0:0:0:
256,192,270500,5,0,0:0:0:0:
256,192,270573,5,0,0:0:0:0:
256,192,270647,5,8,0:0:0:0:
256,192,270720,5,0,0:0:0:0:
256,192,270793,5,8,0:0:0:0:
256,192,271086,5,0,0:0:0:0:
256,192,271232,5,8,0:0:0:0:
256,192,271378,5,0,0:0:0:0:
256,192,271525,5,8,0:0:0:0:
256,192,271598,5,0,0:0:0:0:
256,192,271671,5,8,0:0:0:0:
256,192,271744,5,8,0:0:0:0:
256,192,271817,5,0,0:0:0:0:
256,192,271964,5,8,0:0:0:0:
256,192,272256,5,0,0:0:0:0:
256,192,272403,5,0,0:0:0:0:
256,192,272549,5,0,0:0:0:0:
256,192,272695,5,8,0:0:0:0:
256,192,272769,5,8,0:0:0:0:
256,192,272842,5,8,0:0:0:0:
256,192,272988,5,0,0:0:0:0:
256,192,273134,5,8,0:0:0:0:
256,192,273208,5,8,0:0:0:0:
256,192,273281,5,8,0:0:0:0:
256,192,273427,5,0,0:0:0:0:
256,192,273573,5,8,0:0:0:0:
256,192,273647,5,8,0:0:0:0:
256,192,273720,5,0,0:0:0:0:
256,192,273866,5,12,0:0:0:0:
256,192,274159,5,0,0:0:0:0:
256,192,274305,5,8,0:0:0:0:
256,192,274452,5,0,0:0:0:0:
256,192,274598,5,0,0:0:0:0:
256,192,274744,5,8,0:0:0:0:
256,192,274817,5,8,0:0:0:0:
256,192,274891,5,0,0:0:0:0:
256,192,274964,5,0,0:0:0:0:
256,192,275037,5,8,0:0:0:0:
256,192,275183,5,0,0:0:0:0:
256,192,275330,5,8,0:0:0:0:
256,192,275403,5,0,0:0:0:0:
256,192,275476,5,8,0:0:0:0:
256,192,275622,5,0,0:0:0:0:
256,192,275769,5,0,0:0:0:0:
256,192,275842,5,0,0:0:0:0:
256,192,275915,5,8,0:0:0:0:
256,192,276061,5,0,0:0:0:0:
256,192,276208,5,12,0:0:0:0:
256,192,276500,5,0,0:0:0:0:
256,192,276647,5,8,0:0:0:0:
256,192,276720,5,8,0:0:0:0:
256,192,276793,5,8,0:0:0:0:
256,192,276939,5,0,0:0:0:0:
256,192,277086,5,8,0:0:0:0:
256,192,277232,5,0,0:0:0:0:
256,192,277378,5,12,0:0:0:0:
256,192,277671,5,8,0:0:0:0:
256,192,277817,5,8,0:0:0:0:
256,192,277964,5,0,0:0:0:0:
256,192,278037,5,0,0:0:0:0:
256,192,278110,5,0,0:0:0:0:
256,192,278183,5,0,0:0:0:0:
256,192,278256,5,8,0:0:0:0:
256,192,278403,5,8,0:0:0:0:
256,192,278549,5,4,0:0:0:0:
256,192,278695,5,0,0:0:0:0:
256,192,278988,5,0,0:0:0:0:
256,192,279134,5,8,0:0:0:0:
256,192,279281,5,0,0:0:0:0:
256,192,279427,5,0,0:0:0:0:
256,192,279500,5,0,0:0:0:0:
256,192,279573,5,0,0:0:0:0:
256,192,279720,5,8,0:0:0:0:
256,192,279866,5,0,0:0:0:0:
256,192,280159,5,0,0:0:0:0:
256,192,280305,5,8,0:0:0:0:
256,192,280598,5,0,0:0:0:0:
256,192,280744,5,0,0:0:0:0:
256,192,280891,5,8,0:0:0:0:
256,192,281037,5,0,0:0:0:0:
256,192,281330,5,0,0:0:0:0:
256,192,281476,5,8,0:0:0:0:
256,192,281622,5,0,0:0:0:0:
256,192,281769,5,8,0:0:0:0:
256,192,281842,5,8,0:0:0:0:
256,192,281915,5,0,0:0:0:0:
256,192,282061,5,8,0:0:0:0:
256,192,282208,5,0,0:0:0:0:
256,192,282500,5,0,0:0:0:0:
256,192,282647,5,8,0:0:0:0:
256,192,282793,5,0,0:0:0:0:
256,192,282939,5,0,0:0:0:0:
256,192,283086,5,8,0:0:0:0:
256,192,283232,5,4,0:0:0:0:
256,192,283378,5,0,0:0:0:0:
256,192,283671,5,0,0:0:0:0:
256,192,283817,5,8,0:0:0:0:
256,192,284110,5,8,0:0:0:0:
256,192,284183,5,0,0:0:0:0:
256,192,284256,5,0,0:0:0:0:
256,192,284330,5,0,0:0:0:0:
256,192,284403,5,8,0:0:0:0:
256,192,284549,5,0,0:0:0:0:
256,192,284842,5,0,0:0:0:0:
256,192,284988,5,8,0:0:0:0:
256,192,285281,5,0,0:0:0:0:
256,192,285427,5,0,0:0:0:0:
256,192,285573,5,8,0:0:0:0:
256,192,285720,5,0,0:0:0:0:
256,192,286012,5,0,0:0:0:0:
256,192,286159,5,8,0:0:0:0:
256,192,286305,5,0,0:0:0:0:
256,192,286452,5,8,0:0:0:0:
256,192,286525,5,0,0:0:0:0:
256,192,286598,5,0,0:0:0:0:
256,192,286671,5,0,0:0:0:0:
256,192,286744,5,8,0:0:0:0:
256,192,286891,5,0,0:0:0:0:
256,192,287183,5,0,0:0:0:0:
256,192,287330,5,8,0:0:0:0:
256,192,287476,5,8,0:0:0:0:
256,192,287622,5,0,0:0:0:0:
256,192,287695,5,0,0:0:0:0:
256,192,287769,5,8,0:0:0:0:
256,192,287915,5,12,0:0:0:0:
