osu file format v14

[General]
AudioFilename: audio.mp3
AudioLeadIn: 0
PreviewTime: 34090
Countdown: 1
SampleSet: Normal
StackLeniency: 0.8
Mode: 0
LetterboxInBreaks: 0
WidescreenStoryboard: 1

[Editor]
DistanceSpacing: 6
BeatDivisor: 4
GridSize: 16
TimelineZoom: 1.1

[Metadata]
Title:FIGHT!
TitleUnicode:FIGHT!
Artist:Aests
ArtistUnicode:Aests
Creator:CaptainET
Version:C H I N A T O W N
Source:
Tags:
BeatmapID:1271862
BeatmapSetID:602126

[Difficulty]
HPDrainRate:6
CircleSize:4.6
OverallDifficulty:7
ApproachRate:9.5
SliderMultiplier:1.4
SliderTickRate:1

[Events]
//Background and Video events
0,0,"03.jpg",0,0
//Break Periods
2,26290,33565
//Storyboard Layer 0 (Background)
//Storyboard Layer 1 (Fail)
//Storyboard Layer 2 (Pass)
//Storyboard Layer 3 (Foreground)
//Storyboard Sound Samples

[TimingPoints]
10090,500,4,1,0,100,1,0
34090,-100,4,1,0,100,0,1
35840,-100,4,1,0,100,0,0

[HitObjects]
256,192,10090,5,0,0:0:0:0:
496,336,10340,1,0,0:0:0:0:
400,80,10590,1,0,0:0:0:0:
400,80,10715,1,0,0:0:0:0:
400,80,10840,2,0,L|320:96,1,70
64,192,11340,1,0,0:0:0:0:
336,288,11590,1,0,0:0:0:0:
208,32,11840,5,0,0:0:0:0:
208,32,11965,1,0,0:0:0:0:
208,32,12090,1,0,0:0:0:0:
48,256,12340,1,0,0:0:0:0:
320,192,12590,1,0,0:0:0:0:
64,96,12840,2,0,L|144:80,1,70
416,32,13340,2,0,L|336:16,1,70
272,288,13840,6,0,L|272:224,1,35
272,112,14090,1,0,0:0:0:0:
48,288,14340,2,0,L|128:272,1,70
256,240,14715,1,0,0:0:0:0:
192,112,14840,1,0,0:0:0:0:
320,160,14965,1,0,0:0:0:0:
400,272,15090,2,0,L|464:320,1,70
336,64,15590,5,0,0:0:0:0:
240,320,15840,1,0,0:0:0:0:
464,144,16090,1,0,0:0:0:0:
192,224,16340,1,0,0:0:0:0:
192,224,16465,2,0,L|112:208,1,70
368,64,16965,1,0,0:0:0:0:
368,64,17090,2,0,L|448:48,1,70
240,240,17590,5,0,0:0:0:0:
32,48,17840,1,0,0:0:0:0:
128,304,18090,2,0,L|208:288,1,70
196,290,18465,1,0,0:0:0:0:
196,290,18590,1,0,0:0:0:0:
432,128,18840,1,0,0:0:0:0:
160,176,19090,1,0,0:0:0:0:
400,32,19340,1,0,0:0:0:0:
224,240,19590,2,0,L|144:224,1,70
336,96,20090,6,0,L|432:112,1,70
240,96,20465,1,0,0:0:0:0:
416,112,20590,1,0,0:0:0:0:
288,256,20840,1,0,0:0:0:0:
240,48,21090,1,0,0:0:0:0:
416,256,21340,1,0,0:0:0:0:
176,112,21590,5,0,0:0:0:0:
320,144,21715,1,0,0:0:0:0:
176,176,21840,1,0,0:0:0:0:
320,208,21965,1,0,0:0:0:0:
176,240,22090,2,0,L|96:256,1,70
368,336,22590,1,0,0:0:0:0:
192,112,22840,1,0,0:0:0:0:
32,352,23090,1,0,0:0:0:0:
272,224,23340,1,0,0:0:0:0:
32,96,23590,5,0,0:0:0:0:
176,336,23840,2,0,L|128:352,2,35
368,128,24340,1,0,0:0:0:0:
96,32,24590,1,0,0:0:0:0:
288,240,24840,1,0,0:0:0:0:
16,144,25090,1,0,0:0:0:0:
288,112,25340,1,0,0:0:0:0:
96,320,25590,1,0,0:0:0:0:
208,64,25840,1,0,0:0:0:0:
400,256,26090,1,0,0:0:0:0:
352,64,34090,5,0,0:0:0:0:
80,288,34340,1,0,0:0:0:0:
432,336,34590,1,0,0:0:0:0:
144,128,34840,1,0,0:0:0:0:
480,208,35090,1,0,0:0:0:0:
160,352,35340,1,0,0:0:0:0:
400,96,35590,1,0,0:0:0:0:
112,288,36090,5,0,0:0:0:0:
400,80,36340,1,0,0:0:0:0:
64,160,36590,1,0,0:0:0:0:
368,320,36840,1,0,0:0:0:0:
208,16,37090,1,0,0:0:0:0:
96,288,37590,5,0,0:0:0:0:
96,288,37840,1,0,0:0:0:0:
416,144,38090,2,0,L|336:128,1,70
16,256,38590,2,0,L|96:272,1,70
400,112,39090,2,0,P|416:80|384:112,1,140
400,336,40090,5,0,0:0:0:0:
96,160,40340,1,0,0:0:0:0:
432,80,40590,1,0,0:0:0:0:
144,272,40840,1,0,0:0:0:0:
480,192,41090,2,0,L|400:176,1,70
80,64,41590,1,0,0:0:0:0:
208,336,42090,5,0,0:0:0:0:
336,16,42340,1,0,0:0:0:0:
480,336,42590,1,0,0:0:0:0:
176,160,42840,1,0,0:0:0:0:
496,32,43090,1,0,0:0:0:0:
240,272,43340,1,0,0:0:0:0:
16,16,43590,1,0,0:0:0:0:
96,352,44090,5,0,0:0:0:0:
336,112,44340,1,0,0:0:0:0:
96,352,44590,1,0,0:0:0:0:
336,112,44840,1,0,0:0:0:0:
32,288,45090,2,0,L|128:272,1,70
448,208,45590,1,0,0:0:0:0:
128,64,45840,1,0,0:0:0:0:
368,320,46090,1,0,0:0:0:0:
32,240,46340,1,0,0:0:0:0:
384,240,46590,2,0,L|304:224,1,70
32,32,47090,1,0,0:0:0:0:
480,32,47590,6,0,P|416:48|448:112,1,140
256,192,48340,1,0,0:0:0:0:
32,352,48590,2,0,P|96:336|64:272,1,140
256,192,49340,1,0,0:0:0:0:
64,48,49590,5,0,0:0:0:0:
240,80,49715,1,0,0:0:0:0:
64,112,49840,1,0,0:0:0:0:
240,144,49965,1,0,0:0:0:0:
64,176,50090,1,0,0:0:0:0:
512,384,50590,5,0,0:0:0:0:
0,0,51090,5,0,0:0:0:0:
512,384,51590,5,0,0:0:0:0:
0,384,52090,5,0,0:0:0:0:
512,0,52590,5,0,0:0:0:0:
0,384,53090,5,0,0:0:0:0:
0,0,53590,5,0,0:0:0:0:
512,384,54090,5,0,0:0:0:0:
0,0,54590,5,0,0:0:0:0:
0,384,55090,5,0,0:0:0:0:
512,0,55590,5,0,0:0:0:0:
0,384,56090,5,0,0:0:0:0:
512,384,56590,5,0,0:0:0:0:
0,0,57090,5,0,0:0:0:0:
256,240,57340,5,0,0:0:0:0:
512,0,57590,5,0,0:0:0:0:
384,128,57715,5,0,0:0:0:0:
512,0,57840,5,0,0:0:0:0:
384,128,57965,5,0,0:0:0:0:
0,384,58590,6,0,L|80:368,1,70
400,272,59090,1,0,0:0:0:0:
64,160,59340,1,0,0:0:0:0:
400,64,59590,1,0,0:0:0:0:
128,288,59840,1,0,0:0:0:0:
352,16,60090,1,0,0:0:0:0:
16,144,60340,1,0,0:0:0:0:
352,256,60590,1,0,0:0:0:0:
96,16,60840,1,0,0:0:0:0:
432,80,61090,1,0,0:0:0:0:
96,272,61590,5,0,0:0:0:0:
448,320,61840,1,0,0:0:0:0:
112,224,62090,1,0,0:0:0:0:
432,80,62340,1,0,0:0:0:0:
208,352,62590,1,0,0:0:0:0:
48,32,62840,1,0,0:0:0:0:
384,128,63090,1,0,0:0:0:0:
384,128,63590,5,0,0:0:0:0:
48,32,63840,1,0,0:0:0:0:
208,336,64090,1,0,0:0:0:0:
336,16,64340,1,0,0:0:0:0:
432,352,64590,1,0,0:0:0:0:
144,144,64840,1,0,0:0:0:0:
480,16,65090,1,0,0:0:0:0:
128,144,67590,6,0,P|208:208|272:144,1,210
480,224,68590,2,0,P|368:304|224:272,1,280
32,144,69840,2,0,P|112:176|176:160,1,140
32,144,70590,2,0,P|112:176|240:48,3,280
480,304,73840,2,0,P|416:336|336:320,1,140
80,112,74590,2,0,P|160:96|240:112,1,140
256,192,75590,5,0,0:0:0:0:
256,192,75840,1,0,0:0:0:0:
256,192,76090,1,0,0:0:0:0:
64,272,76215,1,0,0:0:0:0:
256,368,76340,1,0,0:0:0:0:
448,272,76465,1,0,0:0:0:0:
256,192,76590,2,0,L|256:112,2,70
32,352,77340,6,0,L|112:336,1,70
512,240,77840,1,0,0:0:0:0:
96,176,78090,5,0,0:0:0:0:
288,272,78215,1,0,0:0:0:0:
80,288,78340,1,0,0:0:0:0:
224,144,78465,1,0,0:0:0:0:
208,352,78590,1,0,0:0:0:0:
480,32,78840,6,0,L|400:48,1,70
208,96,79215,2,0,L|240:112,1,35
208,320,79465,2,0,L|240:336,3,35
400,160,80090,5,0,0:0:0:0:
192,96,80215,1,0,0:0:0:0:
96,288,80340,1,0,0:0:0:0:
32,80,80465,1,0,0:0:0:0:
192,208,80590,1,0,0:0:0:0:
192,208,80840,2,0,L|272:224,1,70
192,208,81340,2,0,L|272:224,1,70
48,64,82090,5,0,0:0:0:0:
224,176,82215,1,0,0:0:0:0:
80,336,82340,1,0,0:0:0:0:
272,256,82465,1,0,0:0:0:0:
272,256,82840,2,0,L|192:240,1,70
272,320,83340,2,0,L|192:304,1,70
416,48,83840,5,0,0:0:0:0:
224,192,84090,1,0,0:0:0:0:
224,192,84215,1,0,0:0:0:0:
224,192,84340,1,0,0:0:0:0:
224,192,84465,1,0,0:0:0:0:
224,192,84840,5,0,0:0:0:0:
224,192,85090,1,0,0:0:0:0:
224,192,85340,1,0,0:0:0:0:
224,192,85465,1,0,0:0:0:0:
224,192,85590,1,0,0:0:0:0:
256,192,86090,5,0,0:0:0:0:
256,192,86215,1,0,0:0:0:0:
256,192,86340,1,0,0:0:0:0:
256,192,86465,1,0,0:0:0:0:
256,192,86840,5,0,0:0:0:0:
256,192,87090,1,0,0:0:0:0:
128,240,87340,2,0,L|176:240,1,35
163,240,87590,1,0,0:0:0:0:
256,192,87840,1,0,0:0:0:0:
256,192,88090,1,0,0:0:0:0:
256,192,88215,1,0,0:0:0:0:
256,192,88340,1,0,0:0:0:0:
256,192,88465,1,0,0:0:0:0:
256,192,88840,5,0,0:0:0:0:
256,192,89090,1,0,0:0:0:0:
256,192,89340,1,0,0:0:0:0:
256,192,89465,1,0,0:0:0:0:
256,192,89590,1,0,0:0:0:0:
256,192,89840,1,0,0:0:0:0:
256,192,90090,5,0,0:0:0:0:
256,192,90215,1,0,0:0:0:0:
256,192,90340,1,0,0:0:0:0:
256,192,90465,1,0,0:0:0:0:
256,192,90840,5,0,0:0:0:0:
256,192,91090,1,0,0:0:0:0:
256,192,91340,1,0,0:0:0:0:
256,192,91465,1,0,0:0:0:0:
256,192,91590,1,0,0:0:0:0:
256,192,95590,6,0,B|176:224|112:208|112:64|176:48|256:80|256:96,1,280
400,160,97090,1,0,0:0:0:0:
224,256,97590,1,0,0:0:0:0:
96,256,97840,1,0,0:0:0:0:
96,144,98090,2,0,P|160:176|224:144,1,140
256,272,99090,1,0,0:0:0:0:
336,272,99590,1,0,0:0:0:0:
256,272,99840,1,0,0:0:0:0:
176,272,100090,1,0,0:0:0:0:
256,272,100340,1,0,0:0:0:0:
96,272,100590,1,0,0:0:0:0:
256,272,100840,1,0,0:0:0:0:
176,272,101090,1,0,0:0:0:0:
