osu file format v14

[General]
AudioFilename: drugs!!.ogg
AudioLeadIn: 0
PreviewTime: 66400
Countdown: 0
SampleSet: Normal
StackLeniency: 0.7
Mode: 1
LetterboxInBreaks: 0
WidescreenStoryboard: 0

[Editor]
Bookmarks: 50484,50567,50650,50734,50817,50900,50984,57484,57567,57650,57734,57817,57900,57984,60150,60400,111260,119260
DistanceSpacing: 0.8
BeatDivisor: 4
GridSize: 32
TimelineZoom: 1.8

[Metadata]
Title:Drugs
TitleUnicode:Drugs
Artist:Aests
ArtistUnicode:Aests
Creator:meiqth
Version:Speed
Source:
Tags:future funk disco electronic instrumental the classics future society collective tencolle
BeatmapID:3575324
BeatmapSetID:1747929

[Difficulty]
HPDrainRate:6
CircleSize:2
OverallDifficulty:6
ApproachRate:10
SliderMultiplier:1.73
SliderTickRate:1

[Events]
//Background and Video events
0,0,"cover.jpg",0,250
//Break Periods
//Storyboard Layer 0 (Background)
//Storyboard Layer 1 (Fail)
//Storyboard Layer 2 (Pass)
//Storyboard Layer 3 (Foreground)
//Storyboard Layer 4 (Overlay)
//Storyboard Sound Samples

[TimingPoints]
36,500,4,1,0,55,1,0
36,-142.857142857143,4,1,0,55,0,0
16036,-90.9090909090909,4,1,0,55,0,0
17036,500,4,1,0,55,1,0
48411,-86.9565217391304,4,1,0,55,0,0
48661,-100,4,1,0,55,0,0
63911,-76.9230769230769,4,1,0,55,0,0
64536,-100,4,1,0,55,0,0
65035,500,4,1,0,35,1,8
65035,-123.571428571429,4,1,0,35,0,0
66427,-123.152709359606,4,1,0,55,0,0
66535,428.571428571429,4,1,0,55,1,1
72963,-76.9230769230769,4,1,0,55,0,0
73392,1000,4,1,0,55,1,1
73392,-66.6666666666667,4,1,0,55,0,1
73889,-65.8000779929806,4,1,0,55,0,1
74139,-65.3751775797494,4,1,0,55,0,1
74389,-64.9557295008341,4,1,0,55,0,1
74889,-64.1327758773597,4,1,0,55,0,1
75139,-63.72906962105,4,1,0,55,0,1
75264,-63.5291164658635,4,1,0,55,0,1
75389,-63.3304141123483,4,1,0,55,0,1
75639,-62.9367151560363,4,1,0,55,0,1
75889,-62.5478808847152,4,1,0,55,0,1
76389,-61.7844501403637,4,1,0,55,0,1
76764,-61.2239961296565,4,1,0,55,0,1
77139,-60.6736186024212,4,1,0,55,0,1
77392,963.855421686747,4,1,0,55,1,1
77392,-62.5738710830454,4,1,0,55,0,1
77870,-61.8647811336757,4,1,0,55,0,1
78111,-61.5155082343571,4,1,0,55,0,1
78352,-61.1701570070816,4,1,0,55,0,1
78834,-60.4909583045381,4,1,0,55,0,1
79075,-60.1569838033493,4,1,0,55,0,1
79196,-59.9906903956867,4,1,0,55,0,1
79319,952.380952380952,4,1,0,55,1,1
79319,-60.5474801786203,4,1,0,55,0,1
79554,-60.2209381373216,4,1,0,55,0,1
79792,-59.8978993869456,4,1,0,55,0,1
80268,-59.2621086432968,4,1,0,55,0,1
80506,-58.9492480369105,4,1,0,55,0,1
80625,-58.7940532289109,4,1,0,55,0,1
80744,-58.6396734333628,4,1,0,55,0,1
80982,-58.3333333333334,4,1,0,55,0,1
81204,545.454545454546,4,1,0,55,1,0
81204,-78.5714285714286,4,1,0,55,0,0
81749,428.571428571429,4,1,0,55,1,9
83034,428.571428571429,4,1,0,55,1,1
84103,-101.700301922771,4,1,0,55,0,1
84210,-103.459424506951,4,1,0,55,0,1
84319,588.235294117647,4,1,0,55,1,8
84319,-76.6917293233084,4,1,0,55,0,8
84463,-78.5918952108065,4,1,0,55,0,8
84536,-79.5709410043882,4,1,0,55,0,8
84613,681.818181818182,4,1,0,55,1,8
84613,-69.5274307441608,4,1,0,55,0,8
84780,-71.6320716320717,4,1,0,55,0,8
84953,653.950953678474,4,1,0,55,1,0
84953,-77.0158963328263,4,1,0,55,0,0
85279,428.571428571429,4,1,0,55,1,9
85493,428.571428571429,4,1,0,55,1,9
86778,428.571428571429,4,1,0,55,1,1
91492,-76.9230769230769,4,1,0,55,0,0
91920,1000,4,1,0,55,1,1
91920,-66.6666666666667,4,1,0,55,0,1
92417,-65.8000779929806,4,1,0,55,0,1
92667,-65.3751775797494,4,1,0,55,0,1
92917,-64.9557295008341,4,1,0,55,0,1
93417,-64.1327758773597,4,1,0,55,0,1
93667,-63.72906962105,4,1,0,55,0,1
93792,-63.5291164658635,4,1,0,55,0,1
93917,-63.3304141123483,4,1,0,55,0,1
94167,-62.9367151560363,4,1,0,55,0,1
94417,-62.5478808847152,4,1,0,55,0,1
94917,-61.7844501403637,4,1,0,55,0,1
95292,-61.2239961296565,4,1,0,55,0,1
95667,-60.6736186024212,4,1,0,55,0,1
95920,963.855421686747,4,1,0,55,1,1
95920,-62.5738710830454,4,1,0,55,0,1
96398,-61.8647811336757,4,1,0,55,0,1
96639,-61.5155082343571,4,1,0,55,0,1
96880,-61.1701570070816,4,1,0,55,0,1
97362,-60.4909583045381,4,1,0,55,0,1
97603,-60.1569838033493,4,1,0,55,0,1
97724,-59.9906903956867,4,1,0,55,0,1
97847,952.380952380952,4,1,0,55,1,1
97847,-60.5474801786203,4,1,0,55,0,1
98082,-60.2209381373216,4,1,0,55,0,1
98320,-59.8978993869456,4,1,0,55,0,1
98796,-59.2621086432968,4,1,0,55,0,1
99034,-58.9492480369105,4,1,0,55,0,1
99153,-58.7940532289109,4,1,0,55,0,1
99272,-58.6396734333628,4,1,0,55,0,1
99510,-58.3333333333334,4,1,0,55,0,1
99732,545.454545454546,4,1,0,55,1,0
99732,-78.5714285714454,4,1,0,55,0,0
100277,428.571428571429,4,1,0,55,1,9
102955,447.761194029851,4,1,0,55,1,9
102955,-97.007722007722,4,1,0,55,0,9
103007,-97.6862702349158,4,1,0,55,0,9
103063,-98.3869787187323,4,1,0,55,0,9
103156,500,4,1,0,55,1,9
103178,500,4,1,0,55,1,9
103178,-89.390142021721,4,1,0,55,0,9
103300,-90.8662011700322,4,1,0,55,0,9
103490,500,4,1,0,55,1,0
103490,-66.006600660066,4,1,0,55,0,0
104479,1000,4,1,0,55,1,8
104479,-74.0740740740741,4,1,0,55,0,8
107479,1000,4,1,0,55,1,0
107479,-74.0740740740741,4,1,0,55,0,8
119479,428.571428571429,4,1,0,55,1,1
122479,-76.9230769230769,4,1,0,55,0,0

[HitObjects]
256,192,36,5,12,0:0:0:0:
256,192,536,1,8,0:0:0:0:
256,192,786,1,0,0:0:0:0:
256,192,1036,1,8,0:0:0:0:
256,192,1411,1,8,0:0:0:0:
256,192,2036,1,0,0:0:0:0:
256,192,2536,1,8,0:0:0:0:
256,192,2786,1,0,0:0:0:0:
256,192,3036,1,8,0:0:0:0:
256,192,3411,1,8,0:0:0:0:
256,192,3786,1,0,0:0:0:0:
256,192,4036,5,0,0:0:0:0:
256,192,4536,1,8,0:0:0:0:
256,192,4786,1,0,0:0:0:0:
256,192,5036,1,8,0:0:0:0:
256,192,5411,1,8,0:0:0:0:
256,192,6036,1,0,0:0:0:0:
256,192,6536,1,8,0:0:0:0:
256,192,6786,1,0,0:0:0:0:
256,192,7036,1,8,0:0:0:0:
256,192,7161,1,8,0:0:0:0:
256,192,7286,1,0,0:0:0:0:
256,192,7411,1,8,0:0:0:0:
256,192,7661,1,8,0:0:0:0:
256,192,7786,1,0,0:0:0:0:
256,192,8036,5,12,0:0:0:0:
256,192,8536,1,8,0:0:0:0:
256,192,8786,1,0,0:0:0:0:
256,192,9036,1,8,0:0:0:0:
256,192,9411,1,8,0:0:0:0:
256,192,10036,1,0,0:0:0:0:
256,192,10536,1,8,0:0:0:0:
256,192,10786,1,0,0:0:0:0:
256,192,11036,1,8,0:0:0:0:
256,192,11411,1,8,0:0:0:0:
256,192,11786,1,0,0:0:0:0:
256,192,12036,5,0,0:0:0:0:
256,192,12536,1,8,0:0:0:0:
256,192,12786,1,0,0:0:0:0:
256,192,13036,1,8,0:0:0:0:
256,192,13411,1,8,0:0:0:0:
256,192,14036,1,0,0:0:0:0:
256,192,14536,1,8,0:0:0:0:
256,192,14786,1,0,0:0:0:0:
256,192,15036,1,8,0:0:0:0:
256,192,15161,1,8,0:0:0:0:
256,192,15286,1,0,0:0:0:0:
256,192,15411,1,8,0:0:0:0:
256,192,15661,1,8,0:0:0:0:
256,192,15786,1,0,0:0:0:0:
256,192,15911,1,8,0:0:0:0:
256,192,16036,5,0,0:0:0:0:
256,192,16161,1,0,0:0:0:0:
256,192,16286,1,0,0:0:0:0:
256,192,16536,1,0,0:0:0:0:
256,192,16598,1,0,0:0:0:0:
256,192,16661,1,0,0:0:0:0:
256,192,16786,1,8,0:0:0:0:
256,192,17036,5,12,0:0:0:0:
256,192,17286,1,8,0:0:0:0:
256,192,17536,1,0,0:0:0:0:
256,192,17786,1,0,0:0:0:0:
256,192,18036,1,8,0:0:0:0:
256,192,18286,1,0,0:0:0:0:
256,192,18411,1,0,0:0:0:0:
256,192,18536,1,8,0:0:0:0:
256,192,19036,1,8,0:0:0:0:
256,192,19161,1,8,0:0:0:0:
256,192,19286,1,0,0:0:0:0:
256,192,19411,1,0,0:0:0:0:
256,192,19536,1,8,0:0:0:0:
256,192,19786,1,0,0:0:0:0:
256,192,20036,1,8,0:0:0:0:
256,192,20286,1,0,0:0:0:0:
256,192,20536,1,8,0:0:0:0:
256,192,20911,1,0,0:0:0:0:
256,192,21036,1,8,0:0:0:0:
256,192,21536,1,8,0:0:0:0:
256,192,21786,1,0,0:0:0:0:
256,192,22036,1,8,0:0:0:0:
256,192,22536,1,0,0:0:0:0:
256,192,22786,1,0,0:0:0:0:
256,192,23036,1,8,0:0:0:0:
256,192,23536,1,0,0:0:0:0:
256,192,23661,1,8,0:0:0:0:
256,192,23911,1,8,0:0:0:0:
256,192,24036,1,0,0:0:0:0:
256,192,24286,1,0,0:0:0:0:
256,192,24536,1,8,0:0:0:0:
256,192,24786,1,0,0:0:0:0:
256,192,24911,1,0,0:0:0:0:
256,192,25036,5,12,0:0:0:0:
256,192,25286,1,8,0:0:0:0:
256,192,25536,1,0,0:0:0:0:
256,192,25786,1,8,0:0:0:0:
256,192,26036,1,0,0:0:0:0:
256,192,26286,1,0,0:0:0:0:
256,192,26411,1,0,0:0:0:0:
256,192,26536,1,8,0:0:0:0:
256,192,27036,1,0,0:0:0:0:
256,192,27161,1,0,0:0:0:0:
256,192,27286,1,8,0:0:0:0:
256,192,27411,1,8,0:0:0:0:
256,192,27536,1,0,0:0:0:0:
256,192,27786,1,8,0:0:0:0:
256,192,28036,1,0,0:0:0:0:
256,192,28286,1,0,0:0:0:0:
256,192,28536,1,8,0:0:0:0:
256,192,28911,1,0,0:0:0:0:
256,192,29036,1,8,0:0:0:0:
256,192,29536,1,8,0:0:0:0:
256,192,29786,1,0,0:0:0:0:
256,192,30036,1,8,0:0:0:0:
256,192,30536,1,0,0:0:0:0:
256,192,30786,1,0,0:0:0:0:
256,192,31036,1,8,0:0:0:0:
256,192,31536,1,0,0:0:0:0:
256,192,31661,1,8,0:0:0:0:
256,192,31911,1,8,0:0:0:0:
256,192,32036,1,0,0:0:0:0:
256,192,32286,1,0,0:0:0:0:
256,192,32536,1,8,0:0:0:0:
256,192,32786,1,0,0:0:0:0:
256,192,32911,1,0,0:0:0:0:
256,192,33036,5,12,0:0:0:0:
256,192,33286,1,8,0:0:0:0:
256,192,33536,1,0,0:0:0:0:
256,192,33786,1,0,0:0:0:0:
256,192,34036,1,8,0:0:0:0:
256,192,34286,1,0,0:0:0:0:
256,192,34411,1,0,0:0:0:0:
256,192,34536,1,8,0:0:0:0:
256,192,35036,1,8,0:0:0:0:
256,192,35161,1,8,0:0:0:0:
256,192,35286,1,0,0:0:0:0:
256,192,35411,1,0,0:0:0:0:
256,192,35536,1,8,0:0:0:0:
256,192,35786,1,0,0:0:0:0:
256,192,36036,1,8,0:0:0:0:
256,192,36286,1,0,0:0:0:0:
256,192,36536,1,8,0:0:0:0:
256,192,36911,1,0,0:0:0:0:
256,192,37036,1,8,0:0:0:0:
256,192,37536,1,8,0:0:0:0:
256,192,37786,1,0,0:0:0:0:
256,192,38036,1,8,0:0:0:0:
256,192,38536,1,0,0:0:0:0:
256,192,38786,1,0,0:0:0:0:
256,192,39036,1,8,0:0:0:0:
256,192,39536,1,0,0:0:0:0:
256,192,39661,1,8,0:0:0:0:
256,192,39911,1,8,0:0:0:0:
256,192,40036,1,0,0:0:0:0:
256,192,40286,1,0,0:0:0:0:
256,192,40536,1,8,0:0:0:0:
256,192,40786,1,0,0:0:0:0:
256,192,40911,1,0,0:0:0:0:
256,192,41036,5,12,0:0:0:0:
256,192,41286,1,8,0:0:0:0:
256,192,41536,1,0,0:0:0:0:
256,192,41786,1,8,0:0:0:0:
256,192,42036,1,0,0:0:0:0:
256,192,42286,1,0,0:0:0:0:
256,192,42411,1,0,0:0:0:0:
256,192,42536,1,8,0:0:0:0:
256,192,42786,1,8,0:0:0:0:
256,192,43036,1,0,0:0:0:0:
256,192,43161,1,0,0:0:0:0:
256,192,43286,1,8,0:0:0:0:
256,192,43411,1,8,0:0:0:0:
256,192,43536,1,0,0:0:0:0:
256,192,43786,1,8,0:0:0:0:
256,192,44036,1,0,0:0:0:0:
256,192,44286,1,0,0:0:0:0:
256,192,44536,1,8,0:0:0:0:
256,192,44911,1,0,0:0:0:0:
256,192,45036,1,8,0:0:0:0:
256,192,45536,1,8,0:0:0:0:
256,192,45786,1,0,0:0:0:0:
256,192,46036,1,8,0:0:0:0:
256,192,46536,1,0,0:0:0:0:
256,192,46786,1,0,0:0:0:0:
256,192,47036,1,8,0:0:0:0:
256,192,47536,1,0,0:0:0:0:
256,192,47661,1,8,0:0:0:0:
256,192,47911,1,8,0:0:0:0:
256,192,48036,1,0,0:0:0:0:
256,192,48536,1,0,0:0:0:0:
256,192,48598,1,0,0:0:0:0:
256,192,49036,5,12,0:0:0:0:
256,192,49286,1,8,0:0:0:0:
256,192,49536,1,0,0:0:0:0:
256,192,49786,1,0,0:0:0:0:
256,192,50036,1,8,0:0:0:0:
256,192,50286,1,0,0:0:0:0:
256,192,50411,1,0,0:0:0:0:
256,192,50536,1,8,0:0:0:0:
256,192,50619,1,0,0:0:0:0:
256,192,50702,1,0,0:0:0:0:
256,192,50786,1,0,0:0:0:0:
256,192,50869,1,0,0:0:0:0:
256,192,50952,1,0,0:0:0:0:
256,192,51036,1,8,0:0:0:0:
256,192,51161,1,8,0:0:0:0:
256,192,51286,1,0,0:0:0:0:
256,192,51411,1,0,0:0:0:0:
256,192,51536,1,8,0:0:0:0:
256,192,51786,1,0,0:0:0:0:
256,192,52036,1,8,0:0:0:0:
256,192,52161,1,0,0:0:0:0:
256,192,52286,1,0,0:0:0:0:
256,192,52536,1,8,0:0:0:0:
256,192,52661,1,8,0:0:0:0:
256,192,52786,1,0,0:0:0:0:
256,192,52911,1,8,0:0:0:0:
256,192,53036,1,0,0:0:0:0:
256,192,53536,1,0,0:0:0:0:
256,192,53786,1,8,0:0:0:0:
256,192,54036,1,0,0:0:0:0:
256,192,54536,1,0,0:0:0:0:
256,192,54786,1,0,0:0:0:0:
256,192,55036,1,8,0:0:0:0:
256,192,55411,1,0,0:0:0:0:
256,192,55536,1,0,0:0:0:0:
256,192,55661,1,12,0:0:0:0:
256,192,55911,1,12,0:0:0:0:
256,192,56036,1,0,0:0:0:0:
256,192,56161,1,8,0:0:0:0:
256,192,56286,1,0,0:0:0:0:
256,192,56411,1,0,0:0:0:0:
256,192,56536,1,8,0:0:0:0:
256,192,56786,1,0,0:0:0:0:
256,192,56911,1,0,0:0:0:0:
256,192,57036,5,12,0:0:0:0:
256,192,57286,1,8,0:0:0:0:
256,192,57411,1,8,0:0:0:0:
256,192,57536,1,0,0:0:0:0:
256,192,57619,1,0,0:0:0:0:
256,192,57702,1,0,0:0:0:0:
256,192,57786,1,8,0:0:0:0:
256,192,57869,1,8,0:0:0:0:
256,192,57952,1,8,0:0:0:0:
256,192,58036,1,0,0:0:0:0:
256,192,58286,1,0,0:0:0:0:
256,192,58411,1,0,0:0:0:0:
256,192,58536,1,8,0:0:0:0:
256,192,58786,1,0,0:0:0:0:
256,192,59036,1,8,0:0:0:0:
256,192,59161,1,8,0:0:0:0:
256,192,59286,1,0,0:0:0:0:
256,192,59411,1,0,0:0:0:0:
256,192,59536,1,8,0:0:0:0:
256,192,59661,1,0,0:0:0:0:
256,192,59786,1,8,0:0:0:0:
256,192,59911,1,8,0:0:0:0:
256,192,60036,1,0,0:0:0:0:
256,192,60202,1,0,0:0:0:0:
256,192,60286,1,8,0:0:0:0:
256,192,60452,1,8,0:0:0:0:
256,192,60536,1,0,0:0:0:0:
256,192,60786,1,8,0:0:0:0:
256,192,60911,1,0,0:0:0:0:
256,192,61036,1,8,0:0:0:0:
256,192,61536,1,0,0:0:0:0:
256,192,62036,1,8,0:0:0:0:
256,192,62536,1,0,0:0:0:0:
256,192,62786,1,0,0:0:0:0:
256,192,63036,1,0,0:0:0:0:
256,192,63161,1,8,0:0:0:0:
256,192,63286,1,0,0:0:0:0:
256,192,63411,1,0,0:0:0:0:
256,192,63536,1,8,0:0:0:0:
256,192,63661,1,0,0:0:0:0:
256,192,64036,1,0,0:0:0:0:
256,192,64098,1,0,0:0:0:0:
256,192,64536,5,8,0:0:0:0:
256,192,64661,1,0,0:0:0:0:
256,192,64723,1,0,0:0:0:0:
256,192,64786,1,8,0:0:0:0:
256,192,64911,1,8,0:0:0:0:
256,192,66285,5,8,0:0:0:0:
256,192,66535,5,4,0:0:0:0:
256,192,66642,1,8,0:0:0:0:
256,192,66749,1,8,0:0:0:0:
256,192,66856,1,8,0:0:0:0:
256,192,66963,1,0,0:0:0:0:
256,192,67177,1,8,0:0:0:0:
256,192,67285,1,0,0:0:0:0:
256,192,67338,1,0,0:0:0:0:
256,192,67392,1,8,0:0:0:0:
256,192,67499,1,8,0:0:0:0:
256,192,67606,1,0,0:0:0:0:
256,192,67820,1,8,0:0:0:0:
256,192,67981,1,0,0:0:0:0:
256,192,68142,1,0,0:0:0:0:
256,192,68249,1,8,0:0:0:0:
256,192,68463,1,0,0:0:0:0:
256,192,68570,1,0,0:0:0:0:
256,192,68677,1,8,0:0:0:0:
256,192,68892,1,0,0:0:0:0:
256,192,68999,1,8,0:0:0:0:
256,192,69052,1,8,0:0:0:0:
256,192,69106,1,0,0:0:0:0:
256,192,69213,1,0,0:0:0:0:
256,192,69320,1,8,0:0:0:0:
256,192,69535,1,8,0:0:0:0:
256,192,69642,1,0,0:0:0:0:
256,192,69695,1,0,0:0:0:0:
256,192,69749,1,8,0:0:0:0:
256,192,69856,1,0,0:0:0:0:
256,192,69963,5,8,0:0:0:0:
256,192,70070,1,8,0:0:0:0:
256,192,70177,1,0,0:0:0:0:
256,192,70285,1,0,0:0:0:0:
256,192,70392,1,8,0:0:0:0:
256,192,70606,1,8,0:0:0:0:
256,192,70713,1,0,0:0:0:0:
256,192,70767,1,0,0:0:0:0:
256,192,70820,1,8,0:0:0:0:
256,192,70927,1,8,0:0:0:0:
256,192,71035,1,0,0:0:0:0:
256,192,71249,1,0,0:0:0:0:
256,192,71410,1,8,0:0:0:0:
256,192,71570,1,8,0:0:0:0:
256,192,71677,1,0,0:0:0:0:
256,192,71892,1,8,0:0:0:0:
256,192,71999,1,8,0:0:0:0:
256,192,72106,1,0,0:0:0:0:
256,192,72320,1,0,0:0:0:0:
256,192,72427,1,8,0:0:0:0:
256,192,72481,1,8,0:0:0:0:
256,192,72535,1,0,0:0:0:0:
256,192,72642,1,8,0:0:0:0:
256,192,72749,1,8,0:0:0:0:
256,192,72963,1,0,0:0:0:0:
256,192,72990,1,0,0:0:0:0:
256,192,73392,5,4,0:0:0:0:
256,192,73642,1,8,0:0:0:0:
256,192,73892,1,8,0:0:0:0:
256,192,74142,1,8,0:0:0:0:
256,192,74392,1,0,0:0:0:0:
256,192,74892,1,8,0:0:0:0:
256,192,75142,1,0,0:0:0:0:
256,192,75267,1,0,0:0:0:0:
256,192,75392,1,8,0:0:0:0:
256,192,75642,1,8,0:0:0:0:
256,192,75892,1,0,0:0:0:0:
256,192,76392,1,8,0:0:0:0:
256,192,76767,1,0,0:0:0:0:
256,192,77142,1,0,0:0:0:0:
256,192,77392,5,8,0:0:0:0:
256,192,77873,1,0,0:0:0:0:
256,192,78114,1,0,0:0:0:0:
256,192,78355,1,8,0:0:0:0:
256,192,78837,1,0,0:0:0:0:
256,192,79078,1,8,0:0:0:0:
256,192,79199,1,8,0:0:0:0:
256,192,79319,1,0,0:0:0:0:
256,192,79557,1,8,0:0:0:0:
256,192,79795,1,0,0:0:0:0:
256,192,80271,1,8,0:0:0:0:
256,192,80509,1,0,0:0:0:0:
256,192,80628,1,0,0:0:0:0:
256,192,80747,1,8,0:0:0:0:
256,192,80985,1,0,0:0:0:0:
256,192,81204,5,8,0:0:0:0:
256,192,81340,1,8,0:0:0:0:
256,192,81476,1,8,0:0:0:0:
256,192,81613,1,8,0:0:0:0:
256,192,81749,5,0,0:0:0:0:
256,192,81963,1,8,0:0:0:0:
256,192,82070,1,0,0:0:0:0:
256,192,82124,1,0,0:0:0:0:
256,192,82177,1,8,0:0:0:0:
256,192,82284,1,8,0:0:0:0:
256,192,82391,1,0,0:0:0:0:
256,192,82606,1,8,0:0:0:0:
256,192,82766,1,0,0:0:0:0:
256,192,82927,1,0,0:0:0:0:
256,192,83034,1,8,0:0:0:0:
256,192,83248,1,0,0:0:0:0:
256,192,83355,1,0,0:0:0:0:
256,192,83462,1,8,0:0:0:0:
256,192,83676,1,0,0:0:0:0:
256,192,83784,1,8,0:0:0:0:
256,192,83837,1,8,0:0:0:0:
256,192,83891,1,0,0:0:0:0:
256,192,83998,1,0,0:0:0:0:
256,192,84105,1,8,0:0:0:0:
256,192,84319,1,8,0:0:0:0:
256,192,84466,1,0,0:0:0:0:
256,192,84539,1,0,0:0:0:0:
256,192,84613,1,8,0:0:0:0:
256,192,84783,1,8,0:0:0:0:
256,192,84953,5,0,0:0:0:0:
256,192,85279,1,0,0:0:0:0:
256,192,85386,1,0,0:0:0:0:
256,192,85493,1,8,0:0:0:0:
256,192,85707,1,8,0:0:0:0:
256,192,85814,1,0,0:0:0:0:
256,192,85868,1,0,0:0:0:0:
256,192,85921,1,8,0:0:0:0:
256,192,86028,1,8,0:0:0:0:
256,192,86135,1,0,0:0:0:0:
256,192,86350,1,0,0:0:0:0:
256,192,86510,1,8,0:0:0:0:
256,192,86671,1,8,0:0:0:0:
256,192,86778,1,0,0:0:0:0:
256,192,86992,1,8,0:0:0:0:
256,192,87099,1,8,0:0:0:0:
256,192,87206,1,0,0:0:0:0:
256,192,87420,1,0,0:0:0:0:
256,192,87528,1,8,0:0:0:0:
256,192,87581,1,8,0:0:0:0:
256,192,87635,1,0,0:0:0:0:
256,192,87742,1,0,0:0:0:0:
256,192,87849,1,8,0:0:0:0:
256,192,88063,1,8,0:0:0:0:
256,192,88170,1,0,0:0:0:0:
256,192,88224,1,0,0:0:0:0:
256,192,88278,1,8,0:0:0:0:
256,192,88385,1,8,0:0:0:0:
256,192,88492,5,0,0:0:0:0:
256,192,88599,1,8,0:0:0:0:
256,192,88706,1,8,0:0:0:0:
256,192,88813,1,8,0:0:0:0:
256,192,88920,1,0,0:0:0:0:
256,192,89135,1,8,0:0:0:0:
256,192,89242,1,0,0:0:0:0:
256,192,89295,1,0,0:0:0:0:
256,192,89349,1,8,0:0:0:0:
256,192,89456,1,8,0:0:0:0:
256,192,89563,1,0,0:0:0:0:
256,192,89778,1,8,0:0:0:0:
256,192,89938,1,0,0:0:0:0:
256,192,90099,1,0,0:0:0:0:
256,192,90206,1,8,0:0:0:0:
256,192,90420,1,0,0:0:0:0:
256,192,90528,1,0,0:0:0:0:
256,192,90635,1,8,0:0:0:0:
256,192,90849,1,0,0:0:0:0:
256,192,90956,1,8,0:0:0:0:
256,192,91010,1,8,0:0:0:0:
256,192,91063,1,0,0:0:0:0:
256,192,91170,1,0,0:0:0:0:
256,192,91278,1,8,0:0:0:0:
256,192,91492,1,0,0:0:0:0:
256,192,91519,1,0,0:0:0:0:
256,192,91920,5,4,0:0:0:0:
256,192,92170,1,8,0:0:0:0:
256,192,92420,1,8,0:0:0:0:
256,192,92670,1,8,0:0:0:0:
256,192,92920,1,0,0:0:0:0:
256,192,93420,1,8,0:0:0:0:
256,192,93670,1,0,0:0:0:0:
256,192,93795,1,0,0:0:0:0:
256,192,93920,1,8,0:0:0:0:
256,192,94170,1,8,0:0:0:0:
256,192,94420,1,0,0:0:0:0:
256,192,94920,1,8,0:0:0:0:
256,192,95295,1,0,0:0:0:0:
256,192,95670,1,0,0:0:0:0:
256,192,95920,5,8,0:0:0:0:
256,192,96401,1,0,0:0:0:0:
256,192,96642,1,0,0:0:0:0:
256,192,96883,1,8,0:0:0:0:
256,192,97365,1,0,0:0:0:0:
256,192,97606,1,8,0:0:0:0:
256,192,97727,1,8,0:0:0:0:
256,192,97847,1,0,0:0:0:0:
256,192,98085,1,0,0:0:0:0:
256,192,98323,1,8,0:0:0:0:
256,192,98799,1,8,0:0:0:0:
256,192,99037,1,0,0:0:0:0:
256,192,99156,1,0,0:0:0:0:
256,192,99275,1,8,0:0:0:0:
256,192,99513,1,0,0:0:0:0:
256,192,99732,5,8,0:0:0:0:
256,192,99868,1,8,0:0:0:0:
256,192,100004,1,8,0:0:0:0:
256,192,100141,1,8,0:0:0:0:
256,192,100277,5,0,0:0:0:0:
256,192,100491,1,8,0:0:0:0:
256,192,100598,1,0,0:0:0:0:
256,192,100652,1,0,0:0:0:0:
256,192,100705,1,8,0:0:0:0:
256,192,100812,1,8,0:0:0:0:
256,192,100919,1,0,0:0:0:0:
256,192,101134,1,8,0:0:0:0:
256,192,101294,1,0,0:0:0:0:
256,192,101455,1,0,0:0:0:0:
256,192,101562,1,8,0:0:0:0:
256,192,101777,1,0,0:0:0:0:
256,192,101884,1,0,0:0:0:0:
256,192,101991,1,8,0:0:0:0:
256,192,102205,1,0,0:0:0:0:
256,192,102312,1,8,0:0:0:0:
256,192,102366,1,8,0:0:0:0:
256,192,102419,1,0,0:0:0:0:
256,192,102527,1,0,0:0:0:0:
256,192,102634,1,8,0:0:0:0:
256,192,102848,1,8,0:0:0:0:
256,192,102955,1,0,0:0:0:0:
256,192,103010,1,0,0:0:0:0:
256,192,103066,1,0,0:0:0:0:
256,192,103178,1,8,0:0:0:0:
256,192,103303,1,8,0:0:0:0:
256,192,103490,1,0,0:0:0:0:
256,192,103521,1,0,0:0:0:0:
256,192,104479,5,12,0:0:0:0:
256,192,104979,1,0,0:0:0:0:
256,192,105479,1,8,0:0:0:0:
256,192,106229,1,8,0:0:0:0:
256,192,106479,1,0,0:0:0:0:
256,192,106979,1,8,0:0:0:0:
256,192,107479,1,0,0:0:0:0:
256,192,108479,1,8,0:0:0:0:
256,192,108979,1,0,0:0:0:0:
256,192,109479,1,8,0:0:0:0:
256,192,110229,1,8,0:0:0:0:
256,192,110479,1,0,0:0:0:0:
256,192,110979,1,8,0:0:0:0:
256,192,111312,1,0,0:0:0:0:
256,192,111479,5,8,0:0:0:0:
256,192,112479,1,8,0:0:0:0:
256,192,112979,1,0,0:0:0:0:
256,192,113479,1,8,0:0:0:0:
256,192,114229,1,8,0:0:0:0:
256,192,114479,1,0,0:0:0:0:
256,192,114979,1,8,0:0:0:0:
256,192,115479,1,0,0:0:0:0:
256,192,116479,1,8,0:0:0:0:
256,192,116979,1,0,0:0:0:0:
256,192,117479,1,8,0:0:0:0:
256,192,117979,1,0,0:0:0:0:
256,192,118229,1,8,0:0:0:0:
256,192,118479,1,0,0:0:0:0:
256,192,118979,1,8,0:0:0:0:
256,192,119312,1,0,0:0:0:0:
256,192,119479,5,8,0:0:0:0:
256,192,119586,1,8,0:0:0:0:
256,192,119693,1,0,0:0:0:0:
256,192,119907,1,8,0:0:0:0:
256,192,120336,1,0,0:0:0:0:
256,192,120443,1,0,0:0:0:0:
256,192,120550,1,8,0:0:0:0:
256,192,120764,1,0,0:0:0:0:
256,192,120979,1,0,0:0:0:0:
256,192,121193,5,8,0:0:0:0:
256,192,121300,1,8,0:0:0:0:
256,192,121407,1,0,0:0:0:0:
256,192,121621,1,8,0:0:0:0:
256,192,122050,1,0,0:0:0:0:
256,192,122157,1,0,0:0:0:0:
256,192,122264,1,8,0:0:0:0:
256,192,122479,1,0,0:0:0:0:
256,192,122505,1,0,0:0:0:0:
