osu file format v14

[General]
AudioFilename: drugs!!.ogg
AudioLeadIn: 0
PreviewTime: 66400
Countdown: 0
SampleSet: Normal
StackLeniency: 0.7
Mode: 1
LetterboxInBreaks: 0
WidescreenStoryboard: 1

[Editor]
Bookmarks: 111260,119260
DistanceSpacing: 0.8
BeatDivisor: 4
GridSize: 32
TimelineZoom: 1

[Metadata]
Title:Drugs
TitleUnicode:Drugs
Artist:Aests
ArtistUnicode:Aests
Creator:meiqth
Version:Oni
Source:
Tags:future funk disco electronic instrumental the classics future society collective tencolle
BeatmapID:3576052
BeatmapSetID:1747929

[Difficulty]
HPDrainRate:7
CircleSize:2
OverallDifficulty:5
ApproachRate:10
SliderMultiplier:1.6
SliderTickRate:1

[Events]
//Background and Video events
0,0,"cover.jpg",0,250
//Break Periods
//Storyboard Layer 0 (Background)
//Storyboard Layer 1 (Fail)
//Storyboard Layer 2 (Pass)
//Storyboard Layer 3 (Foreground)
//Storyboard Layer 4 (Overlay)
//Storyboard Sound Samples

[TimingPoints]
36,500,4,1,0,55,1,0
36,-125,4,1,0,55,0,0
16036,-90.9090909090909,4,1,0,55,0,0
17036,500,4,1,0,55,1,0
65035,500,4,1,0,35,1,8
65035,-123.571428571429,4,1,0,35,0,0
66427,-123.152709359606,4,1,0,55,0,0
66535,428.571428571429,4,1,0,55,1,1
72963,-100,4,1,0,55,0,0
73392,1000,4,1,0,55,1,1
73392,-56.8181818181818,4,1,0,55,0,1
73889,-56.5125856716968,4,1,0,55,0,1
74139,-56.3610170270809,4,1,0,55,0,1
74389,-56.2102592320861,4,1,0,55,0,1
74889,-55.9111503025512,4,1,0,55,0,1
75139,-55.7627863955481,4,1,0,55,0,1
75389,-55.6152077914222,4,1,0,55,0,1
75639,-55.468408271618,4,1,0,55,0,1
75889,-55.3223816830641,4,1,0,55,0,1
76389,-55.0326230096971,4,1,0,55,0,1
77392,963.855421686747,4,1,0,55,1,1
77392,-56.5044465671465,4,1,0,55,0,1
77870,-56.2240921475906,4,1,0,55,0,1
78111,-56.0846670704137,4,1,0,55,0,1
78352,-55.945931778158,4,1,0,55,0,1
78834,-55.6705101735597,4,1,0,55,0,1
79075,-55.5338137988653,4,1,0,55,0,1
79319,952.380952380952,4,1,0,55,1,1
79319,-56.0652303010328,4,1,0,55,0,1
79554,-55.9299386583043,4,1,0,55,0,1
79792,-55.7952983913268,4,1,0,55,0,1
80268,-55.5279532580857,4,1,0,55,0,1
80506,-55.3952391404458,4,1,0,55,0,1
80744,-55.2631578947369,4,1,0,55,0,1
81204,545.454545454546,4,1,0,55,1,0
81204,-78.5714285714286,4,1,0,55,0,0
81749,428.571428571429,4,1,0,55,1,9
83034,428.571428571429,4,1,0,55,1,1
83245,-101.127740303541,4,1,0,55,0,1
83352,-101.701203031427,4,1,0,55,0,1
83459,-102.281206694382,4,1,0,55,0,1
83673,-103.461289626914,4,1,0,55,0,1
83781,-104.067245119306,4,1,0,55,0,1
83888,-104.674630447826,4,1,0,55,0,1
83995,-105.289147371886,4,1,0,55,0,1
84102,-105.910922236327,4,1,0,55,0,1
84319,588.235294117647,4,1,0,55,1,8
84319,-78.0859297083816,4,1,0,55,0,8
84613,681.818181818182,4,1,0,55,1,8
84613,-68.4929062193273,4,1,0,55,0,8
84780,-69.1605166807277,4,1,0,55,0,8
84953,653.950953678474,4,1,0,55,1,0
84953,-72.8174603174604,4,1,0,55,0,0
85279,428.571428571429,4,1,0,55,1,9
85493,428.571428571429,4,1,0,55,1,9
86778,428.571428571429,4,1,0,55,1,1
91492,-100,4,1,0,55,0,0
91920,1000,4,1,0,55,1,1
91920,-56.8181818181818,4,1,0,55,0,1
92417,-56.522114565778,4,1,0,55,0,1
92667,-56.3752349896204,4,1,0,55,0,1
92917,-56.2291168037157,4,1,0,55,0,1
93417,-55.939141043549,4,1,0,55,0,1
93667,-55.7952718412072,4,1,0,55,0,1
93917,-55.6521407714048,4,1,0,55,0,1
94167,-55.5097421681039,4,1,0,55,0,1
94417,-55.3680704231104,4,1,0,55,0,1
94917,-55.086885360078,4,1,0,55,0,1
95920,963.855421686747,4,1,0,55,1,1
95920,-56.5779844121669,4,1,0,55,0,1
96398,-56.305669636667,4,1,0,55,0,1
96639,-56.1702125383964,4,1,0,55,0,1
96880,-56.0354056264893,4,1,0,55,0,1
97362,-55.7677237260707,4,1,0,55,0,1
97603,-55.6348395307252,4,1,0,55,0,1
97847,952.380952380952,4,1,0,55,1,1
97847,-56.171292975779,4,1,0,55,0,1
98082,-56.0397363282486,4,1,0,55,0,1
98320,-55.908794468482,4,1,0,55,0,1
98796,-55.6487379543427,4,1,0,55,0,1
99034,-55.5196148205509,4,1,0,55,0,1
99272,-55.3910895147631,4,1,0,55,0,1
99732,545.454545454546,4,1,0,55,1,0
99732,-78.5714285714454,4,1,0,55,0,0
100277,428.571428571429,4,1,0,55,1,9
102955,447.761194029851,4,1,0,55,1,9
102955,-97.007722007722,4,1,0,55,0,9
103007,-97.6862702349158,4,1,0,55,0,9
103063,-98.3869787187323,4,1,0,55,0,9
103156,500,4,1,0,55,1,9
103178,500,4,1,0,55,1,9
103178,-89.390142021721,4,1,0,55,0,9
103300,-90.8662011700322,4,1,0,55,0,9
103490,500,4,1,0,55,1,0
104479,1000,4,1,0,55,1,8
104479,-66.6666666666667,4,1,0,55,0,8
107479,1000,4,1,0,55,1,0
107479,-66.6666666666667,4,1,0,55,0,8
119479,428.571428571429,4,1,0,55,1,1
122479,-100,4,1,0,55,0,0

[HitObjects]
256,192,36,5,12,0:0:0:0:
256,192,536,1,8,0:0:0:0:
256,192,786,1,0,0:0:0:0:
256,192,1036,1,8,0:0:0:0:
256,192,1411,1,8,0:0:0:0:
256,192,2036,1,0,0:0:0:0:
256,192,2536,1,8,0:0:0:0:
256,192,2786,1,0,0:0:0:0:
256,192,3036,1,8,0:0:0:0:
256,192,3411,1,8,0:0:0:0:
256,192,3786,1,0,0:0:0:0:
256,192,4036,5,0,0:0:0:0:
256,192,4536,1,8,0:0:0:0:
256,192,4786,1,0,0:0:0:0:
256,192,5036,1,8,0:0:0:0:
256,192,5411,1,8,0:0:0:0:
256,192,6036,1,0,0:0:0:0:
256,192,6536,1,8,0:0:0:0:
256,192,6786,1,0,0:0:0:0:
256,192,7036,1,8,0:0:0:0:
256,192,7286,1,0,0:0:0:0:
256,192,7411,1,8,0:0:0:0:
256,192,7661,1,8,0:0:0:0:
256,192,8036,5,12,0:0:0:0:
256,192,8536,1,8,0:0:0:0:
256,192,8786,1,0,0:0:0:0:
256,192,9036,1,8,0:0:0:0:
256,192,9411,1,8,0:0:0:0:
256,192,10036,1,0,0:0:0:0:
256,192,10536,1,8,0:0:0:0:
256,192,10786,1,0,0:0:0:0:
256,192,11036,1,8,0:0:0:0:
256,192,11411,1,8,0:0:0:0:
256,192,11786,1,0,0:0:0:0:
256,192,12036,5,0,0:0:0:0:
256,192,12536,1,8,0:0:0:0:
256,192,12786,1,0,0:0:0:0:
256,192,13036,1,8,0:0:0:0:
256,192,13411,1,8,0:0:0:0:
256,192,14036,1,0,0:0:0:0:
256,192,14536,1,8,0:0:0:0:
256,192,14786,1,0,0:0:0:0:
256,192,15036,1,8,0:0:0:0:
256,192,15286,1,0,0:0:0:0:
256,192,15411,1,8,0:0:0:0:
256,192,15661,1,8,0:0:0:0:
256,192,15786,1,0,0:0:0:0:
256,192,16036,5,0,0:0:0:0:
256,192,16161,1,0,0:0:0:0:
256,192,16286,1,0,0:0:0:0:
256,192,16536,1,0,0:0:0:0:
256,192,16661,1,0,0:0:0:0:
256,192,16786,1,8,0:0:0:0:
256,192,17036,5,12,0:0:0:0:
256,192,17536,1,0,0:0:0:0:
256,192,17786,1,0,0:0:0:0:
256,192,18036,1,8,0:0:0:0:
256,192,18411,1,0,0:0:0:0:
256,192,18536,1,8,0:0:0:0:
256,192,19036,1,8,0:0:0:0:
256,192,19161,1,8,0:0:0:0:
256,192,19286,1,8,0:0:0:0:
256,192,19411,1,8,0:0:0:0:
256,192,19536,1,0,0:0:0:0:
256,192,19786,1,0,0:0:0:0:
256,192,20036,1,8,0:0:0:0:
256,192,20286,1,0,0:0:0:0:
256,192,20536,1,8,0:0:0:0:
256,192,21036,1,8,0:0:0:0:
256,192,21536,1,8,0:0:0:0:
256,192,21786,1,0,0:0:0:0:
256,192,22036,1,8,0:0:0:0:
256,192,22536,1,0,0:0:0:0:
256,192,22786,1,0,0:0:0:0:
256,192,23036,1,8,0:0:0:0:
256,192,23536,1,0,0:0:0:0:
256,192,23661,1,8,0:0:0:0:
256,192,23911,1,8,0:0:0:0:
256,192,24036,1,0,0:0:0:0:
256,192,24286,1,0,0:0:0:0:
256,192,24536,1,8,0:0:0:0:
256,192,25036,5,12,0:0:0:0:
256,192,25536,1,0,0:0:0:0:
256,192,25786,1,8,0:0:0:0:
256,192,26036,1,0,0:0:0:0:
256,192,26411,1,0,0:0:0:0:
256,192,26536,1,8,0:0:0:0:
256,192,27036,1,0,0:0:0:0:
256,192,27161,1,0,0:0:0:0:
256,192,27286,1,0,0:0:0:0:
256,192,27411,1,0,0:0:0:0:
256,192,27536,1,8,0:0:0:0:
256,192,27786,1,8,0:0:0:0:
256,192,28036,1,0,0:0:0:0:
256,192,28286,1,0,0:0:0:0:
256,192,28536,1,8,0:0:0:0:
256,192,29036,1,8,0:0:0:0:
256,192,29536,1,8,0:0:0:0:
256,192,29786,1,0,0:0:0:0:
256,192,30036,1,8,0:0:0:0:
256,192,30536,1,0,0:0:0:0:
256,192,30786,1,0,0:0:0:0:
256,192,31036,1,8,0:0:0:0:
256,192,31536,1,0,0:0:0:0:
256,192,31661,1,8,0:0:0:0:
256,192,31911,1,8,0:0:0:0:
256,192,32036,1,0,0:0:0:0:
256,192,32286,1,0,0:0:0:0:
256,192,32536,1,8,0:0:0:0:
256,192,33036,5,12,0:0:0:0:
256,192,33536,1,0,0:0:0:0:
256,192,33786,1,0,0:0:0:0:
256,192,34036,1,8,0:0:0:0:
256,192,34411,1,0,0:0:0:0:
256,192,34536,1,8,0:0:0:0:
256,192,35036,1,8,0:0:0:0:
256,192,35161,1,8,0:0:0:0:
256,192,35286,1,8,0:0:0:0:
256,192,35411,1,8,0:0:0:0:
256,192,35536,1,0,0:0:0:0:
256,192,35786,1,0,0:0:0:0:
256,192,36036,1,8,0:0:0:0:
256,192,36286,1,0,0:0:0:0:
256,192,36536,1,8,0:0:0:0:
256,192,37036,1,8,0:0:0:0:
256,192,37536,1,8,0:0:0:0:
256,192,37786,1,0,0:0:0:0:
256,192,38036,1,8,0:0:0:0:
256,192,38536,1,0,0:0:0:0:
256,192,38786,1,0,0:0:0:0:
256,192,39036,1,8,0:0:0:0:
256,192,39536,1,0,0:0:0:0:
256,192,39661,1,8,0:0:0:0:
256,192,39911,1,8,0:0:0:0:
256,192,40036,1,0,0:0:0:0:
256,192,40286,1,0,0:0:0:0:
256,192,40536,1,8,0:0:0:0:
256,192,41036,5,12,0:0:0:0:
256,192,41536,1,0,0:0:0:0:
256,192,41786,1,8,0:0:0:0:
256,192,42036,1,0,0:0:0:0:
256,192,42411,1,0,0:0:0:0:
256,192,42536,1,8,0:0:0:0:
256,192,43036,1,0,0:0:0:0:
256,192,43161,1,0,0:0:0:0:
256,192,43286,1,0,0:0:0:0:
256,192,43411,1,0,0:0:0:0:
256,192,43536,1,8,0:0:0:0:
256,192,43786,1,8,0:0:0:0:
256,192,44036,1,0,0:0:0:0:
256,192,44286,1,0,0:0:0:0:
256,192,44536,1,8,0:0:0:0:
256,192,45036,1,8,0:0:0:0:
256,192,45536,1,8,0:0:0:0:
256,192,45786,1,0,0:0:0:0:
256,192,46036,1,8,0:0:0:0:
256,192,46536,1,0,0:0:0:0:
256,192,46786,1,0,0:0:0:0:
256,192,47036,1,8,0:0:0:0:
256,192,47536,1,0,0:0:0:0:
256,192,47661,1,8,0:0:0:0:
256,192,47911,1,8,0:0:0:0:
256,192,48036,1,0,0:0:0:0:
256,192,48536,1,4,0:0:0:0:
256,192,49036,5,12,0:0:0:0:
256,192,49536,1,0,0:0:0:0:
256,192,49786,1,0,0:0:0:0:
256,192,50036,1,8,0:0:0:0:
256,192,50286,1,8,0:0:0:0:
256,192,50536,1,0,0:0:0:0:
256,192,50661,1,0,0:0:0:0:
256,192,50786,1,0,0:0:0:0:
256,192,51036,1,8,0:0:0:0:
256,192,51161,1,8,0:0:0:0:
256,192,51286,1,8,0:0:0:0:
256,192,51411,1,8,0:0:0:0:
256,192,51536,1,0,0:0:0:0:
256,192,52036,1,8,0:0:0:0:
256,192,52161,1,0,0:0:0:0:
256,192,52286,1,8,0:0:0:0:
256,192,52536,1,0,0:0:0:0:
256,192,52661,1,0,0:0:0:0:
256,192,52786,1,8,0:0:0:0:
256,192,52911,1,8,0:0:0:0:
256,192,53036,1,0,0:0:0:0:
256,192,53536,1,0,0:0:0:0:
256,192,53786,1,8,0:0:0:0:
256,192,54536,1,0,0:0:0:0:
256,192,54786,1,0,0:0:0:0:
256,192,55036,1,8,0:0:0:0:
256,192,55536,1,0,0:0:0:0:
256,192,55661,1,12,0:0:0:0:
256,192,55911,1,12,0:0:0:0:
256,192,56161,1,0,0:0:0:0:
256,192,56286,1,0,0:0:0:0:
256,192,56411,1,0,0:0:0:0:
256,192,56536,1,8,0:0:0:0:
256,192,57036,5,12,0:0:0:0:
256,192,57286,1,8,0:0:0:0:
256,192,57536,1,0,0:0:0:0:
256,192,57661,1,0,0:0:0:0:
256,192,57786,1,8,0:0:0:0:
256,192,57911,1,8,0:0:0:0:
256,192,58036,1,0,0:0:0:0:
256,192,58286,1,0,0:0:0:0:
256,192,58411,1,0,0:0:0:0:
256,192,58536,1,8,0:0:0:0:
256,192,59036,1,8,0:0:0:0:
256,192,59161,1,8,0:0:0:0:
256,192,59286,1,0,0:0:0:0:
256,192,59411,1,0,0:0:0:0:
256,192,59536,1,8,0:0:0:0:
256,192,59786,1,0,0:0:0:0:
256,192,60036,1,8,0:0:0:0:
256,192,60161,1,0,0:0:0:0:
256,192,60286,1,8,0:0:0:0:
256,192,60411,1,0,0:0:0:0:
256,192,60536,1,8,0:0:0:0:
256,192,60786,1,0,0:0:0:0:
256,192,61036,1,8,0:0:0:0:
256,192,61536,1,0,0:0:0:0:
256,192,62036,1,8,0:0:0:0:
256,192,62536,1,0,0:0:0:0:
256,192,62786,1,0,0:0:0:0:
256,192,63036,1,0,0:0:0:0:
256,192,63161,1,8,0:0:0:0:
256,192,63286,1,0,0:0:0:0:
256,192,63411,1,0,0:0:0:0:
256,192,63536,1,8,0:0:0:0:
256,192,64036,1,4,0:0:0:0:
256,192,64536,5,8,0:0:0:0:
256,192,64661,1,0,0:0:0:0:
256,192,64786,1,8,0:0:0:0:
256,192,64911,1,8,0:0:0:0:
256,192,66285,5,8,0:0:0:0:
256,192,66535,5,4,0:0:0:0:
256,192,66749,1,8,0:0:0:0:
256,192,66856,1,8,0:0:0:0:
256,192,66963,1,8,0:0:0:0:
256,192,67177,1,0,0:0:0:0:
256,192,67285,1,0,0:0:0:0:
256,192,67392,1,8,0:0:0:0:
256,192,67499,1,8,0:0:0:0:
256,192,67606,1,0,0:0:0:0:
256,192,67820,1,8,0:0:0:0:
256,192,68249,1,8,0:0:0:0:
256,192,68463,1,0,0:0:0:0:
256,192,68570,1,0,0:0:0:0:
256,192,68677,1,8,0:0:0:0:
256,192,68892,1,0,0:0:0:0:
256,192,68999,1,8,0:0:0:0:
256,192,69106,1,0,0:0:0:0:
256,192,69213,1,0,0:0:0:0:
256,192,69320,1,8,0:0:0:0:
256,192,69535,1,8,0:0:0:0:
256,192,69642,1,0,0:0:0:0:
256,192,69749,1,8,0:0:0:0:
256,192,69963,5,8,0:0:0:0:
256,192,70177,1,0,0:0:0:0:
256,192,70285,1,0,0:0:0:0:
256,192,70392,1,0,0:0:0:0:
256,192,70606,1,8,0:0:0:0:
256,192,70713,1,0,0:0:0:0:
256,192,70820,1,8,0:0:0:0:
256,192,70927,1,8,0:0:0:0:
256,192,71035,1,0,0:0:0:0:
256,192,71249,1,0,0:0:0:0:
256,192,71677,1,0,0:0:0:0:
256,192,71892,1,8,0:0:0:0:
256,192,71999,1,8,0:0:0:0:
256,192,72106,1,0,0:0:0:0:
256,192,72320,1,8,0:0:0:0:
256,192,72427,1,8,0:0:0:0:
256,192,72535,1,0,0:0:0:0:
256,192,72642,1,0,0:0:0:0:
256,192,72749,1,8,0:0:0:0:
256,192,72963,1,4,0:0:0:0:
256,192,73392,5,4,0:0:0:0:
256,192,73892,1,8,0:0:0:0:
256,192,74142,1,8,0:0:0:0:
256,192,74392,1,8,0:0:0:0:
256,192,74892,1,0,0:0:0:0:
256,192,75142,1,0,0:0:0:0:
256,192,75392,1,8,0:0:0:0:
256,192,75642,1,8,0:0:0:0:
256,192,75892,1,0,0:0:0:0:
256,192,76392,1,8,0:0:0:0:
256,192,77392,5,8,0:0:0:0:
256,192,77873,1,0,0:0:0:0:
256,192,78114,1,0,0:0:0:0:
256,192,78355,1,8,0:0:0:0:
256,192,78837,1,0,0:0:0:0:
256,192,79078,1,8,0:0:0:0:
256,192,79319,1,0,0:0:0:0:
256,192,79557,1,0,0:0:0:0:
256,192,79795,1,8,0:0:0:0:
256,192,80271,1,8,0:0:0:0:
256,192,80509,1,0,0:0:0:0:
256,192,80747,1,8,0:0:0:0:
256,192,81204,5,8,0:0:0:0:
256,192,81749,5,0,0:0:0:0:
256,192,81963,1,8,0:0:0:0:
256,192,82070,1,0,0:0:0:0:
256,192,82177,1,8,0:0:0:0:
256,192,82284,1,8,0:0:0:0:
256,192,82391,1,0,0:0:0:0:
256,192,82606,1,8,0:0:0:0:
256,192,83034,1,8,0:0:0:0:
256,192,83248,1,0,0:0:0:0:
256,192,83355,1,0,0:0:0:0:
256,192,83462,1,0,0:0:0:0:
256,192,83676,1,8,0:0:0:0:
256,192,83784,1,8,0:0:0:0:
256,192,83891,1,0,0:0:0:0:
256,192,83998,1,0,0:0:0:0:
256,192,84105,1,8,0:0:0:0:
256,192,84319,1,0,0:0:0:0:
256,192,84613,1,8,0:0:0:0:
256,192,84783,1,8,0:0:0:0:
256,192,84953,5,0,0:0:0:0:
256,192,85279,1,0,0:0:0:0:
256,192,85386,1,0,0:0:0:0:
256,192,85493,1,0,0:0:0:0:
256,192,85707,1,8,0:0:0:0:
256,192,85814,1,0,0:0:0:0:
256,192,85921,1,8,0:0:0:0:
256,192,86028,1,8,0:0:0:0:
256,192,86135,1,0,0:0:0:0:
256,192,86350,1,8,0:0:0:0:
256,192,86778,1,8,0:0:0:0:
256,192,86992,1,0,0:0:0:0:
256,192,87099,1,0,0:0:0:0:
256,192,87206,1,0,0:0:0:0:
256,192,87420,1,8,0:0:0:0:
256,192,87528,1,8,0:0:0:0:
256,192,87635,1,0,0:0:0:0:
256,192,87742,1,0,0:0:0:0:
256,192,87849,1,8,0:0:0:0:
256,192,88063,1,8,0:0:0:0:
256,192,88170,1,0,0:0:0:0:
256,192,88278,1,8,0:0:0:0:
256,192,88492,5,0,0:0:0:0:
256,192,88706,1,8,0:0:0:0:
256,192,88813,1,8,0:0:0:0:
256,192,88920,1,8,0:0:0:0:
256,192,89135,1,8,0:0:0:0:
256,192,89242,1,0,0:0:0:0:
256,192,89349,1,8,0:0:0:0:
256,192,89456,1,8,0:0:0:0:
256,192,89563,1,0,0:0:0:0:
256,192,89778,1,8,0:0:0:0:
256,192,90206,1,8,0:0:0:0:
256,192,90420,1,0,0:0:0:0:
256,192,90528,1,0,0:0:0:0:
256,192,90635,1,0,0:0:0:0:
256,192,90849,1,8,0:0:0:0:
256,192,90956,1,8,0:0:0:0:
256,192,91063,1,0,0:0:0:0:
256,192,91170,1,0,0:0:0:0:
256,192,91278,1,8,0:0:0:0:
256,192,91492,1,4,0:0:0:0:
256,192,91920,5,4,0:0:0:0:
256,192,92420,1,8,0:0:0:0:
256,192,92670,1,8,0:0:0:0:
256,192,92920,1,0,0:0:0:0:
256,192,93420,1,0,0:0:0:0:
256,192,93670,1,0,0:0:0:0:
256,192,93920,1,8,0:0:0:0:
256,192,94170,1,8,0:0:0:0:
256,192,94420,1,0,0:0:0:0:
256,192,94920,1,8,0:0:0:0:
256,192,95920,5,8,0:0:0:0:
256,192,96401,1,0,0:0:0:0:
256,192,96642,1,0,0:0:0:0:
256,192,96883,1,8,0:0:0:0:
256,192,97365,1,0,0:0:0:0:
256,192,97606,1,8,0:0:0:0:
256,192,97847,1,0,0:0:0:0:
256,192,98085,1,0,0:0:0:0:
256,192,98323,1,8,0:0:0:0:
256,192,98799,1,8,0:0:0:0:
256,192,99037,1,0,0:0:0:0:
256,192,99275,1,8,0:0:0:0:
256,192,99732,5,8,0:0:0:0:
256,192,100277,5,0,0:0:0:0:
256,192,100491,1,8,0:0:0:0:
256,192,100598,1,0,0:0:0:0:
256,192,100705,1,8,0:0:0:0:
256,192,100812,1,8,0:0:0:0:
256,192,100919,1,0,0:0:0:0:
256,192,101134,1,8,0:0:0:0:
256,192,101562,1,8,0:0:0:0:
256,192,101777,1,0,0:0:0:0:
256,192,101884,1,0,0:0:0:0:
256,192,101991,1,0,0:0:0:0:
256,192,102205,1,8,0:0:0:0:
256,192,102312,1,8,0:0:0:0:
256,192,102419,1,0,0:0:0:0:
256,192,102527,1,0,0:0:0:0:
256,192,102634,1,8,0:0:0:0:
256,192,102848,1,8,0:0:0:0:
256,192,102955,1,0,0:0:0:0:
256,192,103066,1,0,0:0:0:0:
256,192,103178,1,8,0:0:0:0:
256,192,103490,1,4,0:0:0:0:
256,192,104479,5,12,0:0:0:0:
256,192,104979,1,0,0:0:0:0:
256,192,105479,1,8,0:0:0:0:
256,192,106229,1,8,0:0:0:0:
256,192,106979,1,8,0:0:0:0:
256,192,107479,1,0,0:0:0:0:
256,192,108479,1,8,0:0:0:0:
256,192,108979,1,0,0:0:0:0:
256,192,109479,1,8,0:0:0:0:
256,192,110229,1,8,0:0:0:0:
256,192,110979,1,8,0:0:0:0:
256,192,111312,1,0,0:0:0:0:
256,192,111479,5,8,0:0:0:0:
256,192,112479,1,8,0:0:0:0:
256,192,112979,1,0,0:0:0:0:
256,192,113479,1,8,0:0:0:0:
256,192,114229,1,8,0:0:0:0:
256,192,114979,1,8,0:0:0:0:
256,192,115479,1,0,0:0:0:0:
256,192,116479,1,8,0:0:0:0:
256,192,116979,1,0,0:0:0:0:
256,192,117479,1,8,0:0:0:0:
256,192,117979,1,0,0:0:0:0:
256,192,118229,1,8,0:0:0:0:
256,192,118979,1,8,0:0:0:0:
256,192,119479,5,8,0:0:0:0:
256,192,119586,1,8,0:0:0:0:
256,192,119693,1,8,0:0:0:0:
256,192,119907,1,0,0:0:0:0:
256,192,120336,1,0,0:0:0:0:
256,192,120443,1,0,0:0:0:0:
256,192,120550,1,0,0:0:0:0:
256,192,120764,1,8,0:0:0:0:
256,192,120979,1,0,0:0:0:0:
256,192,121193,5,8,0:0:0:0:
256,192,121300,1,8,0:0:0:0:
256,192,121407,1,8,0:0:0:0:
256,192,121621,1,0,0:0:0:0:
256,192,122050,1,0,0:0:0:0:
256,192,122157,1,0,0:0:0:0:
256,192,122264,1,0,0:0:0:0:
256,192,122479,1,4,0:0:0:0:
