osu file format v14

[General]
AudioFilename: drugs!!.ogg
AudioLeadIn: 0
PreviewTime: 66400
Countdown: 0
SampleSet: Normal
StackLeniency: 0.7
Mode: 1
LetterboxInBreaks: 0
WidescreenStoryboard: 1

[Editor]
Bookmarks: 111260,119260
DistanceSpacing: 0.8
BeatDivisor: 16
GridSize: 32
TimelineZoom: 1.700001

[Metadata]
Title:Drugs
TitleUnicode:Drugs
Artist:Aests
ArtistUnicode:Aests
Creator:meiqth
Version:Muzukashii
Source:
Tags:future funk disco electronic instrumental the classics future society collective tencolle
BeatmapID:3576051
BeatmapSetID:1747929

[Difficulty]
HPDrainRate:7.5
CircleSize:2
OverallDifficulty:4.5
ApproachRate:10
SliderMultiplier:1.4
SliderTickRate:1

[Events]
//Background and Video events
0,0,"cover.jpg",0,250
//Break Periods
//Storyboard Layer 0 (Background)
//Storyboard Layer 1 (Fail)
//Storyboard Layer 2 (Pass)
//Storyboard Layer 3 (Foreground)
//Storyboard Layer 4 (Overlay)
//Storyboard Sound Samples

[TimingPoints]
36,500,4,1,0,55,1,0
36,-111.111111111111,4,1,0,55,0,0
16036,-100,4,1,0,55,0,0
17036,500,4,1,0,55,1,0
65035,500,4,1,0,35,1,8
65035,-86.2068965517241,4,1,0,35,0,0
66427,-86.1326442721791,4,1,0,55,0,0
66535,428.571428571429,4,1,0,55,1,1
66535,-90.9090909090909,4,1,0,55,0,1
72963,-90.9090909090909,4,1,0,55,0,0
73392,1000,4,1,0,55,1,1
73392,-56.8181818181818,4,1,0,55,0,1
73889,-56.5125856716968,4,1,0,55,0,1
74389,-56.2102592320861,4,1,0,55,0,1
74889,-55.9111503025512,4,1,0,55,0,1
75139,-55.7627863955481,4,1,0,55,0,1
75389,-55.6152077914222,4,1,0,55,0,1
75889,-55.3223816830641,4,1,0,55,0,1
76389,-55.0326230096971,4,1,0,55,0,1
77392,963.855421686747,4,1,0,55,1,1
77392,-56.5044465671465,4,1,0,55,0,1
77870,-56.2240921475906,4,1,0,55,0,1
78352,-55.945931778158,4,1,0,55,0,1
78834,-55.6705101735597,4,1,0,55,0,1
79075,-55.5338137988653,4,1,0,55,0,1
79319,952.380952380952,4,1,0,55,1,1
79319,-56.0652303010328,4,1,0,55,0,1
79792,-55.7952983913268,4,1,0,55,0,1
80268,-55.5279532580857,4,1,0,55,0,1
81204,545.454545454546,4,1,0,55,1,0
81204,-71.4285714285714,4,1,0,55,0,0
81749,428.571428571429,4,1,0,55,1,9
81749,-90.9090909090909,4,1,0,55,0,1
83034,428.571428571429,4,1,0,55,1,1
83034,-90.9090909090909,4,1,0,55,0,1
83245,-91.8401531466858,4,1,0,55,0,1
83352,-92.3128728112373,4,1,0,55,0,1
83459,-92.790484019148,4,1,0,55,0,1
83673,-93.7606879366785,4,1,0,55,0,1
83781,-94.2580676850533,4,1,0,55,0,1
83888,-94.7560734742248,4,1,0,55,0,1
83995,-95.259369570613,4,1,0,55,0,1
84102,-95.768040722627,4,1,0,55,0,1
84319,588.235294117647,4,1,0,55,1,8
84319,-70.527066758907,4,1,0,55,0,8
84613,681.818181818182,4,1,0,55,1,8
84613,-61.7628556799064,4,1,0,55,0,8
84780,-62.3051948051948,4,1,0,55,0,8
84953,653.950953678474,4,1,0,55,1,0
84953,-65.5357142857144,4,1,0,55,0,0
85279,428.571428571429,4,1,0,55,1,9
85279,-90.9090909090909,4,1,0,55,0,1
85493,428.571428571429,4,1,0,55,1,9
85493,-90.9090909090909,4,1,0,55,0,1
86778,428.571428571429,4,1,0,55,1,1
86778,-90.9090909090909,4,1,0,55,0,1
91492,-90.9090909090909,4,1,0,55,0,0
91920,1000,4,1,0,55,1,1
91920,-55.5555555555556,4,1,0,55,0,1
92417,-55.1632583888826,4,1,0,55,0,1
92917,-54.7764626689852,4,1,0,55,0,1
93417,-54.3950534759358,4,1,0,55,0,1
93667,-54.2063337866718,4,1,0,55,0,1
93917,-54.0189190684295,4,1,0,55,0,1
94417,-53.6479507746401,4,1,0,55,0,1
94917,-53.282042887543,4,1,0,55,0,1
95920,963.855421686747,4,1,0,55,1,1
95920,-54.5361872207569,4,1,0,55,0,1
96398,-54.1854417093423,4,1,0,55,0,1
96880,-53.8384636845532,4,1,0,55,0,1
97362,-53.4959011524296,4,1,0,55,0,1
97603,-53.3262494407453,4,1,0,55,0,1
97847,952.380952380952,4,1,0,55,1,1
97847,-53.7981242211583,4,1,0,55,0,1
98320,-53.4643010780723,4,1,0,55,0,1
98796,-53.1345952038556,4,1,0,55,0,1
99732,545.454545454546,4,1,0,55,1,0
99732,-71.4285714285714,4,1,0,55,0,0
100277,428.571428571429,4,1,0,55,1,9
100277,-90.9090909090909,4,1,0,55,0,1
102631,-92.5989970603493,4,1,0,55,0,1
102845,-94.3446088794926,4,1,0,55,0,1
102955,447.761194029851,4,1,0,55,1,9
103156,500,4,1,0,55,1,9
103156,-83.2879695155145,4,1,0,55,0,9
103178,500,4,1,0,55,1,9
103490,500,4,1,0,55,1,0
103490,-85.7142857142858,4,1,0,55,0,0
104479,1000,4,1,0,55,1,8
104479,-55.5555555555556,4,1,0,55,0,8
107479,1000,4,1,0,55,1,0
107479,-55.5555555555556,4,1,0,55,0,8
119479,428.571428571429,4,1,0,55,1,1
122479,-100,4,1,0,55,0,0

[HitObjects]
256,192,36,5,12,0:0:0:0:
256,192,536,1,8,0:0:0:0:
256,192,786,1,0,0:0:0:0:
256,192,1036,1,8,0:0:0:0:
256,192,1411,1,8,0:0:0:0:
256,192,2036,1,0,0:0:0:0:
256,192,2536,1,8,0:0:0:0:
256,192,2786,1,0,0:0:0:0:
256,192,3036,1,8,0:0:0:0:
256,192,3411,1,8,0:0:0:0:
256,192,3786,1,0,0:0:0:0:
256,192,4036,5,0,0:0:0:0:
256,192,4536,1,8,0:0:0:0:
256,192,4786,1,0,0:0:0:0:
256,192,5036,1,8,0:0:0:0:
256,192,5411,1,8,0:0:0:0:
256,192,6036,1,0,0:0:0:0:
256,192,6536,1,8,0:0:0:0:
256,192,6786,1,0,0:0:0:0:
256,192,7036,1,8,0:0:0:0:
256,192,7286,1,8,0:0:0:0:
256,192,7411,1,8,0:0:0:0:
256,192,7786,1,0,0:0:0:0:
256,192,8036,5,12,0:0:0:0:
256,192,8536,1,8,0:0:0:0:
256,192,8786,1,0,0:0:0:0:
256,192,9036,1,8,0:0:0:0:
256,192,9411,1,8,0:0:0:0:
256,192,10036,1,0,0:0:0:0:
256,192,10536,1,8,0:0:0:0:
256,192,10786,1,0,0:0:0:0:
256,192,11036,1,8,0:0:0:0:
256,192,11411,1,8,0:0:0:0:
256,192,11786,1,0,0:0:0:0:
256,192,12036,5,0,0:0:0:0:
256,192,12536,1,8,0:0:0:0:
256,192,12786,1,0,0:0:0:0:
256,192,13036,1,8,0:0:0:0:
256,192,13411,1,8,0:0:0:0:
256,192,14036,1,0,0:0:0:0:
256,192,14536,1,8,0:0:0:0:
256,192,14786,1,0,0:0:0:0:
256,192,15036,1,8,0:0:0:0:
256,192,15286,1,8,0:0:0:0:
256,192,15411,1,8,0:0:0:0:
256,192,15786,1,0,0:0:0:0:
256,192,16036,5,0,0:0:0:0:
256,192,16161,1,0,0:0:0:0:
256,192,16286,1,0,0:0:0:0:
256,192,16536,1,0,0:0:0:0:
256,192,17036,5,12,0:0:0:0:
256,192,17536,1,0,0:0:0:0:
256,192,17786,1,0,0:0:0:0:
256,192,18036,1,8,0:0:0:0:
256,192,18536,1,8,0:0:0:0:
256,192,19036,1,8,0:0:0:0:
256,192,19161,1,8,0:0:0:0:
256,192,19286,1,8,0:0:0:0:
256,192,19536,1,0,0:0:0:0:
256,192,19786,1,0,0:0:0:0:
256,192,20036,1,8,0:0:0:0:
256,192,20286,1,0,0:0:0:0:
256,192,20536,1,8,0:0:0:0:
256,192,21036,1,8,0:0:0:0:
256,192,21536,1,8,0:0:0:0:
256,192,21786,1,0,0:0:0:0:
256,192,22036,1,8,0:0:0:0:
256,192,22536,1,0,0:0:0:0:
256,192,22786,1,0,0:0:0:0:
256,192,23036,1,8,0:0:0:0:
256,192,23536,1,0,0:0:0:0:
256,192,23661,1,0,0:0:0:0:
256,192,23911,1,8,0:0:0:0:
256,192,24036,1,8,0:0:0:0:
256,192,24286,1,0,0:0:0:0:
256,192,24536,1,8,0:0:0:0:
256,192,25036,5,12,0:0:0:0:
256,192,25536,1,0,0:0:0:0:
256,192,25786,1,8,0:0:0:0:
256,192,26036,1,0,0:0:0:0:
256,192,26536,1,8,0:0:0:0:
256,192,27036,1,0,0:0:0:0:
256,192,27161,1,0,0:0:0:0:
256,192,27286,1,0,0:0:0:0:
256,192,27536,1,8,0:0:0:0:
256,192,27786,1,8,0:0:0:0:
256,192,28036,1,0,0:0:0:0:
256,192,28286,1,0,0:0:0:0:
256,192,28536,1,8,0:0:0:0:
256,192,29036,1,8,0:0:0:0:
256,192,29536,1,8,0:0:0:0:
256,192,29786,1,0,0:0:0:0:
256,192,30036,1,8,0:0:0:0:
256,192,30536,1,0,0:0:0:0:
256,192,30786,1,0,0:0:0:0:
256,192,31036,1,8,0:0:0:0:
256,192,31536,1,8,0:0:0:0:
256,192,31661,1,8,0:0:0:0:
256,192,31911,1,0,0:0:0:0:
256,192,32036,1,0,0:0:0:0:
256,192,32286,1,8,0:0:0:0:
256,192,32536,1,8,0:0:0:0:
256,192,33036,5,12,0:0:0:0:
256,192,33536,1,0,0:0:0:0:
256,192,33786,1,0,0:0:0:0:
256,192,34036,1,8,0:0:0:0:
256,192,34536,1,8,0:0:0:0:
256,192,35036,1,8,0:0:0:0:
256,192,35161,1,8,0:0:0:0:
256,192,35286,1,8,0:0:0:0:
256,192,35536,1,0,0:0:0:0:
256,192,35786,1,0,0:0:0:0:
256,192,36036,1,8,0:0:0:0:
256,192,36286,1,0,0:0:0:0:
256,192,36536,1,8,0:0:0:0:
256,192,37036,1,8,0:0:0:0:
256,192,37536,1,8,0:0:0:0:
256,192,37786,1,0,0:0:0:0:
256,192,38036,1,8,0:0:0:0:
256,192,38536,1,0,0:0:0:0:
256,192,38786,1,0,0:0:0:0:
256,192,39036,1,8,0:0:0:0:
256,192,39536,1,0,0:0:0:0:
256,192,39661,1,0,0:0:0:0:
256,192,39911,1,8,0:0:0:0:
256,192,40036,1,8,0:0:0:0:
256,192,40286,1,0,0:0:0:0:
256,192,40536,1,8,0:0:0:0:
256,192,41036,5,12,0:0:0:0:
256,192,41536,1,0,0:0:0:0:
256,192,41786,1,8,0:0:0:0:
256,192,42036,1,0,0:0:0:0:
256,192,42536,1,8,0:0:0:0:
256,192,43036,1,0,0:0:0:0:
256,192,43161,1,0,0:0:0:0:
256,192,43286,1,0,0:0:0:0:
256,192,43536,1,8,0:0:0:0:
256,192,43786,1,8,0:0:0:0:
256,192,44036,1,0,0:0:0:0:
256,192,44286,1,0,0:0:0:0:
256,192,44536,1,8,0:0:0:0:
256,192,45036,1,8,0:0:0:0:
256,192,45536,1,8,0:0:0:0:
256,192,45786,1,0,0:0:0:0:
256,192,46036,1,8,0:0:0:0:
256,192,46536,1,0,0:0:0:0:
256,192,46786,1,0,0:0:0:0:
256,192,47036,1,8,0:0:0:0:
256,192,47536,1,8,0:0:0:0:
256,192,47661,1,8,0:0:0:0:
256,192,47911,1,0,0:0:0:0:
256,192,48036,1,0,0:0:0:0:
256,192,49036,5,12,0:0:0:0:
256,192,49536,1,0,0:0:0:0:
256,192,49786,1,0,0:0:0:0:
256,192,50036,1,8,0:0:0:0:
256,192,50536,1,0,0:0:0:0:
256,192,50661,1,0,0:0:0:0:
256,192,50786,1,0,0:0:0:0:
256,192,51036,1,8,0:0:0:0:
256,192,51161,1,8,0:0:0:0:
256,192,51286,1,8,0:0:0:0:
256,192,51536,1,0,0:0:0:0:
256,192,52036,1,8,0:0:0:0:
256,192,52286,1,8,0:0:0:0:
256,192,52536,1,0,0:0:0:0:
256,192,52661,1,0,0:0:0:0:
256,192,52786,1,0,0:0:0:0:
256,192,53036,1,8,0:0:0:0:
256,192,53536,1,0,0:0:0:0:
256,192,53786,1,8,0:0:0:0:
256,192,54536,1,0,0:0:0:0:
256,192,54786,1,0,0:0:0:0:
256,192,55036,1,8,0:0:0:0:
256,192,55661,1,12,0:0:0:0:
256,192,55911,1,12,0:0:0:0:
256,192,56161,1,0,0:0:0:0:
256,192,56286,1,0,0:0:0:0:
256,192,56536,1,8,0:0:0:0:
256,192,57036,5,12,0:0:0:0:
256,192,57286,1,8,0:0:0:0:
256,192,57536,1,0,0:0:0:0:
256,192,57661,1,0,0:0:0:0:
256,192,57786,1,0,0:0:0:0:
256,192,58036,1,8,0:0:0:0:
256,192,58286,1,0,0:0:0:0:
256,192,58536,1,8,0:0:0:0:
256,192,59036,1,8,0:0:0:0:
256,192,59161,1,8,0:0:0:0:
256,192,59286,1,8,0:0:0:0:
256,192,59536,1,0,0:0:0:0:
256,192,59786,1,8,0:0:0:0:
256,192,60036,1,0,0:0:0:0:
256,192,60161,1,0,0:0:0:0:
256,192,60286,1,0,0:0:0:0:
256,192,60536,1,8,0:0:0:0:
256,192,60786,1,0,0:0:0:0:
256,192,61036,1,8,0:0:0:0:
256,192,61536,1,0,0:0:0:0:
256,192,62036,1,8,0:0:0:0:
256,192,62536,1,0,0:0:0:0:
256,192,62786,1,0,0:0:0:0:
256,192,63161,1,8,0:0:0:0:
256,192,63286,1,8,0:0:0:0:
256,192,63536,1,0,0:0:0:0:
256,192,64536,5,8,0:0:0:0:
256,192,64786,1,0,0:0:0:0:
256,192,64911,1,8,0:0:0:0:
256,192,66285,5,8,0:0:0:0:
256,192,66535,5,4,0:0:0:0:
256,192,66749,1,8,0:0:0:0:
256,192,66963,1,8,0:0:0:0:
256,192,67177,1,0,0:0:0:0:
256,192,67285,1,0,0:0:0:0:
256,192,67392,1,0,0:0:0:0:
256,192,67606,1,0,0:0:0:0:
256,192,67820,1,8,0:0:0:0:
256,192,68249,1,8,0:0:0:0:
256,192,68463,1,8,0:0:0:0:
256,192,68677,1,0,0:0:0:0:
256,192,68892,1,8,0:0:0:0:
256,192,68999,1,8,0:0:0:0:
256,192,69106,1,8,0:0:0:0:
256,192,69320,1,0,0:0:0:0:
256,192,69535,1,8,0:0:0:0:
256,192,69963,5,8,0:0:0:0:
256,192,70177,1,0,0:0:0:0:
256,192,70392,1,0,0:0:0:0:
256,192,70606,1,8,0:0:0:0:
256,192,70820,1,0,0:0:0:0:
256,192,70927,1,0,0:0:0:0:
256,192,71035,1,0,0:0:0:0:
256,192,71249,1,8,0:0:0:0:
256,192,71677,1,8,0:0:0:0:
256,192,71892,1,8,0:0:0:0:
256,192,72106,1,0,0:0:0:0:
256,192,72320,1,8,0:0:0:0:
256,192,72427,1,8,0:0:0:0:
256,192,72535,1,8,0:0:0:0:
256,192,72749,1,8,0:0:0:0:
256,192,72963,1,4,0:0:0:0:
256,192,73392,5,4,0:0:0:0:
256,192,73892,1,8,0:0:0:0:
256,192,74392,1,8,0:0:0:0:
256,192,74892,1,0,0:0:0:0:
256,192,75142,1,0,0:0:0:0:
256,192,75392,1,0,0:0:0:0:
256,192,75892,1,0,0:0:0:0:
256,192,76392,1,8,0:0:0:0:
256,192,77392,5,8,0:0:0:0:
256,192,77873,1,8,0:0:0:0:
256,192,78355,1,0,0:0:0:0:
256,192,78837,1,8,0:0:0:0:
256,192,79078,1,8,0:0:0:0:
256,192,79319,1,8,0:0:0:0:
256,192,79795,1,0,0:0:0:0:
256,192,80271,1,8,0:0:0:0:
256,192,81204,5,8,0:0:0:0:
256,192,81749,5,8,0:0:0:0:
256,192,81963,1,8,0:0:0:0:
256,192,82177,1,0,0:0:0:0:
256,192,82284,1,0,0:0:0:0:
256,192,82391,1,0,0:0:0:0:
256,192,82606,1,8,0:0:0:0:
256,192,83034,1,8,0:0:0:0:
256,192,83248,1,0,0:0:0:0:
256,192,83462,1,0,0:0:0:0:
256,192,83676,1,8,0:0:0:0:
256,192,83784,1,8,0:0:0:0:
256,192,83891,1,8,0:0:0:0:
256,192,84105,1,8,0:0:0:0:
256,192,84319,1,0,0:0:0:0:
256,192,84613,1,8,0:0:0:0:
256,192,85279,1,8,0:0:0:0:
256,192,85493,1,8,0:0:0:0:
256,192,85707,1,0,0:0:0:0:
256,192,85814,1,0,0:0:0:0:
256,192,85921,1,0,0:0:0:0:
256,192,86135,1,0,0:0:0:0:
256,192,86350,1,8,0:0:0:0:
256,192,86778,1,8,0:0:0:0:
256,192,86992,1,8,0:0:0:0:
256,192,87206,1,0,0:0:0:0:
256,192,87420,1,8,0:0:0:0:
256,192,87528,1,8,0:0:0:0:
256,192,87635,1,8,0:0:0:0:
256,192,87849,1,0,0:0:0:0:
256,192,88063,1,8,0:0:0:0:
256,192,88492,5,0,0:0:0:0:
256,192,88706,1,8,0:0:0:0:
256,192,88920,1,8,0:0:0:0:
256,192,89135,1,0,0:0:0:0:
256,192,89242,1,0,0:0:0:0:
256,192,89349,1,0,0:0:0:0:
256,192,89563,1,0,0:0:0:0:
256,192,89778,1,8,0:0:0:0:
256,192,90206,1,8,0:0:0:0:
256,192,90420,1,8,0:0:0:0:
256,192,90635,1,0,0:0:0:0:
256,192,90849,1,8,0:0:0:0:
256,192,90956,1,8,0:0:0:0:
256,192,91063,1,8,0:0:0:0:
256,192,91278,1,8,0:0:0:0:
256,192,91492,1,4,0:0:0:0:
256,192,91920,5,4,0:0:0:0:
256,192,92420,1,8,0:0:0:0:
256,192,92920,1,8,0:0:0:0:
256,192,93420,1,0,0:0:0:0:
256,192,93670,1,0,0:0:0:0:
256,192,93920,1,0,0:0:0:0:
256,192,94420,1,0,0:0:0:0:
256,192,94920,1,8,0:0:0:0:
256,192,95920,5,8,0:0:0:0:
256,192,96401,1,8,0:0:0:0:
256,192,96883,1,0,0:0:0:0:
256,192,97365,1,8,0:0:0:0:
256,192,97606,1,8,0:0:0:0:
256,192,97847,1,8,0:0:0:0:
256,192,98323,1,0,0:0:0:0:
256,192,98799,1,8,0:0:0:0:
256,192,99732,5,8,0:0:0:0:
256,192,100277,5,8,0:0:0:0:
256,192,100491,1,8,0:0:0:0:
256,192,100705,1,0,0:0:0:0:
256,192,100812,1,0,0:0:0:0:
256,192,100919,1,0,0:0:0:0:
256,192,101134,1,8,0:0:0:0:
256,192,101562,1,8,0:0:0:0:
256,192,101777,1,8,0:0:0:0:
256,192,101991,1,0,0:0:0:0:
256,192,102205,1,8,0:0:0:0:
256,192,102312,1,8,0:0:0:0:
256,192,102419,1,8,0:0:0:0:
256,192,102634,1,8,0:0:0:0:
256,192,102848,1,0,0:0:0:0:
256,192,103156,1,8,0:0:0:0:
256,192,103490,1,4,0:0:0:0:
256,192,104479,5,12,0:0:0:0:
256,192,104979,1,0,0:0:0:0:
256,192,105479,1,8,0:0:0:0:
256,192,106229,1,8,0:0:0:0:
256,192,107479,1,0,0:0:0:0:
256,192,108479,1,8,0:0:0:0:
256,192,108979,1,0,0:0:0:0:
256,192,109479,1,8,0:0:0:0:
256,192,110229,1,8,0:0:0:0:
256,192,110979,1,0,0:0:0:0:
256,192,111479,5,8,0:0:0:0:
256,192,112479,1,8,0:0:0:0:
256,192,112979,1,0,0:0:0:0:
256,192,113479,1,8,0:0:0:0:
256,192,114229,1,8,0:0:0:0:
256,192,115479,1,0,0:0:0:0:
256,192,116479,1,8,0:0:0:0:
256,192,116979,1,0,0:0:0:0:
256,192,117479,1,8,0:0:0:0:
256,192,118229,1,8,0:0:0:0:
256,192,118979,1,0,0:0:0:0:
256,192,119479,5,8,0:0:0:0:
256,192,119693,1,8,0:0:0:0:
256,192,119907,1,0,0:0:0:0:
256,192,120336,1,0,0:0:0:0:
256,192,120443,1,0,0:0:0:0:
256,192,120550,1,0,0:0:0:0:
256,192,120764,1,8,0:0:0:0:
256,192,121193,5,8,0:0:0:0:
256,192,121407,1,8,0:0:0:0:
256,192,121621,1,0,0:0:0:0:
256,192,122050,1,0,0:0:0:0:
256,192,122157,1,0,0:0:0:0:
256,192,122264,1,0,0:0:0:0:
256,192,122479,1,4,0:0:0:0:
