osu file format v14

[General]
AudioFilename: drugs!!.ogg
AudioLeadIn: 0
PreviewTime: 66400
Countdown: 0
SampleSet: Normal
StackLeniency: 0.7
Mode: 1
LetterboxInBreaks: 0
WidescreenStoryboard: 1

[Editor]
Bookmarks: 111260,119260
DistanceSpacing: 0.8
BeatDivisor: 4
GridSize: 32
TimelineZoom: 1.4

[Metadata]
Title:Drugs
TitleUnicode:Drugs
Artist:Aests
ArtistUnicode:Aests
Creator:meiqth
Version:Futsuu
Source:
Tags:future funk disco electronic instrumental the classics future society collective tencolle
BeatmapID:3576049
BeatmapSetID:1747929

[Difficulty]
HPDrainRate:8.3
CircleSize:2
OverallDifficulty:3.7
ApproachRate:10
SliderMultiplier:1.4
SliderTickRate:1

[Events]
//Background and Video events
0,0,"cover.jpg",0,250
//Break Periods
//Storyboard Layer 0 (Background)
//Storyboard Layer 1 (Fail)
//Storyboard Layer 2 (Pass)
//Storyboard Layer 3 (Foreground)
//Storyboard Layer 4 (Overlay)
//Storyboard Sound Samples

[TimingPoints]
36,500,4,1,0,55,1,0
36,-111.111111111111,4,1,0,55,0,0
16036,-100,4,1,0,55,0,0
17036,500,4,1,0,55,1,0
65035,500,4,1,0,35,1,8
66535,428.571428571429,4,1,0,55,1,1
66535,-90.9090909090909,4,1,0,55,0,1
72963,-90.9090909090909,4,1,0,55,0,0
73392,1000,4,1,0,55,1,1
73392,-45.4545454545455,4,1,0,55,0,1
74389,-44.8616781228397,4,1,0,55,0,1
74889,-44.5710064922443,4,1,0,55,0,1
75389,-44.2840773023986,4,1,0,55,0,1
75889,-44.0008187388863,4,1,0,55,0,1
76389,-43.7211608130267,4,1,0,55,0,1
77392,963.855421686747,4,1,0,55,1,1
77392,-44.7913397933952,4,1,0,55,0,1
78352,-44.2563901428713,4,1,0,55,0,1
78834,-43.9934074265848,4,1,0,55,0,1
79319,952.380952380952,4,1,0,55,1,1
79319,-44.2604416883181,4,1,0,55,0,1
79792,-44.003740617994,4,1,0,55,0,1
80268,-43.75,4,1,0,55,0,1
81204,545.454545454546,4,1,0,55,1,0
81204,-71.4285714285714,4,1,0,55,0,0
81749,428.571428571429,4,1,0,55,1,9
81749,-90.9090909090909,4,1,0,55,0,1
83034,428.571428571429,4,1,0,55,1,1
83034,-90.9090909090909,4,1,0,55,0,1
83459,-92.790484019148,4,1,0,55,0,1
83673,-93.7606879366785,4,1,0,55,0,1
83888,-94.7560734742248,4,1,0,55,0,1
84102,-95.768040722627,4,1,0,55,0,1
84319,588.235294117647,4,1,0,55,1,8
84319,-70.527066758907,4,1,0,55,0,8
84613,681.818181818182,4,1,0,55,1,8
84953,653.950953678474,4,1,0,55,1,0
84953,-65.5357142857144,4,1,0,55,0,0
85279,428.571428571429,4,1,0,55,1,9
85493,428.571428571429,4,1,0,55,1,9
85493,-90.9090909090909,4,1,0,55,0,1
86778,428.571428571429,4,1,0,55,1,1
86778,-90.9090909090909,4,1,0,55,0,1
91492,-90.9090909090909,4,1,0,55,0,0
91920,1000,4,1,0,55,1,1
91920,-45.4545454545455,4,1,0,55,0,1
92917,-44.8616781228397,4,1,0,55,0,1
93417,-44.5710064922443,4,1,0,55,0,1
93917,-44.2840773023986,4,1,0,55,0,1
94417,-44.0008187388863,4,1,0,55,0,1
94917,-43.7211608130267,4,1,0,55,0,1
95920,963.855421686747,4,1,0,55,1,1
95920,-44.7913397933952,4,1,0,55,0,1
96880,-44.2563901428713,4,1,0,55,0,1
97362,-43.9934074265848,4,1,0,55,0,1
97847,952.380952380952,4,1,0,55,1,1
97847,-44.2604416883181,4,1,0,55,0,1
98320,-44.003740617994,4,1,0,55,0,1
98796,-43.75,4,1,0,55,0,1
99732,545.454545454546,4,1,0,55,1,0
99732,-71.4285714285714,4,1,0,55,0,0
100277,428.571428571429,4,1,0,55,1,9
100277,-90.9090909090909,4,1,0,55,0,1
102415,-93.3374844333748,4,1,0,55,0,1
102629,-94.5980058058816,4,1,0,55,0,1
102844,-95.8991747169087,4,1,0,55,0,1
102955,447.761194029851,4,1,0,55,1,9
103156,500,4,1,0,55,1,9
103156,-83.966615008309,4,1,0,55,0,9
103178,500,4,1,0,55,1,9
103490,500,4,1,0,55,1,0
103490,-85.7142857142858,4,1,0,55,0,0
104479,1000,4,1,0,55,1,8
104479,-50,4,1,0,55,0,8
107479,1000,4,1,0,55,1,0
107479,-50,4,1,0,55,0,8
119479,428.571428571429,4,1,0,55,1,1
122479,-100,4,1,0,55,0,0

[HitObjects]
256,192,36,5,12,0:0:0:0:
256,192,536,1,0,0:0:0:0:
256,192,1036,1,8,0:0:0:0:
256,192,1411,1,8,0:0:0:0:
256,192,2536,1,0,0:0:0:0:
256,192,3036,1,8,0:0:0:0:
256,192,3411,1,8,0:0:0:0:
256,192,3786,1,0,0:0:0:0:
256,192,4536,1,0,0:0:0:0:
256,192,5036,1,8,0:0:0:0:
256,192,5411,1,8,0:0:0:0:
256,192,6536,1,0,0:0:0:0:
256,192,7036,1,8,0:0:0:0:
256,192,7411,1,8,0:0:0:0:
256,192,7786,1,0,0:0:0:0:
256,192,8036,5,12,0:0:0:0:
256,192,8536,1,0,0:0:0:0:
256,192,9036,1,8,0:0:0:0:
256,192,9411,1,8,0:0:0:0:
256,192,10536,1,0,0:0:0:0:
256,192,11036,1,8,0:0:0:0:
256,192,11411,1,8,0:0:0:0:
256,192,11786,1,0,0:0:0:0:
256,192,12536,1,0,0:0:0:0:
256,192,13036,1,8,0:0:0:0:
256,192,13411,1,8,0:0:0:0:
256,192,14536,1,0,0:0:0:0:
256,192,15036,1,8,0:0:0:0:
256,192,15411,1,8,0:0:0:0:
256,192,16036,5,0,0:0:0:0:
256,192,16286,1,0,0:0:0:0:
256,192,16536,1,0,0:0:0:0:
256,192,17036,5,12,0:0:0:0:
256,192,17536,1,0,0:0:0:0:
256,192,18036,1,8,0:0:0:0:
256,192,18286,1,0,0:0:0:0:
256,192,18536,1,8,0:0:0:0:
256,192,19036,1,8,0:0:0:0:
256,192,19286,1,8,0:0:0:0:
256,192,19536,1,0,0:0:0:0:
256,192,20036,1,0,0:0:0:0:
256,192,20536,1,8,0:0:0:0:
256,192,20786,1,0,0:0:0:0:
256,192,21036,1,8,0:0:0:0:
256,192,21536,1,8,0:0:0:0:
256,192,22036,1,0,0:0:0:0:
256,192,23036,1,8,0:0:0:0:
256,192,23536,1,0,0:0:0:0:
256,192,23911,1,8,0:0:0:0:
256,192,24286,1,8,0:0:0:0:
256,192,24536,1,0,0:0:0:0:
256,192,25036,5,12,0:0:0:0:
256,192,25536,1,0,0:0:0:0:
256,192,25786,1,8,0:0:0:0:
256,192,26036,1,0,0:0:0:0:
256,192,26536,1,8,0:0:0:0:
256,192,27036,1,0,0:0:0:0:
256,192,27286,1,0,0:0:0:0:
256,192,27536,1,8,0:0:0:0:
256,192,27786,1,8,0:0:0:0:
256,192,28036,1,0,0:0:0:0:
256,192,28536,1,0,0:0:0:0:
256,192,29036,1,8,0:0:0:0:
256,192,29536,1,8,0:0:0:0:
256,192,30036,1,0,0:0:0:0:
256,192,31036,1,8,0:0:0:0:
256,192,31536,1,8,0:0:0:0:
256,192,31911,1,0,0:0:0:0:
256,192,32286,1,0,0:0:0:0:
256,192,32536,1,8,0:0:0:0:
256,192,33036,5,12,0:0:0:0:
256,192,33536,1,0,0:0:0:0:
256,192,34036,1,8,0:0:0:0:
256,192,34286,1,0,0:0:0:0:
256,192,34536,1,8,0:0:0:0:
256,192,35036,1,8,0:0:0:0:
256,192,35286,1,8,0:0:0:0:
256,192,35536,1,0,0:0:0:0:
256,192,36036,1,0,0:0:0:0:
256,192,36536,1,8,0:0:0:0:
256,192,36786,1,0,0:0:0:0:
256,192,37036,1,8,0:0:0:0:
256,192,37536,1,8,0:0:0:0:
256,192,38036,1,0,0:0:0:0:
256,192,39036,1,8,0:0:0:0:
256,192,39536,1,0,0:0:0:0:
256,192,39911,1,8,0:0:0:0:
256,192,40286,1,8,0:0:0:0:
256,192,40536,1,0,0:0:0:0:
256,192,41036,5,12,0:0:0:0:
256,192,41536,1,0,0:0:0:0:
256,192,41786,1,8,0:0:0:0:
256,192,42036,1,0,0:0:0:0:
256,192,42536,1,8,0:0:0:0:
256,192,43036,1,0,0:0:0:0:
256,192,43286,1,0,0:0:0:0:
256,192,43536,1,8,0:0:0:0:
256,192,43786,1,8,0:0:0:0:
256,192,44036,1,0,0:0:0:0:
256,192,44536,1,0,0:0:0:0:
256,192,45036,1,8,0:0:0:0:
256,192,45536,1,8,0:0:0:0:
256,192,46036,1,0,0:0:0:0:
256,192,47036,1,8,0:0:0:0:
256,192,47536,1,8,0:0:0:0:
256,192,48036,1,0,0:0:0:0:
256,192,49036,5,12,0:0:0:0:
256,192,49536,1,0,0:0:0:0:
256,192,50036,1,8,0:0:0:0:
256,192,50536,1,0,0:0:0:0:
256,192,50786,1,0,0:0:0:0:
256,192,51036,1,8,0:0:0:0:
256,192,51286,1,8,0:0:0:0:
256,192,51536,1,0,0:0:0:0:
256,192,52036,1,8,0:0:0:0:
256,192,52536,1,8,0:0:0:0:
256,192,52786,1,8,0:0:0:0:
256,192,53036,1,8,0:0:0:0:
256,192,53536,1,0,0:0:0:0:
256,192,53786,1,8,0:0:0:0:
256,192,54536,1,0,0:0:0:0:
256,192,55036,1,8,0:0:0:0:
256,192,55661,1,12,0:0:0:0:
256,192,55911,1,12,0:0:0:0:
256,192,56536,1,0,0:0:0:0:
256,192,57036,5,12,0:0:0:0:
256,192,57536,1,0,0:0:0:0:
256,192,57786,1,0,0:0:0:0:
256,192,58036,1,0,0:0:0:0:
256,192,58536,1,8,0:0:0:0:
256,192,59036,1,0,0:0:0:0:
256,192,59286,1,0,0:0:0:0:
256,192,59536,1,8,0:0:0:0:
256,192,59786,1,8,0:0:0:0:
256,192,60036,1,0,0:0:0:0:
256,192,60286,1,8,0:0:0:0:
256,192,60786,1,8,0:0:0:0:
256,192,61036,1,0,0:0:0:0:
256,192,61536,1,8,0:0:0:0:
256,192,62036,1,0,0:0:0:0:
256,192,63036,1,8,0:0:0:0:
256,192,63536,1,8,0:0:0:0:
256,192,64536,1,0,0:0:0:0:
256,192,64786,1,8,0:0:0:0:
256,192,66535,5,4,0:0:0:0:
256,192,66963,1,8,0:0:0:0:
256,192,67177,1,0,0:0:0:0:
256,192,67392,1,0,0:0:0:0:
256,192,67606,1,0,0:0:0:0:
256,192,67820,1,8,0:0:0:0:
256,192,68249,1,0,0:0:0:0:
256,192,68677,1,8,0:0:0:0:
256,192,68892,1,8,0:0:0:0:
256,192,69106,1,0,0:0:0:0:
256,192,69320,1,0,0:0:0:0:
256,192,69535,1,8,0:0:0:0:
256,192,69963,5,8,0:0:0:0:
256,192,70392,1,0,0:0:0:0:
256,192,70606,1,8,0:0:0:0:
256,192,70820,1,0,0:0:0:0:
256,192,71035,1,0,0:0:0:0:
256,192,71249,1,8,0:0:0:0:
256,192,71677,1,0,0:0:0:0:
256,192,72106,1,8,0:0:0:0:
256,192,72320,1,8,0:0:0:0:
256,192,72535,1,0,0:0:0:0:
256,192,72749,1,0,0:0:0:0:
256,192,72963,1,12,0:0:0:0:
256,192,73392,5,4,0:0:0:0:
256,192,74392,1,8,0:0:0:0:
256,192,74892,1,0,0:0:0:0:
256,192,75392,1,0,0:0:0:0:
256,192,75892,1,0,0:0:0:0:
256,192,76392,1,8,0:0:0:0:
256,192,77392,5,8,0:0:0:0:
256,192,78355,1,0,0:0:0:0:
256,192,78837,1,8,0:0:0:0:
256,192,79319,1,8,0:0:0:0:
256,192,79795,1,0,0:0:0:0:
256,192,80271,1,8,0:0:0:0:
256,192,81204,5,8,0:0:0:0:
256,192,81749,5,8,0:0:0:0:
256,192,81963,1,8,0:0:0:0:
256,192,82177,1,0,0:0:0:0:
256,192,82391,1,0,0:0:0:0:
256,192,82606,1,8,0:0:0:0:
256,192,83034,1,8,0:0:0:0:
256,192,83462,1,0,0:0:0:0:
256,192,83676,1,8,0:0:0:0:
256,192,83891,1,8,0:0:0:0:
256,192,84105,1,0,0:0:0:0:
256,192,84319,1,8,0:0:0:0:
256,192,85493,1,8,0:0:0:0:
256,192,85707,1,0,0:0:0:0:
256,192,85921,1,0,0:0:0:0:
256,192,86135,1,0,0:0:0:0:
256,192,86350,1,8,0:0:0:0:
256,192,86778,1,0,0:0:0:0:
256,192,87206,1,8,0:0:0:0:
256,192,87420,1,8,0:0:0:0:
256,192,87635,1,0,0:0:0:0:
256,192,87849,1,0,0:0:0:0:
256,192,88063,1,8,0:0:0:0:
256,192,88492,5,8,0:0:0:0:
256,192,88920,1,0,0:0:0:0:
256,192,89135,1,8,0:0:0:0:
256,192,89349,1,0,0:0:0:0:
256,192,89563,1,0,0:0:0:0:
256,192,89778,1,8,0:0:0:0:
256,192,90206,1,0,0:0:0:0:
256,192,90635,1,8,0:0:0:0:
256,192,90849,1,8,0:0:0:0:
256,192,91063,1,0,0:0:0:0:
256,192,91278,1,0,0:0:0:0:
256,192,91492,1,12,0:0:0:0:
256,192,91920,5,4,0:0:0:0:
256,192,92920,1,8,0:0:0:0:
256,192,93420,1,0,0:0:0:0:
256,192,93920,1,0,0:0:0:0:
256,192,94420,1,0,0:0:0:0:
256,192,94920,1,8,0:0:0:0:
256,192,95920,5,8,0:0:0:0:
256,192,96883,1,0,0:0:0:0:
256,192,97365,1,8,0:0:0:0:
256,192,97847,1,8,0:0:0:0:
256,192,98323,1,0,0:0:0:0:
256,192,98799,1,8,0:0:0:0:
256,192,99732,5,8,0:0:0:0:
256,192,100277,5,8,0:0:0:0:
256,192,100705,1,0,0:0:0:0:
256,192,100919,1,8,0:0:0:0:
256,192,101134,1,0,0:0:0:0:
256,192,101348,1,0,0:0:0:0:
256,192,101562,1,8,0:0:0:0:
256,192,101991,1,0,0:0:0:0:
256,192,102419,1,8,0:0:0:0:
256,192,102634,1,8,0:0:0:0:
256,192,102848,1,0,0:0:0:0:
256,192,103156,1,8,0:0:0:0:
256,192,103490,1,0,0:0:0:0:
256,192,104479,5,12,0:0:0:0:
256,192,104979,1,0,0:0:0:0:
256,192,105479,1,8,0:0:0:0:
256,192,106229,1,8,0:0:0:0:
256,192,107479,1,0,0:0:0:0:
256,192,108479,1,8,0:0:0:0:
256,192,108979,1,0,0:0:0:0:
256,192,109479,1,8,0:0:0:0:
256,192,110229,1,8,0:0:0:0:
256,192,110979,1,0,0:0:0:0:
256,192,111479,5,8,0:0:0:0:
256,192,112479,1,8,0:0:0:0:
256,192,112979,1,0,0:0:0:0:
256,192,113479,1,8,0:0:0:0:
256,192,114229,1,8,0:0:0:0:
256,192,115479,1,0,0:0:0:0:
256,192,116479,1,8,0:0:0:0:
256,192,116979,1,0,0:0:0:0:
256,192,117479,1,8,0:0:0:0:
256,192,118229,1,8,0:0:0:0:
256,192,118979,1,0,0:0:0:0:
256,192,119479,5,8,0:0:0:0:
256,192,119907,1,0,0:0:0:0:
256,192,120336,1,0,0:0:0:0:
256,192,120550,1,0,0:0:0:0:
256,192,120764,1,8,0:0:0:0:
256,192,121193,5,8,0:0:0:0:
256,192,121621,1,0,0:0:0:0:
256,192,122050,1,0,0:0:0:0:
256,192,122264,1,0,0:0:0:0:
256,192,122479,1,4,0:0:0:0:
