osu file format v14

[General]
AudioFilename: audio.mp3
AudioLeadIn: 0
PreviewTime: -1
Countdown: 1
SampleSet: None
StackLeniency: 0.7
Mode: 0
LetterboxInBreaks: 0
WidescreenStoryboard: 0

[Editor]
DistanceSpacing: 0.8
BeatDivisor: 12
GridSize: 32
TimelineZoom: 0.3999999

[Metadata]
Title:Wishful
TitleUnicode:Wishful
Artist:AeronMusic
ArtistUnicode:AeronMusic
Creator:jasoncreates9
Version:Normal
Source:
Tags:
BeatmapID:1363326
BeatmapSetID:643124

[Difficulty]
HPDrainRate:5
CircleSize:5
OverallDifficulty:5
ApproachRate:5
SliderMultiplier:1.4
SliderTickRate:1

[Events]
//Background and Video events
//Break Periods
2,5953,10880
2,76758,84023
2,94407,101228
2,133006,138852
2,141538,145279
//Storyboard Layer 0 (Background)
//Storyboard Layer 1 (Fail)
//Storyboard Layer 2 (Pass)
//Storyboard Layer 3 (Foreground)
//Storyboard Sound Samples

[TimingPoints]
719.958456973294,178.041543026706,4,1,0,100,1,0

[HitObjects]
32,288,0,5,0,0:0:0:0:
256,192,4095,1,0,0:0:0:0:
160,128,4553,1,0,0:0:0:0:
128,192,4979,1,0,0:0:0:0:
224,256,5354,1,0,0:0:0:0:
352,256,5753,1,0,0:0:0:0:
256,192,12080,5,0,0:0:0:0:
256,224,12540,1,0,0:0:0:0:
192,256,12992,1,0,0:0:0:0:
128,192,13550,1,0,0:0:0:0:
224,128,13818,1,0,0:0:0:0:
416,192,15600,1,0,0:0:0:0:
384,160,16059,1,0,0:0:0:0:
320,160,16718,1,0,0:0:0:0:
256,160,17209,1,0,0:0:0:0:
192,192,17702,1,0,0:0:0:0:
320,256,18845,1,0,0:0:0:0:
192,160,20120,1,0,0:0:0:0:
128,128,20713,1,0,0:0:0:0:
192,128,21220,1,0,0:0:0:0:
224,128,21605,1,0,0:0:0:0:
256,128,21813,1,0,0:0:0:0:
320,128,22457,1,0,0:0:0:0:
384,160,23017,1,0,0:0:0:0:
384,224,23524,1,0,0:0:0:0:
352,256,23833,1,0,0:0:0:0:
352,288,24008,1,0,0:0:0:0:
288,288,24618,1,0,0:0:0:0:
224,256,25168,1,0,0:0:0:0:
192,224,25615,1,0,0:0:0:0:
160,192,25900,1,0,0:0:0:0:
192,128,26544,1,0,0:0:0:0:
256,128,27010,1,0,0:0:0:0:
288,128,27360,1,0,0:0:0:0:
320,128,27678,1,0,0:0:0:0:
352,128,27937,1,0,0:0:0:0:
384,128,28204,1,0,0:0:0:0:
352,160,28597,1,0,0:0:0:0:
192,256,30240,1,0,0:0:0:0:
96,128,31688,1,0,0:0:0:0:
192,160,32548,1,0,0:0:0:0:
160,160,35817,1,0,0:0:0:0:
448,160,36431,1,0,0:0:0:0:
192,96,36931,1,0,0:0:0:0:
128,224,37339,1,0,0:0:0:0:
320,256,37773,1,0,0:0:0:0:
384,160,38107,1,0,0:0:0:0:
160,64,38723,1,0,0:0:0:0:
128,224,39189,1,0,0:0:0:0:
320,288,39625,1,0,0:0:0:0:
384,96,40049,1,0,0:0:0:0:
320,64,40375,1,0,0:0:0:0:
96,96,40967,1,0,0:0:0:0:
256,256,41410,1,0,0:0:0:0:
416,128,41888,1,0,0:0:0:0:
160,128,42207,1,0,0:0:0:0:
320,288,42731,1,0,0:0:0:0:
320,96,43214,1,0,0:0:0:0:
128,160,43698,1,0,0:0:0:0:
320,224,44150,1,0,0:0:0:0:
224,96,44646,1,0,0:0:0:0:
192,192,45147,1,0,0:0:0:0:
384,192,45570,1,0,0:0:0:0:
352,32,45989,1,0,0:0:0:0:
192,128,46221,1,0,0:0:0:0:
352,224,46765,1,0,0:0:0:0:
288,320,47215,1,0,0:0:0:0:
128,224,47681,1,0,0:0:0:0:
352,128,48084,1,0,0:0:0:0:
288,224,48391,1,0,0:0:0:0:
160,192,48808,1,0,0:0:0:0:
352,96,49408,1,0,0:0:0:0:
352,224,49845,1,0,0:0:0:0:
160,192,50188,1,0,0:0:0:0:
256,128,50421,1,0,0:0:0:0:
384,128,50939,1,0,0:0:0:0:
288,288,51417,1,0,0:0:0:0:
224,192,51888,1,0,0:0:0:0:
448,128,52298,1,0,0:0:0:0:
416,224,52742,1,0,0:0:0:0:
224,192,53206,1,0,0:0:0:0:
416,128,53723,1,0,0:0:0:0:
416,192,54277,1,0,0:0:0:0:
288,224,54812,1,0,0:0:0:0:
288,288,55257,1,0,0:0:0:0:
416,288,55643,1,0,0:0:0:0:
416,256,55954,1,0,0:0:0:0:
352,192,56397,1,0,0:0:0:0:
192,160,57082,1,0,0:0:0:0:
128,256,57573,1,0,0:0:0:0:
256,288,58008,1,0,0:0:0:0:
352,192,58391,1,0,0:0:0:0:
288,96,58951,1,0,0:0:0:0:
192,128,59469,1,0,0:0:0:0:
224,256,59895,1,0,0:0:0:0:
352,224,60281,1,0,0:0:0:0:
352,160,60590,1,0,0:0:0:0:
416,128,61034,1,0,0:0:0:0:
256,192,63897,12,0,76558,0:0:0:0:
224,192,85223,5,0,0:0:0:0:
128,160,85609,1,0,0:0:0:0:
64,224,86084,1,0,0:0:0:0:
320,320,86508,1,0,0:0:0:0:
416,192,86927,1,0,0:0:0:0:
256,128,87435,1,0,0:0:0:0:
192,128,87993,1,0,0:0:0:0:
256,224,88401,1,0,0:0:0:0:
448,160,88852,1,0,0:0:0:0:
192,96,89287,1,0,0:0:0:0:
224,288,89748,1,0,0:0:0:0:
448,224,90347,1,0,0:0:0:0:
288,96,90812,1,0,0:0:0:0:
96,160,91313,1,0,0:0:0:0:
320,224,91764,1,0,0:0:0:0:
256,128,92257,1,0,0:0:0:0:
64,224,92766,1,0,0:0:0:0:
480,256,93168,1,0,0:0:0:0:
352,160,93529,1,0,0:0:0:0:
256,192,94207,1,0,0:0:0:0:
256,192,102428,5,0,0:0:0:0:
160,192,102961,1,0,0:0:0:0:
192,288,103411,1,0,0:0:0:0:
288,288,103910,1,0,0:0:0:0:
256,192,104378,1,0,0:0:0:0:
160,192,104794,1,0,0:0:0:0:
256,288,105143,1,0,0:0:0:0:
384,288,105688,1,0,0:0:0:0:
352,192,106195,1,0,0:0:0:0:
96,128,106644,1,0,0:0:0:0:
320,320,107078,1,0,0:0:0:0:
448,160,107454,1,0,0:0:0:0:
96,160,107937,1,0,0:0:0:0:
256,256,108471,1,0,0:0:0:0:
384,96,108888,1,0,0:0:0:0:
160,160,109198,1,0,0:0:0:0:
320,256,109675,1,0,0:0:0:0:
192,192,110397,1,0,0:0:0:0:
288,256,110737,1,0,0:0:0:0:
416,160,111119,1,0,0:0:0:0:
256,160,111581,1,0,0:0:0:0:
256,320,111991,1,0,0:0:0:0:
384,256,112497,1,0,0:0:0:0:
224,192,112908,1,0,0:0:0:0:
192,192,113339,1,0,0:0:0:0:
320,288,113741,1,0,0:0:0:0:
384,128,114271,1,0,0:0:0:0:
192,128,114713,1,0,0:0:0:0:
224,192,115008,1,0,0:0:0:0:
288,256,115177,1,0,0:0:0:0:
352,160,115754,1,0,0:0:0:0:
256,160,116162,1,0,0:0:0:0:
224,224,116548,1,0,0:0:0:0:
512,224,116872,1,0,0:0:0:0:
512,192,117049,1,0,0:0:0:0:
384,192,117297,1,0,0:0:0:0:
416,256,117858,1,0,0:0:0:0:
256,288,118332,1,0,0:0:0:0:
160,192,118804,1,0,0:0:0:0:
160,160,119129,1,0,0:0:0:0:
448,128,119366,1,0,0:0:0:0:
352,224,119898,1,0,0:0:0:0:
416,256,122567,1,0,0:0:0:0:
224,224,122941,1,0,0:0:0:0:
192,224,123208,1,0,0:0:0:0:
384,256,123936,1,0,0:0:0:0:
352,160,124378,1,0,0:0:0:0:
256,160,124856,1,0,0:0:0:0:
256,256,125254,1,0,0:0:0:0:
448,192,125638,1,0,0:0:0:0:
224,192,126089,1,0,0:0:0:0:
352,288,126631,1,0,0:0:0:0:
352,160,127157,1,0,0:0:0:0:
192,160,127741,1,0,0:0:0:0:
288,224,128165,1,0,0:0:0:0:
96,288,128558,1,0,0:0:0:0:
224,288,129050,1,0,0:0:0:0:
0,128,131560,2,0,B|256:352|448:128|448:160,2,490
96,288,140052,5,0,0:0:0:0:
288,288,140479,1,0,0:0:0:0:
416,256,140945,1,0,0:0:0:0:
256,96,141338,1,0,0:0:0:0:
32,320,146479,6,0,P|416:320|480:320,2,443.333333333333
480,224,151877,2,0,L|32:224,1,443.333333333333
