osu file format v14

[General]
AudioFilename: audio.mp3
AudioLeadIn: 0
PreviewTime: 53957
Countdown: 0
SampleSet: None
StackLeniency: 0.7
Mode: 1
LetterboxInBreaks: 0
WidescreenStoryboard: 0

[Editor]
DistanceSpacing: 1.2
BeatDivisor: 4
GridSize: 32
TimelineZoom: 1.399999

[Metadata]
Title:Until The End
TitleUnicode:Until The End
Artist:Aero Chord x Fractal (feat. QAILA)
ArtistUnicode:Aero Chord x Fractal (feat. QAILA)
Creator:Zismac
Version:End
Source:
Tags:Monstercat Love and Hate EP Experimental Trap EDM
BeatmapID:1128816
BeatmapSetID:532776

[Difficulty]
HPDrainRate:5
CircleSize:2
OverallDifficulty:6
ApproachRate:5
SliderMultiplier:1.3999999666214
SliderTickRate:1

[Events]
//Background and Video events
0,0,"bg.jpg",0,0
//Break Periods
//Storyboard Layer 0 (Background)
//Storyboard Layer 1 (Fail)
//Storyboard Layer 2 (Pass)
//Storyboard Layer 3 (Foreground)
//Storyboard Sound Samples

[TimingPoints]
6051,375,4,1,0,100,1,0
6051,-133.333333333333,4,1,0,50,0,0
16363,-129.032258064516,4,1,0,50,0,0
16551,-125,4,1,0,50,0,0
16738,-121.212121212121,4,1,0,50,0,0
16926,-117.647058823529,4,1,0,50,0,0
17113,-114.285714285714,4,1,0,50,0,0
17301,-111.111111111111,4,1,0,50,0,0
17488,-108.108108108108,4,1,0,50,0,0
17676,-105.263157894737,4,1,0,50,0,0
17863,-102.564102564103,4,1,0,50,0,0
18051,-100,4,1,0,70,0,0
28363,-102.564102564103,4,1,0,70,0,0
28550,-105.263157894737,4,1,0,70,0,0
28738,-108.108108108108,4,1,0,70,0,0
28925,-111.111111111111,4,1,0,70,0,0
29113,-114.285714285714,4,1,0,70,0,0
29300,-117.647058823529,4,1,0,70,0,0
29488,-120.481927710843,4,1,0,70,0,0
29675,-125,4,1,0,70,0,0
29863,-129.032258064516,4,1,0,70,0,0
30050,-133.333333333333,4,1,0,70,0,0
41863,-129.032258064516,4,1,0,70,0,0
42051,-125,4,1,0,70,0,0
47863,-121.212121212121,4,1,0,70,0,0
47957,-119.047619047619,4,1,0,70,0,0
48051,-117.647058823529,4,1,0,70,0,0
50863,-114.285714285714,4,1,0,70,0,0
51051,-111.111111111111,4,1,0,70,0,0
53488,-107.52688172043,4,1,0,70,0,0
53582,-106.382978723404,4,1,0,70,0,0
53676,-105.263157894737,4,1,0,70,0,0
53863,-102.564102564103,4,1,0,70,0,0
54051,-100,4,1,0,70,0,1
63051,-100,4,1,0,80,0,1
64551,-100,4,1,0,90,0,1
66051,-100,4,1,0,100,0,0
91551,-133.333333333333,4,1,0,70,0,0
101957,-133.333333333333,4,1,0,40,0,0
113301,-133.333333333333,4,1,0,70,0,0
114051,-125,4,1,0,70,0,0
126051,-117.647058823529,4,1,0,70,0,0
131863,-114.285714285714,4,1,0,70,0,0
132051,-111.111111111111,4,1,0,70,0,0
134863,-108.108108108108,4,1,0,70,0,0
135051,-105.263157894737,4,1,0,70,0,0
136363,-102.564102564103,4,1,0,70,0,0
136551,-100,4,1,0,70,0,0
137301,-105.263157894737,4,1,0,70,0,0
137394,-108.108108108108,4,1,0,70,0,0
137488,-111.111111111111,4,1,0,70,0,0
137582,-114.285714285714,4,1,0,70,0,0
137676,-117.647058823529,4,1,0,70,0,0
137863,-125,4,1,0,70,0,0
138051,-133.333333333333,4,1,0,70,0,0
139082,-133.333333333333,4,1,0,60,0,0
149863,-129.032258064516,4,1,0,60,0,0
150051,-125,4,1,0,70,0,0
155863,-121.212121212121,4,1,0,70,0,0
156051,-117.647058823529,4,1,0,70,0,0
158863,-114.285714285714,4,1,0,70,0,0
159051,-111.111111111111,4,1,0,70,0,0
160363,-108.108108108108,4,1,0,70,0,0
160457,-106.382978723404,4,1,0,70,0,0
160551,-105.263157894737,4,1,0,70,0,0
161863,-102.564102564103,4,1,0,70,0,0
162051,-100,4,1,0,70,0,1
174051,-100,4,1,0,70,0,0
222051,-133.333333333333,4,1,0,70,0,0
234051,-133.333333333333,4,1,0,70,0,0

[HitObjects]
256,192,6051,5,0,0:0:0:0:
256,192,6238,1,0,0:0:0:0:
256,192,6426,1,0,0:0:0:0:
256,192,6613,1,8,0:0:0:0:
256,192,6801,1,0,0:0:0:0:
256,192,6988,1,0,0:0:0:0:
256,192,7176,1,8,0:0:0:0:
256,192,7363,1,8,0:0:0:0:
256,192,7551,1,0,0:0:0:0:
256,192,7738,1,0,0:0:0:0:
256,192,7926,1,0,0:0:0:0:
256,192,8113,1,8,0:0:0:0:
256,192,8301,1,0,0:0:0:0:
256,192,8488,1,0,0:0:0:0:
256,192,8676,1,8,0:0:0:0:
256,192,8863,1,8,0:0:0:0:
256,192,9051,1,0,0:0:0:0:
256,192,9238,1,0,0:0:0:0:
256,192,9426,1,0,0:0:0:0:
256,192,9613,1,8,0:0:0:0:
256,192,9801,1,0,0:0:0:0:
256,192,9988,1,0,0:0:0:0:
256,192,10176,1,8,0:0:0:0:
256,192,10363,1,8,0:0:0:0:
256,192,10551,1,0,0:0:0:0:
256,192,10738,1,0,0:0:0:0:
256,192,10926,1,0,0:0:0:0:
256,192,11113,1,8,0:0:0:0:
256,192,11301,1,0,0:0:0:0:
256,192,11488,1,0,0:0:0:0:
256,192,11676,1,0,0:0:0:0:
256,192,11863,1,8,0:0:0:0:
256,192,12051,1,0,0:0:0:0:
256,192,12238,1,0,0:0:0:0:
256,192,12426,1,0,0:0:0:0:
256,192,12613,1,8,0:0:0:0:
256,192,12801,1,0,0:0:0:0:
256,192,12988,1,0,0:0:0:0:
256,192,13176,1,8,0:0:0:0:
256,192,13363,1,8,0:0:0:0:
256,192,13551,1,0,0:0:0:0:
256,192,13738,1,0,0:0:0:0:
256,192,13926,1,0,0:0:0:0:
256,192,14113,1,8,0:0:0:0:
256,192,14301,1,0,0:0:0:0:
256,192,14488,1,0,0:0:0:0:
256,192,14676,1,8,0:0:0:0:
256,192,14863,1,8,0:0:0:0:
256,192,15051,1,0,0:0:0:0:
256,192,15238,1,0,0:0:0:0:
256,192,15426,1,0,0:0:0:0:
256,192,15613,1,8,0:0:0:0:
256,192,15801,1,0,0:0:0:0:
256,192,15988,1,0,0:0:0:0:
256,192,16176,1,8,0:0:0:0:
256,192,16363,1,8,0:0:0:0:
256,192,16551,1,0,0:0:0:0:
256,192,16738,1,0,0:0:0:0:
256,192,16926,1,0,0:0:0:0:
256,192,17113,1,8,0:0:0:0:
256,192,17301,1,0,0:0:0:0:
256,192,17488,1,0,0:0:0:0:
256,192,17676,1,0,0:0:0:0:
256,192,17863,1,8,0:0:0:0:
256,192,18051,1,4,0:0:0:0:
256,192,18426,1,8,0:0:0:0:
256,192,18801,1,0,0:0:0:0:
256,192,19176,1,0,0:0:0:0:
256,192,19551,1,8,0:0:0:0:
256,192,19926,1,0,0:0:0:0:
256,192,20113,1,8,0:0:0:0:
256,192,20488,1,8,0:0:0:0:
256,192,20675,1,0,0:0:0:0:
256,192,20863,1,0,0:0:0:0:
256,192,21051,1,8,0:0:0:0:
256,192,21425,1,0,0:0:0:0:
256,192,21801,1,0,0:0:0:0:
256,192,22176,1,0,0:0:0:0:
256,192,22551,1,8,0:0:0:0:
256,192,22926,1,8,0:0:0:0:
256,192,23301,1,8,0:0:0:0:
256,192,23582,1,8,0:0:0:0:
256,192,23863,1,8,0:0:0:0:
256,192,24051,1,0,0:0:0:0:
256,192,24426,1,0,0:0:0:0:
256,192,24801,1,0,0:0:0:0:
256,192,25082,1,0,0:0:0:0:
256,192,25363,1,0,0:0:0:0:
256,192,25551,1,8,0:0:0:0:
256,192,25926,1,8,0:0:0:0:
256,192,26301,1,8,0:0:0:0:
256,192,26582,1,0,0:0:0:0:
256,192,26863,1,8,0:0:0:0:
256,192,27051,1,0,0:0:0:0:
256,192,27426,1,0,0:0:0:0:
256,192,27801,1,0,0:0:0:0:
256,192,28082,1,0,0:0:0:0:
256,192,28363,1,8,0:0:0:0:
256,192,28551,1,0,0:0:0:0:
256,192,28926,1,0,0:0:0:0:
256,192,29301,1,8,0:0:0:0:
256,192,29488,1,0,0:0:0:0:
256,192,29676,1,8,0:0:0:0:
256,192,29863,1,8,0:0:0:0:
256,192,30051,1,4,0:0:0:0:
256,192,30613,1,0,0:0:0:0:
256,192,30988,1,0,0:0:0:0:
256,192,31176,1,0,0:0:0:0:
256,192,31738,1,0,0:0:0:0:
256,192,32113,1,0,0:0:0:0:
256,192,32301,1,0,0:0:0:0:
256,192,32676,1,0,0:0:0:0:
256,192,33051,1,0,0:0:0:0:
256,192,33613,1,0,0:0:0:0:
256,192,33988,1,0,0:0:0:0:
256,192,34176,1,0,0:0:0:0:
256,192,34738,1,0,0:0:0:0:
256,192,35113,1,0,0:0:0:0:
256,192,35301,1,0,0:0:0:0:
256,192,35676,1,0,0:0:0:0:
256,192,35863,1,0,0:0:0:0:
256,192,36051,1,0,0:0:0:0:
256,192,36613,1,0,0:0:0:0:
256,192,36988,1,0,0:0:0:0:
256,192,37176,1,0,0:0:0:0:
256,192,37738,1,0,0:0:0:0:
256,192,38113,1,0,0:0:0:0:
256,192,38301,1,0,0:0:0:0:
256,192,38676,1,0,0:0:0:0:
256,192,39051,1,0,0:0:0:0:
256,192,39613,1,0,0:0:0:0:
256,192,39988,1,0,0:0:0:0:
256,192,40176,1,0,0:0:0:0:
256,192,40738,1,0,0:0:0:0:
256,192,41113,1,0,0:0:0:0:
256,192,41301,1,0,0:0:0:0:
256,192,41676,1,0,0:0:0:0:
256,192,41863,1,0,0:0:0:0:
256,192,42051,1,4,0:0:0:0:
256,192,42332,1,8,0:0:0:0:
256,192,42426,1,0,0:0:0:0:
256,192,42613,1,8,0:0:0:0:
256,192,42801,1,0,0:0:0:0:
256,192,43082,1,8,0:0:0:0:
256,192,43176,1,0,0:0:0:0:
256,192,43363,1,8,0:0:0:0:
256,192,43551,1,0,0:0:0:0:
256,192,43832,1,8,0:0:0:0:
256,192,43926,1,0,0:0:0:0:
256,192,44113,1,8,0:0:0:0:
256,192,44301,1,0,0:0:0:0:
256,192,44488,1,8,0:0:0:0:
256,192,44582,1,8,0:0:0:0:
256,192,44676,1,0,0:0:0:0:
256,192,44863,1,8,0:0:0:0:
256,192,44957,1,8,0:0:0:0:
256,192,45051,1,0,0:0:0:0:
256,192,45332,1,8,0:0:0:0:
256,192,45426,1,0,0:0:0:0:
256,192,45613,1,8,0:0:0:0:
256,192,45801,1,0,0:0:0:0:
256,192,46082,1,8,0:0:0:0:
256,192,46176,1,0,0:0:0:0:
256,192,46363,1,8,0:0:0:0:
256,192,46551,1,0,0:0:0:0:
256,192,46832,1,8,0:0:0:0:
256,192,46926,1,0,0:0:0:0:
256,192,47113,1,8,0:0:0:0:
256,192,47301,1,0,0:0:0:0:
256,192,47582,1,8,0:0:0:0:
256,192,47676,1,0,0:0:0:0:
256,192,47863,1,8,0:0:0:0:
256,192,47957,1,8,0:0:0:0:
256,192,48051,1,0,0:0:0:0:
256,192,48332,1,0,0:0:0:0:
256,192,48613,1,0,0:0:0:0:
256,192,48894,1,0,0:0:0:0:
256,192,49176,1,8,0:0:0:0:
256,192,49363,1,0,0:0:0:0:
256,192,49551,1,0,0:0:0:0:
256,192,49832,1,0,0:0:0:0:
256,192,50113,1,0,0:0:0:0:
256,192,50394,1,0,0:0:0:0:
256,192,50676,1,8,0:0:0:0:
256,192,50863,1,0,0:0:0:0:
256,192,51051,1,0,0:0:0:0:
256,192,51238,1,0,0:0:0:0:
256,192,51426,1,8,0:0:0:0:
256,192,51613,1,0,0:0:0:0:
256,192,51801,1,0,0:0:0:0:
256,192,51988,1,0,0:0:0:0:
256,192,52176,1,8,0:0:0:0:
256,192,52363,1,0,0:0:0:0:
256,192,52457,1,0,0:0:0:0:
256,192,52551,1,0,0:0:0:0:
256,192,52832,1,0,0:0:0:0:
256,192,53113,1,8,0:0:0:0:
256,192,53301,1,0,0:0:0:0:
256,192,53488,1,8,0:0:0:0:
256,192,53582,1,8,0:0:0:0:
256,192,53676,1,0,0:0:0:0:
256,192,53863,1,8,0:0:0:0:
256,192,54051,1,12,0:0:0:0:
256,192,54238,1,8,0:0:0:0:
256,192,54332,1,8,0:0:0:0:
256,192,54426,1,0,0:0:0:0:
256,192,54613,1,8,0:0:0:0:
256,192,54707,1,8,0:0:0:0:
256,192,54801,1,0,0:0:0:0:
256,192,54988,1,8,0:0:0:0:
256,192,55082,1,0,0:0:0:0:
256,192,55269,1,8,0:0:0:0:
256,192,55363,1,0,0:0:0:0:
256,192,55551,1,0,0:0:0:0:
256,192,55738,1,8,0:0:0:0:
256,192,55832,1,8,0:0:0:0:
256,192,55926,1,0,0:0:0:0:
256,192,56113,1,8,0:0:0:0:
256,192,56207,1,8,0:0:0:0:
256,192,56301,1,0,0:0:0:0:
256,192,56488,1,8,0:0:0:0:
256,192,56582,1,0,0:0:0:0:
256,192,56769,1,8,0:0:0:0:
256,192,56863,1,0,0:0:0:0:
256,192,57051,1,0,0:0:0:0:
256,192,57238,1,8,0:0:0:0:
256,192,57332,1,8,0:0:0:0:
256,192,57426,1,0,0:0:0:0:
256,192,57613,1,8,0:0:0:0:
256,192,57707,1,8,0:0:0:0:
256,192,57801,1,0,0:0:0:0:
256,192,57988,1,8,0:0:0:0:
256,192,58082,1,0,0:0:0:0:
256,192,58269,1,8,0:0:0:0:
256,192,58363,1,0,0:0:0:0:
256,192,58551,1,0,0:0:0:0:
256,192,58738,1,8,0:0:0:0:
256,192,58832,1,8,0:0:0:0:
256,192,58926,1,0,0:0:0:0:
256,192,59019,1,0,0:0:0:0:
256,192,59113,1,8,0:0:0:0:
256,192,59207,1,8,0:0:0:0:
256,192,59301,1,0,0:0:0:0:
256,192,59488,1,8,0:0:0:0:
256,192,59582,1,0,0:0:0:0:
256,192,59769,1,8,0:0:0:0:
256,192,59863,1,0,0:0:0:0:
256,192,60051,1,12,0:0:0:0:
256,192,60238,1,8,0:0:0:0:
256,192,60332,1,8,0:0:0:0:
256,192,60426,1,0,0:0:0:0:
256,192,60613,1,8,0:0:0:0:
256,192,60707,1,8,0:0:0:0:
256,192,60801,1,0,0:0:0:0:
256,192,60988,1,8,0:0:0:0:
256,192,61082,1,0,0:0:0:0:
256,192,61269,1,8,0:0:0:0:
256,192,61363,1,0,0:0:0:0:
256,192,61551,1,0,0:0:0:0:
256,192,61738,1,8,0:0:0:0:
256,192,61832,1,8,0:0:0:0:
256,192,61926,1,0,0:0:0:0:
256,192,62113,1,8,0:0:0:0:
256,192,62207,1,8,0:0:0:0:
256,192,62301,1,0,0:0:0:0:
256,192,62488,1,8,0:0:0:0:
256,192,62582,1,0,0:0:0:0:
256,192,62769,1,8,0:0:0:0:
256,192,62863,1,0,0:0:0:0:
256,192,63051,1,0,0:0:0:0:
256,192,63238,1,8,0:0:0:0:
256,192,63332,1,8,0:0:0:0:
256,192,63426,1,0,0:0:0:0:
256,192,63613,1,8,0:0:0:0:
256,192,63707,1,8,0:0:0:0:
256,192,63801,1,0,0:0:0:0:
256,192,63894,1,0,0:0:0:0:
256,192,63988,1,8,0:0:0:0:
256,192,64082,1,0,0:0:0:0:
256,192,64269,1,8,0:0:0:0:
256,192,64363,1,0,0:0:0:0:
256,192,64551,1,0,0:0:0:0:
256,192,64738,1,8,0:0:0:0:
256,192,64832,1,8,0:0:0:0:
256,192,64926,1,0,0:0:0:0:
256,192,65019,1,0,0:0:0:0:
256,192,65113,1,8,0:0:0:0:
256,192,65207,1,8,0:0:0:0:
256,192,65301,1,0,0:0:0:0:
256,192,65488,1,8,0:0:0:0:
256,192,65582,1,0,0:0:0:0:
256,192,65769,1,8,0:0:0:0:
256,192,65863,1,0,0:0:0:0:
256,192,66051,1,4,0:0:0:0:
256,192,66801,1,8,0:0:0:0:
256,192,67176,1,0,0:0:0:0:
256,192,67738,1,0,0:0:0:0:
256,192,67926,1,0,0:0:0:0:
256,192,68301,1,8,0:0:0:0:
256,192,69051,1,0,0:0:0:0:
256,192,69801,1,8,0:0:0:0:
256,192,70176,1,0,0:0:0:0:
256,192,70551,1,8,0:0:0:0:
256,192,70738,1,0,0:0:0:0:
256,192,70926,1,8,0:0:0:0:
256,192,71113,1,0,0:0:0:0:
256,192,71301,1,8,0:0:0:0:
256,192,72051,1,4,0:0:0:0:
256,192,72801,1,8,0:0:0:0:
256,192,73176,1,0,0:0:0:0:
256,192,73738,1,0,0:0:0:0:
256,192,73926,1,0,0:0:0:0:
256,192,74301,1,8,0:0:0:0:
256,192,75051,1,0,0:0:0:0:
256,192,75801,1,8,0:0:0:0:
256,192,76176,1,0,0:0:0:0:
256,192,77301,1,8,0:0:0:0:
256,192,78051,1,4,0:0:0:0:
256,192,78801,1,8,0:0:0:0:
256,192,79176,1,0,0:0:0:0:
256,192,80301,1,8,0:0:0:0:
256,192,81051,1,0,0:0:0:0:
256,192,81801,1,8,0:0:0:0:
256,192,82176,1,0,0:0:0:0:
256,192,84051,1,0,0:0:0:0:
256,192,84238,1,8,0:0:0:0:
256,192,84426,1,8,0:0:0:0:
256,192,84613,1,8,0:0:0:0:
256,192,84801,1,8,0:0:0:0:
256,192,85176,1,0,0:0:0:0:
256,192,85738,1,8,0:0:0:0:
256,192,85926,1,8,0:0:0:0:
256,192,86113,1,8,0:0:0:0:
256,192,86301,1,8,0:0:0:0:
256,192,86676,1,8,0:0:0:0:
256,192,87051,1,0,0:0:0:0:
256,192,87426,1,8,0:0:0:0:
256,192,87801,1,8,0:0:0:0:
256,192,88176,1,0,0:0:0:0:
256,192,88551,1,8,0:0:0:0:
256,192,88926,1,8,0:0:0:0:
256,192,89301,1,8,0:0:0:0:
256,192,89676,1,12,0:0:0:0:
256,192,91551,1,8,0:0:0:0:
256,192,92113,1,8,0:0:0:0:
256,192,92863,1,8,0:0:0:0:
256,192,94926,1,8,0:0:0:0:
256,192,97551,1,8,0:0:0:0:
256,192,98113,1,8,0:0:0:0:
256,192,98676,1,8,0:0:0:0:
256,192,99051,1,8,0:0:0:0:
256,192,102051,1,0,0:0:0:0:
256,192,103176,1,0,0:0:0:0:
256,192,104301,1,0,0:0:0:0:
256,192,105051,1,0,0:0:0:0:
256,192,106176,1,0,0:0:0:0:
256,192,107301,1,0,0:0:0:0:
256,192,108051,1,0,0:0:0:0:
256,192,109176,1,0,0:0:0:0:
256,192,110301,1,0,0:0:0:0:
256,192,111051,1,0,0:0:0:0:
256,192,112551,1,0,0:0:0:0:
256,192,113301,1,8,0:0:0:0:
256,192,113488,1,0,0:0:0:0:
256,192,113582,1,0,0:0:0:0:
256,192,113676,1,8,0:0:0:0:
256,192,113863,1,8,0:0:0:0:
256,192,114051,1,0,0:0:0:0:
256,192,114426,1,8,0:0:0:0:
256,192,114801,1,8,0:0:0:0:
256,192,115176,1,0,0:0:0:0:
256,192,115551,1,8,0:0:0:0:
256,192,116113,1,0,0:0:0:0:
256,192,116676,1,8,0:0:0:0:
256,192,117426,1,8,0:0:0:0:
256,192,117801,1,8,0:0:0:0:
256,192,118176,1,0,0:0:0:0:
256,192,118551,1,8,0:0:0:0:
256,192,119113,1,8,0:0:0:0:
256,192,120238,1,0,0:0:0:0:
256,192,120426,1,8,0:0:0:0:
256,192,120613,1,8,0:0:0:0:
256,192,120801,1,0,0:0:0:0:
256,192,121176,1,0,0:0:0:0:
256,192,121551,1,0,0:0:0:0:
256,192,122113,1,8,0:0:0:0:
256,192,122676,1,0,0:0:0:0:
256,192,123426,1,0,0:0:0:0:
256,192,123613,1,8,0:0:0:0:
256,192,123801,1,0,0:0:0:0:
256,192,123988,1,0,0:0:0:0:
256,192,124176,1,8,0:0:0:0:
256,192,124363,1,0,0:0:0:0:
256,192,124738,1,8,0:0:0:0:
256,192,126051,1,8,0:0:0:0:
256,192,126238,1,0,0:0:0:0:
256,192,126426,1,8,0:0:0:0:
256,192,126613,1,0,0:0:0:0:
256,192,126801,1,8,0:0:0:0:
256,192,127082,1,0,0:0:0:0:
256,192,127176,1,8,0:0:0:0:
256,192,127363,1,0,0:0:0:0:
256,192,127551,1,8,0:0:0:0:
256,192,127832,1,0,0:0:0:0:
256,192,127926,1,8,0:0:0:0:
256,192,128113,1,0,0:0:0:0:
256,192,128301,1,8,0:0:0:0:
256,192,128582,1,0,0:0:0:0:
256,192,128676,1,8,0:0:0:0:
256,192,128863,1,0,0:0:0:0:
256,192,129051,1,8,0:0:0:0:
256,192,129332,1,0,0:0:0:0:
256,192,129426,1,8,0:0:0:0:
256,192,129613,1,0,0:0:0:0:
256,192,129801,1,8,0:0:0:0:
256,192,130082,1,0,0:0:0:0:
256,192,130176,1,8,0:0:0:0:
256,192,130363,1,0,0:0:0:0:
256,192,130551,1,8,0:0:0:0:
256,192,130832,1,0,0:0:0:0:
256,192,130926,1,8,0:0:0:0:
256,192,131113,1,0,0:0:0:0:
256,192,131301,1,8,0:0:0:0:
256,192,131582,1,0,0:0:0:0:
256,192,131676,1,8,0:0:0:0:
256,192,131863,1,0,0:0:0:0:
256,192,132051,1,8,0:0:0:0:
256,192,132332,1,0,0:0:0:0:
256,192,132426,1,8,0:0:0:0:
256,192,132613,1,0,0:0:0:0:
256,192,132801,1,8,0:0:0:0:
256,192,133082,1,0,0:0:0:0:
256,192,133176,1,8,0:0:0:0:
256,192,133363,1,0,0:0:0:0:
256,192,133551,1,8,0:0:0:0:
256,192,133832,1,0,0:0:0:0:
256,192,133926,1,8,0:0:0:0:
256,192,134113,1,0,0:0:0:0:
256,192,134301,1,8,0:0:0:0:
256,192,134582,1,0,0:0:0:0:
256,192,134676,1,8,0:0:0:0:
256,192,134863,1,0,0:0:0:0:
256,192,135051,1,8,0:0:0:0:
256,192,135238,1,0,0:0:0:0:
256,192,135426,1,8,0:0:0:0:
256,192,135613,1,0,0:0:0:0:
256,192,135801,1,8,0:0:0:0:
256,192,135988,1,0,0:0:0:0:
256,192,136176,1,8,0:0:0:0:
256,192,136363,1,0,0:0:0:0:
256,192,136551,1,8,0:0:0:0:
256,192,136644,1,8,0:0:0:0:
256,192,136738,1,0,0:0:0:0:
256,192,136832,1,0,0:0:0:0:
256,192,136926,1,8,0:0:0:0:
256,192,137019,1,8,0:0:0:0:
256,192,137113,1,0,0:0:0:0:
256,192,137301,1,8,0:0:0:0:
256,192,137395,1,0,0:0:0:0:
256,192,137488,1,8,0:0:0:0:
256,192,137582,1,0,0:0:0:0:
256,192,137676,1,8,0:0:0:0:
256,192,137863,1,8,0:0:0:0:
256,192,138051,1,4,0:0:0:0:
256,192,139176,1,0,0:0:0:0:
256,192,140301,1,0,0:0:0:0:
256,192,140863,1,0,0:0:0:0:
256,192,141051,1,0,0:0:0:0:
256,192,142176,1,0,0:0:0:0:
256,192,143301,1,0,0:0:0:0:
256,192,143488,1,0,0:0:0:0:
256,192,143676,1,0,0:0:0:0:
256,192,143863,1,0,0:0:0:0:
256,192,144051,1,0,0:0:0:0:
256,192,145176,1,0,0:0:0:0:
256,192,146301,1,0,0:0:0:0:
256,192,146863,1,0,0:0:0:0:
256,192,147051,1,0,0:0:0:0:
256,192,148176,1,0,0:0:0:0:
256,192,148363,1,0,0:0:0:0:
256,192,148551,1,0,0:0:0:0:
256,192,149676,1,8,0:0:0:0:
256,192,149863,1,8,0:0:0:0:
256,192,150051,1,4,0:0:0:0:
256,192,150238,1,8,0:0:0:0:
256,192,150426,1,0,0:0:0:0:
256,192,150613,1,8,0:0:0:0:
256,192,150801,1,0,0:0:0:0:
256,192,151082,1,0,0:0:0:0:
256,192,151176,1,8,0:0:0:0:
256,192,151363,1,0,0:0:0:0:
256,192,151551,1,8,0:0:0:0:
256,192,151926,1,0,0:0:0:0:
256,192,152301,1,8,0:0:0:0:
256,192,152582,1,0,0:0:0:0:
256,192,152676,1,8,0:0:0:0:
256,192,152863,1,0,0:0:0:0:
256,192,153051,1,8,0:0:0:0:
256,192,153426,1,0,0:0:0:0:
256,192,153801,1,8,0:0:0:0:
256,192,154082,1,0,0:0:0:0:
256,192,154176,1,8,0:0:0:0:
256,192,154363,1,0,0:0:0:0:
256,192,154551,1,8,0:0:0:0:
256,192,154926,1,0,0:0:0:0:
256,192,155301,1,8,0:0:0:0:
256,192,155582,1,0,0:0:0:0:
256,192,155676,1,8,0:0:0:0:
256,192,155863,1,0,0:0:0:0:
256,192,156051,1,8,0:0:0:0:
256,192,156332,1,0,0:0:0:0:
256,192,156426,1,8,0:0:0:0:
256,192,156613,1,0,0:0:0:0:
256,192,156801,1,8,0:0:0:0:
256,192,156894,1,0,0:0:0:0:
256,192,157176,1,8,0:0:0:0:
256,192,157363,1,0,0:0:0:0:
256,192,157551,1,8,0:0:0:0:
256,192,157832,1,0,0:0:0:0:
256,192,157926,1,8,0:0:0:0:
256,192,158113,1,0,0:0:0:0:
256,192,158301,1,8,0:0:0:0:
256,192,158394,1,0,0:0:0:0:
256,192,158676,1,8,0:0:0:0:
256,192,158863,1,0,0:0:0:0:
256,192,159051,1,0,0:0:0:0:
256,192,159238,1,0,0:0:0:0:
256,192,159426,1,8,0:0:0:0:
256,192,159613,1,0,0:0:0:0:
256,192,159801,1,0,0:0:0:0:
256,192,159988,1,0,0:0:0:0:
256,192,160176,1,8,0:0:0:0:
256,192,160363,1,0,0:0:0:0:
256,192,160457,1,0,0:0:0:0:
256,192,160551,1,0,0:0:0:0:
256,192,160644,1,8,0:0:0:0:
256,192,160738,1,8,0:0:0:0:
256,192,160832,1,8,0:0:0:0:
256,192,160926,1,0,0:0:0:0:
256,192,161019,1,8,0:0:0:0:
256,192,161113,1,8,0:0:0:0:
256,192,161207,1,8,0:0:0:0:
256,192,161301,1,0,0:0:0:0:
256,192,161394,1,0,0:0:0:0:
256,192,161488,1,8,0:0:0:0:
256,192,161582,1,8,0:0:0:0:
256,192,161676,1,0,0:0:0:0:
256,192,161863,1,8,0:0:0:0:
256,192,162051,1,4,0:0:0:0:
256,192,162238,1,8,0:0:0:0:
256,192,162332,1,8,0:0:0:0:
256,192,162426,1,0,0:0:0:0:
256,192,162613,1,8,0:0:0:0:
256,192,162707,1,8,0:0:0:0:
256,192,162801,1,0,0:0:0:0:
256,192,162988,1,8,0:0:0:0:
256,192,163082,1,8,0:0:0:0:
256,192,163176,1,0,0:0:0:0:
256,192,163363,1,8,0:0:0:0:
256,192,163457,1,8,0:0:0:0:
256,192,163551,1,0,0:0:0:0:
256,192,163738,1,8,0:0:0:0:
256,192,163832,1,8,0:0:0:0:
256,192,163926,1,0,0:0:0:0:
256,192,164113,1,8,0:0:0:0:
256,192,164207,1,8,0:0:0:0:
256,192,164301,1,0,0:0:0:0:
256,192,164488,1,8,0:0:0:0:
256,192,164582,1,0,0:0:0:0:
256,192,164769,1,8,0:0:0:0:
256,192,164863,1,0,0:0:0:0:
256,192,165051,1,0,0:0:0:0:
256,192,165238,1,8,0:0:0:0:
256,192,165332,1,8,0:0:0:0:
256,192,165426,1,0,0:0:0:0:
256,192,165613,1,8,0:0:0:0:
256,192,165707,1,8,0:0:0:0:
256,192,165801,1,0,0:0:0:0:
256,192,165988,1,8,0:0:0:0:
256,192,166082,1,8,0:0:0:0:
256,192,166176,1,0,0:0:0:0:
256,192,166269,1,8,0:0:0:0:
256,192,166363,1,8,0:0:0:0:
256,192,166457,1,8,0:0:0:0:
256,192,166551,1,0,0:0:0:0:
256,192,166644,1,0,0:0:0:0:
256,192,166738,1,8,0:0:0:0:
256,192,166832,1,8,0:0:0:0:
256,192,166926,1,0,0:0:0:0:
256,192,167019,1,0,0:0:0:0:
256,192,167113,1,8,0:0:0:0:
256,192,167207,1,8,0:0:0:0:
256,192,167301,1,0,0:0:0:0:
256,192,167488,1,8,0:0:0:0:
256,192,167582,1,0,0:0:0:0:
256,192,167676,1,8,0:0:0:0:
256,192,167769,1,8,0:0:0:0:
256,192,167863,1,0,0:0:0:0:
256,192,168051,1,12,0:0:0:0:
256,192,168238,1,8,0:0:0:0:
256,192,168332,1,0,0:0:0:0:
256,192,168426,1,0,0:0:0:0:
256,192,168519,1,8,0:0:0:0:
256,192,168613,1,0,0:0:0:0:
256,192,168801,1,8,0:0:0:0:
256,192,168988,1,0,0:0:0:0:
256,192,169082,1,8,0:0:0:0:
256,192,169176,1,0,0:0:0:0:
256,192,169363,1,8,0:0:0:0:
256,192,169551,1,0,0:0:0:0:
256,192,169738,1,8,0:0:0:0:
256,192,169832,1,0,0:0:0:0:
256,192,169926,1,0,0:0:0:0:
256,192,170019,1,8,0:0:0:0:
256,192,170113,1,0,0:0:0:0:
256,192,170301,1,8,0:0:0:0:
256,192,170488,1,0,0:0:0:0:
256,192,170582,1,8,0:0:0:0:
256,192,170676,1,0,0:0:0:0:
256,192,170863,1,8,0:0:0:0:
256,192,171051,1,0,0:0:0:0:
256,192,171238,1,8,0:0:0:0:
256,192,171332,1,8,0:0:0:0:
256,192,171426,1,0,0:0:0:0:
256,192,171613,1,8,0:0:0:0:
256,192,171707,1,8,0:0:0:0:
256,192,171801,1,8,0:0:0:0:
256,192,171988,1,8,0:0:0:0:
256,192,172082,1,0,0:0:0:0:
256,192,172176,1,0,0:0:0:0:
256,192,172363,1,8,0:0:0:0:
256,192,172551,1,0,0:0:0:0:
256,192,172644,1,8,0:0:0:0:
256,192,172738,1,8,0:0:0:0:
256,192,172926,1,0,0:0:0:0:
256,192,173019,1,8,0:0:0:0:
256,192,173113,1,8,0:0:0:0:
256,192,173301,1,0,0:0:0:0:
256,192,173488,1,8,0:0:0:0:
256,192,173582,1,0,0:0:0:0:
256,192,173769,1,8,0:0:0:0:
256,192,173863,1,8,0:0:0:0:
256,192,173957,1,8,0:0:0:0:
256,192,174051,1,0,0:0:0:0:
256,192,174801,1,8,0:0:0:0:
256,192,175176,1,0,0:0:0:0:
256,192,175738,1,0,0:0:0:0:
256,192,175926,1,0,0:0:0:0:
256,192,176301,1,8,0:0:0:0:
256,192,177051,1,0,0:0:0:0:
256,192,177801,1,8,0:0:0:0:
256,192,178176,1,0,0:0:0:0:
256,192,178551,1,8,0:0:0:0:
256,192,178738,1,0,0:0:0:0:
256,192,178926,1,8,0:0:0:0:
256,192,179113,1,0,0:0:0:0:
256,192,179301,1,8,0:0:0:0:
256,192,180051,1,0,0:0:0:0:
256,192,180426,1,0,0:0:0:0:
256,192,180801,1,8,0:0:0:0:
256,192,181082,1,0,0:0:0:0:
256,192,181363,1,0,0:0:0:0:
256,192,181551,1,0,0:0:0:0:
256,192,181926,1,0,0:0:0:0:
256,192,182301,1,8,0:0:0:0:
256,192,182582,1,0,0:0:0:0:
256,192,182863,1,0,0:0:0:0:
256,192,183051,1,0,0:0:0:0:
256,192,183426,1,0,0:0:0:0:
256,192,183801,1,8,0:0:0:0:
256,192,184082,1,0,0:0:0:0:
256,192,184363,1,0,0:0:0:0:
256,192,184551,1,0,0:0:0:0:
256,192,184926,1,0,0:0:0:0:
256,192,186051,1,4,0:0:0:0:
256,192,186801,1,8,0:0:0:0:
256,192,187176,1,0,0:0:0:0:
256,192,187738,1,0,0:0:0:0:
256,192,187926,1,0,0:0:0:0:
256,192,188301,1,8,0:0:0:0:
256,192,189051,1,0,0:0:0:0:
256,192,189801,1,8,0:0:0:0:
256,192,190176,1,0,0:0:0:0:
256,192,190551,1,8,0:0:0:0:
256,192,190738,1,0,0:0:0:0:
256,192,190926,1,8,0:0:0:0:
256,192,191113,1,0,0:0:0:0:
256,192,191301,1,8,0:0:0:0:
256,192,192051,1,0,0:0:0:0:
256,192,192801,1,8,0:0:0:0:
256,192,193176,1,0,0:0:0:0:
256,192,193738,1,0,0:0:0:0:
256,192,193926,1,0,0:0:0:0:
256,192,194301,1,8,0:0:0:0:
256,192,195051,1,0,0:0:0:0:
256,192,195801,1,8,0:0:0:0:
256,192,196176,1,0,0:0:0:0:
256,192,197301,1,8,0:0:0:0:
256,192,198051,1,0,0:0:0:0:
256,192,198238,1,8,0:0:0:0:
256,192,198426,1,8,0:0:0:0:
256,192,198613,1,8,0:0:0:0:
256,192,198801,1,8,0:0:0:0:
256,192,199176,1,0,0:0:0:0:
256,192,199738,1,0,0:0:0:0:
256,192,199926,1,0,0:0:0:0:
256,192,200301,1,8,0:0:0:0:
256,192,201051,1,0,0:0:0:0:
256,192,201801,1,8,0:0:0:0:
256,192,202176,1,0,0:0:0:0:
256,192,202551,1,8,0:0:0:0:
256,192,202738,1,0,0:0:0:0:
256,192,202926,1,8,0:0:0:0:
256,192,203113,1,0,0:0:0:0:
256,192,203301,1,8,0:0:0:0:
256,192,204051,1,0,0:0:0:0:
256,192,204238,1,8,0:0:0:0:
256,192,204426,1,8,0:0:0:0:
256,192,204613,1,8,0:0:0:0:
256,192,204801,1,8,0:0:0:0:
256,192,205176,1,0,0:0:0:0:
256,192,205738,1,0,0:0:0:0:
256,192,205926,1,0,0:0:0:0:
256,192,206301,1,8,0:0:0:0:
256,192,207051,1,0,0:0:0:0:
256,192,207801,1,8,0:0:0:0:
256,192,208176,1,0,0:0:0:0:
256,192,209301,1,8,0:0:0:0:
256,192,210051,1,4,0:0:0:0:
256,192,210801,1,8,0:0:0:0:
256,192,211176,1,0,0:0:0:0:
256,192,211738,1,0,0:0:0:0:
256,192,211926,1,0,0:0:0:0:
256,192,212301,1,8,0:0:0:0:
256,192,213051,1,0,0:0:0:0:
256,192,213801,1,8,0:0:0:0:
256,192,214176,1,0,0:0:0:0:
256,192,215301,1,8,0:0:0:0:
256,192,216051,1,0,0:0:0:0:
256,192,216801,1,8,0:0:0:0:
256,192,217176,1,0,0:0:0:0:
256,192,217738,1,0,0:0:0:0:
256,192,217926,1,0,0:0:0:0:
256,192,218301,1,8,0:0:0:0:
256,192,219051,1,0,0:0:0:0:
256,192,219801,1,8,0:0:0:0:
256,192,220176,1,0,0:0:0:0:
256,192,221301,1,8,0:0:0:0:
256,192,222051,1,12,0:0:0:0:
256,192,222801,1,8,0:0:0:0:
256,192,223738,1,0,0:0:0:0:
256,192,223926,1,0,0:0:0:0:
256,192,224301,1,8,0:0:0:0:
256,192,225051,1,0,0:0:0:0:
256,192,225801,1,8,0:0:0:0:
256,192,226176,1,0,0:0:0:0:
256,192,227301,1,8,0:0:0:0:
256,192,227863,1,0,0:0:0:0:
256,192,228051,1,0,0:0:0:0:
256,192,228801,1,8,0:0:0:0:
256,192,229176,1,0,0:0:0:0:
256,192,229738,1,0,0:0:0:0:
256,192,229926,1,0,0:0:0:0:
256,192,230301,1,8,0:0:0:0:
256,192,231051,1,0,0:0:0:0:
256,192,231988,1,0,0:0:0:0:
256,192,232176,1,0,0:0:0:0:
256,192,233301,1,8,0:0:0:0:
256,192,233488,1,8,0:0:0:0:
256,192,233676,1,8,0:0:0:0:
256,192,233863,1,8,0:0:0:0:
256,192,234051,1,0,0:0:0:0:
256,192,235926,1,0,0:0:0:0:
256,192,237051,1,0,0:0:0:0:
256,192,238176,1,0,0:0:0:0:
256,192,239301,1,8,0:0:0:0:
256,192,240051,1,0,0:0:0:0:
256,192,241926,1,0,0:0:0:0:
256,192,243051,1,0,0:0:0:0:
256,192,244176,1,8,0:0:0:0:
256,192,245676,1,0,0:0:0:0:
256,192,246051,1,8,0:0:0:0:
256,192,246613,1,0,0:0:0:0:
256,192,247176,1,0,0:0:0:0:
256,192,247551,1,8,0:0:0:0:
256,192,248113,1,8,0:0:0:0:
256,192,248676,1,0,0:0:0:0:
256,192,248863,1,8,0:0:0:0:
256,192,249426,1,0,0:0:0:0:
256,192,251676,1,0,0:0:0:0:
256,192,252051,1,8,0:0:0:0:
256,192,252613,1,0,0:0:0:0:
256,192,253176,1,0,0:0:0:0:
256,192,253551,1,8,0:0:0:0:
256,192,254113,1,0,0:0:0:0:
256,192,254676,1,8,0:0:0:0:
256,192,254863,1,0,0:0:0:0:
256,192,255426,1,8,0:0:0:0:
256,192,256551,1,8,0:0:0:0:
256,192,257676,1,8,0:0:0:0:
256,192,257863,1,0,0:0:0:0:
256,192,259551,1,8,0:0:0:0:
256,192,260113,1,8,0:0:0:0:
256,192,260676,1,0,0:0:0:0:
256,192,260863,1,8,0:0:0:0:
256,192,262926,1,8,0:0:0:0:
256,192,264051,1,0,0:0:0:0:
256,192,264801,1,0,0:0:0:0:
256,192,265551,1,8,0:0:0:0:
256,192,266301,1,8,0:0:0:0:
256,192,267051,1,0,0:0:0:0:
256,192,267801,1,0,0:0:0:0:
256,192,268551,1,0,0:0:0:0:
256,192,268926,1,8,0:0:0:0:
256,192,270238,1,8,0:0:0:0:
256,192,271551,1,0,0:0:0:0:
256,192,273051,1,0,0:0:0:0:
256,192,274926,1,8,0:0:0:0:
256,192,276051,1,0,0:0:0:0:
256,192,277551,1,0,0:0:0:0:
256,192,279051,1,0,0:0:0:0:
256,192,280551,1,8,0:0:0:0:
256,192,282051,1,0,0:0:0:0:
256,192,283551,1,0,0:0:0:0:
256,192,285051,1,0,0:0:0:0:
256,192,286551,1,8,0:0:0:0:
256,192,287301,1,8,0:0:0:0:
256,192,288051,1,0,0:0:0:0:
256,192,289551,1,0,0:0:0:0:
256,192,291051,1,8,0:0:0:0:
256,192,292551,1,8,0:0:0:0:
256,192,293301,1,8,0:0:0:0:
