osu file format v14

[General]
AudioFilename: audio.mp3
AudioLeadIn: 0
PreviewTime: -1
Countdown: 0
SampleSet: Normal
StackLeniency: 1
Mode: 0
LetterboxInBreaks: 0
WidescreenStoryboard: 0

[Editor]
DistanceSpacing: 1
BeatDivisor: 4
GridSize: 32
TimelineZoom: 1

[Metadata]
Title:Break Them
TitleUnicode:Break Them
Artist:Aero Chord ft. Anna Yvette
ArtistUnicode:Aero Chord ft. Anna Yvette
Creator:Faunsce
Version:Broken
Source:
Tags:
BeatmapID:1844780
BeatmapSetID:882419

[Difficulty]
HPDrainRate:6
CircleSize:4
OverallDifficulty:7
ApproachRate:9
SliderMultiplier:1.00000000596046
SliderTickRate:1

[Events]
//Background and Video events
0,0,"51086976_p0.jpg",0,0
//Break Periods
//Storyboard Layer 0 (Background)
//Storyboard Layer 1 (Fail)
//Storyboard Layer 2 (Pass)
//Storyboard Layer 3 (Foreground)
//Storyboard Sound Samples

[TimingPoints]
2499.73066313715,300,4,1,0,100,1,0

[Colours]
Combo1 : 138,40,227
Combo2 : 156,35,71
Combo3 : 123,88,228
Combo4 : 208,15,30

[HitObjects]
159,230,19300,6,0,B|284:364|283:173|281:175,1,200.000001192092
282,102,20200,1,0,0:0:0:0:
275,42,20500,2,0,B|158:47|90:104|91:127,1,200.000001192092
86,209,21250,1,0,0:0:0:0:
86,209,21400,2,0,B|96:241|111:253|122:256|179:251,1,100.000000596046
240,181,22149,1,0,0:0:0:0:
341,234,22599,1,0,0:0:0:0:
231,315,22900,2,0,B|143:238|149:165|167:133,1,200.000001192092
246,82,24099,6,0,B|371:110|399:222|391:283|242:292|193:203|171:169,1,400.000002384184
315,67,25899,1,0,0:0:0:0:
129,247,26199,1,0,0:0:0:0:
129,247,26349,1,0,0:0:0:0:
129,247,26499,2,0,L|211:315,1,100.000000596046
329,311,26949,2,0,L|381:225,1,100.000000596046
404,118,27399,2,0,L|309:146,1,100.000000596046
222,176,27849,6,0,B|176:180|176:180|111:162,1,100.000000596046
137,74,28299,2,0,B|181:42|181:42|247:32,1,100.000000596046
308,92,28749,1,0,0:0:0:0:
390,158,28899,2,0,B|429:196|429:196|437:265|437:265|406:314|406:314|349:316|349:316|285:261,1,300.000001788138
138,190,30099,5,0,0:0:0:0:
138,190,30249,1,0,0:0:0:0:
138,190,30399,1,0,0:0:0:0:
236,99,30699,6,0,B|239:109|260:167,1,50.000000298023
314,75,30999,2,0,L|344:140,1,50.000000298023
398,53,31299,2,0,L|428:118,1,50.000000298023
418,98,31599,1,0,0:0:0:0:
422,103,31749,2,0,P|426:161|394:251,1,150.000000894069
314,242,32499,2,0,P|232:329|155:312,1,200.000001192092
162,316,33099,2,0,P|130:210|180:146,1,200.000001192092
179,146,33699,2,0,P|267:142|307:237,1,200.000001192092
171,230,35199,5,0,0:0:0:0:
171,230,35349,1,0,0:0:0:0:
171,230,35499,2,0,B|225:139|225:139,1,100.000000596046
222,144,35799,2,0,B|316:194|311:190,1,100.000000596046
309,184,36099,2,0,B|237:288|176:281,1,150.000000894069
197,279,36549,2,0,B|201:116|201:118,1,150.000000894069
156,143,37299,2,0,P|208:136|224:137,4,50.000000298023
294,129,38199,1,0,0:0:0:0:
383,230,38499,6,0,B|282:263|221:268,1,150.000000894069
237,266,39099,1,0,0:0:0:0:
162,241,39399,2,0,P|109:197|119:157,1,100.000000596046
110,172,39849,2,0,B|174:155|189:184|209:198,1,100.000000596046
320,186,40299,1,0,0:0:0:0:
222,289,40599,1,0,0:0:0:0:
111,202,40899,1,0,0:0:0:0:
207,96,41199,1,0,0:0:0:0:
207,96,41349,5,0,0:0:0:0:
331,145,41799,1,0,0:0:0:0:
260,273,42099,2,0,B|192:281|136:171|219:117,1,200.000001192092
204,128,42849,1,0,0:0:0:0:
251,104,43299,1,0,0:0:0:0:
328,185,43599,1,0,0:0:0:0:
333,186,43749,2,0,L|199:269,1,150.000000894069
91,259,44499,1,0,0:0:0:0:
91,259,44649,1,0,0:0:0:0:
91,259,44799,2,0,P|71:200|101:161,1,100.000000596046
224,92,45399,1,0,0:0:0:0:
224,92,45549,1,0,0:0:0:0:
353,211,45699,1,0,0:0:0:0:
353,211,45849,1,0,0:0:0:0:
