osu file format v14

[General]
AudioFilename: audio.mp3
AudioLeadIn: 0
PreviewTime: 195651
Countdown: 0
SampleSet: Soft
StackLeniency: 0.7
Mode: 0
LetterboxInBreaks: 0
WidescreenStoryboard: 1

[Editor]
DistanceSpacing: 0.3
BeatDivisor: 8
GridSize: 8
TimelineZoom: 1

[Metadata]
Title:Break Them
TitleUnicode:Break Them
Artist:Aero Chord feat. Anna Yvette
ArtistUnicode:Aero Chord feat. Anna Yvette
Creator:_Maki_
Version:Expert
Source:
Tags:Need For Speed 2015
BeatmapID:2106302
BeatmapSetID:971329

[Difficulty]
HPDrainRate:6
CircleSize:3.8
OverallDifficulty:8.3
ApproachRate:9.3
SliderMultiplier:1.4
SliderTickRate:1

[Events]
//Background and Video events
0,0,"image 3.png",0,0
//Break Periods
2,57851,65376
//Storyboard Layer 0 (Background)
//Storyboard Layer 1 (Fail)
//Storyboard Layer 2 (Pass)
//Storyboard Layer 3 (Foreground)
//Storyboard Layer 4 (Overlay)
//Storyboard Sound Samples

[TimingPoints]
51,600,4,2,0,55,1,0
19251,-133.333333333333,4,2,0,55,0,0
21051,-66.6666666666667,4,2,0,55,0,0
24051,-100,4,2,0,55,0,0
25701,-66.6666666666667,4,2,0,55,0,0
28851,-100,4,2,0,55,0,0
30651,-66.6666666666667,4,2,0,55,0,0
33651,-100,4,2,0,55,0,0
35451,-66.6666666666667,4,2,0,55,0,0
38451,-66.6666666666667,4,2,0,55,0,0
66051,-50,4,2,0,55,0,0
66501,-66.6666666666667,4,2,0,55,0,0
66801,-50,4,2,0,55,0,0
69951,-66.6666666666667,4,2,0,55,0,0
71751,-50,4,2,0,55,0,0
72351,-66.6666666666667,4,2,0,55,0,0
74451,-133.333333333333,4,2,0,55,0,0
76851,-50,4,2,0,55,0,1
80901,-66.6666666666667,4,2,0,55,0,1
81201,-50,4,2,0,55,0,1
84051,-50,4,2,0,55,0,0
85851,-80,4,2,0,55,0,0
87051,-66.6666666666667,4,2,0,55,0,1
88251,-50,4,2,0,55,0,1
89451,-200,4,2,0,55,0,1
89751,-50,4,2,0,55,0,1
90501,-66.6666666666667,4,2,0,55,0,1
90801,-50,4,2,0,55,0,1
93651,-66.6666666666667,4,2,0,55,0,0
96051,-50,4,2,0,55,0,1
100101,-66.6666666666667,4,2,0,55,0,1
100851,-50,4,2,0,55,0,1
103251,-50,4,2,0,55,0,0
105051,-80,4,2,0,55,0,0
106251,-66.6666666666667,4,2,0,55,0,1
106251,-66.6666666666667,4,2,0,55,0,1
107151,-57.1428571428571,4,2,0,55,0,1
108051,-50,4,2,0,55,0,1
109701,-66.6666666666667,4,2,0,55,0,1
110451,-50,4,2,0,55,0,1
112851,-66.6666666666667,4,2,0,55,0,0
114951,-100,4,2,0,55,0,0
122151,-66.6666666666667,4,2,0,55,0,0
122451,-100,4,2,0,55,0,0
124851,-50,4,2,0,55,0,0
126951,-66.6666666666667,4,2,0,55,0,0
127251,-50,4,2,0,55,0,0
129351,-66.6666666666667,4,2,0,55,0,0
129651,-50,4,2,0,55,0,0
131751,-66.6666666666667,4,2,0,55,0,0
139251,-66.6666666666667,4,2,0,55,0,0
158451,-66.6666666666667,4,2,0,55,0,0
192051,-50,4,2,0,55,0,0
192351,-66.6666666666667,4,2,0,55,0,0
194151,-50,4,2,0,55,0,0
194451,-66.6666666666667,4,2,0,55,0,0
195651,-100,4,2,0,55,0,0
197451,-50,4,2,0,55,0,1
201651,-133.333333333333,4,2,0,55,0,0
202251,-50,4,2,0,55,0,1
206451,-100,4,2,0,55,0,0
207051,-50,4,2,0,55,0,1
210501,-66.6666666666667,4,2,0,55,0,1
210801,-50,4,2,0,55,0,1
211251,-133.333333333333,4,2,0,55,0,0
211851,-50,4,2,0,55,0,1
213651,-66.6666666666667,4,2,0,55,0,0
216652,-50,4,2,0,55,0,1
220101,-66.6666666666667,4,2,0,55,0,1
220401,-50,4,2,0,55,0,1
225051,-50,4,2,0,55,0,0
225651,-50,4,2,0,55,0,1
229701,-66.6666666666667,4,2,0,55,0,1
230001,-50,4,2,0,55,0,1
234501,-66.6666666666667,4,2,0,55,0,1
234801,-50,4,2,0,55,0,1
235251,-100,4,2,0,55,0,0

[Colours]
Combo1 : 255,255,255
Combo2 : 0,128,255
Combo3 : 0,193,193
Combo4 : 255,255,255

[HitObjects]
256,192,16851,12,0,18651,0:0:0:0:
219,187,19251,6,0,P|144:114|248:113,1,262.500010013581
356,231,21051,2,0,P|349:292|378:348,2,105.000004005432
191,64,22101,2,0,P|260:95|342:66,1,157.500006008148
450,204,22851,2,0,L|450:314,1,105.000004005432
312,240,23451,2,0,P|308:191|262:144,1,105.000004005432
132,221,24051,6,0,P|42:186|148:122,1,280
336,228,25701,1,0,0:0:0:0:
336,228,25851,2,0,P|366:184|357:118,1,105.000004005432
220,65,26451,2,0,P|139:82|61:49,2,157.500006008148
129,244,27651,2,0,P|170:278|232:283,1,105.000004005432
372,169,28251,2,0,B|348:178|303:161|303:161|253:172,1,105.000004005432
102,287,28851,6,0,P|5:235|112:201,1,280
385,308,30651,2,0,L|394:198,1,105.000004005432
304,83,31251,2,0,B|276:79|234:83|234:83|186:60|143:61,2,157.500006008148
341,268,32451,2,0,P|306:307|246:313,1,105.000004005432
158,249,33051,2,0,P|156:188|195:152,1,105.000004005432
379,76,33651,6,0,P|484:108|383:154,1,280
256,248,35451,2,0,B|223:246|223:246|190:259|140:249,1,105.000004005432
24,155,36051,2,0,P|94:146|141:63,2,157.500006008148
197,257,37251,2,0,P|252:340|356:327,1,210.000008010865
423,70,38451,6,0,B|414:93|414:93|411:135|411:135|374:171|379:226,1,157.500006008148
171,303,39351,2,0,B|138:266|138:266|145:219|145:219|125:179|134:148,1,157.500006008148
336,98,40251,2,0,P|282:111|220:93,1,105.000004005432
115,165,40851,6,0,B|98:209|112:253|112:253|123:291|103:329,2,157.500006008148
254,85,42051,2,0,P|328:78|379:141,1,157.500006008148
378,136,42651,1,0,0:0:0:0:
229,304,43251,6,0,P|153:297|95:241,1,157.500006008148
206,69,44151,2,0,B|201:108|201:108|184:147|184:147|193:194|173:240,1,157.500006008148
384,290,45051,2,0,P|332:301|276:282,1,105.000004005432
144,206,45651,6,0,B|172:159|172:98|172:98|217:58,2,157.500006008148
333,200,46851,2,0,P|291:252|350:316,1,157.500006008148
338,314,47451,1,0,0:0:0:0:
456,158,48051,6,0,B|411:154|411:154|368:130|368:130|325:144|290:141,1,157.500006008148
130,256,48951,2,0,B|136:221|136:221|122:163|122:163|136:128|136:128|138:92,1,157.500006008148
431,93,49851,2,0,P|380:102|327:89,1,105.000004005432
136,104,50451,6,0,B|130:144|130:144|147:213|147:213|128:264,2,157.500006008148
323,216,51651,2,0,P|389:186|370:104,1,157.500006008148
379,112,52251,1,0,0:0:0:0:
118,294,52851,6,0,B|88:258|88:258|104:191|70:142,1,157.500006008148
320,32,53751,2,0,B|349:82|333:138|333:138|365:178,1,157.500006008148
116,276,54651,2,0,P|170:272|221:306,1,105.000004005432
353,237,55251,6,0,B|361:188|361:188|395:148|395:148|382:79,2,157.500006008148
238,309,56451,2,0,P|189:326|89:276,1,157.500006008148
88,206,57051,2,0,P|159:185|194:108,1,157.500006008148
256,68,57651,5,6,0:0:0:0:
310,97,66051,6,0,P|324:137|359:162,1,70
300,271,66351,1,0,0:0:0:0:
143,225,66501,2,0,L|105:226,2,26.2500010013581
243,143,66801,1,0,0:0:0:0:
243,143,66951,2,0,P|292:145|310:132,1,70
352,288,67251,6,0,L|440:288,1,70
424,200,67551,2,0,L|496:200,1,70
256,80,67851,2,0,L|176:80,1,70
184,168,68151,2,0,L|112:168,1,70
286,308,68451,2,0,L|365:271,1,70
368,201,68751,2,0,L|280:189,1,70
174,73,69051,2,0,L|196:157,1,70
157,215,69351,2,0,L|97:165,1,70
366,267,69651,6,0,P|330:275|288:261,1,70
216,182,69951,1,0,0:0:0:0:
321,89,70101,2,0,L|342:89,4,13.125000500679
419,184,70401,1,0,0:0:0:0:
298,267,70551,2,0,L|276:267,4,13.125000500679
216,182,70851,1,0,0:0:0:0:
119,98,71001,2,0,L|99:98,4,13.125000500679
235,39,71301,1,0,0:0:0:0:
357,106,71451,5,0,0:0:0:0:
357,106,71526,1,0,0:0:0:0:
357,106,71601,1,0,0:0:0:0:
285,207,71751,2,0,P|315:236|355:254,1,70
176,300,72051,6,0,B|91:300,1,70
212,200,72351,1,0,0:0:0:0:
86,132,72501,2,0,L|108:133,4,13.125000500679
195,50,72801,1,0,0:0:0:0:
346,77,72951,2,0,L|353:95,4,13.125000500679
291,147,73251,2,0,L|289:171,4,13.125000500679
389,209,73551,2,0,L|394:228,4,13.125000500679
287,280,73851,2,0,L|283:293,4,13.125000500679
388,341,74151,2,0,L|393:360,4,13.125000500679
287,280,74451,6,0,P|220:238|281:181,1,183.750007009506
351,120,75651,2,0,B|407:124|407:124|448:95,1,105.000004005432
153,42,76851,5,0,0:0:0:0:
153,42,77001,2,0,L|121:111,1,70
186,174,77301,1,0,0:0:0:0:
186,174,77451,2,0,L|191:247,1,70
111,287,77751,1,0,0:0:0:0:
111,287,77901,2,0,L|142:353,1,70
314,280,78201,6,0,P|272:283|246:301,2,70
431,234,78651,1,2,0:0:0:0:
485,119,78801,1,2,0:0:0:0:
353,178,78951,1,2,0:0:0:0:
291,68,79101,1,2,0:0:0:0:
142,71,79251,5,0,0:0:0:0:
142,71,79401,2,0,P|113:102|106:138,1,70
195,198,79701,1,0,0:0:0:0:
195,198,79851,2,0,P|163:232|116:233,1,70
46,294,80151,1,2,0:0:0:0:
145,343,80301,1,2,0:0:0:0:
125,153,80451,1,0,0:0:0:0:
201,73,80601,1,0,0:0:0:0:
310,123,80751,1,0,0:0:0:0:
401,214,80901,6,0,L|379:214,4,13.125000500679
240,281,81201,1,0,0:0:0:0:
240,281,81351,2,0,P|278:289|311:281,1,70
420,60,81651,5,0,0:0:0:0:
420,60,81801,2,0,L|437:135,1,70
345,170,82101,1,0,0:0:0:0:
345,170,82251,2,0,L|332:249,1,70
236,268,82551,1,0,0:0:0:0:
236,268,82701,2,0,L|243:340,1,70
452,228,83001,5,2,0:0:0:0:
345,287,83151,1,2,0:0:0:0:
299,142,83301,1,2,0:0:0:0:
206,232,83451,2,0,L|129:232,1,70
299,142,83751,2,0,L|379:142,1,70
294,260,84051,6,0,P|241:277|192:257,2,105
338,140,84651,2,0,L|382:118,2,46.6666666666667
233,98,84951,2,0,L|194:122,2,46.6666666666667
354,59,85251,2,0,P|389:72|407:112,1,70
282,136,85551,2,0,P|249:127|233:86,1,70
103,44,85851,2,0,P|101:125|24:190,1,175
355,151,87051,6,0,P|362:202|325:253,1,105.000004005432
336,246,87501,2,0,P|283:231|237:247,1,105.000004005432
139,190,87951,1,0,0:0:0:0:
139,190,88101,1,0,0:0:0:0:
45,58,88251,2,0,P|32:91|39:129,1,70
139,190,88551,2,0,P|145:225|123:261,1,70
276,213,88851,5,0,0:0:0:0:
276,213,89001,1,0,0:0:0:0:
378,309,89151,1,0,0:0:0:0:
378,309,89301,1,0,0:0:0:0:
446,246,89451,2,0,L|455:223,1,21.875
426,160,89751,2,0,P|392:178|358:181,1,70
273,150,90051,1,0,0:0:0:0:
190,33,90201,1,0,0:0:0:0:
57,136,90351,1,0,0:0:0:0:
184,231,90501,2,0,L|161:231,4,13.125000500679
306,136,90801,5,2,0:0:0:0:
231,280,90951,1,2,0:0:0:0:
173,118,91101,1,2,0:0:0:0:
435,69,91251,5,0,0:0:0:0:
435,69,91401,2,0,L|437:146,1,70
351,193,91701,1,0,0:0:0:0:
351,193,91851,2,0,L|370:271,1,70
325,344,92151,1,0,0:0:0:0:
325,344,92301,2,0,L|254:312,1,70
135,240,92601,1,2,0:0:0:0:
186,115,92751,1,2,0:0:0:0:
308,259,92901,1,2,0:0:0:0:
345,164,93051,6,0,P|308:173|272:161,1,70
153,64,93351,2,0,P|187:56|220:65,1,70
172,192,93651,5,0,0:0:0:0:
218,313,93951,1,0,0:0:0:0:
294,208,94251,1,0,0:0:0:0:
426,167,94551,1,0,0:0:0:0:
302,107,94851,1,0,0:0:0:0:
431,73,95151,1,0,0:0:0:0:
344,170,95451,2,0,B|297:198|297:198|276:255,1,105.000004005432
125,325,96051,5,0,0:0:0:0:
125,325,96201,2,0,L|94:257,1,70
172,207,96501,1,0,0:0:0:0:
172,207,96651,2,0,L|205:137,1,70
257,64,96951,1,0,0:0:0:0:
257,64,97101,2,0,L|279:134,1,70
386,207,97401,5,2,0:0:0:0:
343,328,97551,1,2,0:0:0:0:
386,207,97701,1,2,0:0:0:0:
189,285,97851,2,2,P|224:293|267:285,1,70
386,207,98151,2,0,P|347:198|303:209,1,70
75,163,98451,5,0,0:0:0:0:
75,163,98601,2,0,L|124:105,1,70
206,49,98901,1,0,0:0:0:0:
206,49,99051,2,0,L|232:131,1,70
300,179,99351,1,0,0:0:0:0:
381,242,99501,1,0,0:0:0:0:
162,201,99651,5,2,0:0:0:0:
255,332,99801,1,2,0:0:0:0:
300,179,99951,1,2,0:0:0:0:
126,135,100101,2,0,L|146:134,4,13.125000500679
228,32,100401,1,0,0:0:0:0:
217,177,100551,1,0,0:0:0:0:
361,99,100701,1,0,0:0:0:0:
465,190,100851,5,0,0:0:0:0:
465,190,101001,2,0,L|424:257,1,70
321,254,101301,1,0,0:0:0:0:
321,254,101451,2,0,L|296:325,1,70
205,337,101751,1,0,0:0:0:0:
205,337,101901,2,0,L|145:286,1,70
66,179,102201,5,2,0:0:0:0:
158,71,102351,1,2,0:0:0:0:
187,226,102501,1,2,0:0:0:0:
264,88,102651,2,2,P|298:82|338:92,1,70
143,186,102951,2,0,P|107:195|73:183,1,70
319,130,103251,6,0,B|317:161|317:161|328:207|328:207|329:243,2,105
191,65,103851,2,0,L|145:78,2,46.6666666666667
107,164,104151,2,0,L|51:184,2,46.6666666666667
213,235,104451,1,0,0:0:0:0:
250,114,104601,1,0,0:0:0:0:
340,173,104751,1,0,0:0:0:0:
375,78,104901,1,0,0:0:0:0:
464,168,105051,2,0,P|419:238|328:246,1,175
114,68,106251,6,0,P|124:118|92:168,1,105.000004005432
98,163,106701,2,0,P|133:193|189:187,1,105.000004005432
301,97,107151,2,0,L|301:166,1,61.2500005841255
179,213,107451,1,0,0:0:0:0:
225,331,107601,1,0,0:0:0:0:
179,213,107751,1,0,0:0:0:0:
225,331,107901,1,0,0:0:0:0:
286,139,108051,6,0,P|323:151|361:146,1,70
403,217,108351,2,0,P|379:248|379:286,1,70
245,286,108651,1,0,0:0:0:0:
245,286,108951,2,0,P|210:272|171:272,1,70
209,200,109251,1,2,0:0:0:0:
123,65,109401,1,2,0:0:0:0:
63,198,109551,1,2,0:0:0:0:
200,95,109701,2,0,L|177:95,4,13.125000500679
282,247,110001,1,0,0:0:0:0:
157,147,110151,1,0,0:0:0:0:
334,117,110301,1,0,0:0:0:0:
102,50,110451,5,0,0:0:0:0:
102,50,110601,2,0,L|79:126,1,70
150,177,110901,1,0,0:0:0:0:
150,177,111051,2,0,L|164:256,1,70
225,306,111351,1,0,0:0:0:0:
225,306,111501,2,0,L|303:297,1,70
396,212,111801,5,2,0:0:0:0:
351,88,111951,1,2,0:0:0:0:
396,212,112101,1,2,0:0:0:0:
284,151,112251,2,0,P|247:157|212:149,1,70
94,57,112551,2,0,P|132:53|175:68,1,70
115,185,112851,5,0,0:0:0:0:
205,252,113151,1,0,0:0:0:0:
321,189,113451,1,0,0:0:0:0:
453,255,113751,1,0,0:0:0:0:
339,328,114051,1,0,0:0:0:0:
339,328,114201,1,0,0:0:0:0:
339,328,114351,1,0,0:0:0:0:
205,252,114501,2,0,L|186:252,4,13.125000500679
327,160,114801,1,0,0:0:0:0:
327,160,114951,6,0,P|323:196|337:240,1,70
331,228,115851,2,0,B|299:251|299:251|258:260,1,70
60,160,116751,1,0,0:0:0:0:
189,111,117051,2,0,B|225:104|225:104|268:116,1,70
376,230,117651,5,0,0:0:0:0:
376,230,118251,2,0,L|332:175,1,70
185,51,119001,1,0,0:0:0:0:
185,51,119151,1,0,0:0:0:0:
49,183,119451,2,0,L|133:183,1,70
297,269,120051,5,0,0:0:0:0:
404,142,120351,1,0,0:0:0:0:
258,197,120651,1,0,0:0:0:0:
404,142,120951,1,0,0:0:0:0:
304,48,121251,1,0,0:0:0:0:
327,194,121551,1,0,0:0:0:0:
386,51,121851,1,0,0:0:0:0:
200,106,122151,2,2,L|192:92,4,13.125000500679
327,194,122451,6,0,L|327:272,1,70
235,242,123051,2,0,L|235:321,1,70
112,288,123651,2,0,L|112:208,1,70
24,248,124251,2,0,L|24:168,1,70
219,61,124851,6,0,B|181:69|181:69|149:61,2,70
322,120,125301,1,0,0:0:0:0:
322,120,125451,2,0,P|363:177|347:253,1,140
183,293,126051,2,0,P|217:282|258:293,1,70
98,193,126351,1,0,0:0:0:0:
186,138,126651,1,0,0:0:0:0:
315,187,126951,2,0,L|335:187,4,13.125000500679
236,101,127251,6,0,L|236:172,1,70
141,177,127551,2,0,L|141:249,1,70
260,277,127851,2,0,P|328:300|394:275,1,140
413,70,128451,2,0,B|421:110|421:110|413:148,1,70
324,146,128751,2,0,B|314:188|314:188|324:225,1,70
256,295,129051,1,0,0:0:0:0:
148,189,129351,2,0,L|163:189,4,13.125000500679
310,85,129651,6,0,P|273:94|233:82,2,70
413,157,130101,1,0,0:0:0:0:
413,157,130251,2,0,P|417:221|363:286,1,140
223,311,130851,2,0,B|231:272|231:272|222:234,1,70
133,167,131151,1,0,0:0:0:0:
221,96,131451,1,0,0:0:0:0:
398,189,131751,2,0,L|405:204,4,13.125000500679
311,91,132051,5,0,0:0:0:0:
264,228,132351,1,0,0:0:0:0:
134,114,132651,1,0,0:0:0:0:
182,202,132951,1,0,0:0:0:0:
299,128,133251,1,0,0:0:0:0:
299,128,133401,1,0,0:0:0:0:
299,128,133551,1,0,0:0:0:0:
219,252,133701,2,0,L|227:265,4,13.125000500679
116,169,134001,1,0,0:0:0:0:
223,67,134151,1,0,0:0:0:0:
355,224,134301,1,0,0:0:0:0:
223,158,134451,5,0,0:0:0:0:
256,192,134601,12,0,138051,0:0:0:0:
95,68,139251,5,0,0:0:0:0:
96,168,139551,1,0,0:0:0:0:
96,280,139851,1,0,0:0:0:0:
232,280,140151,1,0,0:0:0:0:
232,160,140451,1,0,0:0:0:0:
232,48,140751,1,0,0:0:0:0:
232,160,141051,1,0,0:0:0:0:
344,160,141351,1,0,0:0:0:0:
144,232,141651,6,0,P|190:247|251:230,1,105.000004005432
336,56,142251,2,0,P|327:108|347:171,1,105.000004005432
320,312,142851,1,0,0:0:0:0:
208,312,143151,1,0,0:0:0:0:
208,200,143451,1,0,0:0:0:0:
208,312,143751,1,0,0:0:0:0:
320,312,144051,5,0,0:0:0:0:
320,272,144351,1,0,0:0:0:0:
320,240,144651,1,0,0:0:0:0:
320,208,144951,1,0,0:0:0:0:
208,136,145251,1,0,0:0:0:0:
208,176,145551,1,0,0:0:0:0:
208,208,145851,1,0,0:0:0:0:
208,240,146151,1,0,0:0:0:0:
336,144,146451,6,0,B|350:200|350:200|337:258,1,105.000004005432
208,240,147051,2,0,B|220:295|220:295|208:347,1,105.000004005432
272,168,147651,2,0,P|327:178|379:168,1,105.000004005432
416,48,148251,2,0,P|458:88|466:147,1,105.000004005432
194,285,148851,6,0,P|247:299|302:286,1,105.000004005432
360,226,149301,1,0,0:0:0:0:
360,226,149451,2,0,P|334:174|345:118,1,105.000004005432
94,60,150051,2,0,P|148:78|205:62,1,105.000004005432
266,49,150501,1,0,0:0:0:0:
266,49,150651,2,0,P|280:103|256:155,1,105.000004005432
31,261,151251,6,0,P|80:274|137:266,1,105.000004005432
198,233,151701,1,0,0:0:0:0:
198,233,151851,2,0,P|236:202|294:202,1,105.000004005432
434,46,152451,2,0,L|434:167,1,105.000004005432
397,213,152901,1,0,0:0:0:0:
397,213,153051,2,0,P|341:197|288:214,1,105.000004005432
56,63,153651,6,0,P|107:71|167:61,1,105.000004005432
231,60,154101,1,0,0:0:0:0:
231,60,154251,2,0,P|224:114|232:165,1,105.000004005432
394,335,154851,2,0,P|405:282|403:229,1,105.000004005432
359,173,155301,1,0,0:0:0:0:
359,173,155451,2,0,P|304:193|249:184,1,105.000004005432
60,75,156051,5,0,0:0:0:0:
118,155,156351,1,0,0:0:0:0:
118,155,156501,1,0,0:0:0:0:
118,155,156651,2,0,P|104:213|74:253,1,105.000004005432
228,300,157251,1,0,0:0:0:0:
305,254,157551,1,0,0:0:0:0:
305,254,157701,1,0,0:0:0:0:
305,254,157851,2,0,P|339:213|342:157,1,105.000004005432
125,71,158451,6,0,B|106:115|106:115|119:158|117:202|117:202|94:232,1,157.500006008148
290,280,159351,2,0,B|325:263|325:263|371:282|412:281|455:257,1,157.500006008148
352,76,160251,2,0,P|361:139|339:179,1,105.000004005432
279,218,160701,1,0,0:0:0:0:
279,218,160851,6,0,P|216:199|176:209,1,105.000004005432
114,257,161301,1,0,0:0:0:0:
114,257,161451,1,0,0:0:0:0:
235,66,161751,1,0,0:0:0:0:
312,109,162051,2,0,B|323:158|323:158|296:222,1,105.000004005432
222,248,162501,1,0,0:0:0:0:
222,248,162651,2,0,L|185:200,1,52.5000020027161
110,161,162951,2,0,L|146:112,1,52.5000020027161
385,65,163251,6,0,B|379:101|379:101|394:133|399:173|399:173|379:198|379:198|366:229,1,157.500006008148
255,305,164151,2,0,P|195:259|114:246,1,157.500006008148
29,139,165051,2,0,P|83:149|143:140,1,105.000004005432
211,71,165501,1,0,0:0:0:0:
211,71,165651,2,0,P|238:115|231:172,1,105.000004005432
312,286,166101,1,0,0:0:0:0:
312,286,166251,2,0,L|370:286,1,52.5000020027161
435,222,166551,1,0,0:0:0:0:
435,222,166851,2,0,P|431:167|391:132,1,105.000004005432
320,73,167301,1,0,0:0:0:0:
320,73,167451,2,0,P|270:128|183:130,1,157.500006008148
74,101,168051,5,0,0:0:0:0:
133,214,168351,1,0,0:0:0:0:
254,135,168651,1,0,0:0:0:0:
389,191,168951,1,0,0:0:0:0:
314,318,169251,1,0,0:0:0:0:
212,223,169551,1,0,0:0:0:0:
341,181,169851,1,0,0:0:0:0:
341,181,170151,2,0,L|319:181,4,13.125000500679
456,233,170451,5,0,0:0:0:0:
347,332,170751,1,0,0:0:0:0:
270,194,171051,1,0,0:0:0:0:
333,57,171351,1,0,0:0:0:0:
172,60,171651,1,0,0:0:0:0:
260,210,171951,1,0,0:0:0:0:
129,234,172251,1,0,0:0:0:0:
129,234,172551,2,0,L|119:244,4,13.125000500679
148,93,172851,5,0,0:0:0:0:
345,91,173151,1,0,0:0:0:0:
263,247,173451,1,0,0:0:0:0:
253,111,173751,1,0,0:0:0:0:
391,206,174051,1,0,0:0:0:0:
278,298,174351,1,0,0:0:0:0:
203,187,174651,1,0,0:0:0:0:
206,192,174951,2,0,L|212:205,4,13.125000500679
234,76,175251,5,0,0:0:0:0:
312,215,175551,1,0,0:0:0:0:
168,267,175851,1,0,0:0:0:0:
85,126,176151,1,0,0:0:0:0:
237,92,176451,1,0,0:0:0:0:
360,161,176751,1,0,0:0:0:0:
272,281,177051,1,0,0:0:0:0:
272,281,177351,2,0,L|282:298,4,17.500000667572
272,281,177651,6,0,P|257:224|265:164,1,105.000004005432
243,105,178101,1,0,0:0:0:0:
316,79,178251,2,0,P|359:97|426:86,1,105.000004005432
451,243,178851,2,0,P|440:294|383:309,1,105.000004005432
318,318,179301,1,0,0:0:0:0:
265,262,179451,2,0,L|246:148,1,105.000004005432
143,155,180051,6,0,P|194:161|249:158,1,105.000004005432
291,93,180501,1,0,0:0:0:0:
365,106,180651,2,0,P|363:161|338:208,1,105.000004005432
119,277,181251,2,0,P|172:285|237:276,1,105.000004005432
293,262,181701,1,0,0:0:0:0:
340,204,181851,2,0,P|316:156|270:130,1,105.000004005432
90,75,182451,6,0,P|81:133|83:185,1,105.000004005432
139,234,182901,1,0,0:0:0:0:
139,234,183051,2,0,L|204:219,1,52.5000020027161
259,263,183351,2,0,L|308:226,1,52.5000020027161
446,124,183651,2,0,P|392:109|338:119,1,105.000004005432
262,86,184101,1,0,0:0:0:0:
262,86,184251,2,0,L|252:148,1,52.5000020027161
183,175,184551,2,0,L|206:232,1,52.5000020027161
353,328,184851,6,0,P|390:289|410:234,1,105.000004005432
410,157,185301,1,0,0:0:0:0:
410,157,185451,2,0,L|345:166,1,52.5000020027161
298,109,185751,2,0,L|254:147,1,52.5000020027161
48,237,186051,2,0,P|86:264|160:277,1,105.000004005432
214,308,186501,1,0,0:0:0:0:
214,308,186651,2,0,P|259:276|328:277,1,105.000004005432
428,107,187251,5,2,0:0:0:0:
232,93,192051,6,0,P|272:102|311:93,1,70
175,201,192351,1,0,0:0:0:0:
267,292,192501,2,0,L|259:302,4,13.125000500679
383,240,192801,1,0,0:0:0:0:
296,135,192951,2,0,L|307:115,4,13.125000500679
175,201,193251,1,0,0:0:0:0:
83,125,193401,2,0,L|75:137,4,13.125000500679
203,57,193701,1,0,0:0:0:0:
328,115,193851,5,0,0:0:0:0:
328,115,193926,1,0,0:0:0:0:
328,115,194001,1,0,0:0:0:0:
236,209,194151,2,0,P|270:219|315:209,1,70
422,79,194451,6,0,L|429:94,4,13.125000500679
366,157,194751,2,0,L|363:175,4,13.125000500679
435,215,195051,2,0,L|440:235,4,13.125000500679
360,284,195351,2,0,L|357:301,4,13.125000500679
227,247,195651,6,0,B|181:190|181:190|195:122,1,140
402,174,196851,1,2,0:0:0:0:
402,174,197451,5,0,0:0:0:0:
271,258,197601,1,0,0:0:0:0:
315,109,197751,2,0,P|315:149|298:185,1,70
287,340,198051,1,0,0:0:0:0:
136,176,198201,1,0,0:0:0:0:
315,109,198351,1,0,0:0:0:0:
214,288,198501,1,0,0:0:0:0:
210,120,198651,5,0,0:0:0:0:
79,231,198801,1,0,0:0:0:0:
97,63,198951,1,0,0:0:0:0:
231,231,199101,1,0,0:0:0:0:
291,71,199251,5,0,0:0:0:0:
425,147,199401,1,0,0:0:0:0:
339,271,199551,1,0,0:0:0:0:
203,179,199701,1,0,0:0:0:0:
270,278,199851,2,0,P|266:314|271:351,1,70
386,220,200151,2,0,P|391:176|387:140,1,70
227,106,200451,2,0,L|227:178,2,70
343,49,200901,1,0,0:0:0:0:
343,49,200976,1,0,0:0:0:0:
343,49,201051,1,0,0:0:0:0:
432,161,201201,5,0,0:0:0:0:
360,238,201351,2,0,P|320:240|275:236,1,70
227,107,201651,1,2,0:0:0:0:
227,107,202251,5,0,0:0:0:0:
118,182,202401,1,0,0:0:0:0:
274,215,202551,2,0,P|269:252|272:292,1,70
153,339,202851,1,0,0:0:0:0:
55,175,203001,1,0,0:0:0:0:
191,60,203151,1,0,0:0:0:0:
393,181,203301,1,0,0:0:0:0:
185,255,203451,2,0,P|150:250|116:255,1,70
55,175,203751,2,0,P|81:148|86:111,1,70
244,39,204051,5,0,0:0:0:0:
257,201,204201,1,0,0:0:0:0:
302,124,204351,1,0,0:0:0:0:
150,219,204501,1,0,0:0:0:0:
324,260,204651,2,0,P|300:289|267:304,1,70
99,262,204951,2,0,P|118:233|152:218,1,70
312,118,205251,1,0,0:0:0:0:
266,274,205401,1,0,0:0:0:0:
312,118,205551,1,0,0:0:0:0:
266,274,205701,1,0,0:0:0:0:
101,196,205851,6,0,P|138:199|176:195,1,70
361,143,206151,2,0,P|357:186|361:229,1,70
279,297,206451,1,2,0:0:0:0:
279,297,207051,5,0,0:0:0:0:
397,217,207201,1,0,0:0:0:0:
218,102,207351,2,0,P|259:99|303:104,1,70
466,239,207651,1,0,0:0:0:0:
368,40,207801,1,0,0:0:0:0:
279,222,207951,1,0,0:0:0:0:
474,143,208101,1,0,0:0:0:0:
281,41,208251,5,0,0:0:0:0:
138,182,208401,1,0,0:0:0:0:
281,41,208551,1,0,0:0:0:0:
384,249,208701,1,0,0:0:0:0:
416,110,208851,6,0,L|492:111,1,70
310,216,209151,2,0,L|223:216,1,70
132,149,209451,1,0,0:0:0:0:
132,149,209751,2,0,B|91:147|91:147|59:125,1,70
192,46,210051,1,0,0:0:0:0:
208,198,210201,1,0,0:0:0:0:
329,72,210351,1,0,0:0:0:0:
314,191,210501,2,0,L|325:203,4,13.125000500679
197,288,210801,5,0,0:0:0:0:
123,202,210951,2,0,B|88:194|88:194|43:201,1,70
238,93,211251,1,0,0:0:0:0:
238,93,211851,5,0,0:0:0:0:
349,174,212001,1,0,0:0:0:0:
245,282,212151,2,0,P|285:286|319:276,1,70
381,97,212451,1,0,0:0:0:0:
251,224,212601,1,0,0:0:0:0:
239,35,212751,1,0,0:0:0:0:
463,167,212901,1,0,0:0:0:0:
202,200,213051,5,0,0:0:0:0:
202,200,213201,1,0,0:0:0:0:
202,200,213351,1,0,0:0:0:0:
202,200,213501,1,0,0:0:0:0:
297,95,213651,5,0,0:0:0:0:
349,237,213951,1,0,0:0:0:0:
470,125,214251,1,0,0:0:0:0:
349,237,214551,1,0,0:0:0:0:
218,155,214851,1,0,0:0:0:0:
211,299,215151,1,0,0:0:0:0:
93,237,215451,2,0,B|65:193|65:193|74:122,1,105.000004005432
208,69,216051,5,0,0:0:0:0:
208,69,216651,6,0,P|231:88|275:89,2,52.5000020027161
150,184,217101,1,0,0:0:0:0:
150,184,217251,2,0,B|117:190|117:190|73:181,1,70
167,61,217551,2,0,B|200:59|200:59|240:71,1,70
286,194,217851,1,0,0:0:0:0:
437,153,218001,1,0,0:0:0:0:
381,266,218151,2,0,P|373:305|341:343,1,70
223,142,218451,5,0,0:0:0:0:
132,312,218601,1,0,0:0:0:0:
112,115,218751,1,0,0:0:0:0:
254,263,218901,1,0,0:0:0:0:
281,75,219051,5,0,0:0:0:0:
390,159,219201,1,0,0:0:0:0:
254,263,219351,2,0,P|288:275|327:270,1,70
387,99,219651,1,0,0:0:0:0:
149,137,219801,1,0,0:0:0:0:
321,271,219951,1,0,0:0:0:0:
143,285,220101,2,0,L|127:297,4,13.125000500679
99,163,220401,1,0,0:0:0:0:
99,163,220551,2,0,B|113:128|113:128|105:89,1,70
235,22,220851,5,0,0:0:0:0:
269,208,221001,1,0,0:0:0:0:
380,97,221151,1,0,0:0:0:0:
279,275,221301,1,0,0:0:0:0:
169,138,221451,5,0,0:0:0:0:
336,183,221601,1,0,0:0:0:0:
217,279,221751,2,0,P|168:287|137:277,1,70
40,117,222051,1,0,0:0:0:0:
150,275,222201,1,0,0:0:0:0:
264,94,222351,1,0,0:0:0:0:
40,117,222501,1,0,0:0:0:0:
202,211,222651,1,0,0:0:0:0:
202,211,222801,1,0,0:0:0:0:
378,145,222951,2,0,B|349:170|349:170|309:174,1,70
92,263,223251,5,0,0:0:0:0:
40,117,223401,1,0,0:0:0:0:
202,211,223551,1,0,0:0:0:0:
195,25,223701,1,0,0:0:0:0:
379,101,223851,1,0,0:0:0:0:
168,108,224001,1,0,0:0:0:0:
274,256,224151,1,0,0:0:0:0:
297,69,224301,1,0,0:0:0:0:
397,251,224451,5,0,0:0:0:0:
397,251,224601,1,0,0:0:0:0:
397,251,224751,1,0,0:0:0:0:
397,251,224901,1,0,0:0:0:0:
254,108,225051,5,8,0:0:0:0:
254,108,225651,5,0,0:0:0:0:
254,108,225801,2,0,L|292:177,1,70
374,190,226101,1,0,0:0:0:0:
374,190,226251,2,0,L|358:266,1,70
288,318,226551,1,0,0:0:0:0:
288,318,226701,2,0,L|225:284,1,70
93,114,227001,1,0,0:0:0:0:
117,269,227151,1,0,0:0:0:0:
93,114,227301,1,0,0:0:0:0:
249,128,227451,6,0,P|284:139|330:127,1,70
421,219,227751,2,0,P|387:239|372:275,1,70
229,317,228051,5,0,0:0:0:0:
134,181,228201,1,0,0:0:0:0:
314,217,228351,1,0,0:0:0:0:
112,83,228501,1,0,0:0:0:0:
263,92,228651,2,0,P|303:101|344:95,1,70
446,208,228951,2,0,P|404:199|357:207,1,70
231,270,229251,1,0,0:0:0:0:
284,130,229401,1,0,0:0:0:0:
231,270,229551,1,0,0:0:0:0:
121,128,229701,6,0,L|132:139,4,13.125000500679
285,68,230001,1,0,0:0:0:0:
285,68,230151,2,0,P|302:108|343:133,1,70
334,285,230451,5,0,0:0:0:0:
334,285,230601,2,0,L|280:344,1,70
216,277,230901,1,0,0:0:0:0:
216,277,231051,2,0,L|199:199,1,70
136,151,231351,1,0,0:0:0:0:
136,151,231501,2,0,L|105:226,1,70
210,343,231801,1,0,0:0:0:0:
259,146,231951,1,0,0:0:0:0:
277,281,232101,1,0,0:0:0:0:
413,212,232251,6,0,P|377:217|341:207,1,70
138,144,232551,2,0,P|173:137|216:152,1,70
327,42,232851,5,0,0:0:0:0:
455,179,233001,1,0,0:0:0:0:
289,279,233151,1,0,0:0:0:0:
262,98,233301,1,0,0:0:0:0:
106,200,233451,2,0,P|143:193|187:203,1,70
341,133,233751,2,0,P|305:140|261:129,1,70
147,270,234051,5,0,0:0:0:0:
156,59,234201,1,0,0:0:0:0:
218,200,234351,1,0,0:0:0:0:
340,122,234501,2,0,L|334:136,4,13.125000500679
263,271,234801,1,0,0:0:0:0:
202,107,234951,1,0,0:0:0:0:
263,271,235101,1,0,0:0:0:0:
422,163,235251,5,0,0:0:0:0:
256,192,235401,12,0,240051,0:0:0:0:
