osu file format v14

[General]
AudioFilename: audio.mp3
AudioLeadIn: 0
PreviewTime: 195651
Countdown: 0
SampleSet: Soft
StackLeniency: 0.7
Mode: 0
LetterboxInBreaks: 0
WidescreenStoryboard: 0

[Editor]
DistanceSpacing: 1.1
BeatDivisor: 8
GridSize: 8
TimelineZoom: 1

[Metadata]
Title:Break Them
TitleUnicode:Break Them
Artist:Aero Chord feat. Anna Yvette
ArtistUnicode:Aero Chord feat. Anna Yvette
Creator:_Maki_
Version:Break Them
Source:
Tags:Need For Speed 2015
BeatmapID:2033769
BeatmapSetID:971329

[Difficulty]
HPDrainRate:6
CircleSize:4.2
OverallDifficulty:8.7
ApproachRate:9.5
SliderMultiplier:1.4
SliderTickRate:1

[Events]
//Background and Video events
0,0,"image 2.jpg",0,0
//Break Periods
2,187451,191451
//Storyboard Layer 0 (Background)
//Storyboard Layer 1 (Fail)
//Storyboard Layer 2 (Pass)
//Storyboard Layer 3 (Foreground)
//Storyboard Layer 4 (Overlay)
//Storyboard Sound Samples

[TimingPoints]
51,600,4,2,0,55,1,0
2151,-66.6666666666667,4,2,0,55,0,0
24051,-80,4,2,0,55,0,0
25851,-66.6666666666667,4,2,0,55,0,0
28851,-80,4,2,0,55,0,0
30651,-66.6666666666667,4,2,0,55,0,0
33651,-80,4,2,0,55,0,0
35451,-66.6666666666667,4,2,0,55,0,0
55251,-66.6666666666667,4,2,0,55,0,0
56151,-66.6666666666667,4,2,0,55,0,0
66051,-66.6666666666667,4,2,0,55,0,0
71751,-50,4,2,0,55,0,0
72051,-50,4,2,0,55,0,0
72501,-66.6666666666667,4,2,0,55,0,0
74451,-100,4,2,0,55,0,0
75651,-100,4,2,0,55,0,0
76851,-66.6666666666667,4,2,0,55,0,1
84051,-50,4,2,0,55,0,0
84651,-66.6666666666667,4,2,0,55,0,0
85251,-50,4,2,0,55,0,0
85851,-80,4,2,0,55,0,0
87051,-66.6666666666667,4,2,0,55,0,1
93651,-80,4,2,0,55,0,0
93951,-66.6666666666667,4,2,0,55,0,0
94251,-57.1428571428571,4,2,0,55,0,0
94551,-50,4,2,0,55,0,0
94851,-40,4,2,0,55,0,0
95451,-66.6666666666667,4,2,0,55,0,0
96051,-66.6666666666667,4,2,0,55,0,1
103251,-50,4,2,0,55,0,0
103851,-66.6666666666667,4,2,0,55,0,0
104451,-50,4,2,0,55,0,0
105051,-80,4,2,0,55,0,0
106251,-66.6666666666667,4,2,0,55,0,1
106251,-66.6666666666667,4,2,0,55,0,1
112851,-66.6666666666667,4,2,0,55,0,0
112851,-66.6666666666667,4,2,0,55,0,0
114051,-66.6666666666667,4,2,0,55,0,0
114951,-100,4,2,0,55,0,0
122151,-66.6666666666667,4,2,0,55,0,0
139251,-100,4,2,0,55,0,0
140451,-80,4,2,0,55,0,0
156351,-66.6666666666667,4,2,0,55,0,0
177651,-66.6666666666667,4,2,0,55,0,0
192051,-50,4,2,0,55,0,0
192351,-66.6666666666667,4,2,0,55,0,0
194151,-50,4,2,0,55,0,0
194451,-66.6666666666667,4,2,0,55,0,0
195651,-100,4,2,0,55,0,0
197451,-50,4,2,0,55,0,1
200901,-66.6666666666667,4,2,0,55,0,1
201201,-50,4,2,0,55,0,1
201651,-133.333333333333,4,2,0,55,0,0
202251,-50,4,2,0,55,0,1
202251,-50,4,2,0,55,0,1
206451,-100,4,2,0,55,0,0
207051,-50,4,2,0,55,0,1
210501,-66.6666666666667,4,2,0,55,0,1
210801,-50,4,2,0,55,0,1
211251,-133.333333333333,4,2,0,55,0,0
211851,-50,4,2,0,55,0,1
213651,-80,4,2,0,55,0,0
213951,-66.6666666666667,4,2,0,55,0,0
214251,-57.1428571428571,4,2,0,55,0,0
214551,-50,4,2,0,55,0,0
214851,-40,4,2,0,55,0,0
215451,-66.6666666666667,4,2,0,55,0,0
216652,-66.6666666666667,4,2,0,55,0,1
225042,-40,4,1,0,55,0,0
225651,-66.6666666666667,4,2,0,55,0,1
235251,-100,4,2,0,55,0,0

[Colours]
Combo1 : 255,255,255
Combo2 : 0,128,255
Combo3 : 0,193,193
Combo4 : 255,255,255

[HitObjects]
328,296,51,5,0,0:0:0:0:
392,232,351,1,0,0:0:0:0:
400,144,651,1,0,0:0:0:0:
352,72,951,1,0,0:0:0:0:
160,168,1251,1,0,0:0:0:0:
352,72,1551,1,0,0:0:0:0:
160,168,1851,1,0,0:0:0:0:
352,72,2151,2,2,L|374:72,4,13.125000500679
387,160,2451,5,0,0:0:0:0:
354,239,2751,1,0,0:0:0:0:
284,287,3051,1,0,0:0:0:0:
168,128,3351,1,0,0:0:0:0:
284,287,3651,1,0,0:0:0:0:
168,128,3951,1,0,0:0:0:0:
284,287,4251,1,0,0:0:0:0:
168,128,4551,2,2,L|152:128,4,13.125000500679
248,78,4851,5,0,0:0:0:0:
336,82,5151,1,0,0:0:0:0:
400,139,5451,1,0,0:0:0:0:
272,304,5751,1,0,0:0:0:0:
400,139,6051,1,0,0:0:0:0:
272,304,6351,1,0,0:0:0:0:
400,139,6651,1,0,0:0:0:0:
272,304,6951,2,2,L|272:325,4,13.125000500679
207,248,7251,5,0,0:0:0:0:
167,173,7551,1,0,0:0:0:0:
195,90,7851,1,0,0:0:0:0:
384,192,8151,1,0,0:0:0:0:
195,90,8451,1,0,0:0:0:0:
384,192,8751,1,0,0:0:0:0:
195,90,9051,1,0,0:0:0:0:
384,192,9351,2,2,L|408:191,4,13.125000500679
384,192,9651,6,0,P|344:224|288:224,1,105.000004005432
175,159,10101,1,0,0:0:0:0:
175,159,10251,2,0,B|168:130|146:107|146:107|168:90|183:63,1,105.000004005432
295,39,10701,1,0,0:0:0:0:
295,39,10851,2,0,P|309:63|343:80,1,52.5000020027161
389,174,11151,2,0,P|364:195|335:205,1,52.5000020027161
196,211,11451,1,0,0:0:0:0:
196,211,11751,2,2,L|196:233,4,13.125000500679
196,211,12051,6,0,P|241:229|295:214,1,105.000004005432
379,136,12501,1,0,0:0:0:0:
379,136,12651,2,0,B|396:153|396:153|393:193|415:238,1,105.000004005432
337,324,13101,1,0,0:0:0:0:
337,324,13251,2,0,P|306:312|286:283,1,52.5000020027161
202,226,13551,2,0,P|222:209|230:184,1,52.5000020027161
186,73,13851,1,0,0:0:0:0:
186,73,14151,2,2,L|206:73,4,13.125000500679
186,73,14451,6,0,P|144:101|128:158,1,105.000004005432
225,246,14901,1,0,0:0:0:0:
225,246,15051,2,0,B|238:282|238:282|279:304|325:282,1,105.000004005432
410,220,15501,1,0,0:0:0:0:
410,220,15651,2,0,P|407:251|394:277,1,52.5000020027161
272,293,15951,2,0,P|250:268|246:240,1,52.5000020027161
188,138,16251,1,0,0:0:0:0:
188,138,16551,2,2,L|208:138,4,13.125000500679
188,138,16851,6,0,B|176:171|176:171|184:211|168:244,1,105.000004005432
262,315,17301,1,0,0:0:0:0:
262,315,17451,2,0,P|320:332|374:299,1,105.000004005432
458,136,18051,2,0,P|440:160|410:169,1,52.5000020027161
239,134,18351,2,0,P|254:157|282:168,1,52.5000020027161
256,328,18651,1,0,0:0:0:0:
256,192,18951,1,0,0:0:0:0:
256,48,19251,5,2,0:0:0:0:
256,48,21051,6,0,P|312:44|360:72,1,105.000004005432
449,199,21651,2,0,B|442:241|406:266|406:266|418:309|461:324,2,157.500006008148
316,128,22851,2,0,P|265:146|225:199,1,105.000004005432
141,293,23451,2,0,P|101:253|101:189,1,105.000004005432
223,148,24051,2,0,B|279:156|279:156|341:151|341:151|407:163,2,175
463,111,25851,6,0,P|453:164|466:235,1,105.000004005432
301,247,26451,2,0,P|234:215|161:245,2,157.500006008148
406,198,27651,2,0,P|410:152|355:127,1,105.000004005432
177,129,28251,2,0,P|155:170|209:209,1,105.000004005432
296,239,28851,2,0,B|343:266|343:266|402:242|421:174,2,175
131,132,30651,6,0,P|104:178|108:240,1,105.000004005432
254,271,31251,2,0,B|308:260|324:172|384:172,2,157.500006008148
94,152,32451,2,0,P|105:208|157:239,1,105.000004005432
324,275,33051,2,0,P|284:308|215:312,1,105.000004005432
182,183,33651,2,0,B|84:158|107:228|9:216,2,175
245,42,35451,6,0,P|295:71|324:121,1,105.000004005432
224,197,36051,2,0,B|150:231|150:231|108:298,2,157.500006008148
371,190,37251,2,0,P|352:133|316:102,1,105.000004005432
127,121,37851,2,0,B|112:149|112:149|131:191|123:240,1,105.000004005432
297,253,38451,6,0,B|314:226|314:226|314:191|314:191|346:147|333:99,1,157.500006008148
169,105,39351,2,0,B|142:127|142:127|114:158|114:158|69:175|49:218,1,157.500006008148
194,324,40251,1,0,0:0:0:0:
256,187,40551,1,0,0:0:0:0:
391,208,40851,6,0,B|418:159|418:159|429:99|455:50,2,157.500006008148
240,233,42051,2,0,P|221:287|238:353,1,105.000004005432
94,282,42651,2,0,P|61:236|10:223,1,105.000004005432
214,65,43251,6,0,B|195:110|195:110|160:156|160:156|170:221,1,157.500006008148
312,256,44151,2,0,B|350:225|350:225|389:177|389:177|436:149,1,157.500006008148
280,52,45051,1,0,0:0:0:0:
147,127,45351,1,0,0:0:0:0:
279,176,45651,6,0,B|306:231|306:231|340:256|340:256|371:318,2,157.500006008148
50,199,46851,2,0,P|66:143|106:115,1,105.000004005432
292,81,47451,2,0,L|284:201,1,105.000004005432
126,294,48051,6,0,B|99:257|99:257|103:206|103:206|80:177|80:144,1,157.500006008148
253,130,48951,2,0,B|289:153|289:153|359:155|405:98,1,157.500006008148
405,250,49851,1,0,0:0:0:0:
298,163,50151,1,0,0:0:0:0:
163,215,50451,6,0,B|111:185|111:185|62:180|62:180|20:155,2,157.500006008148
317,56,51651,2,0,P|354:94|373:152,1,105.000004005432
455,235,52251,2,0,L|381:336,1,105.000004005432
256,176,52851,6,0,P|209:109|146:141,1,157.500006008148
150,133,53751,2,0,P|208:96|264:152,1,157.500006008148
255,321,54651,1,0,0:0:0:0:
129,269,54951,1,0,0:0:0:0:
197,155,55251,6,0,P|186:76|241:18,2,157.500006008148
362,131,56451,2,0,B|408:147|408:147|428:185|428:185|423:226|446:263,1,157.500006008148
357,319,57051,2,0,B|314:332|314:332|260:298|204:315,1,157.500006008148
113,258,57651,6,0,P|153:201|139:104,1,157.500006008148
146,116,58251,2,0,P|199:102|234:52,1,105.000004005432
357,224,58851,2,0,L|362:279,1,52.5000020027161
433,102,59151,1,0,0:0:0:0:
285,61,59451,2,0,P|233:83|185:66,1,105.000004005432
74,170,60051,6,0,L|119:320,1,157.500006008148
119,320,60651,2,0,P|157:287|228:297,1,105.000004005432
303,143,61251,2,0,L|310:203,1,52.5000020027161
397,307,61551,1,0,0:0:0:0:
220,307,61851,2,0,P|170:284|162:226,1,105.000004005432
115,65,62451,6,0,B|71:163|122:133|66:236,1,157.500006008148
76,215,63051,2,0,B|83:155|96:170|107:110,1,105.000004005432
317,78,63651,2,0,P|342:86|377:89,2,52.5000020027161
161,134,64251,2,0,B|159:197|134:171|139:243,1,105.000004005432
296,304,64851,6,0,B|328:280|370:270|370:270|383:229|403:196,1,157.500006008148
400,200,65451,2,0,B|380:179|354:170|354:170|350:140|333:121,1,105.000004005432
140,168,66051,6,0,L|116:221,1,52.5000020027161
257,87,66351,1,0,0:0:0:0:
362,169,66501,1,0,0:0:0:0:
362,169,66576,1,0,0:0:0:0:
362,169,66651,2,0,L|379:219,1,52.5000020027161
248,272,66951,2,0,L|208:308,1,52.5000020027161
288,96,67251,6,0,L|350:120,1,52.5000020027161
248,272,67551,2,0,L|188:248,1,52.5000020027161
392,88,67851,2,0,L|446:110,1,52.5000020027161
144,272,68151,2,0,L|85:244,1,52.5000020027161
324,98,68451,2,0,L|344:158,1,52.5000020027161
182,255,68751,2,0,L|158:195,1,52.5000020027161
400,160,69051,2,0,L|428:224,1,52.5000020027161
104,192,69351,2,0,L|81:133,1,52.5000020027161
360,110,69651,6,0,B|331:113|331:113|292:107,1,52.5000020027161
231,209,69951,1,0,0:0:0:0:
357,283,70101,2,2,L|344:299,4,13.125000500679
292,173,70401,1,0,0:0:0:0:
152,123,70551,2,2,L|132:123,4,13.125000500679
221,271,70851,1,0,0:0:0:0:
364,304,71001,2,2,L|388:304,4,13.125000500679
408,178,71301,1,0,0:0:0:0:
306,80,71451,2,0,L|271:80,2,26.2500010013581
125,154,71751,2,0,L|200:154,1,70
417,228,72051,6,0,B|382:246|382:246|329:246,1,70
229,159,72351,1,0,0:0:0:0:
378,85,72501,2,2,L|359:78,4,13.125000500679
187,64,72801,1,0,0:0:0:0:
162,234,72951,2,2,L|153:246,4,13.125000500679
100,60,73251,2,2,L|118:70,4,13.125000500679
330,82,73551,2,2,L|315:73,4,13.125000500679
251,278,73851,2,2,L|268:289,4,13.125000500679
472,252,74151,2,2,L|456:242,4,13.125000500679
256,208,74451,6,0,P|352:172|348:288,1,245
232,336,75651,2,0,B|184:324|184:324|128:348,1,105
132,345,76251,2,0,B|120:309|120:309|128:268,1,70
233,74,76851,5,0,0:0:0:0:
446,146,77001,2,0,L|500:109,1,52.5000020027161
140,132,77301,1,0,0:0:0:0:
343,225,77451,2,0,L|399:186,1,52.5000020027161
54,187,77751,1,0,0:0:0:0:
237,299,77901,2,0,L|282:265,1,52.5000020027161
316,71,78201,5,2,0:0:0:0:
401,216,78351,1,2,0:0:0:0:
229,242,78501,1,2,0:0:0:0:
168,96,78651,2,0,L|110:54,1,52.5000020027161
115,233,78951,2,0,L|163:267,1,52.5000020027161
289,62,79251,5,0,0:0:0:0:
385,243,79401,2,0,L|344:279,1,52.5000020027161
186,89,79701,1,0,0:0:0:0:
233,287,79851,2,0,L|188:329,1,52.5000020027161
39,231,80151,1,0,0:0:0:0:
105,145,80301,1,0,0:0:0:0:
260,59,80451,5,0,0:0:0:0:
378,168,80601,1,0,0:0:0:0:
285,270,80751,1,0,0:0:0:0:
158,195,80901,2,2,L|144:205,4,13.125000500679
188,57,81201,1,0,0:0:0:0:
63,153,81351,1,0,0:0:0:0:
249,200,81501,1,0,0:0:0:0:
432,55,81651,5,0,0:0:0:0:
396,212,81801,2,0,L|368:259,1,52.5000020027161
286,68,82101,1,0,0:0:0:0:
238,251,82251,2,0,L|208:298,1,52.5000020027161
128,105,82551,1,0,0:0:0:0:
46,266,82701,2,0,L|18:313,1,52.5000020027161
194,281,83001,5,2,0:0:0:0:
346,235,83151,1,2,0:0:0:0:
275,76,83301,1,2,0:0:0:0:
107,124,83451,1,0,0:0:0:0:
144,312,83601,1,2,0:0:0:0:
107,124,83751,1,0,0:0:0:0:
256,192,83901,1,0,0:0:0:0:
368,128,84051,6,0,P|408:162|468:170,2,105
201,126,84651,2,0,L|175:149,2,35.0000013351441
184,48,84951,2,0,L|216:21,2,35.0000013351441
376,120,85251,2,0,P|391:158|376:200,1,70
288,240,85551,2,0,P|277:203|296:168,1,70
128,56,85851,2,4,P|56:80|16:176,1,175,0|14,0:0|0:0,0:0:0:0:
256,255,87051,6,0,B|303:232|303:232|335:177,1,105.000004005432,2|0,0:0|0:0,0:0:0:0:
238,145,87501,2,0,B|186:139|186:139|123:177,1,105.000004005432
89,259,87951,1,0,0:0:0:0:
89,259,88101,1,0,0:0:0:0:
303,224,88251,2,0,L|343:184,1,52.5000020027161
138,151,88551,2,0,L|90:199,1,52.5000020027161
312,336,88851,5,0,0:0:0:0:
320,56,89001,1,0,0:0:0:0:
224,336,89151,1,0,0:0:0:0:
224,56,89301,1,0,0:0:0:0:
144,336,89451,1,0,0:0:0:0:
144,336,89751,6,0,B|121:318|121:318|112:280,1,52.5000020027161
176,72,90051,1,2,0:0:0:0:
264,240,90201,1,2,0:0:0:0:
176,72,90351,1,2,0:0:0:0:
60,210,90501,2,0,L|34:211,2,26.2500010013581
275,135,90801,1,0,0:0:0:0:
179,285,90951,1,0,0:0:0:0:
108,79,91101,1,0,0:0:0:0:
427,50,91251,5,0,0:0:0:0:
367,268,91401,2,0,L|320:303,1,52.5000020027161
261,65,91701,1,0,0:0:0:0:
224,251,91851,2,0,L|175:287,1,52.5000020027161
139,61,92151,1,0,0:0:0:0:
78,231,92301,2,0,L|33:266,1,52.5000020027161
224,119,92601,5,2,0:0:0:0:
326,233,92751,1,2,0:0:0:0:
212,307,92901,1,2,0:0:0:0:
120,179,93051,1,0,0:0:0:0:
266,63,93201,1,0,0:0:0:0:
408,224,93351,1,0,0:0:0:0:
280,320,93501,1,0,0:0:0:0:
120,179,93651,6,0,L|160:224,1,43.75
280,320,93951,2,0,L|232:272,1,52.5000020027161
90,195,94251,2,0,L|159:214,1,61.2500005841255
376,240,94551,2,0,L|278:212,1,70
62,226,94851,2,0,L|150:210,1,87.5
376,112,95151,2,0,L|280:136,1,87.5
61,225,95451,2,0,B|104:250|104:250|160:242,1,105.000004005432
288,33,96051,5,0,0:0:0:0:
452,207,96201,2,0,L|452:279,1,52.5000020027161
226,74,96501,1,0,0:0:0:0:
327,276,96651,2,0,L|327:337,1,52.5000020027161
288,86,96951,1,0,0:0:0:0:
182,263,97101,2,0,L|182:327,1,52.5000020027161
296,173,97401,5,2,0:0:0:0:
435,91,97551,1,2,0:0:0:0:
407,262,97701,1,2,0:0:0:0:
208,200,97851,2,0,L|192:132,1,52.5000020027161
340,49,98151,2,0,L|350:108,1,52.5000020027161
101,193,98451,5,0,0:0:0:0:
308,293,98601,2,0,P|339:300|374:296,1,52.5000020027161
157,148,98901,1,0,0:0:0:0:
420,170,99051,2,0,P|447:162|476:133,1,52.5000020027161
222,84,99351,1,0,0:0:0:0:
175,188,99501,1,0,0:0:0:0:
355,218,99651,5,0,0:0:0:0:
324,340,99801,1,0,0:0:0:0:
190,318,99951,1,0,0:0:0:0:
175,188,100101,2,2,L|152:188,4,13.125000500679
353,147,100401,1,0,0:0:0:0:
244,267,100551,1,0,0:0:0:0:
122,88,100701,1,0,0:0:0:0:
298,51,100851,5,0,0:0:0:0:
432,239,101001,2,0,L|402:282,1,52.5000020027161
229,85,101301,1,0,0:0:0:0:
315,281,101451,2,0,L|274:332,1,52.5000020027161
165,114,101751,1,0,0:0:0:0:
206,294,101901,2,0,L|163:340,1,52.5000020027161
25,213,102201,5,2,0:0:0:0:
136,100,102351,1,2,0:0:0:0:
239,201,102501,1,2,0:0:0:0:
358,84,102651,1,0,0:0:0:0:
422,271,102801,1,0,0:0:0:0:
358,84,102951,1,0,0:0:0:0:
422,271,103101,1,0,0:0:0:0:
192,312,103251,6,0,P|144:296|118:243,2,105
317,237,103851,2,0,L|350:206,2,35.0000013351441
215,203,104151,2,0,L|190:229,2,35.0000013351441
137,56,104451,2,0,P|111:81|107:119,1,70
234,122,104751,2,0,P|265:96|267:56,1,70
406,43,105051,2,0,P|465:66|497:129,1,131.25
497,124,105651,1,10,0:0:0:0:
79,75,106251,6,0,B|64:132|64:132|83:195,1,105.000004005432
123,258,106701,2,0,B|168:237|168:237|228:242,1,105.000004005432
313,317,107151,1,0,0:0:0:0:
313,317,107301,1,0,0:0:0:0:
441,209,107451,2,0,B|448:178|448:178|441:144,1,52.5000020027161
325,59,107751,2,0,B|318:84|318:84|326:114,1,52.5000020027161
214,273,108051,6,0,P|217:299|206:329,1,52.5000020027161
90,197,108351,2,0,P|84:166|90:138,1,52.5000020027161
256,67,108651,1,0,0:0:0:0:
256,67,108951,2,0,P|270:94|267:131,1,52.5000020027161
207,297,109251,1,0,0:0:0:0:
59,83,109401,1,0,0:0:0:0:
290,114,109551,1,0,0:0:0:0:
130,277,109701,6,2,L|107:277,4,13.125000500679
223,91,110001,1,0,0:0:0:0:
339,275,110151,1,0,0:0:0:0:
167,218,110301,1,0,0:0:0:0:
455,206,110451,5,0,0:0:0:0:
259,41,110601,2,0,P|229:35|197:40,1,52.5000020027161
58,190,110901,1,0,0:0:0:0:
276,342,111051,2,0,P|302:349|336:343,1,52.5000020027161
455,206,111351,1,0,0:0:0:0:
310,45,111501,2,0,P|278:38|247:45,1,52.5000020027161
77,186,111801,5,2,0:0:0:0:
179,307,111951,1,2,0:0:0:0:
277,202,112101,1,2,0:0:0:0:
341,50,112251,1,0,0:0:0:0:
400,223,112401,1,0,0:0:0:0:
219,85,112551,1,0,0:0:0:0:
274,282,112701,1,0,0:0:0:0:
72,271,112851,6,0,B|68:300|68:300|84:324,1,52.5000020027161
277,202,113151,2,0,B|271:235|271:235|252:256,1,52.5000020027161
143,70,113451,1,0,0:0:0:0:
48,186,113751,1,0,0:0:0:0:
256,264,114051,6,0,L|323:264,1,52.5000020027161
450,166,114351,1,0,0:0:0:0:
288,80,114501,2,2,L|278:91,4,13.125000500679
112,128,114801,1,0,0:0:0:0:
200,228,114951,6,0,B|225:252|225:252|273:268,1,70
258,263,115851,2,0,B|256:220|256:220|240:180,1,70
71,75,116751,1,0,0:0:0:0:
347,98,117051,2,0,L|275:98,1,70
49,186,117651,5,0,0:0:0:0:
49,186,118251,2,0,B|81:162|81:162|121:154,1,70
314,259,119001,1,0,0:0:0:0:
314,259,119151,1,0,0:0:0:0:
232,112,119451,2,0,B|195:127|195:127|152:128,1,70
69,251,120051,5,0,0:0:0:0:
171,49,120351,1,0,0:0:0:0:
323,215,120651,1,0,0:0:0:0:
203,324,120951,1,0,0:0:0:0:
137,144,121251,1,0,0:0:0:0:
328,84,121551,1,0,0:0:0:0:
311,281,121851,1,0,0:0:0:0:
203,152,122151,2,0,L|177:173,2,26.2500010013581
346,151,122451,5,0,0:0:0:0:
484,225,122751,1,0,0:0:0:0:
372,342,123051,1,0,0:0:0:0:
224,266,123351,1,0,0:0:0:0:
330,110,123651,1,0,0:0:0:0:
190,194,123951,1,0,0:0:0:0:
274,56,124251,1,0,0:0:0:0:
190,194,124551,1,0,0:0:0:0:
106,269,124851,6,0,L|139:326,1,52.5000020027161
241,279,125151,2,0,L|274:336,1,52.5000020027161
332,173,125451,2,0,L|297:123,1,52.5000020027161
371,65,125751,2,0,L|330:8,1,52.5000020027161
155,70,126051,1,0,0:0:0:0:
157,178,126201,1,0,0:0:0:0:
273,185,126351,2,0,L|325:151,1,52.5000020027161
176,113,126651,2,0,L|130:147,1,52.5000020027161
248,258,126951,2,2,L|248:281,4,13.125000500679
120,184,127251,5,0,0:0:0:0:
176,88,127401,1,0,0:0:0:0:
288,48,127551,2,0,L|351:48,1,52.5000020027161
413,145,127851,2,0,L|357:145,1,52.5000020027161
284,236,128151,2,0,L|354:236,1,52.5000020027161
220,331,128451,2,0,L|148:331,1,52.5000020027161
88,229,128751,2,0,L|157:229,1,52.5000020027161
225,125,129051,2,0,L|160:125,1,52.5000020027161
88,229,129351,2,2,L|88:253,4,13.125000500679
183,153,129651,5,0,0:0:0:0:
280,175,129801,1,0,0:0:0:0:
342,255,129951,2,0,L|342:329,1,52.5000020027161
445,187,130251,2,0,L|445:113,1,52.5000020027161
352,64,130551,2,0,L|351:126,1,52.5000020027161
256,216,130851,2,0,L|256:148,1,52.5000020027161
168,64,131151,2,0,L|168:137,1,52.5000020027161
168,224,131451,2,0,L|168:286,1,52.5000020027161
320,256,131751,2,2,L|341:255,4,13.125000500679
320,256,132051,6,0,B|263:262|263:262|208:239,1,105.000004005432
99,170,132501,1,0,0:0:0:0:
99,170,132651,2,0,B|102:138|102:138|122:115,1,52.5000020027161
214,35,132951,2,0,B|237:61|237:61|266:66,1,52.5000020027161
381,185,133251,2,0,L|342:224,1,52.5000020027161
124,295,133551,2,0,L|169:250,1,52.5000020027161
199,82,133851,2,0,B|230:93|230:93|271:83,1,52.5000020027161
395,213,134151,2,0,B|368:231|368:231|352:255,1,52.5000020027161
130,195,134451,5,0,0:0:0:0:
256,192,134601,12,0,138051,0:0:0:0:
306,77,139251,6,0,L|363:131,1,70
212,253,139851,2,0,L|159:198,1,70
249,75,140451,2,0,P|292:72|335:36,1,87.5
389,171,141051,2,0,P|378:219|396:265,1,87.5
167,276,141651,6,0,L|112:189,1,87.5
198,98,142251,2,0,P|243:84|273:46,1,87.5
408,96,142851,1,0,0:0:0:0:
488,216,143151,1,0,0:0:0:0:
352,256,143451,2,0,P|315:273|293:323,1,87.5
120,256,144051,5,0,0:0:0:0:
184,128,144351,1,0,0:0:0:0:
328,160,144651,2,0,P|381:142|409:101,1,87.5
208,40,145251,1,0,0:0:0:0:
88,120,145551,1,0,0:0:0:0:
216,176,145851,2,0,P|244:219|292:226,1,87.5
368,80,146451,6,0,L|440:142,1,87.5
368,248,147051,2,0,P|328:272|303:323,1,87.5
112,280,147651,1,0,0:0:0:0:
232,192,147951,1,0,0:0:0:0:
104,136,148251,2,0,P|112:88|156:64,1,87.5
336,72,148851,6,0,L|417:119,1,87.5
440,192,149301,1,0,0:0:0:0:
400,264,149451,2,0,P|352:288|310:284,1,87.5
201,99,150051,2,0,L|160:189,1,87.5
136,256,150501,1,0,0:0:0:0:
209,287,150651,2,0,P|249:271|301:273,1,87.5
384,104,151251,6,0,L|302:63,1,87.5
224,64,151701,1,0,0:0:0:0:
232,144,151851,2,0,P|216:192|175:225,1,87.5
392,272,152451,1,0,0:0:0:0:
376,144,152751,1,0,0:0:0:0:
368,136,152901,1,0,0:0:0:0:
360,128,153051,2,0,P|312:120|267:145,1,87.5
136,320,153651,5,0,0:0:0:0:
232,232,153951,1,0,0:0:0:0:
240,224,154101,1,0,0:0:0:0:
248,216,154251,2,0,L|208:132,1,87.5
400,32,154851,1,0,0:0:0:0:
368,152,155151,1,0,0:0:0:0:
360,160,155301,1,0,0:0:0:0:
352,168,155451,2,0,P|312:160|279:124,1,87.5
128,96,156051,5,0,0:0:0:0:
112,216,156351,2,0,L|157:261,2,52.5000020027161
168,66,156951,1,0,0:0:0:0:
280,184,157251,1,0,0:0:0:0:
440,160,157551,2,0,L|484:214,2,52.5000020027161
304,104,158151,1,0,0:0:0:0:
352,256,158451,6,0,P|413:251|426:165,1,157.500006008148
150,117,159351,2,0,P|108:166|165:222,1,157.500006008148
279,315,160251,1,0,0:0:0:0:
279,315,160551,1,0,0:0:0:0:
385,249,160851,6,0,P|412:196|399:145,1,105.000004005432
295,67,161301,1,0,0:0:0:0:
295,67,161451,2,0,L|281:140,1,52.5000020027161
195,163,161751,2,0,B|198:165|206:226,1,52.5000020027161
416,185,162051,2,0,P|375:217|353:276,1,105.000004005432
185,261,162501,1,0,0:0:0:0:
185,261,162651,2,0,P|208:301|268:304,1,105.000004005432
211,45,163251,6,0,B|167:111|167:111|224:169,1,157.500006008148
377,120,164151,2,0,B|431:179|431:179|387:242,1,157.500006008148
248,307,165051,1,0,0:0:0:0:
248,307,165351,1,0,0:0:0:0:
196,192,165651,6,0,B|231:182|231:182|262:199|320:191,1,105.000004005432
437,78,166101,1,0,0:0:0:0:
437,78,166251,2,0,L|428:142,1,52.5000020027161
361,241,166551,2,0,L|319:194,1,52.5000020027161
138,143,166851,2,0,P|162:192|227:218,1,105.000004005432
361,241,167301,1,0,0:0:0:0:
361,241,167451,2,0,P|317:277|265:280,1,105.000004005432
177,331,168051,5,0,0:0:0:0:
81,231,168351,1,0,0:0:0:0:
61,94,168651,1,0,0:0:0:0:
222,124,168951,1,0,0:0:0:0:
257,264,169251,2,0,P|198:271|161:222,1,105.000004005432
124,127,169851,1,0,0:0:0:0:
124,127,170151,2,2,L|137:142,4,13.125000500679
226,56,170451,5,0,0:0:0:0:
369,100,170751,1,0,0:0:0:0:
302,221,171051,1,0,0:0:0:0:
153,169,171351,1,0,0:0:0:0:
219,281,171651,2,0,P|164:290|110:277,1,105.000004005432
51,182,172251,1,0,0:0:0:0:
51,182,172551,2,2,L|72:173,4,13.125000500679
76,287,172851,5,0,0:0:0:0:
205,181,173151,1,0,0:0:0:0:
310,311,173451,1,0,0:0:0:0:
411,176,173751,1,0,0:0:0:0:
282,244,174051,2,0,P|230:218|202:172,1,105.000004005432
257,43,174651,1,0,0:0:0:0:
257,43,174951,2,2,L|274:37,4,13.125000500679
171,137,175251,5,0,0:0:0:0:
225,271,175551,1,0,0:0:0:0:
399,249,175851,1,0,0:0:0:0:
379,86,176151,1,0,0:0:0:0:
242,132,176451,2,0,B|191:111|191:111|128:111,1,105.000004005432
53,205,177051,1,0,0:0:0:0:
53,205,177351,2,2,L|41:214,4,13.125000500679
142,111,177651,6,0,P|166:160|227:165,1,105.000004005432
318,137,178101,1,0,0:0:0:0:
318,137,178251,2,0,L|365:115,1,52.5000020027161
431,193,178551,2,0,L|486:167,1,52.5000020027161
295,34,178851,2,0,L|319:145,1,105.000004005432
399,259,179301,1,0,0:0:0:0:
399,259,179451,2,0,L|343:232,1,52.5000020027161
251,280,179751,2,0,L|196:247,1,52.5000020027161
76,189,180051,6,0,P|58:135|84:77,1,105.000004005432
219,50,180501,1,0,0:0:0:0:
219,50,180651,2,0,L|267:98,1,52.5000020027161
217,187,180951,2,0,L|263:239,1,52.5000020027161
417,151,181251,2,0,P|425:207|465:247,1,105.000004005432
376,326,181701,1,0,0:0:0:0:
376,326,181851,2,0,L|304:342,1,52.5000020027161
189,275,182151,2,0,L|261:259,1,52.5000020027161
323,125,182451,6,0,P|377:122|425:165,1,105.000004005432
406,275,182901,1,0,0:0:0:0:
406,275,183051,2,0,L|352:318,1,52.5000020027161
210,309,183351,2,0,L|260:268,1,52.5000020027161
268,106,183651,2,0,P|218:79|166:81,1,105.000004005432
119,192,184101,1,0,0:0:0:0:
119,192,184251,2,0,L|156:248,1,52.5000020027161
260,219,184551,2,0,L|302:280,1,52.5000020027161
438,175,184851,6,0,L|438:59,1,105.000004005432
324,76,185301,1,0,0:0:0:0:
324,76,185451,2,0,L|324:148,1,52.5000020027161
220,178,185751,2,0,L|221:234,1,52.5000020027161
353,339,186051,2,0,P|385:295|435:281,1,105.000004005432
471,118,186501,1,0,0:0:0:0:
471,118,186651,2,0,P|421:157|367:163,1,105.000004005432
82,78,187251,5,2,0:0:0:0:
82,78,192051,6,0,P|75:112|82:150,1,70
157,305,192351,1,0,0:0:0:0:
275,160,192501,2,2,L|284:174,4,13.125000500679
444,148,192801,1,0,0:0:0:0:
261,32,192951,2,2,L|278:27,4,13.125000500679
83,162,193251,1,0,0:0:0:0:
270,291,193401,2,2,L|257:294,4,13.125000500679
425,183,193701,1,0,0:0:0:0:
240,91,193851,2,0,L|215:85,2,26.2500010013581
133,195,194151,2,0,B|144:229|144:229|133:276,1,70
387,249,194451,6,2,L|400:260,4,13.125000500679
188,295,194751,2,2,L|172:280,4,13.125000500679
298,75,195051,2,2,L|310:86,4,13.125000500679
48,131,195351,2,2,L|33:117,4,13.125000500679
178,265,195651,6,0,B|210:308|210:308|261:316,1,105
261,316,196251,2,0,B|281:284|281:284|318:277,1,70
198,110,196851,1,0,0:0:0:0:
198,110,197451,5,0,0:0:0:0:
267,247,197601,1,0,0:0:0:0:
402,106,197751,2,0,L|402:178,1,70
243,318,198051,1,0,0:0:0:0:
13,73,198201,1,0,0:0:0:0:
106,321,198351,1,0,0:0:0:0:
317,47,198501,1,0,0:0:0:0:
342,294,198651,5,0,0:0:0:0:
137,234,198801,1,0,0:0:0:0:
233,38,198951,1,0,0:0:0:0:
439,170,199101,1,0,0:0:0:0:
137,234,199251,2,0,P|112:208|103:168,1,70
323,155,199551,2,0,P|346:185|354:224,1,70
56,150,199851,1,0,0:0:0:0:
284,28,200001,1,0,0:0:0:0:
227,305,200151,1,0,0:0:0:0:
116,104,200301,1,0,0:0:0:0:
336,93,200451,6,0,P|364:122|399:132,1,70
175,235,200751,1,0,0:0:0:0:
372,277,200901,2,2,L|361:289,4,13.125000500679
413,91,201201,1,0,0:0:0:0:
311,188,201351,1,0,0:0:0:0:
271,37,201501,1,0,0:0:0:0:
124,116,201651,1,0,0:0:0:0:
124,116,202251,5,0,0:0:0:0:
214,287,202401,1,0,0:0:0:0:
390,167,202551,2,0,B|429:175|429:175|462:167,1,70
315,45,202851,1,0,0:0:0:0:
275,342,203001,1,0,0:0:0:0:
94,173,203151,1,0,0:0:0:0:
374,83,203301,1,0,0:0:0:0:
89,62,203451,5,0,0:0:0:0:
159,323,203601,1,0,0:0:0:0:
232,96,203751,1,0,0:0:0:0:
159,323,203901,1,0,0:0:0:0:
408,168,204051,5,0,0:0:0:0:
159,323,204201,1,0,0:0:0:0:
304,96,204351,1,0,0:0:0:0:
352,336,204501,1,0,0:0:0:0:
98,198,204651,1,0,0:0:0:0:
303,39,204801,1,0,0:0:0:0:
310,294,204951,1,0,0:0:0:0:
87,112,205101,1,0,0:0:0:0:
190,280,205251,6,0,P|206:311|237:333,1,70
339,163,205551,2,0,P|325:128|290:105,1,70
142,234,205851,1,0,0:0:0:0:
99,75,206001,1,0,0:0:0:0:
308,29,206151,1,0,0:0:0:0:
371,257,206301,1,0,0:0:0:0:
132,310,206451,1,0,0:0:0:0:
132,310,207051,5,0,0:0:0:0:
65,113,207201,1,0,0:0:0:0:
284,79,207351,2,0,B|322:73|322:73|360:79,1,70
469,262,207651,1,0,0:0:0:0:
255,336,207801,1,0,0:0:0:0:
193,58,207951,1,0,0:0:0:0:
424,202,208101,1,0,0:0:0:0:
122,32,208251,1,0,0:0:0:0:
211,281,208401,1,0,0:0:0:0:
346,28,208551,1,0,0:0:0:0:
282,284,208701,1,0,0:0:0:0:
109,208,208851,6,0,B|77:187|77:187|56:152,1,70
311,104,209151,2,0,B|339:127|339:127|354:160,1,70
338,321,209451,1,0,0:0:0:0:
338,321,209751,5,0,0:0:0:0:
178,214,209901,1,0,0:0:0:0:
352,97,210051,1,0,0:0:0:0:
278,278,210201,1,0,0:0:0:0:
154,86,210351,1,0,0:0:0:0:
309,170,210501,2,2,L|320:189,4,13.125000500679
386,41,210801,1,0,0:0:0:0:
340,277,210951,1,0,0:0:0:0:
242,73,211101,1,0,0:0:0:0:
406,188,211251,1,0,0:0:0:0:
406,188,211851,5,0,0:0:0:0:
264,112,212001,1,0,0:0:0:0:
175,231,212151,2,0,P|209:237|250:231,1,70
371,310,212451,1,0,0:0:0:0:
278,40,212601,1,0,0:0:0:0:
167,300,212751,1,0,0:0:0:0:
371,103,212901,1,0,0:0:0:0:
221,291,213051,1,0,0:0:0:0:
154,116,213201,1,0,0:0:0:0:
56,296,213351,1,0,0:0:0:0:
154,116,213501,1,0,0:0:0:0:
48,96,213651,6,0,L|80:128,1,43.75
216,256,213951,2,0,L|176:216,1,52.5000020027161
19,113,214251,2,0,L|91:129,1,61.2500005841255
320,168,214551,2,0,L|239:152,1,70
0,152,214851,2,0,L|96:121,1,87.5
328,48,215151,2,0,L|232:80,1,87.5
64,200,215451,2,0,B|112:216|112:216|184:200,1,105.000004005432
344,201,216051,5,0,0:0:0:0:
344,201,216651,5,0,0:0:0:0:
136,251,216801,1,0,0:0:0:0:
225,105,216951,2,0,L|259:158,1,52.5000020027161,0|0,0:0|0:0,0:0:0:0:
225,338,217251,1,0,0:0:0:0:
408,70,217401,1,0,0:0:0:0:
90,121,217551,1,0,0:0:0:0:
316,319,217701,1,0,0:0:0:0:
150,157,217851,5,0,0:0:0:0:
328,153,218001,1,0,0:0:0:0:
234,297,218151,2,0,L|278:333,1,52.5000020027161,0|0,0:0|0:0,0:0:0:0:
378,110,218451,1,0,0:0:0:0:
213,212,218601,1,0,0:0:0:0:
271,36,218751,1,0,0:0:0:0:
390,250,218901,1,0,0:0:0:0:
168,219,219051,5,0,0:0:0:0:
291,125,219201,1,0,0:0:0:0:
390,250,219351,2,0,L|335:279,1,52.5000020027161,0|0,0:0|0:0,0:0:0:0:
119,111,219651,1,0,0:0:0:0:
271,317,219801,1,0,0:0:0:0:
323,48,219951,1,0,0:0:0:0:
173,240,220101,1,0,0:0:0:0:
166,245,220176,1,0,0:0:0:0:
158,250,220251,1,0,0:0:0:0:
200,48,220401,5,0,0:0:0:0:
239,250,220551,1,0,0:0:0:0:
200,48,220701,1,0,0:0:0:0:
403,164,220851,1,0,0:0:0:0:
225,334,221001,1,0,0:0:0:0:
200,48,221151,1,0,0:0:0:0:
457,240,221301,1,0,0:0:0:0:
254,70,221451,5,0,0:0:0:0:
131,184,221601,1,0,0:0:0:0:
316,214,221751,2,0,L|266:249,1,52.5000020027161,0|0,0:0|0:0,0:0:0:0:
174,126,222051,1,0,0:0:0:0:
212,327,222201,1,0,0:0:0:0:
319,89,222351,1,0,0:0:0:0:
116,297,222501,1,0,0:0:0:0:
130,86,222651,5,0,0:0:0:0:
188,227,222801,1,0,0:0:0:0:
307,164,222951,2,0,B|341:214,1,52.5000020027161
131,65,223251,5,0,0:0:0:0:
178,281,223401,1,0,0:0:0:0:
131,65,223551,1,0,0:0:0:0:
178,281,223701,1,0,0:0:0:0:
344,39,223851,1,0,0:0:0:0:
286,239,224001,1,0,0:0:0:0:
344,39,224151,1,0,0:0:0:0:
286,239,224301,1,0,0:0:0:0:
197,85,224451,5,0,0:0:0:0:
421,151,224601,1,0,0:0:0:0:
182,80,224751,1,0,0:0:0:0:
436,156,224901,1,0,0:0:0:0:
298,341,225051,1,8,0:0:0:0:
298,341,225651,5,0,0:0:0:0:
170,126,225801,2,0,L|137:168,1,52.5000020027161
385,300,226101,1,0,0:0:0:0:
266,66,226251,2,0,L|228:112,1,52.5000020027161
482,251,226551,1,0,0:0:0:0:
365,36,226701,2,0,L|330:77,1,52.5000020027161
155,135,227001,1,0,0:0:0:0:
243,316,227151,1,0,0:0:0:0:
376,169,227301,1,0,0:0:0:0:
172,66,227451,5,0,0:0:0:0:
400,248,227601,1,0,0:0:0:0:
369,46,227751,1,0,0:0:0:0:
202,238,227901,1,0,0:0:0:0:
438,75,228051,1,0,0:0:0:0:
347,328,228201,1,0,0:0:0:0:
156,86,228351,1,0,0:0:0:0:
233,323,228501,1,0,0:0:0:0:
336,51,228651,1,0,0:0:0:0:
168,280,228801,1,0,0:0:0:0:
69,91,228951,1,0,0:0:0:0:
293,275,229101,1,0,0:0:0:0:
323,49,229251,5,0,0:0:0:0:
226,240,229401,1,0,0:0:0:0:
204,60,229551,1,0,0:0:0:0:
112,242,229701,2,2,L|124:255,4,13.125000500679
305,47,230001,1,0,0:0:0:0:
266,257,230151,1,0,0:0:0:0:
305,47,230301,1,0,0:0:0:0:
150,94,230451,5,0,0:0:0:0:
195,303,230601,2,0,B|219:325|219:325|259:336,1,52.5000020027161
276,123,230901,1,0,0:0:0:0:
47,218,231051,2,0,B|46:248|46:248|65:277,1,52.5000020027161
243,206,231351,1,0,0:0:0:0:
96,59,231501,2,0,B|73:76|73:76|62:104,1,52.5000020027161
222,273,231801,5,0,0:0:0:0:
396,174,231951,1,0,0:0:0:0:
222,273,232101,1,0,0:0:0:0:
226,66,232251,1,0,0:0:0:0:
340,293,232401,1,0,0:0:0:0:
146,109,232551,1,0,0:0:0:0:
398,107,232701,1,0,0:0:0:0:
158,270,232851,5,0,0:0:0:0:
348,268,233001,1,0,0:0:0:0:
158,270,233151,1,0,0:0:0:0:
348,268,233301,1,0,0:0:0:0:
93,199,233451,1,0,0:0:0:0:
422,202,233601,1,0,0:0:0:0:
93,199,233751,1,0,0:0:0:0:
422,202,233901,1,0,0:0:0:0:
133,89,234051,5,0,0:0:0:0:
93,199,234201,1,0,0:0:0:0:
196,262,234351,1,0,0:0:0:0:
329,194,234501,2,2,L|329:207,4,13.125000500679
228,118,234801,1,0,0:0:0:0:
374,69,234951,1,0,0:0:0:0:
438,203,235101,1,0,0:0:0:0:
179,150,235251,5,0,0:0:0:0:
256,192,235401,12,0,240051,0:0:0:0:
