osu file format v14

[General]
AudioFilename: audio.mp3
AudioLeadIn: 0
PreviewTime: 50538
Countdown: 0
SampleSet: Soft
StackLeniency: 0.2
Mode: 0
LetterboxInBreaks: 0
WidescreenStoryboard: 0

[Editor]
Bookmarks: 30328,50538,70749,80854,101065,121275,141486
DistanceSpacing: 0.8
BeatDivisor: 2
GridSize: 32
TimelineZoom: 1.700001

[Metadata]
Title:Shadows (feat. Nevve)
TitleUnicode:Shadows (feat. Nevve)
Artist:Aero Chord
ArtistUnicode:Aero Chord
Creator:Frakturehawkens
Version:NeilPerry's Conflux
Source:
Tags:english monstercat electronic bass dance djulus neilperry
BeatmapID:2021000
BeatmapSetID:965463

[Difficulty]
HPDrainRate:6
CircleSize:4
OverallDifficulty:9
ApproachRate:9.4
SliderMultiplier:2.56
SliderTickRate:1

[Events]
//Background and Video events
0,0,"ttt.jpg",0,0
//Break Periods
2,70949,80314
//Storyboard Layer 0 (Background)
//Storyboard Layer 1 (Fail)
//Storyboard Layer 2 (Pass)
//Storyboard Layer 3 (Foreground)
//Storyboard Layer 4 (Overlay)
//Storyboard Sound Samples

[TimingPoints]
5065,631.578947368421,4,2,1,40,1,0
6801,-100,4,2,1,5,0,0
6959,-133.333333333333,4,2,1,40,0,0
7591,-66.6666666666667,4,2,1,40,0,0
9486,-43.4782608695652,4,2,1,40,0,0
10433,-80,4,2,1,50,0,0
19591,-43.4782608695652,4,2,1,50,0,0
20222,-66.6666666666667,4,2,1,50,0,0
29065,-133.333333333333,4,2,1,50,0,0
29696,-66.6666666666667,4,2,1,50,0,0
30643,-80,4,2,1,50,0,0
40433,-80,4,2,1,55,0,0
48012,-133.333333333333,4,2,1,50,0,0
49907,-200,4,2,1,30,0,0
50538,-38.4615384615385,4,2,1,65,0,1
51801,-50,4,2,1,65,0,1
53065,-38.4615384615385,4,2,1,65,0,1
54328,-50,4,2,1,65,0,1
55433,-133.333333333333,4,2,1,65,0,1
55591,-38.4615384615385,4,2,1,65,0,1
56854,-50,4,2,1,65,0,1
58117,-38.4615384615385,4,2,1,65,0,1
60012,-200,4,2,1,35,0,1
60643,-38.4615384615385,4,2,1,65,0,1
61907,-50,4,2,1,65,0,1
63170,-38.4615384615385,4,2,1,65,0,1
65538,-133.333333333333,4,2,1,65,0,1
65696,-38.4615384615385,4,2,1,65,0,1
68222,-100,4,2,1,65,0,1
68854,-50,4,2,1,65,0,1
69486,-66.6666666666667,4,2,1,65,0,1
70591,-38.4615384615385,4,2,1,65,0,1
70749,-38.4615384615385,4,2,1,40,0,0
80854,-66.6666666666667,4,2,1,50,0,0
90328,-43.4782608695652,4,2,1,50,0,0
91275,-57.1428571428571,4,2,1,50,0,0
95380,-66.6666666666667,4,2,1,50,0,0
96012,-57.1428571428571,4,2,1,50,0,0
99801,-133.333333333333,4,2,1,50,0,0
99959,-57.1428571428571,4,2,1,50,0,0
101380,-80,4,2,1,50,0,0
111170,-80,4,2,1,55,0,0
118749,-133.333333333333,4,2,1,50,0,0
120643,-200,4,2,1,30,0,0
121275,-38.4615384615385,4,2,1,65,0,1
122538,-50,4,2,1,65,0,1
123801,-38.4615384615385,4,2,1,65,0,1
125065,-50,4,2,1,65,0,1
126170,-133.333333333333,4,2,1,65,0,1
126328,-38.4615384615385,4,2,1,65,0,1
127591,-50,4,2,1,65,0,1
128854,-38.4615384615385,4,2,1,65,0,1
132643,-50,4,2,1,65,0,1
133907,-38.4615384615385,4,2,1,65,0,1
136275,-133.333333333333,4,2,1,65,0,1
136433,-38.4615384615385,4,2,1,65,0,1
138959,-100,4,2,1,65,0,1
139591,-50,4,2,1,65,0,1
140222,-66.6666666666667,4,2,1,65,0,1
141328,-38.4615384615385,4,2,1,65,0,1
141486,-38.4615384615385,4,2,1,40,0,0

[Colours]
Combo1 : 106,255,106
Combo2 : 85,255,255
SliderBorder : 240,184,100
SliderTrackOverride : 30,30,30

[HitObjects]
256,192,5222,12,0,6800,0:0:0:0:
128,72,6959,6,0,L|119:48,1,24.0000009155274,2|0,0:0|0:0,0:0:0:0:
204,47,7117,2,0,L|195:23,1,24.0000009155274,2|0,0:0|0:0,0:0:0:0:
248,131,7275,6,0,L|239:153,1,24.0000009155274,2|0,0:0|0:0,0:0:0:0:
324,156,7433,2,0,L|315:178,1,24.0000009155274,2|0,0:0|0:0,0:0:0:0:
461,121,7591,5,2,0:0:0:0:
409,196,7749,2,0,P|357:210|274:266,1,144.000005493164,2|0,0:1|0:0,0:0:0:0:
235,338,8065,6,0,P|232:350|242:336,1,48.0000018310548,2|0,0:0|0:0,0:0:0:0:
200,257,8222,2,0,P|193:267|196:250,1,48.0000018310548,2|0,0:0|0:0,0:0:0:0:
95,151,8380,6,0,B|120:158|137:188|119:206|119:206|89:247|98:294|133:321,1,192.000007324219,2|0,0:0|0:0,0:0:0:0:
324,376,8854,6,0,P|300:346|234:343,2,96.0000036621095,0|0|0,0:0|0:0|0:0,0:0:0:0:
462,332,9328,1,0,0:0:0:0:
463,181,9486,2,0,P|417:233|320:265,1,147.200002807617,2|0,0:0|0:0,0:0:0:0:
79,294,9801,5,0,1:0:0:0:
67,314,9880,1,0,1:0:0:0:
85,326,9959,1,0,1:0:0:0:
102,319,10038,1,0,1:0:0:0:
103,298,10117,1,0,3:0:0:0:
79,294,10433,6,0,P|69:248|56:204,1,80,2|0,0:0|0:0,0:0:0:0:
236,37,10749,2,0,P|181:50|192:113,1,120,0|0,3:0|0:0,0:0:0:0:
136,176,11065,2,0,P|217:154|317:131,1,160,2|0,0:0|3:0,0:0:0:0:
291,137,11696,6,0,P|300:179|308:224,1,80,2|0,0:0|0:0,0:0:0:0:
433,363,12012,2,0,P|424:321|405:234,1,120,0|0,3:0|0:0,0:0:0:0:
388,152,12328,2,0,B|370:87|423:44|487:71|471:117,1,160,2|0,0:0|3:0,0:0:0:0:
473,100,12959,6,0,P|478:130|464:150,1,40,2|0,0:0|0:0,0:0:0:0:
512,205,13117,2,0,P|494:229|470:233,1,40,2|0,0:0|0:0,0:0:0:0:
314,325,13275,5,0,3:0:0:0:
314,325,13591,2,0,P|379:329|443:372,1,120,2|0,0:0|0:0,0:0:0:0:
405,249,13907,2,0,P|362:224|331:80,1,200,0|0,3:0|0:0,0:0:0:0:
317,3,14380,5,0,3:0:0:0:
309,3,14538,2,0,P|268:20|250:53,1,80,2|0,0:0|0:0,0:0:0:0:
82,154,14854,2,0,P|164:142|262:133,1,160,0|0,3:0|3:0,0:0:0:0:
72,45,15486,6,0,P|39:73|-4:81,1,80,2|0,0:0|0:0,0:0:0:0:
116,268,15801,2,0,P|99:208|74:133,1,120,0|0,3:0|0:0,0:0:0:0:
153,94,16117,2,0,B|211:65|234:5|193:-53|157:16|192:30,1,160,2|0,0:0|3:0,0:0:0:0:
22,373,16749,6,0,P|57:359|123:344,1,80,2|0,0:0|0:0,0:0:0:0:
190,195,17065,2,0,P|245:228|328:241,1,120,0|0,3:0|0:0,0:0:0:0:
400,246,17380,2,0,P|430:186|348:190,1,160,2|0,0:0|3:0,0:0:0:0:
298,240,18012,6,0,P|306:281|310:335,1,80,2|0,0:0|0:0,0:0:0:0:
479,165,18328,2,0,P|489:102|503:17,1,120,0|0,3:0|0:0,0:0:0:0:
415,13,18643,2,0,B|395:0|371:21|379:43|417:49|418:15,1,80,2|0,0:0|0:0,0:0:0:0:
479,165,18959,5,0,3:3:0:0:
339,90,19117,1,0,3:3:0:0:
206,38,19275,1,0,3:3:0:0:
40,10,19433,1,0,3:3:0:0:
129,159,19591,6,0,P|200:131|356:85,1,220.800004211426,2|0,3:2|0:0,0:0:0:0:
492,84,19907,5,0,1:0:0:0:
480,102,19986,1,0,1:0:0:0:
473,123,20065,1,0,1:0:0:0:
474,144,20143,1,0,1:0:0:0:
479,165,20222,5,0,3:0:0:0:
510,255,20380,1,0,0:0:0:0:
437,333,20538,2,0,P|421:278|400:213,1,96.0000036621095,2|8,0:0|0:3,0:0:0:0:
335,59,20854,1,0,3:0:0:0:
298,192,21012,2,0,P|344:178|365:129,1,96.0000036621095,0|8,0:0|0:3,0:0:0:0:
401,14,21328,1,0,0:0:0:0:
217,144,21486,6,0,P|247:205|267:307,1,144.000005493164,0|0,3:0|0:0,0:0:0:0:
266,285,21801,1,2,0:0:0:0:
164,235,21959,2,0,P|133:279|130:322,1,96.0000036621095,8|0,0:3|3:0,0:0:0:0:
8,108,22275,1,2,0:0:0:0:
61,195,22433,2,0,P|55:242|26:279,1,96.0000036621095,8|0,0:3|0:0,0:0:0:0:
104,0,22749,6,0,P|105:63|145:142,1,144.000005493164,0|0,3:0|0:0,0:0:0:0:
197,55,23065,2,0,P|203:36|192:44,1,48.0000018310548,2|0,0:0|0:0,0:0:0:0:
61,195,23222,2,0,P|41:194|56:207,1,48.0000018310548,8|0,0:3|0:0,0:0:0:0:
255,197,23380,1,0,3:0:0:0:
255,197,23538,2,0,P|301:215|334:276,2,96.0000036621095,0|8|0,0:0|0:3|0:0,0:0:0:0:
231,340,24012,5,0,3:0:0:0:
328,251,24170,1,0,1:0:0:0:
401,141,24328,1,0,1:0:0:0:
405,4,24486,1,0,3:0:0:0:
245,86,24643,6,0,P|297:74|339:62,1,96.0000036621095,2|0,0:0|0:0,0:0:0:0:
512,86,24959,2,0,P|438:88|401:145,1,144.000005493164,0|0,3:0|0:0,0:0:0:0:
326,177,25275,6,0,P|350:240|369:320,1,144.000005493164,0|0,3:0|0:0,0:0:0:0:
370,323,25591,1,2,0:0:0:0:
490,251,25749,2,0,P|496:193|467:148,1,96.0000036621095,8|0,0:3|0:0,0:0:0:0:
272,313,26065,1,2,0:0:0:0:
326,177,26222,2,0,P|289:131|236:120,1,96.0000036621095,8|0,0:3|0:0,0:0:0:0:
107,150,26538,6,0,B|125:210|178:193|178:193|232:176|275:235,1,192.000007324219,0|8,3:0|0:3,0:0:0:0:
123,331,27012,2,0,L|143:278,1,48.0000018310548,2|0,0:0|0:0,0:0:0:0:
107,150,27170,1,0,3:0:0:0:
28,165,27328,1,2,0:0:0:0:
0,320,27486,2,0,P|69:300|161:282,1,144.000005493164,8|0,0:3|0:0,0:0:0:0:
170,212,27801,6,0,P|210:243|207:312,1,96.0000036621095,2|2,3:2|0:0,0:0:0:0:
255,119,28117,2,0,P|246:81|229:4,1,96.0000036621095,2|8,0:0|0:3,0:0:0:0:
416,0,28433,6,0,B|336:40|346:108|409:103|377:60,1,144.000005493164,2|0,3:2|0:0,0:0:0:0:
439,167,28749,2,0,B|528:172|553:108|496:81|502:134,1,144.000005493164,2|0,1:2|0:0,0:0:0:0:
390,239,29065,6,0,L|384:255,3,12.0000004577637,0|0|0|0,1:0|0:0|0:0|0:0,0:0:0:0:
308,305,29222,1,0,3:0:0:0:
319,312,29301,1,0,3:0:0:0:
329,320,29380,1,0,3:0:0:0:
465,285,29538,1,0,3:0:0:0:
465,285,29696,6,0,P|388:291|325:322,1,144.000005493164,2|0,0:0|0:0,0:0:0:0:
244,264,30012,5,0,3:0:0:0:
236,245,30091,1,0,1:0:0:0:
226,226,30170,1,0,1:0:0:0:
216,210,30249,1,0,1:0:0:0:
206,196,30328,1,8,1:3:0:0:
45,36,30643,6,0,P|56:72|70:128,2,80,2|0|0,0:0|1:0|0:0,0:0:0:0:
45,36,31275,5,0,1:0:0:0:
177,164,31591,5,8,0:3:0:0:
91,186,31749,1,0,1:0:0:0:
44,248,31907,1,0,0:0:0:0:
37,273,32065,1,2,0:0:0:0:
44,283,32222,1,0,1:0:0:0:
57,375,32538,6,0,P|89:350|130:321,2,80,8|0|0,0:3|1:0|1:0,0:0:0:0:
0,299,33170,2,0,P|32:275|64:251,2,80,2|0|2,0:0|1:0|0:0,0:0:0:0:
0,299,33801,5,0,1:0:0:0:
231,212,34117,5,2,0:0:0:0:
269,139,34275,1,0,1:0:0:0:
267,126,34433,2,0,P|255:79|231:41,1,80,0|8,0:0|0:3,0:0:0:0:
356,97,34749,2,0,P|337:61|328:22,1,80,0|2,1:0|0:0,0:0:0:0:
470,143,35065,5,0,1:0:0:0:
356,97,35222,1,0,1:0:0:0:
239,51,35380,1,0,1:0:0:0:
347,359,35696,6,0,P|357:320|375:251,2,80,2|0|2,0:0|1:0|0:0,0:0:0:0:
347,359,36328,5,0,1:0:0:0:
512,241,36643,5,8,0:3:0:0:
426,219,36801,1,0,1:0:0:0:
379,157,36959,1,2,0:0:0:0:
372,132,37117,1,2,0:0:0:0:
379,122,37274,1,0,1:0:0:0:
265,120,37591,6,0,P|277:157|291:216,2,80,8|0|0,0:3|1:0|1:0,0:0:0:0:
227,25,38065,1,2,0:0:0:0:
232,36,38222,1,2,0:0:0:0:
371,39,38380,1,0,1:0:0:0:
371,39,38696,5,2,0:0:0:0:
265,120,38854,2,0,P|226:135|172:156,2,80,0|0|8,1:0|0:0|0:3,0:0:0:0:
453,21,39328,5,0,1:0:0:0:
457,37,39486,1,2,0:0:0:0:
464,50,39643,1,2,0:0:0:0:
388,164,39801,5,0,1:0:0:0:
462,192,39959,1,2,0:0:0:0:
308,268,40117,5,0,1:0:0:0:
462,192,40275,1,0,1:0:0:0:
327,73,40433,2,0,L|334:101,3,20,0|0|0|0,3:0|0:0|0:0|0:0,0:0:0:0:
301,0,40749,5,2,0:0:0:0:
231,59,40907,1,0,1:0:0:0:
155,116,41065,2,0,P|119:124|77:134,1,80,2|0,0:0|0:0,0:0:0:0:
55,45,41380,2,0,P|91:37|133:27,1,80,8|0,0:3|0:0,0:0:0:0:
331,92,41696,5,0,3:0:0:0:
315,189,41854,1,0,1:0:0:0:
159,215,42012,5,0,1:0:0:0:
189,332,42170,1,0,3:0:0:0:
315,189,42328,6,0,L|304:165,4,20,0|0|0|0|0,1:0|0:0|0:0|0:0|0:0,0:0:0:0:
189,332,42643,2,0,L|176:360,4,20,0|0|0|0|0,3:0|0:0|0:0|0:0|0:0,0:0:0:0:
372,325,42959,2,0,L|351:310,3,20,8|0|0|0,0:0|0:0|0:0|0:0,0:0:0:0:
444,368,43275,5,2,0:0:0:0:
283,267,43433,1,0,1:0:0:0:
423,238,43591,2,0,P|440:203|464:156,1,80,2|0,3:2|0:0,0:0:0:0:
430,19,43907,2,0,P|412:54|394:90,1,80,0|0,1:0|0:0,0:0:0:0:
251,192,44222,5,2,3:2:0:0:
355,167,44380,1,0,1:0:0:0:
256,344,44538,5,2,3:2:0:0:
83,297,44696,1,0,1:0:0:0:
251,192,44854,6,0,L|246:160,4,20,0|0|0|0|0,3:0|0:0|0:0|0:0|0:0,0:0:0:0:
256,344,45170,2,0,L|251:376,4,20,0|0|0|0|0,1:0|0:0|0:0|0:0|0:0,0:0:0:0:
83,297,45486,5,0,1:0:0:0:
213,266,45643,1,0,1:0:0:0:
340,242,45801,1,0,1:0:0:0:
467,213,45959,1,0,1:0:0:0:
392,0,46117,5,0,1:0:0:0:
363,127,46275,1,0,1:0:0:0:
339,254,46433,1,0,1:0:0:0:
308,384,46590,1,0,1:0:0:0:
467,213,46748,5,0,1:0:0:0:
185,343,46959,5,0,1:0:0:0:
213,35,47169,5,0,1:0:0:0:
376,204,47380,5,0,1:0:0:0:
235,271,47591,5,0,1:0:0:0:
249,116,47801,5,0,1:0:0:0:
290,196,48012,5,2,1:2:0:0:
290,196,48328,5,2,0:0:0:0:
376,201,48486,1,0,1:0:0:0:
235,271,48644,1,2,0:0:0:0:
249,116,48802,1,2,0:0:0:0:
331,283,48959,6,0,L|352:327,1,48.0000018310548,0|0,1:0|0:0,0:0:0:0:
455,336,49275,1,2,0:0:0:0:
455,336,49433,1,0,1:0:0:0:
235,271,49591,1,2,0:0:0:0:
235,271,49749,1,2,0:0:0:0:
469,250,49907,6,0,L|479:214,1,32,2|0,0:0|0:0,0:0:0:0:
257,350,50222,2,0,L|267:386,1,32,2|0,0:0|0:0,0:0:0:0:
332,249,50538,6,0,B|443:171|426:11|322:-23|226:57|258:167|394:170,1,415.999980957032,12|0,0:0|0:0,0:0:0:0:
490,340,51012,2,0,P|448:329|403:313,1,83.1999961914064,8|0,0:3|0:0,0:0:0:0:
176,96,51170,6,0,P|196:131|197:181,1,83.1999961914064,2|0,3:1|0:0,0:0:0:0:
108,195,51328,2,0,P|88:160|87:110,1,83.1999961914064,2|0,0:1|0:0,0:0:0:0:
112,352,51486,6,2,P|40:350|89:273,1,166.399992382813,2|0,1:1|0:1,0:0:0:0:
356,57,51801,6,0,B|391:118|359:187|307:238|279:145|362:158,1,192,2|0,3:2|0:0,0:0:0:0:
437,228,52117,2,0,B|493:241|465:148|413:199|381:268|416:329,1,192,2|0,0:0|0:0,0:0:0:0:
290,295,52433,6,0,B|276:238|369:266|318:318|249:350|188:315,1,192,2|0,3:2|0:0,0:0:0:0:
86,203,52749,2,0,B|147:168|216:200|267:252|174:280|187:197,1,192,2|0,1:2|0:0,0:0:0:0:
49,375,53065,6,0,B|18:237|82:200|152:134|221:187|238:287|138:295|96:246|81:187,1,415.999980957032,10|0,0:0|0:0,0:0:0:0:
149,0,53538,2,0,P|160:38|174:99,1,83.1999961914064,8|0,0:3|0:0,0:0:0:0:
483,0,53696,6,0,P|445:8|395:12,1,83.1999961914064,2|0,3:1|0:0,0:0:0:0:
306,221,53854,2,0,P|344:213|394:209,1,83.1999961914064,2|0,0:1|0:0,0:0:0:0:
493,99,54012,6,2,B|429:73|353:103|394:122|328:149|236:116,1,249.599988574219,0|0,1:1|0:1,0:0:0:0:
170,80,54328,6,0,P|147:87|168:90,1,64,0|0,3:0|0:0,0:0:0:0:
208,206,54486,1,0,1:0:0:0:
254,122,54643,1,2,0:1:0:0:
297,39,54801,1,8,0:0:0:0:
243,352,54959,6,0,P|266:345|245:342,1,64,0|0,3:0|0:0,0:0:0:0:
208,206,55117,1,0,1:0:0:0:
166,301,55274,1,2,0:1:0:0:
116,375,55433,2,0,L|95:380,3,12.0000004577637,0|0|0|0,1:0|1:0|1:0|1:0,0:0:0:0:
116,375,55591,6,0,B|184:330|184:182|135:103|12:149|72:251|168:302,1,415.999980957032,12|0,0:0|0:0,0:0:0:0:
348,368,56065,2,0,P|362:327|375:285,1,83.1999961914064,8|0,0:3|0:0,0:0:0:0:
496,72,56222,6,0,P|468:31|423:9,1,83.1999961914064,2|0,3:1|0:0,0:0:0:0:
376,70,56380,2,0,P|397:105|432:128,1,83.1999961914064,2|0,0:1|0:0,0:0:0:0:
457,287,56538,6,2,P|419:222|308:229,1,166.399992382813,2|0,1:1|0:1,0:0:0:0:
152,0,56854,6,0,B|97:46|118:141|167:154|187:98|134:63,1,192,2|0,3:2|0:0,0:0:0:0:
45,211,57170,2,0,B|7:189|27:133|76:146|97:241|42:287,1,192,2|0,0:0|0:0,0:0:0:0:
173,327,57486,6,0,B|131:315|105:369|149:394|231:342|225:271,1,192,2|0,3:2|0:0,0:0:0:0:
334,212,57801,2,0,B|340:140|258:88|214:113|239:167|302:154,1,192,2|0,1:2|0:0,0:0:0:0:
512,302,58117,6,0,B|461:209|344:174|250:222|239:392|409:430|431:266,1,415.999980957032,8|0,0:0|0:0,0:0:0:0:
475,160,58591,2,0,P|489:120|507:71,1,83.1999961914064,8|0,0:3|0:0,0:0:0:0:
129,164,58749,6,0,P|121:120|109:70,1,83.1999961914064,2|0,3:1|0:0,0:0:0:0:
16,104,58907,2,0,P|24:148|36:198,1,83.1999961914064,2|0,0:1|0:0,0:0:0:0:
208,111,59065,6,2,B|396:95|240:39|453:27,1,249.599988574219,2|0,1:1|0:1,0:0:0:0:
466,166,59380,6,0,P|466:182|473:160,1,83.1999961914064,0|0,3:0|0:0,0:0:0:0:
317,174,59538,1,0,1:0:0:0:
187,242,59696,1,2,0:1:0:0:
74,361,59854,1,0,1:0:0:0:
32,185,60012,6,2,P|44:218|52:241,1,48,0|0,0:0|0:0,0:0:0:0:
111,144,60328,2,2,P|99:110|90:88,1,48,2|0,0:1|0:1,0:0:0:0:
187,242,60643,6,0,B|196:308|137:356|36:327|0:195|125:106|200:96|300:195,1,415.999980957032,12|0,0:0|0:0,0:0:0:0:
380,279,61117,2,0,P|386:323|393:369,1,83.1999961914064,8|0,0:3|0:0,0:0:0:0:
454,117,61275,6,0,P|401:87|393:55,1,83.1999961914064,2|0,3:1|0:0,0:0:0:0:
452,2,61433,2,0,P|505:32|513:64,1,83.1999961914064,2|0,0:1|0:0,0:0:0:0:
450,213,61591,6,2,P|376:253|272:242,1,166.399992382813,2|0,1:1|0:1,0:0:0:0:
107,32,61907,6,0,B|35:58|32:114|83:130|121:89|58:3,1,192,2|0,3:2|0:0,0:0:0:0:
2,176,62222,2,0,P|82:141|207:107,1,192,2|0,0:0|0:0,0:0:0:0:
324,0,62538,6,0,P|289:80|255:205,1,192,2|0,3:2|0:0,0:0:0:0:
389,137,62854,2,0,B|363:65|307:62|291:113|332:151|418:88,1,192,2|0,1:2|0:0,0:0:0:0:
478,356,63170,6,0,B|452:273|367:190|243:216|242:368|370:402|440:318|359:214,1,415.999980957032,8|0,0:0|0:0,0:0:0:0:
489,87,63643,2,0,P|476:137|461:191,1,83.1999961914064,8|0,0:3|0:0,0:0:0:0:
246,362,63801,6,0,P|201:375|147:389,1,83.1999961914064,2|0,3:1|0:0,0:0:0:0:
179,202,63959,2,0,P|219:191|259:179,1,83.1999961914064,2|0,0:1|0:0,0:0:0:0:
113,314,64117,6,2,B|43:164|131:243|51:54,1,249.599988574219,2|0,1:1|0:1,0:0:0:0:
347,81,64433,6,0,P|363:105|339:87,1,83.1999961914064,0|0,3:0|0:0,0:0:0:0:
377,245,64591,1,0,1:0:0:0:
259,179,64749,1,2,0:1:0:0:
192,53,64907,1,8,0:0:0:0:
289,343,65065,6,0,P|273:319|297:337,1,83.1999961914064,0|0,3:0|0:0,0:0:0:0:
259,179,65223,1,0,1:0:0:0:
377,245,65380,1,2,0:1:0:0:
440,366,65538,2,0,L|448:349,3,12.0000004577637,0|0|0|0,1:0|1:0|1:0|1:0,0:0:0:0:
440,366,65696,6,0,B|338:406|249:364|275:258|388:199|393:325|425:319|491:270|496:193|413:180,1,415.999980957032,12|0,0:0|0:0,0:0:0:0:
323,19,66170,2,0,P|331:60|341:132,1,83.1999961914064,8|0,0:3|0:0,0:0:0:0:
185,381,66328,6,0,P|177:340|167:268,1,83.1999961914064,2|0,3:1|0:0,0:0:0:0:
62,115,66486,1,0,1:0:0:0:
69,116,66565,1,0,1:0:0:0:
76,117,66643,2,2,B|245:133|123:186|330:206,1,249.599988574219,2|0,1:1|0:1,0:0:0:0:
487,94,66959,6,0,P|447:82|403:70,1,83.1999961914064,0|0,3:0|0:0,0:0:0:0:
248,76,67117,1,0,1:0:0:0:
322,320,67275,1,2,1:0:0:0:
487,94,67433,1,0,1:0:0:0:
437,259,67591,6,0,P|318:296|199:337,1,249.599988574219,2|0,3:2|0:0,0:0:0:0:
170,149,67907,2,0,P|288:111|407:70,1,249.599988574219,2|0,1:2|0:0,0:0:0:0:
491,178,68222,6,0,L|500:204,3,16,0|0|0|0,1:0|1:0|1:0|1:0,0:0:0:0:
397,175,68380,1,0,3:0:0:0:
385,176,68459,1,0,3:0:0:0:
374,177,68538,1,0,3:0:0:0:
473,334,68696,1,0,3:0:0:0:
328,264,68854,6,2,P|358:326|388:396,2,128,2|2|2,0:1|0:1|3:1,0:0:0:0:
438,254,69328,1,2,0:0:0:0:
265,169,69486,6,0,P|246:175|263:178,1,48.0000018310548,2|0,1:0|0:0,0:0:0:0:
180,301,69643,1,0,1:0:0:0:
204,280,69801,1,0,1:0:0:0:
236,270,69959,1,0,1:0:0:0:
327,264,70117,6,0,P|346:258|329:255,1,48.0000018310548,2|0,1:0|0:0,0:0:0:0:
412,132,70274,1,0,1:0:0:0:
388,153,70432,1,0,1:0:0:0:
356,163,70591,2,0,P|338:119|320:72,1,83.1999961914064,0|0,1:0|0:0,0:0:0:0:
308,365,70749,5,0,3:0:0:0:
43,18,80854,6,0,P|60:87|78:168,1,144.000005493164,0|0,3:0|0:0,0:0:0:0:
116,237,81170,6,0,P|74:250|39:259,1,48.0000018310548,2|0,0:0|0:0,0:0:0:0:
156,136,81328,1,0,0:0:0:0:
184,306,81486,2,0,P|234:311|296:322,1,96.0000036621095,0|0,3:0|0:0,0:0:0:0:
36,343,81801,2,0,P|17:268|-9:171,1,144.000005493164,2|0,0:0|0:0,0:0:0:0:
5,201,82117,1,0,0:0:0:0:
273,366,82433,6,0,L|281:299,1,48.0000018310548,2|0,0:0|0:0,0:0:0:0:
415,261,82591,1,0,0:0:0:0:
421,100,82749,2,0,P|378:127|392:186,1,96.0000036621095,0|0,3:0|0:0,0:0:0:0:
278,318,83065,2,0,P|348:272|412:259,1,144.000005493164,2|0,0:0|0:0,0:0:0:0:
415,261,83380,1,0,0:0:0:0:
140,184,83696,5,2,0:0:0:0:
47,101,83854,2,0,L|38:53,1,48.0000018310548,2|0,0:0|0:0,0:0:0:0:
140,184,84012,2,0,P|125:269|113:335,1,144.000005493164,0|0,3:0|0:0,0:0:0:0:
47,374,84328,2,0,B|154:352|82:389|222:353,1,144.000005493164,2|0,0:0|0:0,0:0:0:0:
237,259,84643,5,0,3:0:0:0:
46,100,84801,2,0,L|60:179,1,48.0000018310548,0|0,0:0|0:0,0:0:0:0:
237,259,85117,6,0,L|251:180,1,48.0000018310548,0|0,3:0|0:0,0:0:0:0:
46,100,85275,1,2,0:0:0:0:
189,360,85591,6,0,P|255:346|351:333,1,144.000005493164,0|0,3:0|0:0,0:0:0:0:
426,319,85907,2,0,B|466:285|453:238|401:217|359:268,1,144.000005493164,0|0,0:0|0:0,0:0:0:0:
330,335,86222,6,0,L|344:393,1,48.0000018310548,2|0,0:0|0:0,0:0:0:0:
237,259,86380,1,0,0:0:0:0:
383,157,86538,2,0,P|390:110|401:37,1,96.0000036621095,0|0,3:0|0:0,0:0:0:0:
237,259,86854,2,0,B|129:259|199:287|83:291,1,144.000005493164,2|0,0:0|0:0,0:0:0:0:
91,290,87170,1,0,0:0:0:0:
397,62,87486,6,0,L|470:75,1,48.0000018310548,2|0,0:0|0:0,0:0:0:0:
281,100,87643,1,0,0:0:0:0:
404,245,87801,2,0,P|402:186|373:148,1,96.0000036621095,0|0,3:0|0:0,0:0:0:0:
498,343,88117,2,0,P|420:350|353:377,1,144.000005493164,2|0,0:0|0:0,0:0:0:0:
354,379,88433,1,0,0:0:0:0:
176,49,88749,5,2,0:0:0:0:
121,171,88907,2,0,P|114:141|104:108,1,48.0000018310548,0|0,0:0|0:0,0:0:0:0:
285,12,89065,2,0,P|267:79|252:181,1,144.000005493164,0|0,3:0|0:0,0:0:0:0:
301,235,89380,2,0,P|364:213|316:151,1,144.000005493164,2|0,0:0|0:0,0:0:0:0:
254,152,89696,6,0,P|240:167|256:165,1,48.0000018310548,0|0,0:3|0:0,0:0:0:0:
428,47,89854,1,0,0:3:0:0:
341,154,90012,1,0,0:3:0:0:
282,333,90170,1,0,0:3:0:0:
478,260,90328,6,0,P|440:140|426:25,1,220.800004211426,2|0,3:2|0:0,0:0:0:0:
286,18,90643,5,0,1:0:0:0:
268,30,90722,1,0,1:0:0:0:
247,37,90801,1,0,1:0:0:0:
226,36,90879,1,0,1:0:0:0:
205,31,90958,5,0,3:0:0:0:
115,0,91116,1,0,0:0:0:0:
223,119,91275,6,0,P|215:150|208:175,1,56.0000005340576,2|0,0:0|0:0,0:0:0:0:
120,88,91433,1,0,0:0:0:0:
114,239,91591,2,0,P|225:211|352:194,2,224.00000213623,0|0|0,3:0|0:0|3:0,0:0:0:0:
114,239,92538,6,0,P|106:208|99:177,1,56.0000005340576,2|0,0:0|0:0,0:0:0:0:
6,107,92696,1,8,0:3:0:0:
61,316,92854,2,0,P|76:205|104:96,2,224.00000213623,0|8|0,0:0|0:3|3:0,0:0:0:0:
4,378,93643,5,0,0:0:0:0:
114,239,93801,1,2,0:0:0:0:
6,107,93959,1,8,0:3:0:0:
197,257,94117,6,0,P|253:268|382:306,1,168.000001602173,0|0,3:0|0:0,0:0:0:0:
441,324,94433,1,0,0:0:0:0:
384,199,94591,1,0,0:0:0:0:
227,362,94749,6,0,P|247:368|233:352,1,56.0000005340576,0|0,3:0|0:0,0:0:0:0:
87,361,94907,1,0,1:0:0:0:
197,257,95065,1,0,1:0:0:0:
271,104,95222,1,0,3:0:0:0:
202,52,95380,6,0,P|225:129|247:219,1,144.000005493164,2|0,0:0|0:0,0:0:0:0:
384,199,95696,2,0,P|361:276|339:366,1,144.000005493164,0|0,3:0|0:0,0:0:0:0:
512,374,96012,6,0,P|453:335|505:253,1,168.000001602173,0|0,3:0|0:0,0:0:0:0:
384,199,96328,2,0,P|376:228|364:270,1,56.0000005340576,2|0,0:0|0:0,0:0:0:0:
416,86,96486,1,8,0:3:0:0:
240,190,96643,2,0,P|299:151|245:69,1,168.000001602173,0|0,0:0|0:0,0:0:0:0:
135,196,96959,6,0,P|168:266|252:302,1,168.000001602173,8|0,0:3|0:0,0:0:0:0:
247,301,97275,1,0,3:0:0:0:
326,363,97433,1,0,0:0:0:0:
325,373,97591,1,0,0:0:0:0:
324,383,97749,6,0,P|330:356|338:325,1,56.0000005340576,2|0,0:0|0:0,0:0:0:0:
309,243,97907,2,0,B|350:229|410:263|369:262|408:315|476:303,1,168.000001602173,0|0,3:0|0:0,0:0:0:0:
454,222,98222,2,0,P|471:152|526:69,1,168.000001602173,8|0,0:3|0:0,0:0:0:0:
372,0,98538,5,2,3:2:0:0:
396,89,98696,1,0,0:0:0:0:
308,112,98854,1,2,0:0:0:0:
284,24,99012,1,0,0:0:0:0:
187,121,99170,6,0,B|159:114|164:84|194:73|205:111|205:111|232:202,1,168.000001602173,2|0,3:2|0:0,0:0:0:0:
326,258,99486,2,0,B|301:340|301:340|290:378|264:369|255:339|283:330,1,168.000001602173,2|0,1:2|0:0,0:0:0:0:
137,321,99801,6,0,L|156:313,3,12.0000004577637,0|0|0|0,1:0|0:0|0:0|0:0,0:0:0:0:
52,362,99959,1,0,3:0:0:0:
59,370,100038,1,0,3:0:0:0:
66,376,100117,1,0,3:0:0:0:
94,218,100275,1,0,3:0:0:0:
94,218,100433,6,0,P|101:295|54:391,1,168.000001602173,2|0,0:0|0:0,0:0:0:0:
15,172,100749,5,0,3:0:0:0:
26,159,100828,1,0,1:0:0:0:
40,149,100907,1,0,1:0:0:0:
53,140,100986,1,0,1:0:0:0:
68,135,101065,1,8,1:3:0:0:
39,8,101380,6,0,P|71:34|118:45,2,80,2|0|0,0:0|1:0|0:0,0:0:0:0:
39,8,102012,5,0,1:0:0:0:
260,250,102328,5,8,0:3:0:0:
261,161,102486,1,0,1:0:0:0:
213,99,102644,1,0,0:0:0:0:
190,86,102802,1,2,0:0:0:0:
179,90,102959,1,0,1:0:0:0:
180,307,103275,6,0,L|160:201,2,80,8|0|0,0:3|1:0|1:0,0:0:0:0:
92,325,103907,2,0,L|72:219,2,80,2|0|2,0:0|1:0|0:0,0:0:0:0:
92,325,104538,5,0,1:0:0:0:
327,345,104854,5,2,0:0:0:0:
419,331,105012,1,0,1:0:0:0:
432,323,105170,2,0,P|458:288|460:240,1,80,0|8,0:0|0:3,0:0:0:0:
329,237,105486,2,0,P|305:200|260:182,1,80,0|2,1:0|0:0,0:0:0:0:
462,252,105801,5,0,1:0:0:0:
329,237,105959,1,0,1:0:0:0:
239,340,106117,1,0,1:0:0:0:
458,29,106433,6,0,P|445:68|428:131,2,80,2|0|2,0:0|1:0|0:0,0:0:0:0:
458,29,107065,5,0,1:0:0:0:
473,206,107380,5,8,0:3:0:0:
384,205,107538,1,0,1:0:0:0:
322,253,107696,1,2,0:0:0:0:
309,276,107854,1,2,0:0:0:0:
313,287,108011,1,0,1:0:0:0:
208,280,108328,6,0,P|219:319|233:380,2,80,8|0|0,0:3|1:0|1:0,0:0:0:0:
165,186,108801,1,2,0:0:0:0:
173,195,108959,1,2,0:0:0:0:
124,341,109117,2,0,P|84:355|43:369,2,80,0|0|2,1:0|0:0|0:0,0:0:0:0:
261,206,109591,6,0,P|298:218|336:232,1,80,0|0,1:0|0:0,0:0:0:0:
336,127,109907,1,8,0:3:0:0:
367,337,110065,1,0,1:0:0:0:
382,342,110222,1,2,0:0:0:0:
396,347,110380,1,2,0:0:0:0:
336,127,110538,5,0,1:0:0:0:
255,100,110696,1,2,0:0:0:0:
452,32,110854,5,0,1:0:0:0:
336,232,111012,1,0,1:0:0:0:
178,69,111170,2,0,L|156:59,3,20,0|0|0|0,3:0|0:0|0:0|0:0,0:0:0:0:
67,17,111486,5,2,0:0:0:0:
85,111,111643,1,0,1:0:0:0:
78,210,111801,2,0,P|59:250|26:290,1,80,2|0,0:0|0:0,0:0:0:0:
168,260,112117,2,0,P|144:292|127:328,1,80,8|0,0:3|0:0,0:0:0:0:
248,122,112433,5,0,3:0:0:0:
224,5,112591,1,0,1:0:0:0:
408,105,112749,5,0,1:0:0:0:
375,263,112907,1,0,3:0:0:0:
248,122,113065,6,0,L|213:127,4,20,0|0|0|0|0,1:0|0:0|0:0|0:0|0:0,0:0:0:0:
375,263,113380,2,0,L|410:268,4,20,0|0|0|0|0,3:0|0:0|0:0|0:0|0:0,0:0:0:0:
277,354,113696,6,0,L|242:359,3,20,8|0|0|0,0:0|0:0|0:0|0:0,0:0:0:0:
172,362,114012,1,2,0:0:0:0:
359,345,114170,1,0,1:0:0:0:
296,186,114328,2,0,P|289:222|274:294,1,80,2|0,3:2|0:0,0:0:0:0:
401,167,114643,2,0,P|408:131|423:59,1,80,0|0,1:0|0:0,0:0:0:0:
280,264,114959,5,2,3:2:0:0:
248,122,115117,1,0,1:0:0:0:
401,167,115275,5,2,3:2:0:0:
439,0,115433,1,0,1:0:0:0:
248,122,115591,6,0,L|217:127,4,20,0|0|0|0|0,3:0|0:0|0:0|0:0|0:0,0:0:0:0:
439,0,115907,2,0,L|470:5,4,20,0|0|0|0|0,1:0|0:0|0:0|0:0|0:0,0:0:0:0:
292,235,116222,5,0,1:0:0:0:
248,122,116380,1,0,1:0:0:0:
361,79,116538,1,0,1:0:0:0:
404,191,116696,1,0,1:0:0:0:
211,203,116854,5,0,1:0:0:0:
282,39,117012,1,0,1:0:0:0:
442,111,117170,1,0,1:0:0:0:
371,272,117328,1,0,1:0:0:0:
179,372,117486,5,0,1:0:0:0:
210,10,117696,5,0,1:0:0:0:
506,218,117907,5,0,1:0:0:0:
234,292,118117,5,0,1:0:0:0:
250,97,118327,5,0,1:0:0:0:
410,209,118538,5,0,1:0:0:0:
299,198,118749,5,2,1:2:0:0:
299,198,119065,5,2,0:0:0:0:
410,209,119222,1,0,1:0:0:0:
250,97,119380,1,2,0:0:0:0:
234,292,119538,1,2,0:0:0:0:
379,358,119696,6,0,L|344:287,1,48.0000018310548,0|0,1:0|0:0,0:0:0:0:
267,373,120012,1,2,0:0:0:0:
267,373,120170,1,0,1:0:0:0:
474,302,120328,1,2,0:0:0:0:
474,302,120486,1,2,0:0:0:0:
234,292,120643,6,0,P|223:272|209:250,1,32,2|0,0:0|0:0,0:0:0:0:
497,223,120959,2,0,P|508:203|522:181,1,32,2|0,0:0|0:0,0:0:0:0:
441,132,121275,6,0,B|350:108|295:-11|295:-11|310:131|214:210,1,415.999980957032,12|0,0:0|0:0,0:0:0:0:
84,250,121749,2,0,P|67:273|90:255,1,83.1999961914064,8|0,0:3|0:0,0:0:0:0:
400,364,121907,6,0,P|411:322|429:283,1,83.1999961914064,2|0,3:1|0:0,0:0:0:0:
316,305,122065,2,0,P|334:265|358:230,1,83.1999961914064,2|0,0:1|0:0,0:0:0:0:
512,123,122222,2,0,B|465:109|447:61|447:61|462:104|424:167,1,166.399992382813,2|0,1:1|0:1,0:0:0:0:
231,345,122538,6,0,B|181:319|186:287|171:272|171:272|161:293|181:319|130:371,1,192,2|0,3:2|0:0,0:0:0:0:
89,254,122854,2,0,B|58:206|79:181|73:160|73:160|54:173|58:206|-11:226,1,192,2|0,0:0|0:0,0:0:0:0:
303,45,123170,6,0,B|253:71|258:103|243:118|243:118|233:97|253:71|202:19,1,192,2|0,3:2|0:0,0:0:0:0:
159,130,123486,2,0,B|128:177|149:202|143:223|143:223|124:210|128:177|58:157,1,192,2|0,1:2|0:0,0:0:0:0:
317,317,123801,6,0,B|357:284|375:244|297:169|326:124|326:124|378:140|375:244|423:260|489:251,1,415.999980957032,10|0,0:0|0:0,0:0:0:0:
508,147,124275,2,0,P|520:119|501:138,1,83.1999961914064,8|0,0:3|0:0,0:0:0:0:
207,304,124433,6,0,P|224:342|238:396,1,83.1999961914064,2|0,3:1|0:0,0:0:0:0:
317,317,124591,2,0,P|343:349|370:397,1,83.1999961914064,2|0,0:1|0:0,0:0:0:0:
60,328,124749,2,0,B|125:269|240:262|240:262|197:318,1,249.599988574219,0|0,1:1|0:1,0:0:0:0:
32,150,125065,6,0,B|39:182|39:182|10:150,1,64,0|0,3:0|0:0,0:0:0:0:
60,328,125222,1,0,1:0:0:0:
149,189,125380,1,2,0:1:0:0:
291,144,125538,1,8,0:0:0:0:
437,114,125696,6,0,B|416:139|416:139|422:97,1,64,0|0,3:0|0:0,0:0:0:0:
377,283,125853,1,0,1:0:0:0:
291,144,126011,1,2,0:1:0:0:
149,99,126170,2,0,L|139:83,3,12.0000004577637,0|0|0|0,1:0|1:0|1:0|1:0,0:0:0:0:
149,99,126328,6,0,B|104:43|139:-27|238:-55|358:-4|388:74|346:164|263:142,1,415.999980957032,12|0,0:0|0:0,0:0:0:0:
172,287,126801,2,0,P|189:230|203:188,1,83.1999961914064,8|0,0:3|0:0,0:0:0:0:
433,15,126959,6,0,P|457:47|447:87,1,83.1999961914064,2|0,3:1|0:0,0:0:0:0:
497,162,127117,2,0,P|465:186|425:176,1,83.1999961914064,2|0,0:1|0:0,0:0:0:0:
284,324,127275,2,0,P|316:274|429:307,1,166.399992382813,2|0,1:1|0:1,0:0:0:0:
172,287,127591,6,0,B|115:282|110:265|88:243|88:243|99:273|115:282|89:350,1,192,2|0,3:2|0:0,0:0:0:0:
196,207,127907,2,0,B|252:202|257:185|279:163|279:163|268:193|252:202|278:270,1,192,2|0,0:0|0:0,0:0:0:0:
107,158,128222,6,0,B|57:135|58:117|45:88|45:88|45:120|57:135|25:178,1,192,2|0,3:2|0:0,0:0:0:0:
269,72,128538,2,0,B|322:63|324:45|342:19|342:19|337:50|322:63|353:111,1,192,2|0,1:2|0:0,0:0:0:0:
481,232,128854,6,0,B|517:203|515:97|433:91|340:87|439:289|179:179|275:63,1,415.999980957032,8|0,0:0|0:0,0:0:0:0:
142,2,129328,2,0,P|152:42|164:93,1,83.1999961914064,8|0,0:3|0:0,0:0:0:0:
330,344,129486,6,0,P|364:313|362:259,1,83.1999961914064,2|0,3:1|0:0,0:0:0:0:
271,265,129643,2,0,P|240:231|186:233,1,83.1999961914064,2|0,0:1|0:0,0:0:0:0:
17,287,129801,2,0,B|72:320|56:356|96:378|96:378|114:336|79:319|107:244,1,249.599988574219,2|0,1:1|0:1,0:0:0:0:
46,112,130117,6,0,B|27:104|14:88|14:88|9:119|48:132,1,83.1999961914064,0|0,3:0|0:0,0:0:0:0:
103,253,130275,1,0,1:0:0:0:
271,265,130433,1,2,0:1:0:0:
426,209,130591,1,0,1:0:0:0:
494,279,130749,6,0,P|474:188|452:91,1,168.000001602173,0|0,0:0|0:0,0:0:0:0:
192,140,131065,5,2,0:1:0:0:
192,140,131143,1,0,0:0:0:0:
192,140,131222,1,0,0:0:0:0:
192,140,131301,1,0,0:0:0:0:
192,140,131380,6,0,B|297:150|251:63|338:28|338:28|328:132|361:189|439:213,1,415.999980957032,12|0,0:0|0:0,0:0:0:0:
506,59,131854,2,0,P|460:92|459:126,1,83.1999961914064,8|0,0:3|0:0,0:0:0:0:
269,364,132012,6,0,P|308:347|364:337,1,83.1999961914064,2|0,3:1|0:0,0:0:0:0:
242,274,132170,2,0,P|282:265|320:248,1,83.1999961914064,2|0,0:1|0:0,0:0:0:0:
484,263,132328,2,0,B|459:221|448:158|448:158|416:226,1,166.399992382813,2|0,1:1|0:1,0:0:0:0:
161,364,132643,6,0,P|125:239|95:138,1,192,2|0,3:2|0:0,0:0:0:0:
34,137,132959,2,0,B|52:90|52:90|49:47|49:47|73:81|73:81|146:103,1,192,2|0,0:0|0:0,0:0:0:0:
211,12,133275,6,0,P|247:137|277:238,1,192,2|0,3:2|0:0,0:0:0:0:
338,239,133591,2,0,B|319:285|319:285|322:328|322:328|298:294|298:294|225:272,1,192,2|0,1:2|0:0,0:0:0:0:
161,364,133907,6,0,B|227:234|383:146|495:212|422:327,1,415.999980957032,8|0,0:0|0:0,0:0:0:0:
497,149,134380,2,0,P|459:140|436:81,1,83.1999961914064,8|0,0:3|0:0,0:0:0:0:
99,19,134538,6,0,P|116:58|130:117,1,83.1999961914064,2|0,3:1|0:0,0:0:0:0:
228,97,134696,2,0,P|211:136|197:195,1,83.1999961914064,2|0,0:1|0:0,0:0:0:0:
1,225,134854,2,0,B|180:226|52:273|299:279,1,249.599988574219,2|0,1:1|0:1,0:0:0:0:
433,304,135170,6,0,B|455:308|468:328|468:328|451:315|415:316,1,83.1999961914064,0|0,3:0|0:0,0:0:0:0:
309,369,135328,1,0,1:0:0:0:
346,214,135486,1,2,0:1:0:0:
377,74,135643,1,8,0:0:0:0:
106,100,135801,6,0,B|84:96|71:76|71:76|88:89|108:87,1,83.1999961914064,0|0,3:0|0:0,0:0:0:0:
177,0,135959,1,0,1:0:0:0:
214,155,136117,1,2,0:1:0:0:
245,295,136275,2,0,L|248:311,3,12.0000004577637,0|0|0|0,1:0|1:0|1:0|1:0,0:0:0:0:
245,295,136433,6,0,B|142:252|19:337|19:337|13:209|134:189,1,415.999980957032,12|0,0:0|0:0,0:0:0:0:
232,73,136907,2,0,P|221:115|210:183,1,83.1999961914064,8|0,0:3|0:0,0:0:0:0:
444,369,137065,6,0,P|451:328|462:287,1,83.1999961914064,2|0,3:1|0:0,0:0:0:0:
308,127,137222,1,0,1:0:0:0:
308,127,137301,1,0,1:0:0:0:
308,127,137380,2,0,B|284:223|390:257|390:257|407:211|474:208,1,249.599988574219,2|0,1:1|0:1,0:0:0:0:
470,51,137696,6,0,P|439:49|463:61,1,83.1999961914064,0|0,3:0|0:0,0:0:0:0:
462,287,137854,1,0,1:0:0:0:
213,154,138012,1,2,1:0:0:0:
461,61,138170,1,0,1:0:0:0:
139,77,138328,6,0,P|177:189|213:349,1,249.599988574219,2|0,3:2|0:0,0:0:0:0:
79,384,138643,2,0,P|197:344|318:315,1,249.599988574219,2|0,1:2|0:0,0:0:0:0:
462,287,138959,6,0,L|467:311,3,16,0|0|0|0,1:0|1:0|1:0|1:0,0:0:0:0:
437,198,139117,1,0,3:0:0:0:
433,188,139196,1,0,3:0:0:0:
428,179,139275,1,0,3:0:0:0:
398,370,139433,1,0,3:0:0:0:
241,242,139591,6,0,P|301:222|339:161,2,128,2|2|2,0:1|0:1|3:1,0:0:0:0:
235,118,140065,1,2,0:0:0:0:
145,265,140222,6,0,P|163:289|173:311,1,48.0000018310548,2|0,1:0|0:0,0:0:0:0:
63,375,140380,1,0,1:0:0:0:
75,358,140538,1,0,1:0:0:0:
93,344,140696,1,0,1:0:0:0:
224,223,140854,6,0,P|234:244|249:263,1,48.0000018310548,2|0,1:0|0:0,0:0:0:0:
348,172,141012,1,0,1:0:0:0:
336,189,141170,1,0,1:0:0:0:
325,203,141328,2,0,L|514:182,1,166.399992382813,0|0,1:0|3:0,0:0:0:0:
