osu file format v14

[General]
AudioFilename: audio.mp3
AudioLeadIn: 0
PreviewTime: 50538
Countdown: 0
SampleSet: Soft
StackLeniency: 0.4
Mode: 0
LetterboxInBreaks: 0
WidescreenStoryboard: 1

[Editor]
Bookmarks: 30328,50538,70749,80854,101065,121275,141486
DistanceSpacing: 2
BeatDivisor: 8
GridSize: 32
TimelineZoom: 2.6

[Metadata]
Title:Shadows (feat. Nevve)
TitleUnicode:Shadows (feat. Nevve)
Artist:Aero Chord
ArtistUnicode:Aero Chord
Creator:Frakturehawkens
Version:Hard
Source:
Tags:english monstercat electronic bass dance djulus neilperry
BeatmapID:2056151
BeatmapSetID:965463

[Difficulty]
HPDrainRate:4
CircleSize:4
OverallDifficulty:7
ApproachRate:8
SliderMultiplier:3
SliderTickRate:1

[Events]
//Background and Video events
0,0,"ttt.jpg",0,0
//Break Periods
2,70948,80104
//Storyboard Layer 0 (Background)
//Storyboard Layer 1 (Fail)
//Storyboard Layer 2 (Pass)
//Storyboard Layer 3 (Foreground)
//Storyboard Layer 4 (Overlay)
//Storyboard Sound Samples

[TimingPoints]
5065,631.578947368421,4,2,1,40,1,0
6801,-133.333333333333,4,2,1,5,0,0
6959,-133.333333333333,4,2,1,40,0,0
7591,-133.333333333333,4,2,1,40,0,0
9486,-133.333333333333,4,2,1,40,0,0
10117,-117.647058823529,4,2,1,50,0,0
10433,-117.647058823529,4,2,1,50,0,0
19591,-117.647058823529,4,2,1,50,0,0
20222,-117.647058823529,4,2,1,50,0,0
29065,-117.647058823529,4,2,1,50,0,0
29696,-117.647058823529,4,2,1,50,0,0
30328,-125,4,2,1,50,0,0
30643,-125,4,2,1,50,0,0
40433,-125,4,2,1,55,0,0
48012,-125,4,2,1,50,0,0
49907,-125,4,2,1,30,0,0
50538,-100,4,2,1,65,0,1
51801,-83.3333333333333,4,2,1,65,0,1
53065,-100,4,2,1,65,0,1
54328,-83.3333333333333,4,2,1,65,0,1
55433,-100,4,2,1,65,0,1
55591,-100,4,2,1,65,0,1
56854,-83.3333333333333,4,2,1,65,0,1
58117,-100,4,2,1,65,0,1
60012,-100,4,2,1,35,0,1
60643,-100,4,2,1,65,0,1
61907,-83.3333333333333,4,2,1,65,0,1
63170,-100,4,2,1,65,0,1
64433,-83.3333333333333,4,2,1,65,0,1
65538,-100,4,2,1,65,0,1
65696,-100,4,2,1,65,0,1
66959,-83.3333333333333,4,2,1,65,0,1
68222,-100,4,2,1,65,0,1
68854,-100,4,2,1,65,0,1
69486,-100,4,2,1,65,0,1
70591,-100,4,2,1,65,0,1
70749,-38.4615384615385,4,2,1,40,0,0
80854,-117.647058823529,4,2,1,50,0,0
90328,-117.647058823529,4,2,1,50,0,0
91275,-117.647058823529,4,2,1,50,0,0
95380,-117.647058823529,4,2,1,50,0,0
96012,-117.647058823529,4,2,1,50,0,0
99801,-117.647058823529,4,2,1,50,0,0
101065,-125,4,2,1,50,0,0
101380,-125,4,2,1,50,0,0
111170,-125,4,2,1,55,0,0
118749,-125,4,2,1,50,0,0
120643,-125,4,2,1,30,0,0
121275,-100,4,2,1,65,0,1
122538,-83.3333333333333,4,2,1,65,0,1
123801,-100,4,2,1,65,0,1
125065,-83.3333333333333,4,2,1,65,0,1
126170,-100,4,2,1,65,0,1
126328,-100,4,2,1,65,0,1
127591,-83.3333333333333,4,2,1,65,0,1
128854,-100,4,2,1,65,0,1
131380,-100,4,2,1,65,0,1
132643,-83.3333333333333,4,2,1,65,0,1
133907,-100,4,2,1,65,0,1
135170,-83.3333333333333,4,2,1,65,0,1
136275,-100,4,2,1,65,0,1
136433,-100,4,2,1,65,0,1
137696,-83.3333333333333,4,2,1,65,0,1
138959,-100,4,2,1,65,0,1
139591,-100,4,2,1,65,0,1
140222,-100,4,2,1,65,0,1
141328,-100,4,2,1,65,0,1
141486,-38.4615384615385,4,2,1,40,0,0

[Colours]
Combo1 : 106,255,106
Combo2 : 85,255,255
SliderBorder : 240,184,100
SliderTrackOverride : 30,30,30

[HitObjects]
73,45,6959,5,2,0:0:0:0:
73,45,7117,2,0,P|65:72|57:123,2,56.2500021457673,2|2|2,0:0|0:0|0:0,0:0:0:0:
137,91,7591,1,2,0:0:0:0:
108,164,7749,6,0,P|199:127|246:118,1,112.500004291535,2|2,0:1|0:0,0:0:0:0:
212,123,8222,1,2,0:0:0:0:
242,195,8380,2,0,B|297:172|298:120|277:129|281:69|348:40,1,168.750006437302,2|0,0:0|0:0,0:0:0:0:
474,18,9170,6,0,P|447:107|451:131,1,112.500004291535,0|2,0:0|0:0,0:0:0:0:
382,165,9643,1,0,0:0:0:0:
382,165,9801,2,0,L|389:203,2,28.1250010728836,0|0|0,1:0|1:0|1:0,0:0:0:0:
314,202,10117,6,0,P|257:186|183:179,1,127.50000243187,0|2,3:0|0:0,0:0:0:0:
189,179,10591,1,0,0:0:0:0:
130,229,10749,2,0,P|147:270|136:300,1,63.7500012159348,0|0,3:0|0:0,0:0:0:0:
197,342,11065,2,0,P|169:377|138:382,1,63.7500012159348,2|0,0:0|0:0,0:0:0:0:
86,343,11380,1,0,3:0:0:0:
285,348,11696,6,0,P|290:308|301:252,1,63.7500012159348,2|0,0:0|0:0,0:0:0:0:
361,248,12012,2,0,P|366:208|377:152,1,63.7500012159348,0|0,3:0|0:0,0:0:0:0:
389,110,12328,2,0,P|452:173|423:219,1,127.50000243187,2|0,0:0|3:0,0:0:0:0:
253,214,12959,5,2,0:0:0:0:
253,214,13117,1,2,0:0:0:0:
253,214,13275,2,0,P|197:199|101:187,1,127.50000243187,0|2,3:0|0:0,0:0:0:0:
70,331,13907,2,0,P|42:194|-2:149,2,191.250003647804,0|0|0,3:0|3:0|3:0,0:0:0:0:
158,280,15170,6,0,P|249:293|310:320,1,127.50000243187,0|2,3:0|0:0,0:0:0:0:
281,305,15643,1,0,0:0:0:0:
314,374,15801,2,0,P|341:361|339:289,1,63.7500012159348,0|0,3:0|0:0,0:0:0:0:
419,374,16117,2,0,P|435:349|398:287,1,63.7500012159348,2|0,0:0|0:0,0:0:0:0:
379,262,16433,1,0,3:0:0:0:
227,238,16749,6,0,P|221:202|197:164,1,63.7500012159348,2|0,0:0|0:0,0:0:0:0:
247,111,17065,2,0,P|253:75|277:37,1,63.7500012159348,0|0,3:0|0:0,0:0:0:0:
330,10,17380,2,0,P|225:7|174:-5,1,127.50000243187,2|0,0:0|3:0,0:0:0:0:
29,83,18012,5,2,0:0:0:0:
29,83,18170,2,0,P|3:101|14:151,1,63.7500012159348,0|0,0:0|3:0,0:0:0:0:
27,211,18486,1,0,0:0:0:0:
27,211,18643,2,0,P|86:176|152:169,1,127.50000243187,2|0,0:0|3:3,0:0:0:0:
144,264,19117,5,0,3:3:0:0:
52,287,19275,2,0,P|24:314|30:348,1,63.7500012159348,0|0,3:0|3:0,0:0:0:0:
119,351,19591,2,0,P|189:353|215:309,1,127.50000243187,2|0,3:2|1:0,0:0:0:0:
52,287,20222,5,0,3:0:0:0:
38,134,20538,1,2,0:0:0:0:
38,134,20696,2,0,L|106:114,1,63.7500012159348,8|0,0:3|3:0,0:0:0:0:
59,49,21012,1,0,0:0:0:0:
59,49,21170,2,0,L|127:29,1,63.7500012159348,8|0,0:3|0:0,0:0:0:0:
169,90,21486,1,0,3:0:0:0:
352,36,21801,5,2,0:0:0:0:
352,36,21959,2,0,L|420:56,1,63.7500012159348,8|0,0:3|3:0,0:0:0:0:
373,121,22275,1,2,0:0:0:0:
373,121,22433,2,0,L|441:141,1,63.7500012159348,8|0,0:3|0:0,0:0:0:0:
483,80,22749,1,0,3:0:0:0:
326,189,23065,5,2,0:0:0:0:
326,189,23222,2,0,P|291:218|286:264,1,63.7500012159348,8|0,0:3|3:0,0:0:0:0:
208,228,23538,1,0,0:0:0:0:
208,228,23696,2,0,P|203:273|232:309,1,63.7500012159348,8|0,0:3|0:0,0:0:0:0:
283,315,24012,5,0,3:0:0:0:
358,304,24170,1,0,1:0:0:0:
433,290,24328,2,0,L|452:184,2,63.7500012159348,0|0|2,1:0|3:0|0:0,0:0:0:0:
283,326,24959,2,0,B|256:315|256:315|172:334,1,95.6250018239022,0|0,3:0|0:0,0:0:0:0:
187,325,25275,6,0,P|174:280|210:249,1,63.7500012159348,0|0,3:0|0:0,0:0:0:0:
117,223,25591,1,2,0:0:0:0:
117,223,25749,2,0,P|149:189|194:204,1,63.7500012159348,8|0,0:3|0:0,0:0:0:0:
244,214,26065,1,2,0:0:0:0:
244,214,26222,2,0,L|265:65,1,127.50000243187,8|0,0:3|3:0,0:0:0:0:
108,24,26854,5,8,0:3:0:0:
108,24,27012,2,0,L|27:38,1,63.7500012159348,2|0,0:0|3:0,0:0:0:0:
70,107,27328,1,2,0:0:0:0:
70,107,27486,2,0,L|-11:121,1,63.7500012159348,8|0,0:3|0:0,0:0:0:0:
35,189,27801,5,2,3:2:0:0:
148,291,28117,2,0,P|185:297|225:325,1,63.7500012159348,2|8,0:0|0:3,0:0:0:0:
252,371,28433,2,0,P|249:268|267:189,1,127.50000243187,2|2,3:2|1:2,0:0:0:0:
327,110,29065,6,0,L|367:103,2,31.8750006079674,0|0|0,1:0|0:0|3:0,0:0:0:0:
252,128,29380,1,0,3:0:0:0:
187,86,29538,1,0,3:0:0:0:
187,9,29696,1,2,0:0:0:0:
191,174,30012,5,0,3:0:0:0:
191,174,30091,1,0,1:0:0:0:
191,174,30170,2,0,L|139:168,2,31.8750006079674,0|0|8,1:0|1:0|1:3,0:0:0:0:
312,271,30643,6,0,L|381:262,1,60,2|0,0:0|1:0,0:0:0:0:
413,329,30959,2,0,P|426:203|433:157,1,120,0|0,0:0|1:0,0:0:0:0:
464,58,31591,5,8,0:3:0:0:
464,58,31749,1,0,1:0:0:0:
464,58,31907,1,0,0:0:0:0:
352,168,32222,2,0,P|367:107|362:22,1,120,0|8,1:0|0:3,0:0:0:0:
361,46,32696,1,0,1:0:0:0:
356,41,32854,6,0,P|285:40|266:-13,1,120,0|2,1:0|0:0,0:0:0:0:
206,55,33328,1,0,1:0:0:0:
206,55,33486,2,0,P|177:37|152:30,1,60,2|0,0:0|0:0,0:0:0:0:
74,27,33801,6,0,P|90:115|98:181,1,120,0|2,1:0|0:0,0:0:0:0:
56,214,34275,1,0,1:0:0:0:
56,214,34433,2,0,P|39:229|48:211,1,60,0|8,0:0|0:3,0:0:0:0:
98,152,34749,2,0,P|173:166|190:177,1,60,0|2,1:0|0:0,0:0:0:0:
244,181,35065,1,0,1:0:0:0:
244,181,35222,1,0,1:0:0:0:
244,181,35380,1,0,1:0:0:0:
341,303,35696,6,0,P|357:275|359:247,1,60,2|0,0:0|1:0,0:0:0:0:
374,170,36012,2,0,P|284:245|245:263,1,120,2|0,0:0|1:0,0:0:0:0:
130,282,36643,5,8,0:3:0:0:
130,282,36801,1,0,1:0:0:0:
130,282,36959,1,2,0:0:0:0:
271,244,37275,2,0,P|270:311|205:316,1,120,0|8,1:0|0:3,0:0:0:0:
237,335,37749,1,0,1:0:0:0:
239,336,37907,6,0,P|300:353|321:384,1,60,0|2,1:0|0:0,0:0:0:0:
356,300,38222,2,0,P|371:360|355:394,1,60,2|0,0:0|1:0,0:0:0:0:
449,373,38538,2,0,P|474:314|454:275,1,60,0|2,0:0|0:0,0:0:0:0:
433,253,38854,5,0,1:0:0:0:
433,253,39012,1,0,0:0:0:0:
433,253,39170,2,0,P|441:184|447:156,1,60,8|0,0:3|1:0,0:0:0:0:
447,115,39486,1,2,0:0:0:0:
332,220,39801,2,0,P|272:227|213:238,1,120,0|0,1:0|1:0,0:0:0:0:
213,238,40275,1,0,1:0:0:0:
140,267,40433,6,0,L|133:227,2,30,0|0|0,3:0|0:0|0:0,0:0:0:0:
67,296,40749,2,0,L|51:217,1,60,2|0,0:0|1:0,0:0:0:0:
48,158,41065,5,2,0:0:0:0:
86,7,41380,1,8,0:3:0:0:
155,146,41696,2,0,P|192:122|249:124,1,60,0|0,3:0|1:0,0:0:0:0:
260,60,42012,2,0,P|339:64|352:52,1,60,0|0,1:0|3:0,0:0:0:0:
380,28,42328,6,0,L|373:-12,2,30,0|0|0,1:0|0:0|0:0,0:0:0:0:
391,105,42643,1,0,3:0:0:0:
468,240,42959,6,0,P|452:336|456:375,1,120,8|2,0:0|0:0,0:0:0:0:
453,358,43433,1,0,1:0:0:0:
376,346,43591,6,0,P|350:329|284:314,1,60,2|0,3:2|0:0,0:0:0:0:
296,244,43907,2,0,P|270:261|204:276,1,60,0|0,1:0|0:0,0:0:0:0:
253,352,44222,1,2,3:2:0:0:
253,352,44380,1,0,1:0:0:0:
162,327,44538,2,0,P|152:309|165:326,1,60,2|0,3:2|1:0,0:0:0:0:
92,367,44854,2,0,L|52:359,2,30,0|0|0,3:0|0:0|0:0,0:0:0:0:
79,283,45170,1,0,1:0:0:0:
234,274,45486,6,0,P|241:239|249:194,1,60,0|0,1:0|1:0,0:0:0:0:
263,139,45801,1,0,1:0:0:0:
263,139,45959,1,0,1:0:0:0:
182,165,46117,6,0,P|175:130|167:85,1,60,0|0,1:0|1:0,0:0:0:0:
153,30,46432,1,0,1:0:0:0:
153,30,46590,1,0,1:0:0:0:
243,25,46749,6,0,P|281:40|357:78,2,80,0|0|0,1:0|1:0|1:0,0:0:0:0:
283,137,47380,6,0,P|268:175|230:251,2,80,0|0|0,1:0|1:0|1:0,0:0:0:0:
397,101,48012,5,2,1:2:0:0:
256,192,48328,12,2,49907,0:0:0:0:
401,293,50538,6,0,B|321:265|374:226|291:201,1,150,12|0,0:0|0:0,0:0:0:0:
290,201,51012,1,8,0:3:0:0:
232,122,51170,2,0,P|203:120|231:126,1,75,2|2,3:1|0:1,0:0:0:0:
320,116,51486,2,0,B|337:98|337:98|329:45,1,75,2|0,1:1|0:1,0:0:0:0:
149,34,51801,6,0,L|5:4,1,89.9999972534181,2|0,3:2|0:0,0:0:0:0:
128,112,52117,2,0,L|-16:82,1,89.9999972534181,2|0,0:0|0:0,0:0:0:0:
18,209,52433,6,0,L|162:179,1,89.9999972534181,2|0,3:2|0:0,0:0:0:0:
39,287,52749,2,0,L|183:257,1,89.9999972534181,2|0,1:2|0:0,0:0:0:0:
179,351,53065,6,0,P|186:228|205:162,1,150,10|0,0:0|0:0,0:0:0:0:
192,202,53538,1,8,0:3:0:0:
261,270,53696,2,0,P|290:245|287:186,1,75,2|2,3:1|0:1,0:0:0:0:
244,126,54012,2,0,P|242:98|253:124,1,75,0|0,1:1|0:0,0:0:0:0:
368,263,54328,5,0,3:0:0:0:
406,378,54486,1,0,1:0:0:0:
406,378,54643,2,0,P|445:361|525:353,1,89.9999972534181,2|8,0:1|0:0,0:0:0:0:
445,233,54959,5,0,3:0:0:0:
355,308,55117,1,0,1:0:0:0:
355,308,55275,2,0,P|264:284|253:287,1,89.9999972534181,2|0,0:1|1:0,0:0:0:0:
133,336,55591,6,0,P|127:223|112:169,1,150,12|0,0:0|0:0,0:0:0:0:
118,187,56065,1,8,0:3:0:0:
166,103,56222,2,0,B|199:119|199:119|205:156,1,75,2|2,3:1|0:1,0:0:0:0:
222,253,56538,2,0,P|189:234|133:226,1,75,2|0,1:1|0:1,0:0:0:0:
31,375,56854,6,0,P|18:332|-5:256,1,89.9999972534181,2|0,3:2|0:0,0:0:0:0:
104,352,57170,2,0,P|94:310|81:264,1,89.9999972534181,2|0,0:0|0:0,0:0:0:0:
115,151,57486,6,0,P|128:108|151:32,1,89.9999972534181,2|0,3:2|0:0,0:0:0:0:
42,128,57802,2,0,P|52:86|64:40,1,89.9999972534181,2|0,1:2|0:0,0:0:0:0:
213,27,58117,6,0,P|247:91|368:146,1,150,8|0,0:0|0:0,0:0:0:0:
309,134,58591,1,8,0:3:0:0:
317,231,58749,2,0,P|432:244|439:257,1,75,2|2,3:1|0:1,0:0:0:0:
399,115,59065,2,0,B|424:91|424:91|409:129,1,75,2|0,1:1|0:0,0:0:0:0:
455,271,59380,5,0,3:0:0:0:
384,338,59538,1,0,1:0:0:0:
287,323,59696,2,0,B|273:314|261:295|261:295|282:308|303:315,1,75,2|0,0:1|1:0,0:0:0:0:
385,345,60012,5,0,0:0:0:0:
472,32,60643,6,0,P|483:69|493:243,1,150,12|0,0:0|0:0,0:0:0:0:
498,178,61117,1,8,0:3:0:0:
506,276,61275,2,0,P|483:279|444:231,1,75,2|2,3:1|0:1,0:0:0:0:
422,151,61591,2,0,P|441:61|440:54,1,75,2|0,1:1|0:1,0:0:0:0:
277,3,61907,6,0,P|234:18|180:58,1,89.9999972534181,2|0,3:2|0:0,0:0:0:0:
300,97,62222,2,0,P|254:103|194:132,1,89.9999972534181,2|0,0:0|0:0,0:0:0:0:
269,223,62538,6,0,P|227:203|161:193,1,89.9999972534181,2|0,3:2|0:0,0:0:0:0:
219,306,62854,2,0,P|182:278|119:256,1,89.9999972534181,2|0,1:2|0:0,0:0:0:0:
38,373,63170,6,0,P|17:229|0:170,1,150,8|0,0:0|0:0,0:0:0:0:
15,224,63643,1,8,0:3:0:0:
2,128,63801,2,0,B|44:120|44:120|18:138,1,75,2|2,3:1|0:1,0:0:0:0:
97,195,64117,2,0,P|112:158|159:99,1,75,2|0,1:1|0:0,0:0:0:0:
272,14,64433,5,0,3:0:0:0:
226,120,64591,1,0,1:0:0:0:
226,120,64749,2,0,P|268:113|347:126,1,89.9999972534181,2|8,0:1|0:0,0:0:0:0:
423,69,65065,2,0,P|445:32|506:-19,2,89.9999972534181,0|0|2,3:0|1:0|0:1,0:0:0:0:
405,164,65538,1,0,1:0:0:0:
418,313,65696,6,0,B|374:306|363:265|388:270|364:215|310:214,1,150,12|0,0:0|0:0,0:0:0:0:
318,214,66170,1,8,0:3:0:0:
234,263,66328,1,2,3:1:0:0:
234,263,66407,1,0,1:0:0:0:
234,263,66486,2,0,P|247:303|255:356,2,75,0|2|0,1:0|1:1|0:0,0:0:0:0:
89,366,66959,5,0,3:0:0:0:
89,366,67117,1,0,1:0:0:0:
110,250,67275,5,2,1:0:0:0:
110,250,67433,1,0,1:0:0:0:
7,308,67591,6,0,B|-3:251|-3:251|45:207,1,89.9999972534181,2|0,3:2|0:0,0:0:0:0:
9,112,67907,2,0,B|24:54|24:54|-7:17,1,89.9999972534181,2|0,1:2|0:0,0:0:0:0:
108,22,68222,6,0,L|116:59,2,37.5,0|0|0,1:0|1:0|3:0,0:0:0:0:
206,36,68538,1,0,3:0:0:0:
301,53,68696,1,0,3:0:0:0:
301,53,68854,6,0,B|391:46|338:12|456:-2,1,150,2|2,0:1|3:1,0:0:0:0:
291,146,69486,2,0,P|290:183|287:220,1,75,2|0,1:0|1:0,0:0:0:0:
287,220,69801,1,0,1:0:0:0:
287,220,69959,1,0,1:0:0:0:
195,254,70117,2,0,P|350:318|377:357,2,150,2|0|0,1:0|1:0|3:0,0:0:0:0:
52,39,80854,5,0,3:0:0:0:
53,192,81170,1,2,0:0:0:0:
53,192,81328,2,0,B|64:179|64:179|138:164,1,63.7500012159348,0|0,0:0|3:0,0:0:0:0:
159,111,81643,1,0,0:0:0:0:
232,132,81801,2,0,P|290:148|356:168,1,127.50000243187,2|0,0:0|0:0,0:0:0:0:
330,319,82433,5,2,0:0:0:0:
330,319,82591,2,0,P|343:279|354:237,1,63.7500012159348,0|0,0:0|3:0,0:0:0:0:
422,123,83065,2,0,B|407:53|336:43|336:81|360:84,1,127.50000243187,2|0,0:0|0:0,0:0:0:0:
457,200,83696,5,2,0:0:0:0:
470,275,83854,2,0,P|459:304|450:368,1,63.7500012159348,2|0,0:0|3:0,0:0:0:0:
452,336,84170,1,0,0:0:0:0:
452,336,84328,1,2,0:0:0:0:
309,285,84643,5,0,3:0:0:0:
238,254,84801,2,0,P|304:236|370:207,1,127.50000243187,0|0,0:0|3:0,0:0:0:0:
358,212,85275,1,2,0:0:0:0:
216,155,85591,2,0,P|202:172|221:159,1,63.7500012159348,0|0,3:0|0:0,0:0:0:0:
225,152,85907,6,0,P|214:60|175:17,1,127.50000243187,0|2,0:0|0:0,0:0:0:0:
118,38,86380,1,0,0:0:0:0:
118,38,86538,2,0,P|52:89|14:77,2,127.50000243187,0|2|0,3:0|0:0|0:0,0:0:0:0:
267,74,87486,5,2,0:0:0:0:
335,41,87643,1,0,0:0:0:0:
335,41,87801,2,0,B|380:53|380:53|390:12,1,63.7500012159348,0|0,3:0|0:0,0:0:0:0:
459,19,88117,2,0,P|469:108|414:181,1,127.50000243187,2|0,0:0|0:0,0:0:0:0:
374,271,88749,5,2,0:0:0:0:
374,271,88907,2,0,P|326:238|286:238,1,63.7500012159348,0|0,0:0|3:0,0:0:0:0:
249,211,89222,1,0,0:0:0:0:
249,211,89380,1,2,0:0:0:0:
180,347,89696,5,0,0:3:0:0:
150,276,89854,1,0,0:3:0:0:
143,199,90012,1,0,0:3:0:0:
170,127,90170,1,0,0:3:0:0:
231,81,90328,2,0,P|270:94|318:98,1,63.7500012159348,2|0,3:2|0:0,0:0:0:0:
360,62,90643,5,0,1:0:0:0:
360,62,90722,1,0,1:0:0:0:
360,62,90801,2,0,P|386:57|401:44,2,31.8750006079674,0|0|0,1:0|1:0|3:0,0:0:0:0:
499,126,91275,5,2,0:0:0:0:
499,126,91433,2,0,P|514:59|536:7,1,63.7500012159348,0|0,0:0|3:0,0:0:0:0:
360,62,91907,2,0,P|371:206|362:243,1,127.50000243187,0|0,0:0|3:0,0:0:0:0:
511,120,92538,5,2,0:0:0:0:
511,120,92696,2,0,P|481:167|479:206,1,63.7500012159348,8|0,0:3|0:0,0:0:0:0:
471,250,93012,1,0,0:0:0:0:
471,250,93170,2,0,P|381:281|332:341,1,127.50000243187,8|0,0:3|3:0,0:0:0:0:
218,238,93801,5,2,0:0:0:0:
218,238,93959,2,0,P|148:206|141:175,2,63.7500012159348,8|0|0,0:3|3:0|0:0,0:0:0:0:
239,312,94433,2,0,P|272:295|303:244,1,63.7500012159348,0|0,0:0|0:0,0:0:0:0:
287,198,94749,5,0,3:0:0:0:
298,122,94907,1,0,1:0:0:0:
277,48,95065,2,0,P|314:35|346:4,2,63.7500012159348,0|0|2,1:0|3:0|0:0,0:0:0:0:
124,66,95696,5,0,3:0:0:0:
127,219,96012,2,0,P|125:157|105:91,1,127.50000243187,0|2,3:0|0:0,0:0:0:0:
52,40,96486,1,8,0:3:0:0:
52,39,96643,2,0,P|33:28|45:51,1,63.7500012159348,0|0,0:0|0:0,0:0:0:0:
39,128,96959,2,0,P|72:135|108:149,1,63.7500012159348,8|0,0:3|0:0,0:0:0:0:
127,219,97275,6,0,P|218:190|267:191,1,127.50000243187,0|0,3:0|0:0,0:0:0:0:
282,258,97749,2,0,P|311:250|329:212,1,63.7500012159348,2|0,0:0|3:0,0:0:0:0:
405,222,98065,1,0,0:0:0:0:
405,222,98222,2,0,P|412:192|388:158,1,63.7500012159348,8|0,0:3|0:0,0:0:0:0:
322,146,98538,6,0,P|332:82|351:0,1,127.50000243187,2|2,3:2|0:0,0:0:0:0:
350,26,99012,1,0,0:0:0:0:
354,31,99170,2,0,P|385:26|413:12,1,63.7500012159348,2|0,3:2|0:0,0:0:0:0:
449,85,99486,2,0,P|478:72|501:51,1,63.7500012159348,2|0,1:2|0:0,0:0:0:0:
442,163,99801,6,0,P|460:171|483:189,2,31.8750006079674,0|0|0,1:0|0:0|3:0,0:0:0:0:
366,177,100117,1,0,0:0:0:0:
337,247,100275,1,0,3:0:0:0:
381,309,100433,1,2,0:0:0:0:
258,234,100749,5,0,3:0:0:0:
258,234,100828,1,0,1:0:0:0:
258,234,100907,2,0,L|238:185,2,31.8750006079674,0|0|8,1:0|1:0|1:3,0:0:0:0:
175,323,101380,6,0,L|106:314,1,60,2|0,0:0|1:0,0:0:0:0:
73,381,101696,2,0,P|60:255|53:209,1,120,0|0,0:0|1:0,0:0:0:0:
43,61,102328,5,8,0:3:0:0:
43,61,102486,1,0,1:0:0:0:
43,61,102644,1,0,0:0:0:0:
126,192,102959,2,0,P|187:177|272:182,1,120,0|8,1:0|0:3,0:0:0:0:
249,182,103433,1,0,1:0:0:0:
251,190,103591,6,0,P|302:241|358:221,1,120,0|2,1:0|0:0,0:0:0:0:
343,154,104065,1,0,1:0:0:0:
343,154,104223,2,0,P|372:136|397:129,1,60,2|0,0:0|0:0,0:0:0:0:
456,78,104538,6,0,P|440:166|432:232,1,120,0|2,1:0|0:0,0:0:0:0:
465,268,105012,1,0,1:0:0:0:
465,268,105170,2,0,P|486:277|464:285,1,60,0|8,0:0|0:3,0:0:0:0:
402,333,105486,2,0,P|327:347|310:358,1,60,0|2,1:0|0:0,0:0:0:0:
284,287,105802,1,0,1:0:0:0:
284,287,105959,1,0,1:0:0:0:
284,287,106117,1,0,1:0:0:0:
142,353,106433,6,0,P|126:325|124:297,1,60,2|0,0:0|1:0,0:0:0:0:
46,311,106749,2,0,P|121:221|139:182,1,120,2|0,0:0|1:0,0:0:0:0:
74,80,107380,5,8,0:3:0:0:
74,80,107538,1,0,1:0:0:0:
74,80,107696,1,2,0:0:0:0:
226,52,108012,2,0,P|225:119|160:124,1,120,0|8,1:0|0:3,0:0:0:0:
191,142,108486,1,0,1:0:0:0:
191,142,108644,6,0,P|252:159|273:190,1,60,0|2,1:0|0:0,0:0:0:0:
308,106,108959,2,0,P|323:166|307:200,1,60,2|0,0:0|1:0,0:0:0:0:
401,179,109275,2,0,P|426:120|406:81,1,60,0|2,0:0|0:0,0:0:0:0:
383,61,109591,5,0,1:0:0:0:
383,61,109749,1,0,0:0:0:0:
383,61,109907,2,0,P|447:35|473:22,1,60,8|0,0:3|1:0,0:0:0:0:
512,12,110223,1,2,0:0:0:0:
500,167,110538,2,0,P|505:229|513:289,1,120,0|0,1:0|1:0,0:0:0:0:
512,286,111012,1,0,1:0:0:0:
442,322,111170,6,0,L|435:282,2,30,0|0|0,3:0|0:0|0:0,0:0:0:0:
369,351,111486,2,0,L|353:272,1,60,2|0,0:0|1:0,0:0:0:0:
344,214,111802,5,2,0:0:0:0:
491,165,112117,1,8,0:3:0:0:
337,136,112433,2,0,P|300:112|243:114,1,60,0|0,3:0|1:0,0:0:0:0:
256,35,112749,2,0,P|177:39|164:27,1,60,0|0,1:0|3:0,0:0:0:0:
123,29,113065,6,0,L|130:-11,2,30,0|0|0,1:0|0:0|0:0,0:0:0:0:
116,106,113380,1,0,3:0:0:0:
39,243,113696,6,0,P|55:339|51:378,1,120,8|2,0:0|0:0,0:0:0:0:
54,361,114170,1,0,1:0:0:0:
131,349,114328,6,0,P|157:332|223:317,1,60,2|0,3:2|0:0,0:0:0:0:
211,247,114644,2,0,P|237:264|303:279,1,60,0|0,1:0|0:0,0:0:0:0:
254,355,114959,1,2,3:2:0:0:
254,355,115117,1,0,1:0:0:0:
345,330,115275,2,0,P|355:312|342:329,1,60,2|0,3:2|1:0,0:0:0:0:
415,370,115591,2,0,L|455:362,2,30,0|0|0,3:0|0:0|0:0,0:0:0:0:
428,286,115907,1,0,1:0:0:0:
273,277,116223,6,0,P|266:242|258:197,1,60,0|0,1:0|1:0,0:0:0:0:
244,142,116538,1,0,1:0:0:0:
244,142,116696,1,0,1:0:0:0:
325,168,116854,6,0,P|332:133|340:88,1,60,0|0,1:0|1:0,0:0:0:0:
354,33,117169,1,0,1:0:0:0:
354,33,117327,1,0,1:0:0:0:
264,28,117486,6,0,P|226:43|150:81,2,80,0|0|0,1:0|1:0|1:0,0:0:0:0:
224,140,118117,6,0,P|239:178|277:254,2,80,0|0|0,1:0|1:0|1:0,0:0:0:0:
110,104,118749,5,2,1:2:0:0:
256,192,119065,12,2,120644,0:0:0:0:
111,293,121275,6,0,B|191:265|138:226|221:201,1,150,12|0,0:0|0:0,0:0:0:0:
222,201,121749,1,8,0:3:0:0:
250,294,121907,2,0,P|343:279|357:281,1,75,2|2,3:1|0:1,0:0:0:0:
407,327,122223,2,0,B|395:313|395:313|410:258,1,75,2|0,1:1|0:1,0:0:0:0:
406,78,122538,6,0,P|359:61|263:73,1,89.9999972534181,2|0,3:2|0:0,0:0:0:0:
386,156,122854,2,0,P|337:152|259:106,1,89.9999972534181,2|0,0:0|0:0,0:0:0:0:
198,75,123170,6,0,P|151:92|55:80,1,89.9999972534181,2|0,3:2|0:0,0:0:0:0:
178,1,123486,2,0,P|129:5|51:51,1,89.9999972534181,2|0,1:2|0:0,0:0:0:0:
69,169,123802,6,0,P|76:46|95:-20,1,150,10|0,0:0|0:0,0:0:0:0:
76,14,124275,1,8,0:3:0:0:
154,93,124433,2,0,P|179:64|238:67,1,75,2|2,3:1|0:1,0:0:0:0:
307,27,124749,2,0,P|309:-1|298:25,1,75,0|0,1:1|0:0,0:0:0:0:
238,194,125065,5,0,3:0:0:0:
188,302,125223,1,0,1:0:0:0:
188,302,125380,2,0,P|149:285|69:277,1,89.9999972534181,2|8,0:1|0:0,0:0:0:0:
164,165,125696,5,0,3:0:0:0:
259,241,125854,1,0,1:0:0:0:
259,241,126012,2,0,P|311:221|354:227,1,89.9999972534181,2|0,0:1|1:0,0:0:0:0:
408,357,126328,6,0,P|443:249|471:201,1,150,12|0,0:0|0:0,0:0:0:0:
460,217,126802,1,8,0:3:0:0:
434,123,126959,2,0,B|401:139|401:139|395:176,1,75,2|2,3:1|0:1,0:0:0:0:
390,274,127275,2,0,P|423:255|479:247,1,75,2|0,1:1|0:1,0:0:0:0:
315,358,127591,6,0,P|268:353|239:310,1,89.9999972534181,2|0,3:2|0:0,0:0:0:0:
140,381,127907,2,0,P|132:334|166:295,1,89.9999972534181,2|0,0:0|0:0,0:0:0:0:
42,272,128222,6,0,P|69:233|121:230,1,89.9999972534181,2|0,3:2|0:0,0:0:0:0:
110,108,128538,2,0,P|154:124|170:174,1,89.9999972534181,2|0,1:2|0:0,0:0:0:0:
294,249,128854,6,0,P|390:226|507:216,1,150,8|0,0:0|0:0,0:0:0:0:
440,219,129328,1,8,0:3:0:0:
508,149,129486,2,0,P|512:106|471:69,1,75,2|2,3:1|0:1,0:0:0:0:
414,25,129801,2,0,P|402:48|418:34,1,75,2|0,1:1|0:0,0:0:0:0:
322,52,130117,5,0,3:0:0:0:
328,140,130275,1,0,1:0:0:0:
426,142,130433,2,0,B|441:135|456:118|456:118|433:128|411:131,1,75,2|0,0:1|1:0,0:0:0:0:
326,147,130749,5,0,0:0:0:0:
149,63,131065,6,0,P|146:40|138:18,2,37.5,2|0|0,0:1|0:0|0:0,0:0:0:0:
225,2,131380,6,0,P|214:39|204:213,1,150,12|0,0:0|0:0,0:0:0:0:
107,181,131854,1,8,0:3:0:0:
92,277,132012,2,0,P|115:280|154:232,1,75,2|2,3:1|0:1,0:0:0:0:
249,237,132328,2,0,P|273:224|250:244,1,75,2|0,1:1|0:1,0:0:0:0:
127,370,132643,6,0,P|111:311|86:277,1,89.9999972534181,2|0,3:2|0:0,0:0:0:0:
23,380,132959,2,0,P|18:319|0:280,1,89.9999972534181,2|0,0:0|0:0,0:0:0:0:
8,175,133275,6,0,P|8:113|23:74,1,89.9999972534181,2|0,3:2|0:0,0:0:0:0:
111,158,133591,2,0,P|99:97|107:56,1,89.9999972534181,2|0,1:2|0:0,0:0:0:0:
253,53,133907,6,0,P|397:74|456:91,1,150,8|0,0:0|0:0,0:0:0:0:
401,75,134380,1,8,0:3:0:0:
495,51,134538,2,0,B|503:9|503:9|485:35,1,75,2|2,3:1|0:1,0:0:0:0:
469,132,134854,2,0,P|489:163|502:198,1,75,2|0,1:1|0:0,0:0:0:0:
366,317,135170,5,0,3:0:0:0:
260,363,135328,1,0,1:0:0:0:
260,363,135486,2,0,P|267:320|254:242,1,89.9999972534181,2|8,0:1|0:0,0:0:0:0:
311,166,135802,2,0,P|348:144|399:83,2,89.9999972534181,0|0|2,3:0|1:0|0:1,0:0:0:0:
216,183,136275,1,0,1:0:0:0:
67,207,136433,6,0,B|111:200|122:159|97:164|121:109|175:108,1,150,12|0,0:0|0:0,0:0:0:0:
167,108,136907,1,8,0:3:0:0:
236,39,137065,1,2,3:1:0:0:
236,39,137143,1,0,1:0:0:0:
236,39,137223,2,0,P|244:80|264:130,2,75,0|2|0,1:0|1:1|0:0,0:0:0:0:
56,52,137696,5,0,3:0:0:0:
56,52,137854,1,0,1:0:0:0:
67,168,138012,5,2,1:0:0:0:
67,168,138170,1,0,1:0:0:0:
185,181,138328,6,0,P|233:193|276:230,1,89.9999972534181,2|0,3:2|0:0,0:0:0:0:
373,176,138643,2,0,P|419:223|470:200,1,89.9999972534181,2|0,1:2|0:0,0:0:0:0:
504,150,138959,6,0,L|486:116,2,37.5,0|0|0,1:0|1:0|3:0,0:0:0:0:
451,232,139275,1,0,3:0:0:0:
451,329,139433,1,0,3:0:0:0:
451,329,139591,6,0,B|361:322|414:288|296:274,1,150,2|2,0:1|3:1,0:0:0:0:
225,101,140223,2,0,P|214:136|201:171,1,75,2|0,1:0|1:0,0:0:0:0:
202,172,140538,1,0,1:0:0:0:
202,172,140696,1,0,1:0:0:0:
104,181,140854,2,0,P|237:282|253:327,2,150,2|0|0,1:0|1:0|3:0,0:0:0:0:
