osu file format v14

[General]
AudioFilename: audio.mp3
AudioLeadIn: 0
PreviewTime: 50538
Countdown: 0
SampleSet: Soft
StackLeniency: 0.2
Mode: 0
LetterboxInBreaks: 0
WidescreenStoryboard: 1

[Editor]
Bookmarks: 30328,50538,70749,80854,101065,121275,141486
DistanceSpacing: 1.2
BeatDivisor: 8
GridSize: 32
TimelineZoom: 1.000001

[Metadata]
Title:Shadows (feat. Nevve)
TitleUnicode:Shadows (feat. Nevve)
Artist:Aero Chord
ArtistUnicode:Aero Chord
Creator:Frakturehawkens
Version:Djulus' Normal
Source:
Tags:english monstercat electronic bass dance djulus neilperry
BeatmapID:2020998
BeatmapSetID:965463

[Difficulty]
HPDrainRate:4
CircleSize:3.4
OverallDifficulty:4
ApproachRate:5
SliderMultiplier:1.76
SliderTickRate:1

[Events]
//Background and Video events
0,0,"ttt.jpg",0,0
//Break Periods
2,48212,49338
2,70949,79654
2,118949,120075
//Storyboard Layer 0 (Background)
//Storyboard Layer 1 (Fail)
//Storyboard Layer 2 (Pass)
//Storyboard Layer 3 (Foreground)
//Storyboard Layer 4 (Overlay)
//Storyboard Sound Samples

[TimingPoints]
5065,631.578947368421,4,2,1,40,1,0
6801,-100,4,2,1,5,0,0
6959,-100,4,2,1,40,0,0
7591,-100,4,2,1,40,0,0
9486,-100,4,2,1,40,0,0
10117,-100,4,2,1,50,0,0
19591,-100,4,2,1,50,0,0
20222,-100,4,2,1,50,0,0
29065,-100,4,2,1,50,0,0
29696,-100,4,2,1,50,0,0
30643,-100,4,2,1,50,0,0
40433,-100,4,2,1,55,0,0
48959,-100,4,2,1,50,0,0
49907,-100,4,2,1,30,0,0
50538,-100,4,2,1,65,0,1
51801,-100,4,2,1,65,0,1
53065,-100,4,2,1,65,0,1
54328,-100,4,2,1,65,0,1
55433,-100,4,2,1,65,0,1
55591,-100,4,2,1,65,0,1
56854,-100,4,2,1,65,0,1
58117,-100,4,2,1,65,0,1
60012,-100,4,2,1,35,0,1
60643,-100,4,2,1,65,0,1
61907,-100,4,2,1,65,0,1
63170,-100,4,2,1,65,0,1
65538,-100,4,2,1,65,0,1
65696,-100,4,2,1,65,0,1
68222,-100,4,2,1,65,0,1
68854,-100,4,2,1,65,0,1
69486,-100,4,2,1,65,0,1
70591,-100,4,2,1,65,0,1
70749,-100,4,2,1,40,0,0
80854,-100,4,2,1,50,0,0
90328,-100,4,2,1,50,0,0
91275,-100,4,2,1,50,0,0
95380,-100,4,2,1,50,0,0
96012,-100,4,2,1,50,0,0
99801,-100,4,2,1,50,0,0
99959,-100,4,2,1,50,0,0
101380,-100,4,2,1,50,0,0
111170,-100,4,2,1,55,0,0
119696,-100,4,2,1,50,0,0
120643,-100,4,2,1,30,0,0
121275,-100,4,2,1,65,0,1
122538,-100,4,2,1,65,0,1
123801,-100,4,2,1,65,0,1
125065,-100,4,2,1,65,0,1
126170,-100,4,2,1,65,0,1
126328,-100,4,2,1,65,0,1
127591,-100,4,2,1,65,0,1
128854,-100,4,2,1,65,0,1
132643,-100,4,2,1,65,0,1
133907,-100,4,2,1,65,0,1
136275,-100,4,2,1,65,0,1
136433,-100,4,2,1,65,0,1
138959,-100,4,2,1,65,0,1
139591,-100,4,2,1,65,0,1
140222,-100,4,2,1,65,0,1
141328,-100,4,2,1,65,0,1
141486,-100,4,2,1,40,0,0

[Colours]
Combo1 : 106,255,106
Combo2 : 85,255,255
SliderBorder : 240,184,100
SliderTrackOverride : 30,30,30

[HitObjects]
256,192,5696,12,2,9486,0:0:0:0:
343,337,10117,6,0,B|374:254|458:280|458:280|447:323,2,176,0|0|0,3:0|3:0|3:0,0:0:0:0:
259,366,11696,1,2,0:0:0:0:
192,308,12012,2,0,L|209:201,1,88,0|2,3:0|0:0,0:0:0:0:
174,138,12643,2,0,P|129:67|41:72,2,176,0|0|0,3:0|3:0|3:0,0:0:0:0:
291,199,14380,2,0,B|358:226|358:226|417:194,1,132,0|0,3:0|3:0,0:0:0:0:
421,109,15170,6,0,B|333:118|347:66|238:74,2,176,0|0|0,3:0|3:0|3:0,0:0:0:0:
494,157,16749,1,2,0:0:0:0:
469,241,17065,2,0,P|492:287|482:342,1,88,0|2,3:0|0:0,0:0:0:0:
410,360,17696,2,0,P|326:318|217:328,1,176,0|0,3:0|3:0,0:0:0:0:
95,227,18959,2,0,L|95:173,1,44,0|0,3:3|3:3,0:0:0:0:
129,155,19275,2,0,L|116:104,1,44,0|0,3:3|3:3,0:0:0:0:
94,75,19591,2,0,L|190:49,1,88,2|0,3:2|1:0,0:0:0:0:
254,97,20222,6,0,P|323:71|435:68,2,176,0|0|0,3:0|3:0|3:0,0:0:0:0:
230,181,21801,1,2,0:0:0:0:
293,242,22117,2,0,L|312:336,1,88,0|8,3:0|0:3,0:0:0:0:
230,364,22749,2,0,P|171:362|107:267,2,176,0|0|0,3:0|3:0|3:0,0:0:0:0:
305,255,24486,2,0,L|439:230,1,132,0|0,3:0|3:0,0:0:0:0:
499,171,25275,6,0,P|478:113|339:80,1,176,0|0,3:0|0:0,0:0:0:0:
298,32,26222,1,8,0:3:0:0:
228,85,26538,2,0,L|125:108,1,88,0|8,3:0|0:3,0:0:0:0:
62,65,27170,1,0,3:0:0:0:
157,212,27801,6,0,P|237:199|329:241,1,176,2|2,3:2|3:2,0:0:0:0:
347,319,28749,1,2,1:2:0:0:
272,366,29065,2,0,L|175:347,1,88,0|0,1:0|3:0,0:0:0:0:
102,320,29696,1,2,0:0:0:0:
129,236,30012,2,0,L|113:186,1,44,0|0,3:0|1:0,0:0:0:0:
138,155,30328,6,0,B|198:177|198:177|281:141,2,132,8|0|0,1:3|1:0|1:0,0:0:0:0:
60,48,31749,2,0,L|188:16,1,132,0|0,1:0|1:0,0:0:0:0:
274,36,32538,2,0,L|333:47,1,44,8|0,0:3|1:0,0:0:0:0:
361,41,32854,2,0,P|367:109|368:181,2,132,0|0|0,1:0|1:0|1:0,0:0:0:0:
477,103,34275,2,0,P|488:198|491:248,1,132,0|0,1:0|1:0,0:0:0:0:
437,305,35065,2,0,L|381:333,1,44,0|0,1:0|1:0,0:0:0:0:
358,305,35380,6,0,P|300:296|238:357,2,132,0|0|0,1:0|1:0|1:0,0:0:0:0:
277,200,36801,2,0,L|128:179,1,132,0|0,1:0|1:0,0:0:0:0:
63,211,37591,2,0,L|67:264,1,44,8|0,0:3|1:0,0:0:0:0:
84,295,37907,2,0,P|164:298|215:354,2,132,0|0|0,1:0|1:0|1:0,0:0:0:0:
63,211,39170,2,0,B|174:208|118:156|256:155,1,176,8|0,0:3|1:0,0:0:0:0:
297,104,40117,1,0,1:0:0:0:
369,154,40433,5,0,3:0:0:0:
288,310,41065,2,0,L|172:324,1,88,2|8,0:0|0:3,0:0:0:0:
115,344,41696,2,0,P|82:286|93:252,1,88,0|0,3:0|1:0,0:0:0:0:
124,189,42328,2,0,P|137:132|115:85,1,88,0|0,1:0|3:0,0:0:0:0:
64,45,42959,1,8,0:0:0:0:
240,45,43591,2,0,P|298:84|309:130,1,88,2|0,3:2|1:0,0:0:0:0:
283,183,44222,2,0,P|212:168|108:194,1,176,2|0,3:2|3:0,0:0:0:0:
32,154,45170,1,0,1:0:0:0:
64,72,45486,6,0,P|110:55|150:55,1,88,0|0,1:0|1:0,0:0:0:0:
191,44,45959,1,0,1:0:0:0:
191,44,46117,2,0,P|239:55|399:64,1,176,0|0,1:0|1:0,0:0:0:0:
454,217,47380,2,0,L|441:314,1,88,0|0,1:0|0:0,0:0:0:0:
374,360,48012,1,2,1:2:0:0:
69,116,50538,6,0,L|160:102,1,88,12|0,0:0|0:0,0:0:0:0:
225,48,51170,2,0,L|212:-13,2,44,2|2|2,3:1|0:1|1:1,0:0:0:0:
307,79,51801,1,2,3:2:0:0:
350,155,52117,1,2,0:0:0:0:
298,226,52433,1,2,3:2:0:0:
211,207,52749,1,2,1:2:0:0:
142,261,53065,6,0,P|116:339|123:369,1,88,10|0,0:0|0:0,0:0:0:0:
158,355,53538,1,8,0:3:0:0:
158,355,53696,2,0,L|220:348,1,44,2|2,3:1|0:1,0:0:0:0:
245,359,54012,1,0,1:1:0:0:
325,323,54328,5,0,3:0:0:0:
305,237,54643,1,2,0:1:0:0:
364,171,54959,2,0,P|424:150|450:157,1,88,0|2,3:0|0:1,0:0:0:0:
484,118,55433,1,0,1:0:0:0:
484,118,55591,2,0,P|463:83|398:67,1,88,12|0,0:0|0:0,0:0:0:0:
333,55,56222,2,0,L|303:-7,2,44,2|2|2,3:1|0:1|1:1,0:0:0:0:
289,132,56854,5,2,3:2:0:0:
252,211,57170,1,2,0:0:0:0:
164,214,57486,1,2,3:2:0:0:
115,140,57801,1,2,1:2:0:0:
32,171,58117,6,0,P|6:214|7:279,1,88,8|0,0:0|0:0,0:0:0:0:
32,282,58591,1,8,0:3:0:0:
32,282,58749,2,0,L|54:345,1,44,2|2,3:1|0:1,0:0:0:0:
67,362,59065,1,2,1:1:0:0:
144,321,59380,1,0,3:0:0:0:
223,357,59696,1,2,0:1:0:0:
292,302,60012,2,0,L|419:281,1,88,0|2,0:0|0:1,0:0:0:0:
442,227,60643,6,0,B|430:141|456:192|437:87,1,132,12|8,0:0|0:3,0:0:0:0:
414,58,61275,2,0,L|420:12,2,44,2|2|2,3:1|0:1|1:1,0:0:0:0:
326,45,61907,1,2,3:2:0:0:
248,85,62222,1,2,0:0:0:0:
233,171,62538,1,2,3:2:0:0:
294,233,62854,1,2,1:2:0:0:
242,304,63170,6,0,L|143:298,1,88,8|0,0:0|0:0,0:0:0:0:
82,245,63801,2,0,L|21:255,2,44,2|2|2,3:1|0:1|1:1,0:0:0:0:
144,182,64433,2,0,L|206:159,1,44,0|0,3:0|1:0,0:0:0:0:
215,134,64749,2,0,L|269:132,1,44,2|8,0:1|0:0,0:0:0:0:
294,105,65065,2,0,L|400:117,1,88,0|2,3:0|0:1,0:0:0:0:
420,134,65538,1,0,1:0:0:0:
420,134,65696,6,0,P|442:183|425:227,1,88,12|0,0:0|0:0,0:0:0:0:
400,296,66328,2,0,L|426:363,2,44,2|0|2,3:1|1:0|1:1,0:0:0:0:
324,250,66959,1,0,3:0:0:0:
274,322,67275,1,2,1:0:0:0:
186,312,67591,2,0,P|119:300|101:266,1,88,2|2,3:2|1:2,0:0:0:0:
46,225,68222,6,0,L|43:160,1,44,0|0,1:0|3:0,0:0:0:0:
66,143,68538,2,0,L|80:91,1,44,0|0,3:0|3:0,0:0:0:0:
60,59,68854,1,2,0:1:0:0:
139,20,69170,6,0,P|187:26|262:132,1,176,2|0,3:1|1:0,0:0:0:0:
255,208,70117,2,0,L|237:312,1,88,2|0,1:0|1:0,0:0:0:0:
291,366,70749,1,0,3:0:0:0:
420,77,80854,5,0,3:0:0:0:
352,133,81170,2,0,L|295:150,1,44,2|0,0:0|0:0,0:0:0:0:
266,138,81486,2,0,B|201:129|164:121|164:121|106:159|130:213,1,176,0|0,3:0|0:0,0:0:0:0:
105,264,82433,2,0,L|140:320,1,44,2|0,0:0|0:0,0:0:0:0:
160,332,82749,2,0,P|211:293|330:355,1,176,0|0,3:0|0:0,0:0:0:0:
388,364,83696,2,0,L|400:315,1,44,2|2,0:0|0:0,0:0:0:0:
434,295,84012,2,0,L|409:117,1,176,0|0,3:0|3:0,0:0:0:0:
299,47,85117,2,0,B|267:47|238:23|238:23|244:59|216:108,1,132,0|0,3:0|3:0,0:0:0:0:
149,128,85907,6,0,B|65:126|58:19|139:12,2,176,0|0|0,0:0|3:0|0:0,0:0:0:0:
216,184,87486,2,0,L|201:243,1,44,2|0,0:0|0:0,0:0:0:0:
197,270,87801,2,0,B|113:285|121:209|23:218,1,176,0|0,3:0|0:0,0:0:0:0:
17,130,88749,2,0,L|70:106,1,44,2|0,0:0|0:0,0:0:0:0:
98,97,89065,2,0,B|136:74|140:23|140:23|157:72|231:88,1,176,0|0,3:0|0:3,0:0:0:0:
249,71,89854,1,0,0:3:0:0:
249,71,90012,2,0,L|304:62,1,44,0|0,0:3|0:3,0:0:0:0:
328,37,90328,2,0,L|430:67,1,88,2|0,3:2|1:0,0:0:0:0:
467,126,90959,6,0,B|509:203|509:203|442:266,1,176,0|0,3:0|3:0,0:0:0:0:
367,306,91907,1,0,0:0:0:0:
286,270,92222,2,0,P|292:216|306:64,1,176,0|0,3:0|0:0,0:0:0:0:
240,29,93170,1,8,0:3:0:0:
169,82,93486,2,0,B|91:104|52:85|2:-5,2,176,0|0|0,3:0|3:0|3:0,0:0:0:0:
191,211,95222,2,0,L|218:355,1,132,0|0,3:0|3:0,0:0:0:0:
301,358,96012,6,0,B|339:337|347:286|347:286|377:339|443:348,2,176,0|0|0,3:0|0:0|3:0,0:0:0:0:
136,295,97907,2,0,P|85:307|74:279,1,88,0|8,3:0|0:3,0:0:0:0:
116,206,98538,2,0,P|193:190|310:146,2,176,2|2|0,3:2|3:2|1:0,0:0:0:0:
37,165,100117,1,0,3:0:0:0:
89,94,100433,2,0,P|139:79|183:64,1,88,2|0,0:0|3:0,0:0:0:0:
251,27,101065,5,8,1:3:0:0:
365,92,101538,2,0,P|436:146|459:196,2,132,0|0|0,1:0|1:0|1:0,0:0:0:0:
258,170,102959,2,0,L|270:270,1,88,0|8,1:0|0:3,0:0:0:0:
243,294,103433,1,0,1:0:0:0:
243,294,103591,2,0,P|144:264|105:294,2,132,0|0|0,1:0|1:0|1:0,0:0:0:0:
366,339,105012,2,0,P|377:244|380:194,1,132,0|0,1:0|1:0,0:0:0:0:
417,128,105802,2,0,L|361:100,1,44,0|0,1:0|1:0,0:0:0:0:
339,87,106117,6,0,P|281:96|219:35,2,132,0|0|0,1:0|1:0|1:0,0:0:0:0:
263,195,107538,2,0,L|114:216,1,132,0|0,1:0|1:0,0:0:0:0:
54,171,108328,2,0,L|58:118,1,44,8|0,0:3|1:0,0:0:0:0:
87,94,108644,2,0,P|135:36|218:35,2,132,0|0|0,1:0|1:0|1:0,0:0:0:0:
144,160,109907,2,0,B|255:163|199:215|337:216,1,176,8|0,0:3|1:0,0:0:0:0:
358,286,110854,1,0,1:0:0:0:
433,240,111170,5,0,3:0:0:0:
349,84,111802,2,0,L|233:70,1,88,2|8,0:0|0:3,0:0:0:0:
181,37,112433,2,0,P|132:81|134:135,1,88,0|0,3:0|1:0,0:0:0:0:
51,144,113065,2,0,P|32:192|42:248,1,88,0|0,1:0|3:0,0:0:0:0:
83,300,113696,1,8,0:0:0:0:
247,363,114328,2,0,P|305:324|316:278,1,88,2|0,3:2|1:0,0:0:0:0:
310,221,114959,2,0,P|412:195|498:178,1,176,2|0,3:2|3:0,0:0:0:0:
498,94,115907,1,0,1:0:0:0:
412,74,116223,6,0,L|295:56,1,88,0|0,1:0|1:0,0:0:0:0:
283,56,116696,1,0,1:0:0:0:
283,56,116854,2,0,L|108:77,1,176,0|0,1:0|1:0,0:0:0:0:
54,245,118117,2,0,L|172:218,1,88,0|0,1:0|0:0,0:0:0:0:
225,247,118749,1,2,1:2:0:0:
338,356,121275,6,0,L|352:265,1,88,12|0,0:0|0:0,0:0:0:0:
424,219,121907,2,0,L|485:232,2,44,2|2|2,3:1|0:1|1:1,0:0:0:0:
383,140,122538,1,2,3:2:0:0:
306,97,122854,1,2,0:0:0:0:
234,148,123170,1,2,3:2:0:0:
244,235,123486,1,2,1:2:0:0:
191,305,123802,6,0,P|113:331|83:324,1,88,10|0,0:0|0:0,0:0:0:0:
93,290,124275,1,8,0:3:0:0:
93,290,124433,2,0,L|100:228,1,44,2|2,3:1|0:1,0:0:0:0:
89,203,124749,1,0,1:1:0:0:
125,123,125065,5,0,3:0:0:0:
211,143,125380,1,2,0:1:0:0:
272,79,125696,2,0,P|316:78|394:61,1,88,0|2,3:0|0:1,0:0:0:0:
403,77,126170,1,0,1:0:0:0:
403,77,126328,2,0,P|438:98|454:163,1,88,12|0,0:0|0:0,0:0:0:0:
439,226,126959,2,0,L|501:256,2,44,2|2|2,3:1|0:1|1:1,0:0:0:0:
354,199,127591,5,2,3:2:0:0:
301,269,127907,1,2,0:0:0:0:
233,212,128223,1,2,3:2:0:0:
165,267,128538,1,2,1:2:0:0:
97,210,128854,6,0,P|56:209|16:152,1,88,8|0,0:0|0:0,0:0:0:0:
42,139,129328,1,8,0:3:0:0:
42,139,129486,2,0,L|64:76,1,44,2|2,3:1|0:1,0:0:0:0:
77,59,129802,1,2,1:1:0:0:
163,41,130117,1,0,3:0:0:0:
227,100,130433,1,2,0:1:0:0:
205,190,130749,2,0,L|190:276,1,88,0|2,0:0|0:1,0:0:0:0:
232,354,131380,6,0,B|318:366|267:340|372:359,1,132,12|8,0:0|0:3,0:0:0:0:
406,350,132012,2,0,L|452:344,2,44,2|2|2,3:1|0:1|1:1,0:0:0:0:
357,276,132644,1,2,3:2:0:0:
342,189,132959,1,2,0:0:0:0:
402,124,133275,1,2,3:2:0:0:
490,127,133591,1,2,1:2:0:0:
467,41,133907,6,0,L|370:19,1,88,8|0,0:0|0:0,0:0:0:0:
298,50,134538,2,0,L|237:40,2,44,2|2|2,3:1|0:1|1:1,0:0:0:0:
329,132,135170,2,0,L|313:173,1,44,0|0,3:0|1:0,0:0:0:0:
334,211,135486,2,0,L|332:254,1,44,2|8,0:1|0:0,0:0:0:0:
317,296,135802,2,0,L|229:305,1,88,0|2,3:0|0:1,0:0:0:0:
188,289,136275,1,0,1:0:0:0:
188,289,136433,6,0,P|139:267|95:284,1,88,12|0,0:0|0:0,0:0:0:0:
50,208,137065,2,0,L|-19:216,2,44,2|0|2,3:1|1:0|1:1,0:0:0:0:
77,124,137696,1,0,3:0:0:0:
153,81,138012,1,2,1:0:0:0:
229,124,138328,2,0,P|277:119|341:152,1,88,2|2,3:2|1:2,0:0:0:0:
390,175,138959,6,0,L|378:241,1,44,0|0,1:0|3:0,0:0:0:0:
368,260,139275,2,0,L|382:312,1,44,0|0,3:0|3:0,0:0:0:0:
397,343,139591,1,2,0:1:0:0:
311,365,139907,6,0,P|236:354|199:242,1,176,2|0,3:1|1:0,0:0:0:0:
234,193,140854,2,0,L|229:73,1,88,2|0,1:0|1:0,0:0:0:0:
166,43,141486,1,0,3:0:0:0:
