osu file format v14

[General]
AudioFilename: audio.mp3
AudioLeadIn: 0
PreviewTime: 45361
Countdown: 1
SampleSet: Soft
StackLeniency: 0.2
Mode: 0
LetterboxInBreaks: 0
WidescreenStoryboard: 0

[Editor]
Bookmarks: 714,12008,23303,34597,45891,57185,68479,79773,91067,102361
DistanceSpacing: 2
BeatDivisor: 8
GridSize: 32
TimelineZoom: 3.100005

[Metadata]
Title:Boundless
TitleUnicode:Boundless
Artist:Aero Chord
ArtistUnicode:Aero Chord
Creator:Kantan
Version:Expert
Source:
Tags:
BeatmapID:2036785
BeatmapSetID:972874

[Difficulty]
HPDrainRate:6
CircleSize:4.5
OverallDifficulty:9
ApproachRate:9.4
SliderMultiplier:2.2
SliderTickRate:1

[Events]
//Background and Video events
0,0,"15.jpg",0,0
//Break Periods
//Storyboard Layer 0 (Background)
//Storyboard Layer 1 (Fail)
//Storyboard Layer 2 (Pass)
//Storyboard Layer 3 (Foreground)
//Storyboard Sound Samples

[TimingPoints]
714.852071005917,352.941176470588,4,2,1,100,1,0
45891,-200,4,2,1,100,0,0
46597,-83.3333333333333,4,2,1,100,0,1
79773,-100,4,2,1,100,0,0

[Colours]
Combo1 : 232,115,115
Combo2 : 156,193,239
Combo3 : 99,123,241
Combo4 : 177,131,235

[HitObjects]
95,181,714,5,8,0:0:0:0:
99,209,1067,1,8,0:0:0:0:
103,237,1420,1,8,0:0:0:0:
107,265,1773,1,8,0:0:0:0:
111,293,2126,1,8,0:0:0:0:
115,321,2479,1,8,0:0:0:0:
119,349,2832,5,8,0:0:0:0:
256,192,3008,1,0,1:0:0:0:
256,192,3185,1,8,0:0:0:0:
393,349,3361,1,0,1:0:0:0:
393,349,3450,1,0,1:0:0:0:
393,349,3538,1,8,0:0:0:0:
397,321,3891,1,8,0:0:0:0:
401,293,4244,1,8,0:0:0:0:
405,265,4597,1,8,0:0:0:0:
409,237,4950,1,8,0:0:0:0:
413,209,5303,1,8,0:0:0:0:
417,181,5656,5,8,0:0:0:0:
256,64,5832,1,0,1:0:0:0:
256,64,6008,1,8,0:0:0:0:
95,181,6185,1,0,1:0:0:0:
95,181,6273,1,0,1:0:0:0:
95,181,6361,1,8,0:0:0:0:
120,195,6714,1,8,0:0:0:0:
145,209,7067,1,8,0:0:0:0:
170,223,7420,1,8,0:0:0:0:
195,237,7773,1,8,0:0:0:0:
220,251,8126,1,8,0:0:0:0:
245,265,8479,5,8,0:0:0:0:
212,148,8656,1,0,1:0:0:0:
128,298,8832,1,8,0:0:0:0:
384,298,9008,1,0,1:0:0:0:
384,298,9097,1,0,1:0:0:0:
384,298,9185,1,8,0:0:0:0:
267,265,9538,1,8,0:0:0:0:
292,251,9891,1,8,0:0:0:0:
317,237,10244,1,8,0:0:0:0:
342,223,10597,1,8,0:0:0:0:
367,209,10950,1,8,0:0:0:0:
392,195,11303,5,8,0:0:0:0:
402,83,11479,1,0,1:0:0:0:
256,128,11656,1,8,0:0:0:0:
110,83,11832,1,0,1:0:0:0:
110,83,11920,1,0,1:0:0:0:
110,83,12008,2,0,P|60:129|55:177,2,110,0|0|8,1:0|0:0|0:0,0:0:0:0:
140,163,12538,1,0,0:0:0:0:
35,257,12714,2,0,L|147:270,1,110,8|0,0:0|0:0,0:0:0:0:
228,384,13067,1,8,0:0:0:0:
159,272,13244,1,0,0:0:0:0:
314,172,13420,6,0,P|358:139|412:139,2,110,8|0|8,0:0|0:0|0:0,0:0:0:0:
386,228,13950,1,0,0:0:0:0:
505,76,14126,2,0,L|384:51,1,110,8|0,0:0|0:0,0:0:0:0:
236,137,14479,1,8,0:0:0:0:
273,344,14656,1,0,0:0:0:0:
273,344,14744,1,0,0:0:0:0:
273,344,14832,1,8,0:0:0:0:
358,222,15008,5,0,0:0:0:0:
151,259,15185,2,0,P|105:230|52:239,1,110,8|0,0:0|0:0,0:0:0:0:
90,309,15538,1,8,0:0:0:0:
344,300,15714,2,0,P|397:292|432:251,1,110,0|8,0:0|0:0,0:0:0:0:
358,222,16067,1,0,0:0:0:0:
203,89,16244,6,0,L|93:81,2,110,8|0|8,0:0|0:0|0:0,0:0:0:0:
114,187,16773,1,0,0:0:0:0:
16,27,16950,1,8,0:0:0:0:
16,27,17126,1,0,0:0:0:0:
222,169,17303,1,8,0:0:0:0:
14,254,17479,5,0,0:0:0:0:
14,254,17567,1,0,0:0:0:0:
14,253,17656,2,0,P|25:307|63:345,2,110,8|0|8,0:0|0:0|0:0,0:0:0:0:
112,258,18185,1,0,0:0:0:0:
150,144,18361,2,0,L|18:156,1,110,8|0,0:0|0:0,0:0:0:0:
175,34,18714,1,8,0:0:0:0:
31,155,18891,1,0,0:0:0:0:
288,264,19067,6,0,P|357:256|386:228,2,110,8|0|8,0:0|0:0|0:0,0:0:0:0:
312,177,19597,1,0,0:0:0:0:
456,111,19773,2,0,L|473:242,1,110,8|0,0:0|0:0,0:0:0:0:
233,147,20126,1,8,0:0:0:0:
346,339,20303,5,0,0:0:0:0:
346,339,20391,1,0,0:0:0:0:
345,339,20479,2,0,P|400:344|448:370,2,110,8|0|8,0:0|0:0|0:0,0:0:0:0:
266,302,21008,1,0,0:0:0:0:
118,366,21185,2,0,P|85:301|97:251,1,110,8|0,0:0|0:0,0:0:0:0:
164,185,21538,1,8,0:0:0:0:
352,306,21714,5,0,0:0:0:0:
352,306,21803,1,0,0:0:0:0:
352,306,21891,1,8,0:0:0:0:
464,158,22067,1,0,0:0:0:0:
464,158,22244,1,8,0:0:0:0:
256,64,22420,1,0,0:0:0:0:
256,64,22597,1,8,0:0:0:0:
30,167,22773,2,0,L|21:225,1,55
105,220,22950,2,0,L|96:278,1,55,8|0,0:0|0:0,0:0:0:0:
225,232,23126,5,0,0:0:0:0:
225,232,23214,1,0,0:0:0:0:
225,232,23303,2,0,B|227:273|227:273|236:289|236:289|242:356,1,110,8|0,1:0|0:0,0:0:0:0:
385,114,23656,2,0,B|381:159|381:159|370:173|370:173|362:237,1,110,8|0,0:0|1:0,0:0:0:0:
389,331,24008,1,8,0:0:0:0:
389,331,24185,1,0,0:0:0:0:
498,207,24361,1,8,1:0:0:0:
263,50,24538,2,0,B|269:90|269:90|275:96|275:96|284:161,1,110,0|8,0:0|1:0,0:0:0:0:
91,257,24891,5,0,0:0:0:0:
113,166,25067,2,0,P|178:201|191:250,1,110,8|0,0:0|1:0,0:0:0:0:
251,346,25332,1,0,0:0:0:0:
251,346,25420,2,0,B|283:332|308:337|308:337|311:303|340:273,1,110,8|0,0:0|0:0,0:0:0:0:
477,215,25773,1,8,1:0:0:0:
477,215,25861,1,0,0:0:0:0:
477,215,25950,1,0,0:0:0:0:
266,89,26126,5,8,1:0:0:0:
113,185,26303,2,0,L|3:196,2,110,0|8|0,0:0|0:0|1:0,0:0:0:0:
335,127,26832,2,0,P|348:73|311:22,1,110,8|0,0:0|0:0,0:0:0:0:
67,232,27185,6,0,L|61:297,1,55,8|0,1:0|0:0,0:0:0:0:
214,172,27361,2,0,L|220:107,1,55
351,256,27538,2,0,L|361:375,1,110,8|0,1:0|0:0,0:0:0:0:
503,130,27891,2,0,L|513:249,1,110,8|0,0:0|1:0,0:0:0:0:
449,305,28244,2,0,L|452:344,2,27.5,8|0|0,0:0|0:0|0:0,0:0:0:0:
292,162,28420,1,0,0:0:0:0:
292,162,28508,1,0,0:0:0:0:
292,162,28597,1,8,1:0:0:0:
176,295,28773,1,0,0:0:0:0:
22,93,28950,6,0,L|156:76,1,110,8|0,1:0|0:0,0:0:0:0:
79,234,29303,2,0,P|29:214|2:167,1,110,8|0,0:0|1:0,0:0:0:0:
297,110,29656,1,8,0:0:0:0:
383,144,29832,2,0,P|349:186|297:201,1,110,0|8,0:0|1:0,0:0:0:0:
84,152,30185,1,0,0:0:0:0:
164,340,30361,1,8,1:0:0:0:
440,271,30538,5,0,0:0:0:0:
360,221,30714,2,0,P|346:274|364:327,1,110,8|0,0:0|1:0,0:0:0:0:
505,182,31067,2,0,L|491:135,4,27.5,8|0|0|0|0,0:0|0:0|0:0|0:0|0:0,0:0:0:0:
269,221,31420,2,0,L|254:291,1,55,8|0,1:0|0:0,0:0:0:0:
135,155,31597,2,0,L|146:101,1,55
361,29,31773,6,0,P|405:90|389:162,1,110,0|0,1:0|0:0,0:0:0:0:
171,258,32126,2,0,P|127:197|143:125,1,110,0|0,1:0|0:0,0:0:0:0:
363,207,32479,2,0,L|355:274,1,55,0|0,1:0|0:0,0:0:0:0:
456,350,32656,2,0,L|462:295,1,55
250,146,32832,2,0,L|256:200,1,55,0|0,1:0|0:0,0:0:0:0:
88,330,33009,2,0,L|82:276,1,55
139,176,33185,5,8,1:0:0:0:
211,324,33361,1,0,1:0:0:0:
7,305,33538,1,8,1:0:0:0:
124,69,33714,1,0,1:0:0:0:
290,277,33891,1,8,1:0:0:0:
290,277,33979,1,0,1:0:0:0:
290,277,34067,2,0,P|329:288|351:285,1,55,8|0,1:0|0:0,0:0:0:0:
447,201,34244,2,0,P|396:205|375:216,1,55,8|0,0:0|0:0,0:0:0:0:
356,372,34420,2,0,P|404:348|411:333,1,55,8|0,0:0|0:0,0:0:0:0:
346,108,34597,2,0,P|321:157|326:211,1,110,8|0,1:0|0:0,0:0:0:0:
443,283,35126,5,8,0:0:0:0:
443,283,35656,1,8,0:0:0:0:
443,283,36008,1,8,0:0:0:0:
443,283,36538,1,8,0:0:0:0:
443,283,37067,5,8,0:0:0:0:
302,229,37244,1,8,0:0:0:0:
161,175,37420,1,8,0:0:0:0:
161,175,37950,1,8,0:0:0:0:
161,175,38479,1,8,0:0:0:0:
161,175,38832,1,8,0:0:0:0:
161,175,39361,1,8,0:0:0:0:
161,175,40067,5,8,1:0:0:0:
160,344,40244,2,0,L|244:339,1,55,0|0,1:0|0:0,0:0:0:0:
352,344,40420,2,0,L|268:339,1,55,0|0,1:0|0:0,0:0:0:0:
131,272,40597,2,0,L|225:264,1,55,0|0,1:0|0:0,0:0:0:0:
381,272,40773,2,0,L|287:264,1,55,0|0,1:0|0:0,0:0:0:0:
82,193,40950,6,0,L|153:187,1,55,0|0,1:0|0:0,0:0:0:0:
430,193,41126,1,0,1:0:0:0:
430,193,41214,1,0,1:0:0:0:
430,193,41303,2,0,L|358:187,1,55,0|0,1:0|0:0,0:0:0:0:
148,37,41479,5,0,1:0:0:0:
148,37,41567,1,0,1:0:0:0:
148,37,41656,2,0,P|109:70|106:88,1,55,0|0,1:0|0:0,0:0:0:0:
364,37,41832,2,0,P|403:70|406:88,1,55,0|0,1:0|0:0,0:0:0:0:
188,126,42008,2,0,P|191:168|206:189,1,55,0|0,1:0|0:0,0:0:0:0:
324,126,42185,2,0,P|321:168|306:189,1,55,0|0,1:0|0:0,0:0:0:0:
174,319,42361,6,0,L|155:276,7,27.5,0|0|0|0|0|0|0|0,1:0|1:0|1:0|1:0|1:0|1:0|1:0|1:0,1:0:0:0:
338,319,42714,2,0,L|357:276,7,27.5,0|0|0|0|0|0|0|0,1:0|1:0|1:0|1:0|1:0|1:0|1:0|1:0,1:0:0:0:
256,224,43067,6,0,L|246:97,1,110
256,384,43420,2,0,L|266:257,1,110
366,200,43773,6,0,L|390:78,1,110
146,200,44126,2,0,L|122:78,1,110
25,193,44479,1,8,0:0:0:0:
56,350,44656,1,0,1:0:0:0:
195,117,44832,1,8,0:0:0:0:
218,291,45008,1,0,1:0:0:0:
218,291,45097,1,0,1:0:0:0:
218,291,45185,1,8,1:0:0:0:
487,193,45361,5,0,1:0:0:0:
456,350,45538,1,2,3:0:0:0:
294,291,45714,1,0,3:0:0:0:
396,70,45891,6,0,L|474:62,2,55,0|0|4,1:0|1:0|3:0,1:0:0:0:
380,95,46597,6,0,L|289:80,1,65.9999979858399
187,175,46773,2,0,L|96:160,1,65.9999979858399
61,85,46950,1,0,1:0:0:0:
218,287,47126,1,0,0:0:0:0:
380,95,47303,1,0,0:0:0:0:
157,349,47479,5,0,1:0:0:0:
157,349,47656,2,0,L|81:358,1,65.9999979858399,0|0,1:0|0:0,0:0:0:0:
392,248,47832,2,0,L|316:257,1,65.9999979858399
473,339,48008,1,8,0:0:0:0:
380,95,48185,1,0,0:0:0:0:
247,323,48361,1,0,0:0:0:0:
360,344,48538,2,0,L|362:384,2,32.99999899292
300,252,48714,2,0,P|238:234|181:265,1,131.99999597168,0|0,1:0|0:0,0:0:0:0:
167,339,49420,6,0,P|131:324|111:287,1,65.9999979858399,8|0,0:0|0:0,0:0:0:0:
0,196,49597,2,0,P|12:166|35:143,1,65.9999979858399
245,132,49773,1,0,1:0:0:0:
172,350,49950,1,0,0:0:0:0:
0,84,50126,1,0,0:0:0:0:
277,62,50303,5,0,1:0:0:0:
277,62,50479,2,0,L|342:66,1,65.9999979858399,0|0,1:0|0:0,0:0:0:0:
430,197,50656,2,0,L|495:201,1,65.9999979858399
331,300,50832,1,8,0:0:0:0:
173,57,51008,1,0,0:0:0:0:
474,76,51185,1,0,0:0:0:0:
192,341,51361,5,0,0:0:0:0:
192,341,51538,2,0,L|41:351,1,131.99999597168,0|0,1:0|0:0,0:0:0:0:
244,275,51891,6,0,P|266:292|269:306,6,32.99999899292
163,230,52244,2,0,P|141:206|132:175,1,65.9999979858399
247,112,52420,2,0,P|262:83|288:64,1,65.9999979858399
499,111,52597,1,0,1:0:0:0:
327,140,52773,1,0,0:0:0:0:
222,10,52950,1,0,0:0:0:0:
417,232,53126,5,0,1:0:0:0:
417,232,53303,2,0,P|428:290|413:323,1,65.9999979858399,0|0,1:0|0:0,0:0:0:0:
205,322,53479,2,0,P|193:291|195:258,1,65.9999979858399
352,274,53656,1,8,0:0:0:0:
104,305,53832,1,0,0:0:0:0:
199,72,54008,1,0,0:0:0:0:
301,154,54185,2,0,L|342:150,2,32.99999899292
225,206,54361,2,0,L|139:194,1,65.9999979858399,0|0,1:0|0:0,0:0:0:0:
69,88,54538,2,0,L|3:78,1,65.9999979858399,0|0,1:0|0:0,0:0:0:0:
3,78,54891,5,0,0:0:0:0:
99,317,55067,2,0,P|155:314|173:302,1,65.9999979858399,8|0,0:0|0:0,0:0:0:0:
353,313,55244,2,0,P|377:276|377:233,1,65.9999979858399
217,86,55420,1,0,1:0:0:0:
121,245,55597,1,0,0:0:0:0:
356,188,55773,1,0,0:0:0:0:
137,33,55950,5,0,1:0:0:0:
137,33,56126,2,0,L|130:129,1,65.9999979858399,0|0,1:0|0:0,0:0:0:0:
266,202,56303,2,0,L|259:298,1,65.9999979858399
181,308,56479,1,8,0:0:0:0:
430,193,56656,1,0,0:0:0:0:
205,83,56832,1,0,0:0:0:0:
366,340,57008,1,0,0:0:0:0:
335,70,57185,6,0,P|298:56|205:74,2,131.99999597168
458,283,57891,6,0,L|479:201,1,65.9999979858399,8|0,0:0|0:0,0:0:0:0:
247,317,58067,2,0,L|268:235,1,65.9999979858399
78,119,58244,1,0,1:0:0:0:
237,354,58420,1,0,0:0:0:0:
289,161,58597,1,0,0:0:0:0:
29,263,58773,5,0,1:0:0:0:
28,262,58950,2,0,L|108:283,1,65.9999979858399,0|0,1:0|0:0,0:0:0:0:
244,203,59126,2,0,L|323:223,1,65.9999979858399
391,347,59303,1,8,0:0:0:0:
168,282,59479,1,0,0:0:0:0:
242,87,59656,2,0,P|267:73|313:76,1,65.9999979858399
357,144,59832,2,0,P|403:148|436:137,1,65.9999979858399
488,82,60008,5,0,1:0:0:0:
488,82,60185,1,0,0:0:0:0:
313,289,60361,1,0,0:0:0:0:
313,289,60450,1,0,0:0:0:0:
313,289,60538,1,0,0:0:0:0:
168,55,60714,6,0,L|75:62,1,65.9999979858399,8|0,0:0|0:0,0:0:0:0:
38,235,60891,2,0,L|103:230,1,65.9999979858399
237,93,61067,1,0,1:0:0:0:
237,93,61156,1,0,0:0:0:0:
237,93,61244,1,0,0:0:0:0:
254,350,61420,1,0,0:0:0:0:
116,147,61597,5,0,1:0:0:0:
116,147,61685,1,0,0:0:0:0:
116,147,61773,2,0,L|186:140,1,65.9999979858399,0|0,1:0|0:0,0:0:0:0:
433,117,61950,2,0,L|503:110,1,65.9999979858399
407,255,62126,1,8,0:0:0:0:
297,52,62303,1,0,0:0:0:0:
172,287,62479,1,0,0:0:0:0:
58,80,62656,1,0,0:0:0:0:
274,270,62832,6,0,P|266:334|217:376,1,131.99999597168,0|0,1:0|0:0,0:0:0:0:
250,173,63185,1,0,0:0:0:0:
220,158,63273,1,0,0:0:0:0:
198,133,63361,1,0,0:0:0:0:
187,102,63449,1,0,0:0:0:0:
187,70,63537,1,8,0:0:0:0:
467,197,63714,1,0,0:0:0:0:
186,283,63891,1,0,1:0:0:0:
86,96,64067,1,0,0:0:0:0:
390,180,64244,1,0,0:0:0:0:
101,288,64420,5,0,1:0:0:0:
101,288,64597,2,0,P|58:260|38:227,1,65.9999979858399,0|0,1:0|0:0,0:0:0:0:
177,112,64773,2,0,P|220:140|240:173,1,65.9999979858399
30,168,64950,1,8,0:0:0:0:
259,67,65126,1,0,0:0:0:0:
235,328,65303,1,0,0:0:0:0:
347,265,65479,5,0,0:0:0:0:
411,253,65567,1,0,0:0:0:0:
473,269,65655,1,0,0:0:0:0:
473,269,65832,1,0,0:0:0:0:
359,73,66008,1,0,0:0:0:0:
359,73,66185,1,0,0:0:0:0:
205,260,66361,1,8,0:0:0:0:
106,241,66538,1,0,0:0:0:0:
187,156,66714,1,0,0:0:0:0:
88,137,66891,1,0,0:0:0:0:
169,52,67067,1,0,0:0:0:0:
169,52,67420,5,0,0:0:0:0:
88,137,67596,1,0,0:0:0:0:
187,156,67773,1,0,0:0:0:0:
106,241,67949,1,0,0:0:0:0:
205,260,68126,1,0,0:0:0:0:
124,345,68303,1,0,0:0:0:0:
445,277,68479,6,0,P|468:306|474:343,1,65.9999979858399
464,209,68656,2,0,P|444:234|414:247,1,65.9999979858399
342,276,68832,2,0,P|376:327|377:353,1,65.9999979858399
341,175,69008,2,0,P|318:198|287:207,1,65.9999979858399
380,67,69185,5,8,0:0:0:0:
211,278,69361,1,0,0:0:0:0:
495,316,69538,1,0,1:0:0:0:
495,316,69626,1,0,0:0:0:0:
495,316,69714,1,0,0:0:0:0:
213,113,69891,1,0,0:0:0:0:
127,344,70067,5,0,1:0:0:0:
126,344,70244,2,0,P|81:353|46:340,1,65.9999979858399,0|0,1:0|0:0,0:0:0:0:
80,221,70420,2,0,P|45:196|33:160,1,65.9999979858399
120,141,70597,1,8,0:0:0:0:
286,347,70773,1,0,0:0:0:0:
34,286,70950,1,0,0:0:0:0:
34,286,71038,1,0,0:0:0:0:
34,286,71126,1,0,0:0:0:0:
372,202,71303,5,0,1:0:0:0:
372,202,71479,1,0,1:0:0:0:
451,217,71656,1,0,0:0:0:0:
436,296,71832,1,0,0:0:0:0:
357,281,72008,2,0,L|273:290,1,65.9999979858399,8|0,0:0|0:0,0:0:0:0:
174,156,72185,2,0,L|90:165,1,65.9999979858399
30,231,72361,1,0,1:0:0:0:
30,231,72450,1,0,0:0:0:0:
30,231,72538,1,0,0:0:0:0:
331,196,72714,1,0,0:0:0:0:
125,36,72891,5,0,1:0:0:0:
125,36,73067,2,0,P|106:88|113:125,1,65.9999979858399,0|0,1:0|0:0,0:0:0:0:
229,239,73244,2,0,P|250:274|281:294,1,65.9999979858399
458,207,73420,1,8,0:0:0:0:
244,73,73597,1,0,0:0:0:0:
349,296,73773,1,0,0:0:0:0:
403,52,73950,1,0,0:0:0:0:
403,52,74126,2,0,B|414:75|406:101|406:101|436:143|419:182|419:182,1,131.99999597168,0|0,1:0|0:0,0:0:0:0:
171,338,74479,5,0,0:0:0:0:
175,288,74567,1,0,0:0:0:0:
180,239,74655,1,0,0:0:0:0:
185,190,74743,1,0,0:0:0:0:
189,140,74832,1,8,0:0:0:0:
371,286,75008,1,0,0:0:0:0:
94,355,75185,1,0,0:0:0:0:
116,82,75361,1,0,0:0:0:0:
245,369,75538,1,0,0:0:0:0:
369,103,75714,5,0,1:0:0:0:
369,103,75891,2,0,L|434:93,1,65.9999979858399,0|0,1:0|0:0,0:0:0:0:
505,260,76067,2,0,L|439:250,1,65.9999979858399
283,87,76244,1,8,0:0:0:0:
497,25,76420,1,0,0:0:0:0:
388,288,76597,1,0,0:0:0:0:
374,16,76773,5,0,0:0:0:0:
374,16,76861,1,0,0:0:0:0:
374,16,76950,2,0,L|367:103,1,65.9999979858399
255,191,77126,2,0,L|248:278,1,65.9999979858399
351,380,77303,1,0,0:0:0:0:
166,157,77479,1,0,0:0:0:0:
136,360,77656,6,0,L|148:286,1,65.9999979858399,8|0,0:0|0:0,0:0:0:0:
37,196,77832,2,0,L|26:130,1,65.9999979858399
239,36,78008,1,0,0:0:0:0:
40,113,78185,1,0,0:0:0:0:
284,201,78361,1,0,0:0:0:0:
284,201,78714,6,0,P|324:226|331:246,1,65.9999979858399
428,162,78891,2,0,P|469:152|491:132,1,65.9999979858399
424,79,79067,1,8,0:0:0:0:
259,288,79244,1,0,0:0:0:0:
107,37,79420,6,0,P|139:57|65:175,1,197.99999395752
256,192,79773,12,0,84891,0:0:0:0:
256,192,84979,12,0,85420,0:0:0:0:
