osu file format v14

[General]
AudioFilename: Aero Chord & Klaypex - Be Free.mp3
AudioLeadIn: 1700
PreviewTime: 39868
Countdown: 0
SampleSet: Soft
StackLeniency: 0.7
Mode: 0
LetterboxInBreaks: 0
WidescreenStoryboard: 0

[Editor]
Bookmarks: 13796,27510,82367,86224,89224,102939
DistanceSpacing: 1.2
BeatDivisor: 4
GridSize: 4
TimelineZoom: 1.1

[Metadata]
Title:Be Free
TitleUnicode:Be Free
Artist:Aero Chord & Klaypex
ArtistUnicode:Aero Chord & Klaypex
Creator:Cagrux
Version:Normal
Source:
Tags:monstercat trap bounce bass electronic edm
BeatmapID:865098
BeatmapSetID:397760

[Difficulty]
HPDrainRate:4
CircleSize:3.5
OverallDifficulty:4
ApproachRate:4
SliderMultiplier:1.19999990463257
SliderTickRate:1

[Events]
//Background and Video events
0,0,"bg.jpg",0,0
//Break Periods
2,82575,84904
//Storyboard Layer 0 (Background)
//Storyboard Layer 1 (Fail)
//Storyboard Layer 2 (Pass)
//Storyboard Layer 3 (Foreground)
//Storyboard Sound Samples

[TimingPoints]
90,428.571428571429,4,2,0,45,1,0
13804,-100,4,2,0,45,0,0
27518,-100,4,2,0,65,0,0
27546,-100,4,2,0,65,0,0
41232,-100,4,2,0,80,0,1
53232,-100,4,2,0,65,0,0
54947,-100,4,2,0,80,0,1
68661,-100,4,2,0,65,0,0
89232,-100,4,2,0,65,0,0
102947,-100,4,2,0,65,0,0
116661,-100,4,2,0,80,0,1
129947,-100,4,2,0,65,0,0
130375,-100,4,2,0,80,0,1
144090,-100,4,2,0,65,0,0

[Colours]
Combo1 : 167,79,255
Combo2 : 0,128,255
Combo3 : 0,255,255
Combo4 : 255,128,255

[HitObjects]
184,128,90,6,0,P|92:112|8:128,2,179.999985694886,0|0|2,0:0|0:0|0:0,0:0:0:0:
328,128,1804,2,0,P|420:112|504:128,2,179.999985694886,0|0|2,0:0|0:0|0:0,0:0:0:0:
256,252,3518,6,0,P|164:296|84:296,1,179.999985694886,2|2,0:0|0:0,0:0:0:0:
124,84,4804,1,2,0:0:0:0:
264,112,5232,2,0,P|344:144|392:224,1,179.999985694886,2|2,0:0|0:0,0:0:0:0:
240,376,6518,1,2,0:0:0:0:
108,324,6947,6,0,B|80:264|80:264|28:244|28:244|0:172,2,179.999985694886,2|2|2,0:0|0:0|0:0,0:0:0:0:
248,288,8661,2,0,B|316:292|368:264|368:264|412:212,1,179.999985694886,2|2,0:0|0:0,0:0:0:0:
352,12,9947,1,2,0:0:0:0:
276,132,10375,6,0,B|220:200|220:200|140:244,2,179.999985694886,2|2|2,0:0|0:0|0:0,0:0:0:0:
184,20,12090,2,0,L|0:16,2,179.999985694886,2|2|2,0:0|0:0|0:0,0:0:0:0:
320,64,13804,6,0,P|356:136|288:212,1,179.999985694886,2|2,0:0|0:0,0:0:0:0:
88,188,15090,1,2,0:0:0:0:
0,72,15518,2,0,P|87:43|169:68,1,179.999985694886,2|2,0:0|0:0,0:0:0:0:
192,284,16804,1,2,0:0:0:0:
88,188,17232,6,0,B|52:236|52:276|52:276|40:312|0:340,2,179.999985694886,2|2|2,0:0|0:0|0:0,0:0:0:0:
232,172,18947,2,0,B|268:124|268:84|268:84|280:48|320:20,2,179.999985694886,2|2|2,0:0|0:0|0:0,0:0:0:0:
192,312,20661,6,0,P|112:264|84:176,1,179.999985694886,2|2,0:0|0:0,0:0:0:0:
248,44,21947,1,2,0:0:0:0:
388,68,22375,2,0,P|340:156|256:188,1,179.999985694886,2|2,0:0|0:0,0:0:0:0:
56,148,23661,1,2,0:0:0:0:
160,248,24090,2,0,B|124:284|80:292|80:292|96:384,2,179.999985694886,2|2|2,0:0|0:0|0:0,0:0:0:0:
300,212,25804,5,2,0:0:0:0:
432,268,26232,2,0,P|444:204|424:140,1,119.999990463257,2|2,0:0|0:0,0:0:0:0:
356,28,27090,2,0,P|316:16|288:16,1,59.9999952316285,2|0,0:0|0:0,0:0:0:0:
228,36,27518,6,0,L|108:46,1,119.999990463257
12,152,28375,2,0,L|131:141,1,119.999990463257
244,228,29232,2,0,L|125:239,1,119.999990463257
24,344,30090,2,0,L|143:333,1,119.999990463257,0|8,0:0|0:3,0:0:0:0:
256,240,30947,5,8,0:0:0:0:
388,180,31375,1,8,0:0:0:0:
256,124,31804,1,8,0:0:0:0:
124,180,32232,1,8,0:0:0:0:
188,308,32661,5,8,0:0:0:0:
332,308,33090,1,8,0:0:0:0:
332,164,33518,1,8,0:0:0:0:
188,164,33947,1,8,0:3:0:0:
188,308,34375,6,0,L|248:312,1,59.9999952316285,8|0,0:0|0:0,0:0:0:0:
304,264,34804,2,0,L|364:268,1,59.9999952316285,8|0,0:0|0:0,0:0:0:0:
428,232,35232,2,0,P|432:196|424:160,1,59.9999952316285,8|0,0:0|0:0,0:0:0:0:
380,116,35661,2,0,P|349:97|313:89,1,59.9999952316285,8|0,0:0|0:0,0:0:0:0:
260,120,36090,6,0,L|192:124,1,59.9999952316285,8|0,0:0|0:0,0:0:0:0:
132,148,36518,1,8,0:0:0:0:
84,204,36732,1,0,0:0:0:0:
68,276,36947,2,0,P|84:312|112:336,1,59.9999952316285,8|0,0:0|0:0,0:0:0:0:
168,348,37375,1,8,0:0:0:0:
240,336,37590,1,0,0:0:0:0:
256,192,37804,12,0,39518,0:0:0:0:
72,76,41232,6,0,P|156:80|188:216,1,239.999980926514,4|8,1:1|0:0,0:0:0:0:
64,280,42518,2,0,P|80:308|100:328,1,59.9999952316285,4|0,0:3|0:0,0:0:0:0:
172,312,42947,6,4,P|172:340|156:376,2,59.9999952316285,4|4|4,0:3|0:3|0:3,0:3:0:0:
292,236,43804,1,8,0:0:0:0:
436,256,44232,2,0,L|442:192,1,59.9999952316285
452,124,44661,6,0,B|416:120|388:136|376:164|376:164|344:148|344:148|320:160|284:156,1,179.999985694886,4|0,0:3|0:0,0:0:0:0:
220,168,45518,1,8,0:0:0:0:
96,244,45947,1,4,0:3:0:0:
224,312,46375,6,4,L|229:376,2,59.9999952316285,4|4|4,0:3|0:3|0:3,0:3:0:0:
364,280,47232,1,10,0:0:0:0:
440,156,47661,1,4,0:3:0:0:
392,20,48090,6,0,B|376:64|332:84|332:84|304:60|276:56|244:72,1,179.999985694886,4|0,1:1|0:0,0:0:0:0:
280,136,48947,1,8,0:0:0:0:
392,228,49375,2,0,B|329:233,1,59.9999952316285,4|0,0:3|0:0,0:0:0:0:
280,284,49804,6,0,B|276:312|276:312|268:344,2,59.9999952316285,4|4|4,0:3|0:3|0:3,0:0:0:0:
176,184,50661,1,8,0:0:0:0:
36,184,51090,2,0,P|40:148|52:120,1,59.9999952316285
28,56,51518,6,0,B|60:48|92:60|108:84|108:84|136:72|136:72|160:96|192:96,1,179.999985694886,4|0,0:3|0:0,0:0:0:0:
260,116,52375,1,8,0:0:0:0:
320,248,52804,2,0,P|345:234|369:212,1,59.9999952316285,4|0,0:3|0:0,0:0:0:0:
416,156,53232,6,0,B|420:132|412:116|412:116|424:88|420:56,2,89.9999928474428
344,144,54090,1,8,0:0:0:0:
240,48,54518,1,4,0:3:0:0:
172,176,54947,6,0,P|176:260|248:320,1,179.999985694886,4|0,1:1|0:0,0:0:0:0:
312,288,55804,1,8,0:0:0:0:
397,171,56232,2,0,B|373:155|343:145,1,59.9999952316285,4|0,0:3|0:0,0:0:0:0:
273,123,56661,6,4,B|283:93|299:69,2,59.9999952316285,4|4|4,0:3|0:3|0:3,0:3:0:0:
129,135,57518,1,8,0:0:0:0:
45,251,57947,2,0,B|73:267|73:267|101:275,1,59.9999952316285
124,344,58375,6,0,B|160:328|172:304|173:274|173:274|204:248|264:248,1,179.999985694886,4|0,0:3|0:0,0:0:0:0:
328,268,59232,1,8,0:0:0:0:
464,320,59661,2,0,B|472:292|472:292|472:260,1,59.9999952316285,4|0,0:3|0:0,0:0:0:0:
484,188,60090,5,4,0:3:0:0:
503,117,60304,1,4,0:3:0:0:
467,53,60518,1,4,0:3:0:0:
323,29,60947,2,0,P|291:37|259:37,1,59.9999952316285,8|0,0:0|0:0,0:0:0:0:
235,105,61375,2,4,P|263:113|299:113,1,59.9999952316285,4|8,0:3|0:3,0:3:0:0:
315,185,61804,6,0,B|363:233|363:297|307:353,1,179.999985694886,4|0,1:1|0:0,0:0:0:0:
243,325,62661,1,8,0:0:0:0:
123,245,63090,2,0,P|95:265|67:273,1,59.9999952316285,4|0,0:3|0:0,0:0:0:0:
19,325,63518,6,4,L|13:388,2,59.9999952316285,4|4|4,0:3|0:3|0:3,0:3:0:0:
3,181,64375,1,8,0:0:0:0:
63,49,64804,1,0,0:0:0:0:
187,125,65232,6,0,B|247:105|247:145|307:121,1,119.999990463257,4|0,0:3|0:0,0:0:0:0:
303,265,66090,2,8,B|243:245|243:285|183:261,1,119.999990463257,8|4,0:0|0:3,0:0:0:0:
63,185,66947,1,0,0:0:0:0:
179,101,67375,1,0,0:0:0:0:
323,101,67804,1,0,0:0:0:0:
459,149,68232,2,0,L|453:212,1,59.9999952316285,4|8,0:3|0:3,0:3:0:0:
415,273,68661,5,4,1:1:0:0:
279,321,69090,2,0,P|247:321|219:313,1,59.9999952316285
151,289,69518,2,0,P|121:288|92:296,2,59.9999952316285,8|0|4,0:0|0:0|0:3,0:0:0:0:
75,169,70375,5,4,0:3:0:0:
123,113,70590,1,4,0:3:0:0:
183,69,70804,1,4,0:3:0:0:
315,33,71232,2,0,B|335:93|295:93|319:153,1,119.999990463257,8|0,0:0|0:0,0:0:0:0:
263,285,72090,6,0,P|203:285|147:257,1,119.999990463257,4|0,0:3|0:0,0:0:0:0:
235,145,72947,2,0,B|243:101|243:101|235:65|255:21,1,119.999990463257,8|4,0:0|0:3,0:0:0:0:
383,85,73804,2,4,L|446:79,2,59.9999952316285,4|4|4,0:3|0:3|0:3,0:3:0:0:
371,229,74661,2,0,P|331:221|307:209,1,59.9999952316285,8|0,0:0|0:0,0:0:0:0:
247,181,75090,2,0,P|219:192|189:196,1,59.9999952316285,4|8,0:3|0:3,0:3:0:0:
119,177,75518,5,4,1:1:0:0:
3,89,75947,2,0,B|35:85|35:85|63:73,1,59.9999952316285
119,29,76375,2,0,P|139:81|203:97,1,119.999990463257,8|4,0:0|0:3,0:0:0:0:
339,121,77232,5,4,0:3:0:0:
323,193,77447,1,4,0:3:0:0:
339,265,77661,1,4,0:3:0:0:
203,313,78090,2,0,P|159:349|91:341,1,119.999990463257,8|0,0:0|0:0,0:0:0:0:
59,205,78947,6,0,B|83:149|83:149|95:85,1,119.999990463257,4|0,0:3|0:0,0:0:0:0:
227,33,79804,2,0,L|290:38,1,59.9999952316285,8|0,0:0|0:0,0:0:0:0:
343,85,80232,2,0,P|343:113|351:145,1,59.9999952316285,4|0,0:3|0:0,0:0:0:0:
256,192,80661,12,0,82375,0:0:0:0:
256,192,86232,12,0,88375,0:0:0:0:
184,84,89232,6,0,B|164:128|180:168|180:168|160:216|96:220,2,179.999985694886,2|2|2,0:0|0:0|0:0,0:0:0:0:
328,84,90947,2,0,B|348:128|332:168|332:168|352:216|416:220,2,179.999985694886,2|2|2,0:0|0:0|0:0,0:0:0:0:
188,52,92661,6,0,B|128:52|104:72|104:72|92:104|120:164,1,179.999985694886,2|2,0:0|0:0,0:0:0:0:
236,344,93947,1,2,0:0:0:0:
376,312,94375,2,0,B|368:268|332:236|332:236|364:204|372:156,1,179.999985694886,2|2,0:0|0:0,0:0:0:0:
168,88,95661,1,2,0:0:0:0:
116,224,96090,6,0,B|112:272|72:296|72:296|72:352|120:376,2,179.999985694886,2|2|2,0:0|0:0|0:0,0:0:0:0:
112,80,97804,2,0,B|160:80|196:104|196:104|224:72|284:56,1,179.999985694886,2|2,0:0|0:0,0:0:0:0:
468,152,99090,1,2,0:0:0:0:
388,272,99518,2,0,P|344:336|248:368,2,179.999985694886,2|2|2,0:0|0:0|0:0,0:0:0:0:
252,224,101232,5,2,0:0:0:0:
152,120,101661,2,0,B|92:128|92:128|32:144,1,119.999990463257,2|2,0:0|0:0,0:0:0:0:
4,284,102518,2,0,P|36:308|64:312,1,59.9999952316285,2|0,0:0|0:0,0:0:0:0:
128,316,102947,6,0,P|180:296|228:244,1,119.999990463257
368,256,103804,2,0,P|316:236|268:184,1,119.999990463257
128,196,104661,2,0,P|180:176|228:124,1,119.999990463257
368,136,105518,2,0,P|316:116|268:64,1,119.999990463257,0|8,0:0|0:3,0:0:0:0:
192,192,106375,5,0,0:0:0:0:
272,312,106804,1,0,0:0:0:0:
352,192,107232,1,0,0:0:0:0:
272,72,107661,1,0,0:0:0:0:
128,72,108090,5,0,0:0:0:0:
48,192,108518,1,0,0:0:0:0:
128,312,108947,1,0,0:0:0:0:
208,192,109375,1,8,0:3:0:0:
240,52,109804,6,0,P|200:48|164:56,1,59.9999952316285
116,84,110232,2,0,P|96:104|80:136,1,59.9999952316285
72,204,110661,2,0,P|80:240|100:272,1,59.9999952316285
148,308,111089,2,0,P|174:319|209:321,1,59.9999952316285
272,292,111518,6,0,L|332:288,1,59.9999952316285
380,232,111947,1,0,0:0:0:0:
408,164,112161,1,0,0:0:0:0:
364,104,112375,2,0,L|304:100,1,59.9999952316285
232,120,112804,1,0,0:0:0:0:
172,164,113018,1,0,0:0:0:0:
256,192,113232,12,0,114947,0:0:0:0:
68,104,116661,6,0,P|168:52|284:104,1,239.999980926514,4|8,1:1|0:0,0:0:0:0:
176,200,117947,1,4,0:3:0:0:
316,232,118375,2,4,B|337:217|337:217|369:205,2,59.9999952316285,4|4|4,0:3|0:3|0:3,0:3:0:0:
332,376,119232,2,0,P|264:372|220:340,1,119.999990463257,8|0,0:0|0:0,0:0:0:0:
80,324,120090,6,0,B|96:264|64:264|76:205,1,119.999990463257,4|0,0:3|0:0,0:0:0:0:
220,224,120947,1,8,0:0:0:0:
176,88,121375,1,4,0:3:0:0:
316,116,121804,2,0,B|348:116|348:116|380:112,2,59.9999952316285,4|4|4,0:3|0:3|0:3,0:0:0:0:
220,224,122661,6,0,P|304:296|428:280,1,239.999980926514
344,164,123947,1,0,0:0:0:0:
468,92,124375,2,0,P|484:144|476:212,1,119.999990463257,8|0,0:0|0:0,0:0:0:0:
368,304,125232,6,4,L|376:368,2,59.9999952316285,4|4|4,0:3|0:3|0:3,0:3:0:0:
228,268,126090,1,8,0:0:0:0:
120,172,126518,1,4,0:3:0:0:
92,32,126947,6,0,B|156:16|156:48|212:28,1,119.999990463257,4|0,0:3|0:0,0:0:0:0:
356,24,127804,2,0,P|352:84|316:136,1,119.999990463257,8|0,0:0|0:0,0:0:0:0:
176,152,128661,2,0,B|116:160|116:160|92:224,1,119.999990463257,4|4,0:3|0:3,0:0:0:0:
188,328,129518,2,0,P|224:328|260:320,1,59.9999952316285,4|4,0:3|0:3,0:0:0:0:
316,296,129947,6,0,L|447:307,1,119.999990463257,0|4,0:0|1:1,0:0:0:0:
488,172,130804,2,0,P|424:156|380:120,1,119.999990463257,0|8,0:0|0:0,0:0:0:0:
492,28,131661,1,4,0:3:0:0:
348,32,132090,6,4,P|324:12|292:0,2,59.9999952316285,4|4|4,0:3|0:3|0:3,0:3:0:0:
204,52,132947,1,8,0:0:0:0:
88,140,133375,2,0,B|104:164|104:164|136:184,1,59.9999952316285
112,252,133804,6,0,B|152:260|188:244|204:192|204:192|252:188|284:200|328:232,1,239.999980926514,4|8,0:3|0:0,0:0:0:0:
224,336,135090,1,4,0:3:0:0:
368,316,135518,1,4,0:3:0:0:
420,264,135732,1,4,0:3:0:0:
436,192,135946,1,4,0:3:0:0:
444,48,136375,2,0,L|320:58,1,119.999990463257,8|4,0:0|0:3,0:0:0:0:
180,52,137232,6,0,P|160:80|132:96,1,59.9999952316285,4|0,1:1|0:0,0:0:0:0:
96,152,137661,2,0,L|101:211,1,59.9999952316285
64,276,138090,2,0,P|128:296|184:296,1,119.999990463257,8|4,0:0|0:3,0:0:0:0:
272,184,138947,5,4,0:3:0:0:
320,240,139161,1,4,0:3:0:0:
336,312,139375,1,4,0:3:0:0:
464,244,139804,2,0,P|452:176|420:132,1,119.999990463257,8|0,0:0|0:0,0:0:0:0:
328,28,140661,2,0,B|300:60|284:100|288:140|288:140|252:156|216:160|168:152,1,239.999980926514,4|8,0:3|0:0,0:0:0:0:
124,16,141947,1,4,0:3:0:0:
28,124,142375,6,0,B|24:152|24:152|28:184,1,59.9999952316285
80,236,142804,2,0,L|88:304,1,59.9999952316285
148,336,143232,2,0,P|184:328|216:328,1,59.9999952316285
280,340,143661,2,0,L|339:334,2,59.9999952316285,4|8|4,0:3|0:3|1:1,0:0:0:0:
