osu file format v14

[General]
AudioFilename: Aero Chord & Klaypex - Be Free.mp3
AudioLeadIn: 1700
PreviewTime: 39868
Countdown: 0
SampleSet: Soft
StackLeniency: 0.7
Mode: 0
LetterboxInBreaks: 0
WidescreenStoryboard: 0

[Editor]
Bookmarks: 13796,27510,82367,86224,89224,102939,129939,130260
DistanceSpacing: 0.8
BeatDivisor: 4
GridSize: 4
TimelineZoom: 2

[Metadata]
Title:Be Free
TitleUnicode:Be Free
Artist:Aero Chord & Klaypex
ArtistUnicode:Aero Chord & Klaypex
Creator:Cagrux
Version:Insane
Source:
Tags:monstercat trap bounce bass electronic edm
BeatmapID:865097
BeatmapSetID:397760

[Difficulty]
HPDrainRate:6
CircleSize:4
OverallDifficulty:7
ApproachRate:8
SliderMultiplier:1.7
SliderTickRate:1

[Events]
//Background and Video events
0,0,"bg.jpg",0,0
//Break Periods
2,82575,85474
//Storyboard Layer 0 (Background)
//Storyboard Layer 1 (Fail)
//Storyboard Layer 2 (Pass)
//Storyboard Layer 3 (Foreground)
//Storyboard Sound Samples

[TimingPoints]
90,428.571428571429,4,2,0,45,1,0
90,-200,4,2,0,45,0,0
13804,-133.333333333333,4,2,0,65,0,0
27518,-100,4,2,0,65,0,0
41232,-76.9230769230769,4,2,0,80,0,1
53232,-76.9230769230769,4,2,0,65,0,0
54947,-76.9230769230769,4,2,0,80,0,1
68661,-76.9230769230769,4,2,0,65,0,0
82375,-76.9230769230769,4,2,0,65,0,0
89232,-133.333333333333,4,2,0,65,0,0
102947,-100,4,2,0,65,0,0
116661,-76.9230769230769,4,2,0,80,0,1
122661,-66.6666666666667,4,2,0,80,0,1
123090,-76.9230769230769,4,2,0,80,0,1
129947,-62.5,4,2,0,65,0,0
130268,-76.9230769230769,4,2,0,65,0,0
130375,-76.9230769230769,4,2,0,80,0,1
144090,-100,4,2,0,65,0,0

[Colours]
Combo1 : 167,79,255
Combo2 : 0,128,255
Combo3 : 0,255,255
Combo4 : 255,128,255

[HitObjects]
232,100,90,6,0,P|264:92|296:92,1,63.75
176,200,732,2,0,P|207:199|238:191,1,63.75
80,172,1375,1,2,0:0:0:0:
276,256,1804,6,0,L|345:237,1,63.75
228,308,2447,2,0,L|166:324,2,63.75,0|0|2,0:0|0:0|0:0,0:0:0:0:
100,140,3518,6,0,P|74:151|40:156,1,63.75,2|0,0:0|0:0,0:0:0:0:
164,60,4161,2,0,P|190:49|224:44,1,63.75
100,140,4804,1,2,0:0:0:0:
286,28,5232,6,0,P|256:40|224:43,1,63.75,2|0,0:0|0:0,0:0:0:0:
100,140,5875,2,0,P|130:128|162:125,1,63.75
286,28,6518,1,2,0:0:0:0:
280,240,6947,6,0,L|216:234,1,63.75,2|0,0:0|0:0,0:0:0:0:
360,308,7590,2,0,L|423:313,1,63.75,2|0,0:0|0:0,0:0:0:0:
352,172,8233,1,2,0:0:0:0:
152,100,8661,6,0,P|180:84|216:76,1,63.75,2|0,0:0|0:0,0:0:0:0:
104,196,9304,2,0,L|163:174,2,63.75,2|0|2,0:0|0:0|0:0,0:0:0:0:
120,300,10161,1,0,0:0:0:0:
120,300,10268,1,0,0:0:0:0:
120,300,10375,6,0,L|60:321,1,63.75,2|0,0:0|0:0,0:0:0:0:
200,248,11018,2,0,P|228:234|259:226,2,63.75,2|0|2,0:0|0:0|0:0,0:0:0:0:
0,176,12090,6,0,L|64:168,1,63.75,2|0,0:0|0:0,0:0:0:0:
204,96,12733,2,0,P|172:96|140:88,1,63.75,2|0,0:0|0:0,0:0:0:0:
292,40,13375,1,2,0:0:0:0:
284,296,13804,6,0,P|332:292|380:300,1,95.6250036478044,2|0,0:0|0:0,0:0:0:0:
204,220,14447,2,0,P|251:227|298:223,1,95.6250036478044,2|0,0:0|0:0,0:0:0:0:
124,148,15090,2,0,P|172:144|220:152,1,95.6250036478044,2|0,0:0|0:0,0:0:0:0:
264,144,15518,6,0,L|359:135,1,95.6250036478044,2|0,0:0|0:0,0:0:0:0:
192,224,16161,2,0,L|96:216,1,95.6250036478044,2|0,0:0|0:0,0:0:0:0:
268,300,16804,2,0,L|363:291,1,95.6250036478044,2|0,0:0|0:0,0:0:0:0:
412,288,17232,6,0,P|400:328|404:384,1,95.6250036478044,2|0,0:0|0:0,0:0:0:0:
216,348,17875,2,0,B|252:316|304:304,1,95.6250036478044,2|0,0:0|0:0,0:0:0:0:
168,164,18518,2,0,P|177:204|209:251,1,95.6250036478044,2|0,0:0|0:0,0:0:0:0:
176,284,18947,6,0,L|80:275,1,95.6250036478044,2|0,0:0|0:0,0:0:0:0:
252,356,19590,2,0,B|200:356|200:356|156:360,2,95.6250036478044,2|0|2,0:0|0:0|0:0,0:0:0:0:
328,344,20447,1,2,0:0:0:0:
392,304,20661,6,0,P|392:255|404:208,1,95.6250036478044,2|0,0:0|0:0,0:0:0:0:
219,165,21304,2,0,P|260:188|295:222,1,95.6250036478044,2|0,0:0|0:0,0:0:0:0:
424,78,21947,2,0,P|381:101|334:114,1,95.6250036478044,2|0,0:0|0:0,0:0:0:0:
288,108,22375,5,2,0:0:0:0:
100,76,22697,1,0,0:0:0:0:
176,20,23018,1,2,0:0:0:0:
284,180,23339,1,0,0:0:0:0:
92,160,23661,1,2,0:0:0:0:
124,284,23875,1,0,0:0:0:0:
140,312,23982,1,0,0:0:0:0:
164,336,24090,6,0,L|263:344,1,95.6250036478044,2|0,0:0|0:0,0:0:0:0:
408,224,24732,2,0,L|312:232,1,95.6250036478044,2|0,0:0|0:0,0:0:0:0:
160,116,25375,2,0,L|259:124,1,95.6250036478044,2|0,0:0|0:0,0:0:0:0:
304,116,25804,5,2,0:0:0:0:
396,92,26018,1,0,0:0:0:0:
396,92,26232,2,0,P|428:84|472:96,1,63.7500024318696,2|0,0:0|0:0,0:0:0:0:
428,180,26661,2,0,P|396:188|352:176,1,63.7500024318696,2|2,0:0|0:0,0:0:0:0:
457,89,27090,2,0,P|496:112|512:136,1,63.7500024318696,2|0,0:0|0:0,0:0:0:0:
448,284,27518,5,0,0:0:0:0:
416,312,27625,1,0,0:0:0:0:
376,324,27732,2,0,B|328:332|288:312,1,85
196,232,28161,1,0,0:0:0:0:
160,212,28268,1,0,0:0:0:0:
120,200,28375,2,0,L|124:112,1,85
232,48,28804,1,0,0:0:0:0:
232,48,28911,1,0,0:0:0:0:
232,48,29018,1,0,0:0:0:0:
264,172,29232,6,0,P|292:212|332:232,1,85
396,336,29661,2,0,P|428:304|444:260,1,85
422,139,30090,2,0,P|413:97|426:39,1,85
420,56,30518,1,0,0:0:0:0:
380,68,30625,1,0,0:0:0:0:
336,68,30732,1,0,0:0:0:0:
168,68,30947,6,0,L|124:80,1,42.5,2|0,0:0|0:0,0:0:0:0:
116,164,31161,2,0,L|76:188,1,42.5
100,268,31375,1,2,0:0:0:0:
236,372,31590,2,0,L|277:352,1,42.5
270,268,31804,2,0,L|305:237,1,42.5,2|0,0:0|0:0,0:0:0:0:
268,163,32018,1,0,0:0:0:0:
360,76,32232,5,2,0:0:0:0:
384,112,32340,1,0,0:0:0:0:
392,152,32447,1,0,0:0:0:0:
388,196,32554,1,0,0:0:0:0:
376,236,32661,6,0,L|350:272,1,42.5,2|0,0:0|0:0,0:0:0:0:
268,272,32875,2,0,L|231:296,1,42.5
152,264,33090,1,2,0:0:0:0:
88,156,33304,2,0,L|125:131,1,42.5
208,144,33518,2,0,L|251:134,1,42.5,2|0,0:0|0:0,0:0:0:0:
320,184,33732,1,0,0:0:0:0:
316,312,33947,2,0,L|273:323,1,42.5,8|0,0:3|0:0,0:0:0:0:
204,272,34161,2,0,L|160:267,1,42.5
144,184,34375,6,0,L|57:191,1,85,8|0,0:0|0:0,0:0:0:0:
260,124,34804,2,0,L|347:116,1,85,8|0,0:0|0:0,0:0:0:0:
176,104,35232,2,0,L|168:20,1,85,8|0,0:0|0:0,0:0:0:0:
236,220,35661,2,0,L|242:304,1,85,8|0,0:0|0:0,0:0:0:0:
408,260,36090,5,8,0:0:0:0:
480,216,36304,1,0,0:0:0:0:
416,160,36518,1,8,0:0:0:0:
488,112,36732,1,0,0:0:0:0:
428,272,36947,5,8,0:0:0:0:
456,104,37161,1,0,0:0:0:0:
460,272,37375,1,8,0:0:0:0:
432,104,37590,1,0,0:0:0:0:
304,216,37804,5,8,0:0:0:0:
272,244,37911,1,0,0:0:0:0:
232,256,38018,1,0,0:0:0:0:
188,256,38125,1,0,0:0:0:0:
148,244,38232,2,0,L|120:208,3,42.5,8|0|0|0,0:2|0:0|0:0|0:0,0:0:0:0:
144,128,38661,5,8,0:0:0:0:
176,100,38768,1,0,0:0:0:0:
216,88,38875,1,0,0:0:0:0:
260,88,38982,1,0,0:0:0:0:
300,100,39090,2,0,L|328:136,3,42.5,8|0|0|0,0:2|0:0|0:0|0:0,0:0:0:0:
256,192,39518,12,8,40804,0:3:0:0:
186,123,41232,6,0,P|189:64|150:14,1,110.499994941712,4|0,1:1|0:0,0:0:0:0:
118,171,41661,2,0,P|167:203|230:195,1,110.499994941712,0|0,0:0|1:0,0:0:0:0:
356,128,42090,1,8,0:0:0:0:
224,44,42304,1,0,0:0:0:0:
218,201,42518,1,4,0:3:0:0:
224,244,42625,1,0,0:0:0:0:
256,276,42732,1,0,0:0:0:0:
424,164,42947,5,4,0:3:0:0:
232,108,43161,1,4,0:3:0:0:
300,208,43375,1,4,0:3:0:0:
312,52,43590,1,0,0:0:0:0:
136,52,43804,2,0,P|84:60|32:88,1,110.499994941712,8|0,0:0|0:0,0:0:0:0:
16,272,44232,1,0,0:0:0:0:
60,268,44339,1,0,0:0:0:0:
100,252,44446,1,0,0:0:0:0:
276,188,44661,6,0,P|307:137|228:107,1,165.749992412568,4|0,0:3|0:0,0:0:0:0:
276,188,45090,2,0,L|296:302,1,110.499994941712
476,340,45518,2,0,L|455:225,1,110.499994941712
360,68,45947,1,4,0:3:0:0:
316,64,46054,1,0,0:0:0:0:
272,80,46161,1,0,0:0:0:0:
136,192,46375,1,4,0:3:0:0:
328,144,46590,1,4,0:3:0:0:
140,32,46804,1,4,0:3:0:0:
140,32,47232,6,0,L|28:41,1,110.499994941712,10|0,0:0|0:0,0:0:0:0:
212,96,47661,1,4,0:3:0:0:
220,140,47768,1,8,0:3:0:0:
224,184,47875,1,4,0:3:0:0:
220,228,47982,1,8,0:3:0:0:
208,272,48090,6,0,P|152:288|96:288,1,110.499994941712,4|0,1:1|0:0,0:0:0:0:
0,144,48518,2,0,P|56:128|112:128,1,110.499994941712,0|0,0:0|1:0,0:0:0:0:
208,272,48947,1,8,0:0:0:0:
107,127,49161,1,0,0:0:0:0:
208,272,49375,1,4,0:3:0:0:
252,284,49482,1,0,0:0:0:0:
296,272,49589,1,0,0:0:0:0:
252,148,49804,5,4,0:3:0:0:
296,272,50018,1,4,0:3:0:0:
360,72,50232,1,4,0:3:0:0:
416,192,50447,1,0,0:0:0:0:
252,148,50661,2,0,B|224:100|224:100|232:40,1,110.499994941712,8|0,0:0|0:0,0:0:0:0:
296,272,51090,1,0,0:0:0:0:
252,284,51197,1,0,0:0:0:0:
208,272,51304,1,0,0:0:0:0:
64,220,51518,6,0,B|44:276|64:328|64:328|4:304,1,165.749992412568,4|0,0:3|0:0,0:0:0:0:
64,220,51947,2,0,L|175:210,1,110.499994941712
344,132,52375,2,0,P|292:128|236:108,1,110.499994941712,8|0,0:0|0:0,0:0:0:0:
404,20,52804,1,4,0:3:0:0:
448,24,52911,1,0,0:0:0:0:
492,36,53018,1,0,0:0:0:0:
304,48,53232,5,0,0:0:0:0:
120,264,53554,1,0,0:0:0:0:
352,104,53875,1,0,0:0:0:0:
168,68,54090,2,0,B|212:56|212:56|192:116|220:172,1,165.749992412568,10|8,0:0|0:3,0:0:0:0:
256,196,54518,2,0,L|315:190,1,55.2499974708558,4|8,0:3|0:3,0:3:0:0:
448,192,54732,2,0,L|503:196,1,55.2499974708558,4|8,0:3|0:3,0:3:0:0:
384,128,54947,6,0,B|356:160|352:204|372:236|372:236|364:284,1,165.749992412568,4|0,1:1|0:0,0:0:0:0:
444,332,55375,2,0,B|412:384|340:376,1,110.499994941712
164,340,55804,1,8,0:0:0:0:
349,376,56018,1,0,0:0:0:0:
204,260,56232,1,4,0:3:0:0:
180,300,56339,1,0,0:0:0:0:
164,340,56447,1,0,0:0:0:0:
124,192,56661,5,4,0:3:0:0:
16,300,56875,1,4,0:3:0:0:
164,340,57090,2,0,L|275:330,1,110.499994941712,4|0,0:3|0:0,0:0:0:0:
420,212,57518,2,0,P|364:212|308:192,1,110.499994941712,8|0,0:0|0:0,0:0:0:0:
188,56,57947,1,0,0:0:0:0:
232,48,58054,1,0,0:0:0:0:
276,40,58161,1,0,0:0:0:0:
120,144,58375,6,0,B|88:204|88:204|68:208|68:208|28:276,1,165.749992412568,4|0,0:3|0:0,0:0:0:0:
96,340,58804,2,0,B|124:292|124:292|184:292,1,110.499994941712
344,384,59232,2,0,B|288:383|288:383|258:331,1,110.499994941712,8|0,0:0|0:0,0:0:0:0:
260,148,59661,2,0,B|287:196|287:196|257:248,1,110.499994941712
72,244,60090,1,4,0:3:0:0:
260,243,60304,1,4,0:3:0:0:
72,244,60518,1,4,0:3:0:0:
72,244,60947,6,0,L|82:128,1,110.499994941712,10|0,0:0|0:0,0:0:0:0:
160,304,61375,1,4,0:3:0:0:
204,316,61482,1,8,0:3:0:0:
248,320,61589,1,4,0:3:0:0:
292,316,61696,1,8,0:3:0:0:
336,304,61804,6,0,L|451:314,1,110.499994941712,4|0,1:1|0:0,0:0:0:0:
512,148,62232,2,0,L|396:137,1,110.499994941712,0|0,0:0|1:0,0:0:0:0:
308,232,62661,1,8,0:0:0:0:
420,68,62875,1,0,0:0:0:0:
288,68,63090,1,4,0:3:0:0:
268,108,63197,1,0,0:0:0:0:
268,152,63304,1,0,0:0:0:0:
384,312,63518,5,4,0:3:0:0:
401,138,63732,1,4,0:3:0:0:
480,272,63947,1,4,0:3:0:0:
308,232,64161,1,0,0:0:0:0:
152,244,64375,2,0,B|124:192|124:192|112:132,1,110.499994941712,8|0,0:0|0:0,0:0:0:0:
224,0,64804,1,0,0:0:0:0:
252,32,64911,1,0,0:0:0:0:
268,72,65018,1,0,0:0:0:0:
312,236,65232,5,4,0:3:0:0:
312,236,65447,1,0,0:0:0:0:
128,280,65661,1,0,0:0:0:0:
128,280,65875,1,0,0:0:0:0:
116,92,66090,1,8,0:0:0:0:
116,92,66305,1,0,0:0:0:0:
300,48,66518,1,4,0:3:0:0:
300,48,66733,1,0,0:0:0:0:
388,56,66947,5,0,0:0:0:0:
340,132,67162,1,0,0:0:0:0:
356,220,67376,1,0,0:0:0:0:
312,296,67590,1,0,0:0:0:0:
168,240,67804,2,0,P|152:308|64:320,1,165.749992412568,2|0,0:0|0:3,0:0:0:0:
100,260,68232,2,0,L|66:209,1,55.2499974708558,4|8,0:3|0:3,0:3:0:0:
176,124,68447,2,0,L|160:72,1,55.2499974708558,4|8,0:3|0:3,0:3:0:0:
280,4,68661,5,4,1:1:0:0:
280,4,69090,5,0,0:0:0:0:
284,92,69304,1,0,0:0:0:0:
364,52,69518,1,8,0:0:0:0:
384,136,69732,1,0,0:0:0:0:
316,192,69947,1,4,0:3:0:0:
316,192,70375,5,4,0:3:0:0:
180,308,70590,1,4,0:3:0:0:
132,136,70804,2,0,B|76:136|76:136|44:180,1,110.499994941712,4|0,0:3|0:0,0:0:0:0:
216,104,71232,2,0,B|244:55|244:55|221:5,1,110.499994941712,8|0,0:0|0:0,0:0:0:0:
208,192,71661,2,0,B|236:240|236:240|290:246,1,110.499994941712
136,136,72090,6,0,P|116:196|132:244,1,110.499994941712,4|0,0:3|0:0,0:0:0:0:
283,349,72518,2,0,P|303:289|287:241,1,110.499994941712
216,104,72947,1,8,0:0:0:0:
192,292,73161,1,0,0:0:0:0:
316,136,73375,1,4,0:3:0:0:
316,136,73804,5,4,0:3:0:0:
192,292,74018,1,4,0:3:0:0:
48,156,74232,2,0,B|57:44,1,110.499994941712,4|0,0:3|0:0,0:0:0:0:
140,216,74661,2,0,B|128:268|128:268|100:320,1,110.499994941712,8|0,0:0|0:0,0:0:0:0:
288,316,75090,1,4,0:3:0:0:
332,312,75197,1,8,0:3:0:0:
376,304,75304,1,4,0:3:0:0:
416,284,75411,1,8,0:3:0:0:
452,260,75518,5,4,1:1:0:0:
116,48,75947,5,0,0:0:0:0:
128,180,76161,1,0,0:0:0:0:
12,244,76375,1,8,0:0:0:0:
64,120,76590,1,0,0:0:0:0:
196,116,76804,1,4,0:3:0:0:
196,116,77232,6,0,L|205:4,2,110.499994941712,4|4|4,0:3|0:3|0:3,0:3:0:0:
224,200,77875,1,0,0:0:0:0:
248,284,78090,1,8,0:0:0:0:
224,368,78304,1,0,0:0:0:0:
312,216,78518,1,0,0:0:0:0:
92,284,78732,1,0,0:0:0:0:
92,284,78947,5,4,0:3:0:0:
92,284,79375,2,0,L|207:273,1,110.499994941712
312,164,79804,2,0,L|196:152,1,110.499994941712,8|0,0:0|0:0,0:0:0:0:
316,48,80232,2,0,L|431:58,1,110.499994941712,4|0,0:3|0:0,0:0:0:0:
512,188,80661,6,0,P|504:240|476:292,2,110.499994941712
426,57,81304,1,0,0:0:0:0:
312,164,81518,2,0,P|256:148|200:148,1,110.499994941712
88,248,81947,2,0,P|144:264|200:264,1,110.499994941712
84,128,82375,5,0,0:0:0:0:
256,192,86232,12,0,89018,0:0:0:0:
340,36,89232,6,0,P|370:70|358:114,1,95.6250036478044,2|0,0:0|0:0,0:0:0:0:
174,162,89875,2,0,P|188:118|232:106,1,95.6250036478044,2|0,0:0|0:0,0:0:0:0:
378,230,90518,2,0,P|333:239|300:207,1,95.6250036478044,2|0,0:0|0:0,0:0:0:0:
376,232,90947,6,0,L|367:327,1,95.6250036478044,2|0,0:0|0:0,0:0:0:0:
260,168,91590,2,0,L|269:264,1,95.6250036478044,2|0,0:0|0:0,0:0:0:0:
172,96,92232,2,0,L|163:191,1,95.6250036478044,2|0,0:0|0:0,0:0:0:0:
124,216,92661,6,0,B|92:248|92:248|92:304,1,95.6250036478044,2|0,0:0|0:0,0:0:0:0:
264,384,93304,2,0,B|296:352|296:352|296:296,1,95.6250036478044,2|0,0:0|0:0,0:0:0:0:
108,256,93947,2,0,B|76:288|76:288|76:338,1,95.6250036478044,2|0,0:0|0:0,0:0:0:0:
76,338,94375,5,2,0:0:0:0:
172,328,94697,1,0,0:0:0:0:
256,284,95018,1,2,0:0:0:0:
316,208,95340,1,0,0:0:0:0:
324,112,95661,2,0,L|292:117,1,31.8750012159348,2|0,0:0|0:0,0:0:0:0:
200,148,95875,2,0,L|168:144,1,31.8750012159348,2|0,0:0|0:0,0:0:0:0:
72,136,96090,6,0,P|81:188|109:221,1,95.6250036478044,2|0,0:0|0:0,0:0:0:0:
289,163,96732,2,0,P|245:142|194:150,1,95.6250036478044,2|0,0:0|0:0,0:0:0:0:
164,336,97375,2,0,P|203:308|222:260,1,95.6250036478044,2|0,0:0|0:0,0:0:0:0:
216,216,97804,5,2,0:0:0:0:
196,124,98125,1,0,0:0:0:0:
276,68,98447,1,2,0:0:0:0:
348,132,98768,1,0,0:0:0:0:
308,220,99090,1,2,0:0:0:0:
296,348,99304,1,0,0:0:0:0:
264,340,99411,1,0,0:0:0:0:
232,328,99518,6,0,B|184:328|184:328|160:288,1,95.6250036478044,2|0,0:0|0:0,0:0:0:0:
12,164,100161,2,0,B|36:122|36:122|82:121,1,95.6250036478044,2|0,0:0|0:0,0:0:0:0:
272,84,100804,2,0,B|296:125|296:125|273:166,1,95.6250036478044,2|0,0:0|0:0,0:0:0:0:
272,166,101232,5,2,0:0:0:0:
212,240,101447,1,0,0:0:0:0:
212,240,101554,1,0,0:0:0:0:
212,240,101661,2,0,L|283:246,1,63.7500024318696
296,340,102090,2,0,L|367:333,1,63.7500024318696
452,304,102518,2,0,L|446:233,1,63.7500024318696
384,180,102947,5,0,0:0:0:0:
360,138,103375,1,0,0:0:0:0:
208,216,103804,1,0,0:0:0:0:
231,257,104232,1,0,0:0:0:0:
384,180,104661,1,0,0:0:0:0:
360,221,105090,1,0,0:0:0:0:
208,140,105518,1,0,0:0:0:0:
232,92,105947,1,0,0:0:0:0:
400,108,106375,6,0,L|396:151,1,42.5,2|0,0:0|0:0,0:0:0:0:
332,208,106590,2,0,L|316:249,1,42.5
244,288,106804,1,2,0:0:0:0:
152,200,107018,2,0,L|168:159,1,42.5
236,112,107233,2,0,L|262:76,1,42.5,2|0,0:0|0:0,0:0:0:0:
344,56,107447,1,0,0:0:0:0:
512,72,107661,5,2,0:0:0:0:
504,112,107768,1,0,0:0:0:0:
488,152,107875,1,0,0:0:0:0:
464,188,107982,1,0,0:0:0:0:
432,216,108090,6,0,L|393:194,1,42.5,2|0,0:0|0:0,0:0:0:0:
309,194,108305,2,0,L|265:183,1,42.5
194,226,108518,1,2,0:0:0:0:
291,309,108732,2,0,L|335:308,1,42.5
398,250,108947,2,0,L|439:230,1,42.5,2|0,0:0|0:0,0:0:0:0:
467,152,109161,1,0,0:0:0:0:
460,24,109375,2,0,L|416:35,1,42.5,8|0,0:3|0:0,0:0:0:0:
332,16,109590,2,0,L|292:38,1,42.5
236,96,109804,5,8,0:0:0:0:
150,95,110018,1,0,0:0:0:0:
199,166,110233,1,8,0:0:0:0:
115,167,110447,1,0,0:0:0:0:
236,96,110661,5,8,0:0:0:0:
154,73,110875,1,0,0:0:0:0:
182,155,111090,1,8,0:0:0:0:
101,134,111304,1,0,0:0:0:0:
268,112,111518,5,8,0:0:0:0:
157,48,111732,1,0,0:0:0:0:
170,176,111946,1,8,0:0:0:0:
58,115,112161,1,0,0:0:0:0:
312,148,112375,5,8,0:0:0:0:
193,29,112589,1,0,0:0:0:0:
150,196,112804,1,8,0:0:0:0:
31,77,113018,1,0,0:0:0:0:
92,280,113232,5,8,0:0:0:0:
132,296,113339,1,0,0:0:0:0:
176,296,113446,1,0,0:0:0:0:
216,280,113553,1,0,0:0:0:0:
244,248,113661,2,0,L|256:204,3,42.5,8|0|0|0,0:2|0:0|0:0|0:0,0:0:0:0:
196,120,114090,5,8,0:0:0:0:
236,104,114197,1,0,0:0:0:0:
280,104,114304,1,0,0:0:0:0:
320,120,114411,1,0,0:0:0:0:
348,152,114519,2,0,L|360:196,3,42.5,8|0|0|0,0:2|0:0|0:0|0:0,0:0:0:0:
256,192,114947,12,0,116447,0:0:0:0:
376,56,116661,6,0,P|316:68|276:104,1,110.499994941712,4|0,1:1|0:0,0:0:0:0:
364,280,117090,2,0,P|383:222|372:169,1,110.499994941712
176,152,117518,2,0,P|216:197|267:214,2,110.499994941712,8|0|4,0:0|0:0|0:3,0:0:0:0:
176,152,118375,5,4,0:3:0:0:
32,100,118590,1,4,0:3:0:0:
176,48,118804,1,4,0:3:0:0:
72,192,119018,1,0,0:0:0:0:
148,324,119232,2,0,L|259:314,1,110.499994941712,8|0,0:0|0:0,0:0:0:0:
416,212,119661,2,0,P|360:212|304:200,1,110.499994941712,4|0,0:3|0:0,0:0:0:0:
184,60,120090,5,4,0:3:0:0:
184,60,120304,1,0,0:0:0:0:
184,60,120518,2,0,L|196:28,4,27.6249987354279
306,200,120947,2,0,B|260:240|260:240|204:240,1,110.499994941712,8|0,0:0|0:0,0:0:0:0:
396,244,121375,2,0,B|440:208|440:208|500:208,1,110.499994941712,4|0,0:3|0:0,0:0:0:0:
496,364,121804,5,4,0:3:0:0:
396,244,122018,1,4,0:3:0:0:
308,348,122232,1,4,0:3:0:0:
308,348,122661,2,0,B|272:316|272:268|272:268|235:244|219:214|216:175|226:138|256:119,1,255.000009727478
328,196,123304,1,0,0:0:0:0:
328,196,123518,5,0,0:0:0:0:
480,164,123732,1,0,0:0:0:0:
328,196,123947,1,0,0:0:0:0:
348,44,124161,1,0,0:0:0:0:
328,196,124375,1,8,0:0:0:0:
192,120,124590,1,0,0:0:0:0:
172,280,124804,1,4,0:3:0:0:
172,280,125232,5,4,0:3:0:0:
80,376,125447,1,4,0:3:0:0:
28,232,125661,1,4,0:3:0:0:
172,368,125875,1,0,0:0:0:0:
348,296,126090,2,0,B|357:238|357:238|376:184,1,110.499994941712,8|0,0:0|0:0,0:0:0:0:
288,20,126518,2,0,L|258:130,1,110.499994941712,4|0,0:3|0:0,0:0:0:0:
116,232,126947,5,4,0:3:0:0:
184,120,127161,1,0,0:0:0:0:
180,296,127375,2,0,L|183:335,4,27.6249987354279,4|0|0|0|0,0:3|0:0|0:0|0:0|0:0,0:0:0:0:
259,126,127804,2,0,L|372:115,1,110.499994941712,8|0,0:0|0:0,0:0:0:0:
200,196,128232,2,0,L|85:205,1,110.499994941712,4|0,0:3|0:0,0:0:0:0:
36,60,128661,5,4,0:3:0:0:
36,60,128875,1,4,0:3:0:0:
248,36,129090,1,4,0:3:0:0:
248,36,129518,1,4,0:3:0:0:
272,72,129625,1,8,0:3:0:0:
288,112,129732,1,4,0:3:0:0:
292,156,129840,1,8,0:3:0:0:
284,204,129947,6,0,B|244:248|244:248|200:264|200:264|164:308|112:304,1,204
76,284,130375,6,0,B|44:237|44:237|44:180,1,110.499994941712,4|0,1:1|0:0,0:0:0:0:
152,28,130804,2,0,B|183:74|183:74|183:131,1,110.499994941712,0|0,0:0|1:0,0:0:0:0:
364,80,131232,1,8,0:0:0:0:
183,129,131447,1,0,0:0:0:0:
328,248,131661,1,4,0:3:0:0:
333,204,131768,1,0,0:0:0:0:
340,161,131875,1,0,0:0:0:0:
188,132,132090,5,4,0:3:0:0:
328,248,132304,1,4,0:3:0:0:
156,280,132518,1,4,0:3:0:0:
268,176,132732,1,0,0:0:0:0:
256,344,132947,2,0,P|312:352|365:344,1,110.499994941712,8|0,0:0|0:0,0:0:0:0:
512,228,133375,1,0,0:0:0:0:
468,224,133482,1,0,0:0:0:0:
424,220,133589,1,0,0:0:0:0:
308,116,133804,5,4,0:3:0:0:
308,116,134018,1,0,0:0:0:0:
444,40,134232,2,0,L|475:37,4,27.6249987354279
256,48,134661,2,0,L|144:57,1,110.499994941712,8|0,0:0|0:0,0:0:0:0:
0,176,135090,2,0,P|51:186|109:186,1,110.499994941712,4|0,0:3|0:0,0:0:0:0:
260,160,135518,1,4,0:3:0:0:
152,272,135732,1,4,0:3:0:0:
308,304,135947,1,4,0:3:0:0:
308,304,136375,6,0,L|423:314,1,110.499994941712,10|0,0:0|0:0,0:0:0:0:
252,224,136804,1,4,0:3:0:0:
244,180,136911,1,8,0:3:0:0:
244,136,137018,1,4,0:3:0:0:
252,92,137125,1,8,0:3:0:0:
264,48,137232,6,0,P|208:48|152:56,1,110.499994941712,4|0,1:1|0:0,0:0:0:0:
84,232,137661,2,0,P|111:279|147:322,1,110.499994941712
332,284,138090,2,0,P|359:234|378:182,1,110.499994941712,8|0,0:0|0:0,0:0:0:0:
204,120,138518,1,4,0:3:0:0:
180,156,138625,1,0,0:0:0:0:
164,196,138732,1,0,0:0:0:0:
332,284,138947,5,4,0:3:0:0:
164,196,139161,1,4,0:3:0:0:
264,340,139375,1,4,0:3:0:0:
244,208,139590,1,0,0:0:0:0:
80,320,139804,2,0,B|40:280|40:280|16:228,1,110.499994941712,8|0,0:0|0:0,0:0:0:0:
192,168,140232,2,0,P|248:180|315:178,1,110.499994941712
444,120,140661,5,4,0:3:0:0:
300,68,140875,1,0,0:0:0:0:
444,120,141090,2,0,L|479:116,4,27.6249987354279
301,180,141518,1,8,0:0:0:0:
448,228,141732,1,0,0:0:0:0:
300,280,141947,1,4,0:3:0:0:
444,336,142161,1,0,0:0:0:0:
504,156,142375,5,0,0:0:0:0:
464,140,142482,1,0,0:0:0:0:
420,140,142589,1,0,0:0:0:0:
264,148,142804,2,0,L|228:144,4,27.6249987354279
352,276,143232,1,0,0:0:0:0:
352,276,143447,1,0,0:0:0:0:
420,140,143661,1,4,0:3:0:0:
412,96,143768,1,0,0:0:0:0:
392,56,143875,6,0,L|336:52,2,55.2499974708558,8|0|4,0:3|0:0|1:1,0:0:0:0:
