osu file format v14

[General]
AudioFilename: Aero Chord & Klaypex - Be Free.mp3
AudioLeadIn: 1700
PreviewTime: 39868
Countdown: 0
SampleSet: Soft
StackLeniency: 0.7
Mode: 0
LetterboxInBreaks: 0
WidescreenStoryboard: 0

[Editor]
Bookmarks: 13796,27510,82367,86224,89224,102939,129939,130260
DistanceSpacing: 1.2
BeatDivisor: 4
GridSize: 4
TimelineZoom: 1

[Metadata]
Title:Be Free
TitleUnicode:Be Free
Artist:Aero Chord & Klaypex
ArtistUnicode:Aero Chord & Klaypex
Creator:Cagrux
Version:Hard
Source:
Tags:monstercat trap bounce bass electronic edm
BeatmapID:865096
BeatmapSetID:397760

[Difficulty]
HPDrainRate:5
CircleSize:4
OverallDifficulty:6
ApproachRate:7
SliderMultiplier:1.5
SliderTickRate:1

[Events]
//Background and Video events
0,0,"bg.jpg",0,0
//Break Periods
2,82575,85332
//Storyboard Layer 0 (Background)
//Storyboard Layer 1 (Fail)
//Storyboard Layer 2 (Pass)
//Storyboard Layer 3 (Foreground)
//Storyboard Sound Samples

[TimingPoints]
90,428.571428571429,4,2,0,45,1,0
90,-166.666666666667,4,2,0,45,0,0
13804,-125,4,2,0,65,0,0
27518,-100,4,2,0,65,0,0
41232,-100,4,2,0,80,0,1
53232,-100,4,2,0,65,0,0
54947,-100,4,2,0,80,0,1
68661,-100,4,2,0,65,0,0
89232,-125,4,2,0,65,0,0
102947,-100,4,2,0,65,0,0
116661,-100,4,2,0,80,0,1
129947,-76.9230769230769,4,2,0,65,0,0
130268,-100,4,2,0,65,0,0
130375,-100,4,2,0,80,0,1
144090,-100,4,2,0,65,0,0

[Colours]
Combo1 : 167,79,255
Combo2 : 0,128,255
Combo3 : 0,255,255
Combo4 : 255,128,255

[HitObjects]
128,160,90,6,0,P|164:160|200:144,1,67.4999979400635
148,80,732,2,0,P|179:68|213:68,1,67.4999979400635
272,124,1375,1,2,0:0:0:0:
324,220,1804,6,0,L|252:213,1,67.4999979400635
184,248,2447,2,0,L|112:241,2,67.4999979400635,0|0|2,0:0|0:0|0:0,0:0:0:0:
108,172,3518,6,0,P|76:184|52:216,1,67.4999979400635,2|0,0:0|0:0,0:0:0:0:
52,292,4161,2,0,P|73:317|105:328,1,67.4999979400635,2|0,0:0|0:0,0:0:0:0:
184,312,4804,1,2,0:0:0:0:
264,384,5232,6,0,P|288:336|288:308,1,67.4999979400635,2|0,0:0|0:0,0:0:0:0:
276,244,5875,2,0,L|347:250,1,67.4999979400635,2|0,0:0|0:0,0:0:0:0:
424,248,6518,1,2,0:0:0:0:
408,140,6947,6,0,P|372:152|348:172,1,67.4999979400635,2|0,0:0|0:0,0:0:0:0:
343,249,7590,2,0,L|267:241,2,67.4999979400635,2|0|2,0:0|0:0|0:0,0:0:0:0:
260,320,8661,6,0,B|227:307|227:307|204:281,1,67.4999979400635,2|0,0:0|0:0,0:0:0:0:
144,232,9304,2,0,B|170:210|170:210|205:202,1,67.4999979400635,2|0,0:0|0:0,0:0:0:0:
276,240,9947,1,2,0:0:0:0:
336,152,10375,6,0,L|260:158,1,67.4999979400635,2|0,0:0|0:0,0:0:0:0:
196,124,11018,2,0,P|196:84|176:52,1,67.4999979400635,2|0,0:0|0:0,0:0:0:0:
116,108,11661,1,2,0:0:0:0:
172,200,12090,6,0,P|224:200|248:184,1,67.4999979400635,2|0,0:0|0:0,0:0:0:0:
304,148,12732,2,0,P|335:136|368:141,2,67.4999979400635,2|0|2,0:0|0:0|0:0,0:0:0:0:
440,196,13804,6,0,P|456:160|448:104,1,90,2|0,0:0|0:0,0:0:0:0:
360,48,14447,2,0,L|260:56,1,90,2|0,0:0|0:0,0:0:0:0:
172,100,15090,1,2,0:0:0:0:
68,200,15518,6,0,B|100:228|100:228|148:244,1,90,2|0,0:0|0:0,0:0:0:0:
248,280,16161,2,0,L|239:375,2,90,2|0|2,0:0|0:0|0:0,0:0:0:0:
360,192,17232,6,0,P|324:160|276:140,1,90,2|0,0:0|0:0,0:0:0:0:
180,168,17875,2,0,L|88:159,2,90,2|0|2,0:0|0:0|0:0,0:0:0:0:
196,312,18947,6,0,B|236:276|236:276|252:232,1,90,2|0,0:0|0:0,0:0:0:0:
286,142,19590,2,0,L|377:150,2,90,2|0|2,0:0|0:0|0:0,0:0:0:0:
220,116,20447,1,2,0:0:0:0:
148,104,20661,6,0,P|152:148|192:184,1,90,2|0,0:0|0:0,0:0:0:0:
260,252,21304,2,0,L|168:260,1,90,2|0,0:0|0:0,0:0:0:0:
64,260,21947,1,2,0:0:0:0:
112,124,22375,6,0,P|156:148|184:184,1,90,2|0,0:0|0:0,0:0:0:0:
260,252,23018,2,0,L|351:243,2,90,2|0|2,0:0|0:0|0:0,0:0:0:0:
192,276,23875,1,0,0:0:0:0:
192,276,23982,1,0,0:0:0:0:
192,276,24090,6,0,P|196:220|224:188,1,90,2|0,0:0|0:0,0:0:0:0:
292,116,24732,2,0,P|312:76|316:28,2,90,2|0|2,0:0|0:0|0:0,0:0:0:0:
172,36,25804,5,2,0:0:0:0:
128,92,26018,1,0,0:0:0:0:
128,92,26232,2,0,L|120:216,1,120,2|2,0:0|0:0,0:0:0:0:
172,348,27090,2,0,P|200:352|232:352,1,60,2|0,0:0|0:0,0:0:0:0:
292,284,27518,5,0,0:0:0:0:
230,113,27947,1,0,0:0:0:0:
379,214,28375,1,0,0:0:0:0:
199,217,28804,1,0,0:0:0:0:
345,109,29232,1,0,0:0:0:0:
291,283,29661,1,0,0:0:0:0:
230,113,30090,1,0,0:0:0:0:
379,214,30518,1,8,0:3:0:0:
199,217,30947,6,0,L|47:225,1,150
189,108,31804,2,0,L|341:100,1,150
323,281,32661,1,0,0:0:0:0:
339,101,33090,1,0,0:0:0:0:
199,217,33518,1,0,0:0:0:0:
380,200,33947,1,0,0:3:0:0:
396,20,34375,6,0,P|360:4|312:8,1,75,8|0,0:0|0:0,0:0:0:0:
256,60,34804,2,0,P|218:59|184:44,1,75,8|0,0:0|0:0,0:0:0:0:
104,4,35232,2,0,L|97:79,1,75,8|0,0:0|0:0,0:0:0:0:
140,156,35661,2,0,L|146:231,1,75,8|0,0:0|0:0,0:0:0:0:
196,308,36090,6,0,P|236:296|276:296,1,75,8|0,0:0|0:0,0:0:0:0:
356,316,36518,2,0,P|404:320|436:304,1,75,8|0,0:0|0:0,0:0:0:0:
488,244,36947,2,0,P|500:208|492:156,1,75,8|0,0:0|0:0,0:0:0:0:
432,108,37375,1,8,0:0:0:0:
412,196,37590,1,0,0:0:0:0:
324,204,37804,6,0,L|320:164,3,37.5,8|0|0|0,0:0|0:0|0:0|0:0,0:0:0:0:
280,180,38232,2,0,L|276:140,3,37.5,8|0|0|0,0:0|0:0|0:0|0:0,0:0:0:0:
232,152,38661,2,0,L|228:112,3,37.5,8|0|0|0,0:0|0:0|0:0|0:0,0:0:0:0:
188,128,39090,2,0,L|184:88,3,37.5,8|0|0|0,0:0|0:0|0:0|0:0,0:0:0:0:
256,192,39518,12,8,40804,0:3:0:0:
160,124,41232,6,0,P|172:80|164:48,1,75,4|0,1:1|0:0,0:0:0:0:
84,168,41661,2,0,P|116:200|147:209,1,75,0|0,0:0|1:0,0:0:0:0:
228,180,42090,2,0,L|311:187,1,75,8|0,0:0|0:0,0:0:0:0:
444,236,42518,2,0,L|360:228,1,75,4|0,0:3|0:0,0:0:0:0:
288,268,42947,5,4,0:3:0:0:
168,332,43161,1,4,0:3:0:0:
268,356,43375,1,4,0:3:0:0:
192,244,43590,1,0,0:0:0:0:
192,244,43804,2,0,P|144:244|111:263,1,75,8|0,0:0|0:0,0:0:0:0:
36,288,44232,2,0,L|42:208,1,75
80,132,44661,6,0,B|108:148|120:168|120:168|136:160|180:160,1,112.5,4|0,0:3|0:0,0:0:0:0:
216,136,45090,2,0,L|300:140,1,75
304,288,45518,2,0,L|220:284,1,75,8|0,0:0|0:0,0:0:0:0:
140,292,45947,2,0,L|136:332,2,37.5,4|0|0,0:3|0:0|0:0,0:0:0:0:
72,236,46375,5,4,0:3:0:0:
72,108,46590,1,4,0:3:0:0:
8,172,46804,1,4,0:3:0:0:
72,236,47018,1,0,0:0:0:0:
135,172,47232,2,0,L|216:168,1,75,10|0,0:0|0:0,0:0:0:0:
292,136,47661,2,0,P|312:128|336:128,3,37.5,4|8|4|8,0:3|0:3|0:3|0:3,0:0:0:0:
372,136,48090,6,0,P|386:169|381:208,1,75,4|0,1:1|0:0,0:0:0:0:
472,220,48518,2,0,P|460:252|424:288,1,75,0|0,0:0|1:0,0:0:0:0:
344,284,48947,1,8,0:0:0:0:
256,300,49161,1,0,0:0:0:0:
176,344,49375,2,0,L|96:339,1,75,4|0,0:3|0:0,0:0:0:0:
32,260,49804,5,4,0:3:0:0:
136,240,50018,1,4,0:3:0:0:
101,339,50232,1,4,0:3:0:0:
32,260,50447,1,0,0:0:0:0:
36,156,50661,2,0,P|68:128|104:116,1,75,8|0,0:0|0:0,0:0:0:0:
200,140,51090,2,0,L|276:136,1,75
384,240,51518,6,0,L|272:248,1,112.5,4|0,0:3|0:0,0:0:0:0:
228,232,51947,2,0,P|188:248|152:252,1,75
40,160,52375,2,0,P|80:144|116:140,1,75,8|0,0:0|0:0,0:0:0:0:
208,144,52804,1,4,0:3:0:0:
208,144,52911,1,0,0:0:0:0:
208,144,53018,1,0,0:0:0:0:
288,184,53232,6,0,B|304:236|272:236|288:296,2,112.5
288,184,54090,1,8,0:0:0:0:
408,48,54518,2,0,L|368:52,3,37.5,4|8|4|8,0:3|0:3|0:3|0:3,0:0:0:0:
324,44,54947,6,0,P|288:60|248:60,1,75,4|0,1:1|0:0,0:0:0:0:
164,44,55375,2,0,P|126:45|92:60,1,75,0|0,0:0|1:0,0:0:0:0:
36,132,55804,1,8,0:0:0:0:
36,132,56018,1,0,0:0:0:0:
36,132,56232,2,0,B|32:168|32:168|40:212,1,75,4|0,0:3|0:0,0:0:0:0:
136,248,56661,5,4,0:3:0:0:
220,144,56875,1,4,0:3:0:0:
132,160,57090,1,4,0:3:0:0:
236,248,57304,1,0,0:0:0:0:
236,248,57518,2,0,L|312:252,1,75,8|0,0:0|0:0,0:0:0:0:
368,184,57947,2,0,B|356:148|356:148|352:104,1,75
364,24,58375,6,0,P|308:32|268:80,1,112.5,4|0,0:3|0:0,0:0:0:0:
236,100,58804,2,0,L|152:104,1,75
60,128,59232,1,8,0:0:0:0:
132,204,59447,1,0,0:0:0:0:
132,204,59661,2,0,L|216:200,1,75,4|0,0:3|0:0,0:0:0:0:
296,208,60090,5,4,0:3:0:0:
400,152,60304,1,4,0:3:0:0:
396,272,60518,1,4,0:3:0:0:
396,272,60947,2,0,B|367:315|331:319,1,75,10|0,0:0|0:0,0:0:0:0:
252,292,61375,2,0,L|212:296,3,37.5,4|8|4|8,0:3|0:3|0:3|0:3,0:0:0:0:
168,304,61804,6,0,P|176:264|176:224,1,75,4|0,1:1|0:0,0:0:0:0:
140,148,62232,2,0,L|60:152,1,75,0|0,0:0|1:0,0:0:0:0:
200,84,62661,2,0,L|280:80,1,75,8|0,0:0|0:0,0:0:0:0:
360,56,63090,2,0,L|400:60,2,37.5,4|0|0,0:3|0:0|0:0,0:0:0:0:
340,144,63518,5,4,0:3:0:0:
320,232,63732,1,4,0:3:0:0:
240,276,63947,1,4,0:3:0:0:
152,288,64161,1,0,0:0:0:0:
152,288,64375,2,0,L|148:208,1,75,8|0,0:0|0:0,0:0:0:0:
172,124,64804,1,0,0:0:0:0:
172,124,64911,1,0,0:0:0:0:
172,124,65018,1,0,0:0:0:0:
240,64,65232,6,0,L|316:68,1,75,4|0,0:3|0:0,0:0:0:0:
396,160,65661,2,0,L|320:156,1,75
204,176,66090,2,0,P|204:212|188:252,1,75,8|0,0:0|0:0,0:0:0:0:
72,272,66518,2,0,P|72:236|88:196,1,75,4|0,0:3|0:0,0:0:0:0:
204,176,66947,5,0,0:0:0:0:
380,204,67375,1,0,0:0:0:0:
268,344,67804,1,0,0:0:0:0:
92,316,68232,2,0,P|72:304|56:284,3,37.5,4|8|4|8,0:3|0:3|0:3|0:3,0:0:0:0:
40,256,68661,6,0,P|44:176|88:112,1,150,4|0,1:1|0:0,0:0:0:0:
168,96,69304,1,0,0:0:0:0:
256,100,69518,2,0,P|296:108|336:128,2,75,8|0|4,0:0|0:0|0:3,0:0:0:0:
108,204,70375,6,0,P|80:234|42:258,2,75,4|4|4,0:3|0:3|0:3,0:0:0:0:
156,128,71018,1,0,0:0:0:0:
244,144,71232,2,0,L|320:148,1,75,8|0,0:0|0:0,0:0:0:0:
380,252,71661,2,0,L|304:248,1,75
256,324,72090,6,0,B|180:320|180:320|156:348|112:348,1,150,4|0,0:3|0:0,0:0:0:0:
116,260,72732,1,0,0:0:0:0:
100,172,72947,2,0,B|60:180|60:180|24:180,1,75,8|0,0:0|0:0,0:0:0:0:
156,104,73375,2,0,B|196:96|196:96|232:96,1,75,4|0,0:3|0:0,0:0:0:0:
316,128,73804,5,4,0:3:0:0:
352,228,74018,1,4,0:3:0:0:
248,208,74232,1,4,0:3:0:0:
316,128,74447,1,0,0:0:0:0:
352,228,74661,2,0,P|336:268|312:292,1,75,8|0,0:0|0:0,0:0:0:0:
232,332,75090,2,0,P|213:335|195:334,3,37.5,4|8|4|8,0:3|0:3|0:3|0:3,0:0:0:0:
152,328,75518,6,0,P|164:248|164:172,1,150,4|0,1:1|0:0,0:0:0:0:
128,96,76161,1,0,0:0:0:0:
45,133,76375,1,8,0:0:0:0:
82,215,76590,1,0,0:0:0:0:
164,179,76804,1,4,0:3:0:0:
344,200,77232,6,0,P|380:200|416:188,2,75,4|4|4,0:3|0:3|0:3,0:0:0:0:
268,152,77875,1,0,0:0:0:0:
196,100,78090,2,0,L|112:104,1,75,8|0,0:0|0:0,0:0:0:0:
64,208,78518,2,0,B|104:216|104:216|152:232,1,75
212,272,78947,1,4,0:3:0:0:
388,236,79375,6,0,L|392:152,1,75
292,96,79804,2,0,L|295:170,1,75,8|0,0:0|0:0,0:0:0:0:
244,244,80232,1,4,0:3:0:0:
164,288,80447,1,0,0:0:0:0:
76,280,80661,6,0,B|76:240|76:240|72:196,1,75
156,116,81090,2,0,B|156:156|156:156|160:200,1,75
276,220,81518,2,0,L|368:224,1,75
448,292,81947,2,0,P|420:320|372:336,1,75
432,208,82375,5,0,0:0:0:0:
256,192,86232,12,0,88804,0:0:0:0:
464,100,89232,6,0,L|372:96,1,90,2|0,0:0|0:0,0:0:0:0:
276,140,89875,2,0,L|184:144,1,90,2|0,0:0|0:0,0:0:0:0:
84,104,90518,1,2,0:0:0:0:
128,240,90947,6,0,P|176:256|216:252,1,90,2|0,0:0|0:0,0:0:0:0:
186,143,91590,2,0,P|138:127|98:131,1,90,2|0,0:0|0:0,0:0:0:0:
28,212,92232,1,2,0:0:0:0:
144,296,92661,6,0,L|236:300,1,90,2|0,0:0|0:0,0:0:0:0:
204,196,93304,2,0,L|296:192,1,90,2|0,0:0|0:0,0:0:0:0:
264,88,93947,1,2,0:0:0:0:
124,56,94375,6,0,B|120:100|120:100|132:148,1,90,2|0,0:0|0:0,0:0:0:0:
168,248,95018,2,0,P|116:256|76:240,2,90,2|0|2,0:0|0:0|0:0,0:0:0:0:
232,216,95875,1,2,0:0:0:0:
304,224,96090,6,0,L|400:228,1,90,2|0,0:0|0:0,0:0:0:0:
432,328,96732,2,0,L|336:324,1,90,2|0,0:0|0:0,0:0:0:0:
236,308,97375,1,2,0:0:0:0:
120,224,97804,6,0,P|116:164|132:128,1,90,2|0,0:0|0:0,0:0:0:0:
240,112,98447,2,0,P|214:58|182:34,2,90,2|0|2,0:0|0:0|0:0,0:0:0:0:
236,192,99304,1,0,0:0:0:0:
236,192,99411,1,0,0:0:0:0:
236,192,99518,6,0,L|332:196,1,90,2|0,0:0|0:0,0:0:0:0:
428,164,100161,2,0,B|436:120|436:120|436:72,2,90,2|0|2,0:0|0:0|0:0,0:0:0:0:
380,300,101232,5,2,0:0:0:0:
312,328,101447,1,0,0:0:0:0:
312,328,101661,2,0,B|252:332|252:332|184:320,1,120,2|2,0:0|0:0,0:0:0:0:
268,200,102518,2,0,L|263:139,1,60,2|0,0:0|0:0,0:0:0:0:
212,64,102947,5,0,0:0:0:0:
104,208,103375,1,0,0:0:0:0:
216,348,103804,1,0,0:0:0:0:
200,168,104232,1,0,0:0:0:0:
48,72,104661,1,0,0:0:0:0:
8,248,105090,1,0,0:0:0:0:
188,264,105518,1,0,0:0:0:0:
228,88,105947,1,8,0:3:0:0:
404,116,106375,6,0,P|384:184|324:244,1,150
154,212,107232,2,0,P|174:144|234:84,1,150
240,268,108090,1,0,0:0:0:0:
227,87,108518,1,0,0:0:0:0:
330,240,108947,1,0,0:0:0:0:
316,60,109375,1,0,0:3:0:0:
160,148,109804,6,0,L|76:152,1,75,8|0,0:0|0:0,0:0:0:0:
52,236,110232,2,0,L|136:232,1,75,8|0,0:0|0:0,0:0:0:0:
216,220,110661,2,0,P|248:180|252:148,1,75,8|0,0:0|0:0,0:0:0:0:
160,148,111090,2,0,P|157:110|137:79,1,75,8|0,0:0|0:0,0:0:0:0:
48,72,111518,6,0,P|50:109|70:140,1,75,8|0,0:0|0:0,0:0:0:0:
160,148,111947,2,0,L|244:144,1,75,8|0,0:0|0:0,0:0:0:0:
320,168,112375,2,0,B|312:208|276:224|276:224|244:236|228:292,1,150,8|8,0:0|0:0,0:0:0:0:
320,296,113018,1,0,0:0:0:0:
388,240,113232,6,0,L|432:232,3,37.5,8|0|0|0,0:0|0:0|0:0|0:0,0:0:0:0:
404,192,113661,2,0,L|448:184,3,37.5,8|0|0|0,0:0|0:0|0:0|0:0,0:0:0:0:
420,144,114090,2,0,L|464:136,3,37.5,8|0|0|0,0:0|0:0|0:0|0:0,0:0:0:0:
436,96,114518,2,0,L|480:88,3,37.5,8|0|0|0,0:0|0:0|0:0|0:0,0:0:0:0:
256,192,114947,12,0,116232,0:0:0:0:
468,232,116661,6,0,P|433:247|396:247,1,75,4|0,1:1|0:0,0:0:0:0:
328,188,117090,2,0,P|292:188|256:204,1,75
220,284,117518,2,0,P|190:261|172:228,1,75,8|0,0:0|0:0,0:0:0:0:
192,140,117947,1,4,0:3:0:0:
364,92,118375,5,4,0:3:0:0:
368,184,118590,1,4,0:3:0:0:
332,264,118804,1,4,0:3:0:0:
256,312,119018,1,0,0:0:0:0:
256,312,119232,2,0,B|180:308,1,75,8|0,0:0|0:0,0:0:0:0:
96,284,119661,2,0,B|92:244|92:244|92:200,1,75,4|0,0:3|0:0,0:0:0:0:
184,216,120090,6,0,B|184:176|184:176|188:136,1,75,4|0,0:3|0:0,0:0:0:0:
232,64,120518,2,0,L|229:40,4,18.75
280,140,120947,2,0,L|284:232,1,75,8|0,0:0|0:0,0:0:0:0:
348,348,121375,2,0,P|344:304|332:264,1,75,4|0,0:3|0:0,0:0:0:0:
216,260,121804,5,4,0:3:0:0:
96,276,122018,1,4,0:3:0:0:
140,164,122232,1,4,0:3:0:0:
140,164,122661,2,0,B|216:188|216:140|296:168,1,150
384,208,123304,1,0,0:0:0:0:
476,260,123518,5,0,0:0:0:0:
384,312,123732,1,0,0:0:0:0:
288,268,123947,1,0,0:0:0:0:
287,165,124161,1,0,0:0:0:0:
356,88,124375,5,8,0:0:0:0:
356,88,124590,1,0,0:0:0:0:
356,88,124804,2,0,P|324:68|272:64,1,75,4|0,0:3|0:0,0:0:0:0:
196,108,125232,6,0,L|116:104,2,75,4|4|4,0:3|0:3|0:3,0:0:0:0:
287,165,125875,1,0,0:0:0:0:
360,240,126090,2,0,P|328:260|288:268,1,75,8|0,0:0|0:0,0:0:0:0:
200,220,126518,2,0,P|163:228|131:247,1,75,4|0,0:3|0:0,0:0:0:0:
36,288,126947,6,0,B|32:248|32:248|32:212,1,75,4|0,0:3|0:0,0:0:0:0:
52,124,127375,2,0,L|24:120,4,18.75,4|0|0|0|0,0:3|0:0|0:0|0:0|0:0,0:0:0:0:
140,104,127804,2,0,B|176:92|216:92,1,75,8|0,0:0|0:0,0:0:0:0:
288,140,128232,2,0,L|368:136,1,75,4|0,0:3|0:0,0:0:0:0:
460,176,128661,5,4,0:3:0:0:
460,176,128875,1,4,0:3:0:0:
376,240,129090,1,4,0:3:0:0:
208,304,129518,2,0,P|184:300|164:300,3,37.5,4|8|4|8,0:3|0:3|0:3|0:3,0:0:0:0:
124,304,129947,6,0,B|108:276|116:248|116:248|108:220|108:220|116:188|96:152,1,146.249993305207
84,112,130375,6,0,P|120:96|164:96,1,75,4|0,1:1|0:0,0:0:0:0:
188,12,130804,2,0,P|219:35|241:73,1,75
328,52,131232,2,0,P|323:91|301:129,1,75,8|0,0:0|0:0,0:0:0:0:
224,152,131661,1,4,0:3:0:0:
44,140,132090,6,0,B|40:100|40:100|40:64,2,75,4|4|4,0:3|0:3|0:3,0:0:0:0:
68,228,132732,1,0,0:0:0:0:
132,292,132947,2,0,L|212:288,1,75,8|0,0:0|0:0,0:0:0:0:
284,240,133375,2,0,L|364:244,1,75
452,296,133804,5,4,0:3:0:0:
358,243,134018,1,0,0:0:0:0:
452,192,134232,2,0,L|488:188,4,18.75
340,92,134661,2,0,B|300:96|300:96|256:96,1,75,8|0,0:0|0:0,0:0:0:0:
128,160,135090,2,0,B|168:156|168:156|212:156,1,75,4|0,0:3|0:0,0:0:0:0:
328,236,135518,5,4,0:3:0:0:
408,168,135732,1,4,0:3:0:0:
340,92,135947,1,4,0:3:0:0:
340,92,136375,2,0,P|300:96|252:96,1,75,8|0,0:0|0:0,0:0:0:0:
176,84,136804,2,0,P|156:80|136:80,3,37.5,4|8|4|8,0:3|0:3|0:3|0:3,0:0:0:0:
96,84,137232,6,0,L|100:160,1,75,4|0,1:1|0:0,0:0:0:0:
180,288,137661,2,0,L|184:212,1,75
276,92,138090,2,0,L|280:168,2,75,8|0|4,0:0|0:0|0:3,0:0:0:0:
384,236,138947,5,4,0:3:0:0:
312,288,139161,1,4,0:3:0:0:
224,280,139375,1,4,0:3:0:0:
164,216,139590,1,0,0:0:0:0:
164,216,139804,2,0,P|164:172|176:128,1,75,8|0,0:0|0:0,0:0:0:0:
280,64,140232,2,0,P|280:108|268:152,1,75
164,216,140661,5,4,0:3:0:0:
88,268,140875,1,0,0:0:0:0:
24,332,141090,2,0,L|4:328,4,18.75
172,300,141518,2,0,L|248:296,1,75,8|0,0:0|0:0,0:0:0:0:
348,184,141947,2,0,L|272:188,1,75,4|0,0:3|0:0,0:0:0:0:
172,168,142375,5,0,0:0:0:0:
172,168,142482,1,0,0:0:0:0:
172,168,142590,1,0,0:0:0:0:
52,188,142804,2,0,L|28:184,4,18.75
132,276,143232,1,0,0:0:0:0:
132,276,143447,1,0,0:0:0:0:
172,168,143661,1,4,0:3:0:0:
172,168,143768,1,0,0:0:0:0:
172,168,143875,6,0,L|212:164,2,37.5,8|0|4,0:3|0:0|1:1,0:0:0:0:
