osu file format v14

[General]
AudioFilename: Aero Chord & Klaypex - Be Free.mp3
AudioLeadIn: 1700
PreviewTime: 39868
Countdown: 0
SampleSet: Soft
StackLeniency: 0.7
Mode: 0
LetterboxInBreaks: 0
WidescreenStoryboard: 0

[Editor]
Bookmarks: 13796,27510,82367,86224,89224,102939,129939,130260
DistanceSpacing: 1.9
BeatDivisor: 4
GridSize: 4
TimelineZoom: 1.4

[Metadata]
Title:Be Free
TitleUnicode:Be Free
Artist:Aero Chord & Klaypex
ArtistUnicode:Aero Chord & Klaypex
Creator:Cagrux
Version:Freedom
Source:
Tags:monstercat trap bounce bass electronic edm
BeatmapID:865095
BeatmapSetID:397760

[Difficulty]
HPDrainRate:7
CircleSize:4.5
OverallDifficulty:8
ApproachRate:9
SliderMultiplier:1.89999990463257
SliderTickRate:1

[Events]
//Background and Video events
0,0,"bg.jpg",0,0
//Break Periods
2,82575,85632
//Storyboard Layer 0 (Background)
//Storyboard Layer 1 (Fail)
//Storyboard Layer 2 (Pass)
//Storyboard Layer 3 (Foreground)
//Storyboard Sound Samples

[TimingPoints]
90,428.571428571429,4,2,0,45,1,0
90,-200,4,2,0,45,0,0
13804,-133.333333333333,4,2,0,65,0,0
27518,-100,4,2,0,65,0,0
41232,-76.9230769230769,4,2,0,80,0,1
53232,-76.9230769230769,4,2,0,65,0,0
54947,-76.9230769230769,4,2,0,80,0,1
68661,-76.9230769230769,4,2,0,65,0,0
82375,-76.9230769230769,4,2,0,5,0,0
89232,-133.333333333333,4,2,0,65,0,0
102947,-100,4,2,0,65,0,0
116661,-76.9230769230769,4,2,0,80,0,1
122661,-66.6666666666667,4,2,0,80,0,1
123090,-76.9230769230769,4,2,0,80,0,1
129947,-58.8235294117647,4,2,0,65,0,0
130268,-76.9230769230769,4,2,0,65,0,0
130375,-76.9230769230769,4,2,0,80,0,1
144090,-100,4,2,0,65,0,0

[Colours]
Combo1 : 167,79,255
Combo2 : 0,128,255
Combo3 : 0,255,255
Combo4 : 255,128,255

[HitObjects]
52,272,90,6,0,L|58:196,1,71.2499964237214
168,112,732,2,0,L|174:182,1,71.2499964237214
300,252,1375,1,2,0:0:0:0:
128,332,1804,6,0,L|122:262,1,71.2499964237214
228,240,2447,2,0,L|234:170,1,71.2499964237214
324,324,3090,1,2,0:0:0:0:
136,328,3518,5,2,0:0:0:0:
196,240,3840,1,0,0:0:0:0:
300,256,4161,2,0,L|372:250,2,71.2499964237214,2|0|2,0:0|0:0|0:0,0:0:0:0:
196,240,5232,5,2,0:0:0:0:
256,152,5554,1,0,0:0:0:0:
360,168,5875,2,0,L|432:162,2,71.2499964237214,2|0|2,0:0|0:0|0:0,0:0:0:0:
444,52,6947,6,0,L|450:123,1,71.2499964237214,2|0,0:0|0:0,0:0:0:0:
344,192,7590,2,0,L|351:121,1,71.2499964237214,2|0,0:0|0:0,0:0:0:0:
248,24,8232,1,2,0:0:0:0:
428,80,8661,6,0,L|421:155,1,71.2499964237214,2|0,0:0|0:0,0:0:0:0:
288,100,9304,2,0,L|294:175,1,71.2499964237214,2|0,0:0|0:0,0:0:0:0:
136,88,9947,1,2,0:0:0:0:
60,144,10161,1,0,0:0:0:0:
60,144,10268,1,0,0:0:0:0:
60,144,10375,5,2,0:0:0:0:
136,264,10697,1,0,0:0:0:0:
272,228,11018,2,0,L|342:234,2,71.2499964237214,2|0|0,0:0|0:0|0:0,0:0:0:0:
196,108,12090,5,2,0:0:0:0:
272,228,12411,1,0,0:0:0:0:
408,192,12733,2,0,L|478:198,2,71.2499964237214,2|0|0,0:0|0:0|0:0,0:0:0:0:
228,76,13804,5,2,0:0:0:0:
116,188,14125,1,0,0:0:0:0:
76,32,14447,1,2,0:0:0:0:
228,76,14768,1,0,0:0:0:0:
116,188,15090,1,2,0:0:0:0:
280,324,15518,5,2,0:0:0:0:
360,352,15840,1,0,0:0:0:0:
344,268,16161,1,2,0:0:0:0:
280,324,16482,1,0,0:0:0:0:
360,352,16804,1,2,0:0:0:0:
420,128,17232,5,2,0:0:0:0:
344,268,17554,1,0,0:0:0:0:
192,216,17875,2,0,L|86:226,2,106.87499871254,2|0|0,0:0|0:0|0:0,0:0:0:0:
336,200,18947,5,2,0:0:0:0:
260,340,19269,1,0,0:0:0:0:
108,288,19590,2,0,L|2:298,2,106.87499871254,2|0|0,0:0|0:0|0:0,0:0:0:0:
120,216,20447,1,2,0:0:0:0:
100,148,20661,5,2,0:0:0:0:
248,92,20982,1,0,0:0:0:0:
88,76,21304,1,2,0:0:0:0:
224,160,21625,1,0,0:0:0:0:
64,144,21947,1,2,0:0:0:0:
336,232,22375,5,2,0:0:0:0:
239,280,22696,1,0,0:0:0:0:
346,303,23018,1,2,0:0:0:0:
278,220,23340,1,0,0:0:0:0:
384,239,23661,1,2,0:0:0:0:
412,136,23875,1,0,0:0:0:0:
412,136,23982,1,0,0:0:0:0:
412,136,24090,5,2,0:0:0:0:
278,220,24411,1,0,0:0:0:0:
120,192,24732,2,0,P|120:244|140:296,2,106.87499871254,2|0|0,0:0|0:0|0:0,0:0:0:0:
296,72,25804,5,2,0:0:0:0:
344,168,26018,1,0,0:0:0:0:
432,224,26232,2,0,P|448:184|448:152,1,71.2499991416931,2|0,0:0|0:0,0:0:0:0:
396,64,26661,2,0,L|324:60,1,71.2499991416931,2|0,0:0|0:0,0:0:0:0:
216,64,27090,1,0,0:0:0:0:
272,156,27304,1,0,0:0:0:0:
224,288,27518,5,0,0:0:0:0:
272,292,27625,1,0,0:0:0:0:
320,292,27732,2,0,B|364:268|364:268|392:232,1,94.9999952316285
436,96,28161,1,0,0:0:0:0:
392,80,28268,1,0,0:0:0:0:
344,80,28375,2,0,L|248:88,1,94.9999952316285
192,220,28804,1,0,0:0:0:0:
192,220,28911,1,0,0:0:0:0:
192,220,29018,1,0,0:0:0:0:
316,288,29232,6,0,L|411:279,1,94.9999952316285
276,144,29661,2,0,L|181:153,1,94.9999952316285
68,308,30090,2,0,L|163:299,1,94.9999952316285
28,212,30518,1,0,0:0:0:0:
28,212,30625,1,0,0:0:0:0:
28,212,30732,1,0,0:0:0:0:
160,72,30947,6,0,L|211:76,1,47.4999976158143,2|0,0:0|0:0,0:0:0:0:
336,136,31161,2,0,L|285:132,1,47.4999976158143
148,160,31375,1,2,0:0:0:0:
336,136,31590,6,0,L|382:126,1,47.4999976158143
300,244,31804,2,0,L|253:253,1,47.4999976158143,2|0,0:0|0:0,0:0:0:0:
148,160,32018,1,0,0:0:0:0:
336,136,32232,5,2,0:0:0:0:
328,132,32340,1,0,0:0:0:0:
320,128,32447,1,0,0:0:0:0:
312,124,32554,1,0,0:0:0:0:
304,119,32661,6,0,L|253:115,1,47.4999976158143,2|0,0:0|0:0,0:0:0:0:
120,79,32875,2,0,L|168:84,1,47.4999976158143
300,48,33090,1,2,0:0:0:0:
172,223,33304,6,0,L|177:172,1,47.4999976158143
304,119,33518,2,0,L|300:169,1,47.4999976158143,2|0,0:0|0:0,0:0:0:0:
232,48,33732,1,0,0:0:0:0:
412,68,33947,6,0,L|366:90,1,47.4999976158143,8|0,0:3|0:0,0:0:0:0:
232,48,34161,2,0,L|278:26,1,47.4999976158143
312,176,34375,6,0,L|216:167,1,94.9999952316285,8|0,0:0|0:2,0:0:0:0:
28,196,34804,2,0,L|123:205,1,94.9999952316285,8|0,0:0|0:0,0:0:0:0:
156,20,35232,2,0,L|147:115,1,94.9999952316285,8|0,0:0|0:0,0:0:0:0:
196,348,35661,2,0,L|205:252,1,94.9999952316285,8|0,0:0|0:0,0:0:0:0:
328,106,36090,5,8,0:0:0:0:
402,229,36304,1,0,0:0:0:0:
369,42,36518,1,8,0:0:0:0:
347,280,36732,1,0,0:0:0:0:
314,94,36947,5,8,0:0:0:0:
416,254,37161,1,0,0:0:0:0:
353,25,37375,1,8,0:0:0:0:
364,310,37590,1,0,0:0:0:0:
304,80,37804,5,8,0:0:0:0:
261,60,37911,1,0,0:0:0:0:
214,56,38018,1,0,0:0:0:0:
168,68,38125,1,0,0:0:0:0:
132,100,38232,1,8,0:0:0:0:
116,144,38339,1,0,0:0:0:0:
80,172,38446,1,0,0:0:0:0:
32,176,38553,1,0,0:0:0:0:
0,212,38661,5,8,0:0:0:0:
4,260,38768,1,0,0:0:0:0:
40,292,38875,1,0,0:0:0:0:
88,284,38982,1,0,0:0:0:0:
120,248,39090,1,8,0:0:0:0:
164,236,39197,1,0,0:0:0:0:
212,240,39304,1,0,0:0:0:0:
256,260,39411,1,0,0:0:0:0:
256,192,39518,12,8,40804,0:3:0:0:
48,72,41232,6,0,L|171:82,1,123.499988147736,4|0,1:1|0:0,0:0:0:0:
244,240,41661,1,0,0:0:0:0:
204,20,41875,1,0,0:0:0:0:
304,192,42090,2,0,P|320:248|288:304,1,123.499988147736,8|0,0:0|0:0,0:0:0:0:
132,372,42518,1,4,0:3:0:0:
156,328,42625,1,0,0:0:0:0:
184,288,42732,1,0,0:0:0:0:
340,124,42947,5,4,0:3:0:0:
128,188,43161,1,4,0:3:0:0:
289,302,43375,1,4,0:3:0:0:
196,128,43590,1,0,0:0:0:0:
348,228,43804,2,0,B|411:253|411:207|468:235,1,123.499988147736,8|0,0:0|0:0,0:0:0:0:
340,124,44232,1,0,0:0:0:0:
292,120,44339,1,0,0:0:0:0:
245,117,44446,1,0,0:0:0:0:
128,244,44661,6,0,B|80:204|72:132|72:132|48:148|36:180,1,185.249982221604,4|0,0:3|0:0,0:0:0:0:
128,244,45090,2,0,B|256:248,1,123.499988147736
37,176,45518,2,0,B|0:240|36:296,1,123.499988147736,8|0,0:2|0:0,0:0:0:0:
184,128,45947,1,4,0:3:0:0:
200,80,46054,1,0,0:0:0:0:
184,32,46161,1,0,0:0:0:0:
37,176,46375,1,4,0:3:0:0:
251,247,46590,1,4,0:3:0:0:
48,328,46804,1,4,0:3:0:0:
48,328,47232,6,0,B|84:332|112:320|112:320|140:336|176:336,1,123.499988147736,10|0,0:2|0:0,0:0:0:0:
64,196,47661,2,8,P|64:160|69:133,1,61.7499940738681,4|8,0:3|0:3,0:3:0:0:
216,140,47875,2,8,P|216:175|210:202,1,61.7499940738681,4|8,0:3|0:3,0:3:0:0:
112,44,48090,6,0,L|240:52,1,123.499988147736,4|0,1:1|0:0,0:0:0:0:
468,32,48518,2,0,L|340:24,1,123.499988147736,0|0,0:0|1:0,0:0:0:0:
196,116,48947,2,0,P|204:184|236:232,1,123.499988147736,8|0,0:0|0:0,0:0:0:0:
372,368,49375,1,4,0:3:0:0:
372,320,49482,1,0,0:0:0:0:
348,276,49589,1,0,0:0:0:0:
200,368,49804,5,4,0:3:0:0:
296,168,50018,1,4,0:3:0:0:
142,255,50232,1,4,0:3:0:0:
292,340,50447,1,0,0:0:0:0:
188,200,50661,2,0,B|154:229|111:237|111:237|127:253|145:256,1,123.499988147736,8|0,0:0|0:0,0:0:0:0:
292,340,51090,1,0,0:0:0:0:
340,344,51197,1,0,0:0:0:0:
388,328,51304,1,0,0:0:0:0:
464,144,51518,6,0,B|368:144|328:108|328:108|376:88,1,185.249982221604,4|0,0:3|0:0,0:0:0:0:
464,144,51947,2,0,P|477:198|460:264,1,123.499988147736
244,216,52375,2,0,P|304:196|368:196,1,123.499988147736,8|0,0:0|0:0,0:0:0:0:
172,340,52804,1,4,0:3:0:0:
129,312,52911,1,0,0:0:0:0:
109,265,53018,1,0,0:0:0:0:
288,132,53232,5,0,0:0:0:0:
24,216,53554,1,0,0:0:0:0:
232,36,53875,1,0,0:0:0:0:
228,220,54090,2,0,P|312:236|388:164,1,185.249982221604,0|8,0:0|0:3,0:0:0:0:
364,68,54518,2,0,P|327:78|300:104,1,61.7499940738681,4|8,0:3|0:3,0:3:0:0:
168,144,54732,2,0,P|141:171|130:207,1,61.7499940738681,4|8,0:3|0:3,0:3:0:0:
64,304,54947,6,0,B|112:324|150:308|150:308|196:312|196:312|240:288,1,185.249982221604,4|0,1:1|0:0,0:0:0:0:
336,260,55375,2,0,P|303:210|238:188,1,123.499988147736
348,384,55804,2,0,P|400:368|448:316,1,123.499988147736,8|0,0:0|0:0,0:0:0:0:
240,287,56232,1,4,0:3:0:0:
208,323,56339,1,0,0:0:0:0:
188,367,56446,1,0,0:0:0:0:
24,216,56661,5,4,0:3:0:0:
240,287,56875,1,4,0:3:0:0:
104,116,57090,2,0,B|132:140|140:164|140:164|168:144|212:136,1,123.499988147736,4|0,0:3|0:0,0:0:0:0:
388,84,57518,2,0,P|400:144|380:208,1,123.499988147736,8|0,0:0|0:0,0:0:0:0:
240,287,57947,1,0,0:0:0:0:
216,243,58054,1,0,0:0:0:0:
212,195,58161,1,0,0:0:0:0:
388,84,58375,22,0,B|417:143|416:195|416:195|449:190|473:153,1,185.249982221604,4|0,0:3|0:0,0:0:0:0:
388,84,58804,2,0,B|372:92|372:92|340:52|276:48,1,123.499988147736
470,156,59232,2,0,P|492:97|472:37,1,123.499988147736,8|0,0:0|0:0,0:0:0:0:
320,164,59661,2,0,P|332:220|372:272,1,123.499988147736,4|0,0:3|0:0,0:0:0:0:
470,156,60090,5,4,0:3:0:0:
279,48,60304,1,4,0:3:0:0:
84,156,60518,1,4,0:3:0:0:
84,156,60947,2,0,B|63:93|99:93|80:32,1,123.499988147736,10|0,0:0|0:0,0:0:0:0:
216,212,61375,2,0,P|202:243|176:272,1,61.7499940738681,4|8,0:3|0:3,0:3:0:0:
44,312,61590,2,0,P|57:343|79:365,1,61.7499940738681,4|8,0:3|0:3,0:3:0:0:
224,340,61804,6,0,P|284:336|344:316,1,123.499988147736,4|0,1:1|0:0,0:0:0:0:
456,184,62232,2,0,B|492:272|492:272|508:248,1,123.499988147736,0|0,0:0|1:0,0:0:0:0:
344,140,62661,2,0,P|284:144|224:164,1,123.499988147736,8|0,0:0|0:0,0:0:0:0:
100,320,63090,1,4,0:3:0:0:
120,276,63197,1,0,0:0:0:0:
156,244,63304,1,0,0:0:0:0:
16,200,63518,5,4,0:3:0:0:
192,332,63732,1,4,0:3:0:0:
128,172,63947,1,4,0:3:0:0:
100,320,64161,1,0,0:0:0:0:
252,124,64375,2,0,B|264:168|248:204|248:204|292:184,1,123.499988147736,8|0,0:0|0:0,0:0:0:0:
160,72,64804,1,0,0:0:0:0:
160,72,64911,1,0,0:0:0:0:
160,72,65018,1,0,0:0:0:0:
240,280,65232,5,4,0:3:0:0:
240,280,65447,1,0,0:0:0:0:
488,172,65661,1,0,0:0:0:0:
488,172,65875,1,0,0:0:0:0:
220,120,66090,1,8,0:0:0:0:
220,120,66304,1,0,0:0:0:0:
404,320,66518,1,4,0:3:0:0:
404,320,66732,1,0,0:0:0:0:
284,160,66947,5,0,0:0:0:0:
416,224,67161,1,0,0:0:0:0:
268,236,67375,1,0,0:0:0:0:
388,148,67590,1,0,0:0:0:0:
304,324,67804,2,0,P|212:304|180:220,1,185.249982221604,2|8,0:0|0:3,0:0:0:0:
240,52,68232,2,0,P|272:44|304:48,1,61.7499940738681,4|8,0:3|0:3,0:3:0:0:
328,231,68447,2,0,P|296:239|264:235,1,61.7499940738681,4|8,0:3|0:3,0:3:0:0:
432,148,68661,5,4,1:1:0:0:
432,148,69090,5,0,0:0:0:0:
288,12,69304,1,0,0:0:0:0:
324,208,69518,1,8,0:0:0:0:
416,28,69732,1,0,0:0:0:0:
236,116,69947,1,4,0:3:0:0:
236,116,70375,5,4,0:3:0:0:
72,232,70590,1,4,0:3:0:0:
264,280,70804,2,0,B|388:288,1,123.499988147736,4|0,0:3|0:0,0:0:0:0:
404,92,71232,2,0,B|335:195,1,123.499988147736,8|0,0:0|0:0,0:0:0:0:
496,312,71661,2,0,B|440:200,1,123.499988147736
264,280,72090,1,4,0:3:0:0:
264,280,72518,5,0,0:0:0:0:
288,60,72732,1,0,0:0:0:0:
280,284,72947,1,8,0:0:0:0:
264,64,73161,1,0,0:0:0:0:
292,284,73375,1,4,0:3:0:0:
292,288,73804,5,4,0:3:0:0:
72,268,74018,1,4,0:3:0:0:
180,76,74232,2,0,B|276:84|276:84|260:56,1,123.499988147736,4|0,0:3|0:0,0:0:0:0:
64,40,74661,2,0,B|44:100|84:100|64:168,1,123.499988147736,8|0,0:0|0:0,0:0:0:0:
264,172,75090,2,0,L|257:233,1,61.7499940738681,4|8,0:3|0:3,0:3:0:0:
160,344,75304,2,0,L|165:281,1,61.7499940738681,4|8,0:3|0:3,0:3:0:0:
264,172,75518,1,4,1:1:0:0:
264,172,75947,5,0,0:0:0:0:
409,155,76161,1,0,0:0:0:0:
167,102,76375,1,8,0:0:0:0:
340,87,76590,1,0,0:0:0:0:
111,180,76804,1,4,0:3:0:0:
112,180,77232,5,4,0:3:0:0:
296,304,77447,1,4,0:3:0:0:
340,88,77661,2,0,P|280:112|239:166,1,123.499988147736,4|0,0:3|0:0,0:0:0:0:
372,336,78090,2,0,P|380:272|353:209,1,123.499988147736,8|0,0:0|0:0,0:0:0:0:
140,236,78518,2,0,P|188:276|259:282,1,123.499988147736
340,88,78947,1,4,0:3:0:0:
140,236,79375,5,0,0:0:0:0:
12,84,79590,1,0,0:0:0:0:
208,56,79804,1,8,0:0:0:0:
96,216,80018,1,0,0:0:0:0:
12,36,80232,1,4,0:3:0:0:
208,56,80447,1,0,0:0:0:0:
208,56,80661,6,0,L|335:67,1,123.499988147736
476,160,81090,2,0,L|348:148,1,123.499988147736
184,124,81518,2,0,P|192:192|172:256,1,123.499988147736
48,360,81947,2,0,P|40:292|60:228,1,123.499988147736
176,364,82375,5,0,0:0:0:0:
256,192,86232,12,0,89018,0:0:0:0:
132,112,89232,6,0,P|161:67|156:10,1,106.87499871254,2|0,0:0|0:0,0:0:0:0:
47,130,89875,2,0,P|74:178|124:200,1,106.87499871254,2|0,0:0|0:0,0:0:0:0:
76,45,90518,1,2,0:0:0:0:
209,211,90947,6,0,P|202:168|160:118,1,106.87499871254,2|0,0:0|0:0,0:0:0:0:
157,279,91590,2,0,P|197:295|261:283,1,106.87499871254,2|0,0:0|0:0,0:0:0:0:
120,200,92232,1,2,0:0:0:0:
280,81,92661,5,2,0:0:0:0:
436,109,92982,1,0,0:0:0:0:
282,154,93304,1,2,0:0:0:0:
440,180,93625,1,0,0:0:0:0:
344,52,93947,1,2,0:0:0:0:
192,204,94375,5,2,0:0:0:0:
34,178,94696,1,0,0:0:0:0:
188,133,95018,1,2,0:0:0:0:
32,105,95339,1,0,0:0:0:0:
124,236,95661,2,0,P|136:252|148:264,1,35.6249995708466,2|0,0:0|0:0,0:0:0:0:
255,256,95875,2,0,P|272:261|289:263,1,35.6249995708466,2|0,0:0|0:0,0:0:0:0:
396,244,96090,5,2,0:0:0:0:
395,244,96411,1,0,0:0:0:0:
315,104,96732,1,2,0:0:0:0:
255,256,97054,1,0,0:0:0:0:
383,160,97375,1,2,0:0:0:0:
196,52,97804,5,2,0:0:0:0:
196,52,98125,1,0,0:0:0:0:
116,192,98446,1,2,0:0:0:0:
56,40,98768,1,0,0:0:0:0:
184,136,99089,1,2,0:0:0:0:
312,200,99304,5,0,0:0:0:0:
312,200,99411,1,0,0:0:0:0:
312,200,99518,1,2,0:0:0:0:
272,44,99840,1,0,0:0:0:0:
388,156,100161,2,0,P|400:204|376:260,2,106.87499871254,2|0|0,0:0|0:0|0:0,0:0:0:0:
256,324,101232,5,2,0:0:0:0:
156,364,101447,1,0,0:0:0:0:
56,332,101661,2,0,L|49:248,1,71.2499991416931,2|0,0:0|0:0,0:0:0:0:
104,168,102090,2,0,B|140:168|140:168|192:176,1,71.2499991416931,2|0,0:0|0:0,0:0:0:0:
188,280,102518,1,0,0:0:0:0:
292,304,102732,1,0,0:0:0:0:
420,240,102947,6,0,P|428:192|420:136,1,94.9999952316285
320,48,103375,2,0,P|312:96|320:152,1,94.9999952316285
356,280,103804,2,0,L|260:288,1,94.9999952316285
156,192,104232,2,0,L|251:183,1,94.9999952316285
360,92,104661,6,0,P|320:60|272:44,1,94.9999952316285
152,112,105090,2,0,L|56:120,1,94.9999952316285
0,252,105518,2,0,L|95:243,1,94.9999952316285
224,192,105947,2,0,P|212:140|212:96,1,94.9999952316285
224,192,106375,6,0,L|272:196,1,47.4999976158143,2|0,0:0|0:0,0:0:0:0:
416,188,106590,2,0,L|364:184,1,47.4999976158143
260,108,106804,1,2,0:0:0:0:
340,280,107018,6,0,L|297:260,1,47.4999976158143
180,171,107232,2,0,L|223:191,1,47.4999976158143,2|0,0:0|0:0,0:0:0:0:
369,196,107447,1,0,0:0:0:0:
132,204,107661,6,0,P|128:232|132:264,1,47.4999976158143,2|0,0:0|0:0,0:0:0:0:
252,324,107875,2,0,P|256:296|252:264,1,47.4999976158143
132,204,108090,6,0,P|152:176|172:160,1,47.4999976158143,2|0,0:0|0:0,0:0:0:0:
56,264,108304,2,0,P|25:279|0:283,1,47.4999976158143
132,204,108518,1,2,0:0:0:0:
320,176,108732,6,0,P|294:198|270:209,1,47.4999976158143
176,108,108946,2,0,P|209:102|235:105,1,47.4999976158143,2|0,0:0|0:0,0:0:0:0:
364,120,109161,1,0,0:0:0:0:
252,272,109375,6,0,P|221:287|196:291,1,47.4999976158143,8|0,0:3|0:0,0:0:0:0:
274,165,109589,2,0,P|302:169|322:177,1,47.4999976158143
356,264,109804,5,8,0:0:0:0:
168,240,110018,1,0,0:0:0:0:
216,324,110232,1,8,0:0:0:0:
240,116,110447,1,0,0:0:0:0:
156,164,110661,5,8,0:0:0:0:
384,148,110875,1,0,0:0:0:0:
312,88,111090,1,8,0:0:0:0:
360,332,111304,1,0,0:0:0:0:
480,256,111518,5,8,0:0:0:0:
220,200,111732,1,0,0:0:0:0:
280,328,111947,1,8,0:0:0:0:
384,64,112161,1,0,0:0:0:0:
164,148,112375,5,8,0:0:0:0:
468,128,112590,1,0,0:0:0:0:
244,44,112804,1,8,0:0:0:0:
352,348,113018,1,0,0:0:0:0:
212,340,113232,5,8,0:0:0:0:
224,292,113339,1,0,0:0:0:0:
247,254,113446,1,0,0:0:0:0:
288,228,113554,1,0,0:0:0:0:
336,216,113661,5,8,0:0:0:0:
384,224,113768,1,0,0:0:0:0:
428,204,113875,1,0,0:0:0:0:
452,164,113982,1,0,0:0:0:0:
456,116,114090,5,8,0:0:0:0:
436,72,114196,1,0,0:0:0:0:
400,40,114303,1,0,0:0:0:0:
352,32,114410,1,0,0:0:0:0:
308,44,114518,5,8,0:0:0:0:
276,76,114625,1,0,0:0:0:0:
248,116,114732,1,0,0:0:0:0:
200,128,114840,1,0,0:0:0:0:
156,112,114946,5,2,0:0:0:0:
256,192,115054,12,0,116447,0:0:0:0:
264,276,116661,5,4,0:1:0:0:
452,220,116875,1,0,0:0:0:0:
204,224,117090,1,0,0:0:0:0:
392,276,117304,1,0,0:0:0:0:
100,320,117518,1,8,0:0:0:0:
328,224,117732,1,0,0:0:0:0:
132,252,117947,1,4,0:3:0:0:
132,252,118375,5,4,0:3:0:0:
304,108,118590,1,4,0:3:0:0:
212,252,118804,1,4,0:3:0:0:
268,40,119018,1,0,0:0:0:0:
436,84,119232,2,0,B|428:116|412:136|412:136|476:152,1,123.499988147736,8|0,0:0|0:0,0:0:0:0:
256,184,119661,2,0,B|296:180|316:168|316:168|328:196|356:212,1,123.499988147736,4|0,0:3|0:0,0:0:0:0:
192,272,120090,5,4,0:3:0:0:
100,124,120304,1,0,0:0:0:0:
252,40,120518,2,0,L|256:8,4,30.8749970369341
100,124,120947,2,0,B|120:156|184:172|184:172|172:204,1,123.499988147736,8|0,0:0|0:0,0:0:0:0:
4,96,121375,2,0,B|28:28|100:24,1,123.499988147736,4|0,0:3|0:0,0:0:0:0:
248,148,121804,5,4,0:3:0:0:
152,320,122018,1,4,0:3:0:0:
350,325,122232,1,4,0:3:0:0:
350,325,122661,2,0,B|392:280|392:232|368:192|324:192|296:152|296:112|328:68,1,284.999996566773
325,71,123304,1,0,0:0:0:0:
325,71,123518,5,0,0:0:0:0:
136,108,123732,1,0,0:0:0:0:
380,148,123947,1,0,0:0:0:0:
204,64,124161,1,0,0:0:0:0:
476,40,124375,1,8,0:0:0:0:
264,112,124590,1,0,0:0:0:0:
460,120,124804,1,4,0:3:0:0:
460,120,125232,5,4,0:3:0:0:
296,232,125447,1,4,0:3:0:0:
464,192,125661,1,4,0:3:0:0:
288,56,125875,1,0,0:0:0:0:
196,228,126090,2,0,B|184:264|156:284|156:284|204:308,1,123.499988147736,8|0,0:0|0:0,0:0:0:0:
352,144,126518,2,0,B|332:144|316:152|316:152|292:112|252:96,1,123.499988147736,4|0,0:3|0:0,0:0:0:0:
196,228,126947,5,4,0:3:0:0:
196,228,127161,1,0,0:0:0:0:
372,284,127375,2,0,L|375:319,4,30.8749970369341,4|0|0|0|0,0:3|0:0|0:0|0:0|0:0,0:0:0:0:
252,96,127804,2,0,B|272:160|320:192|324:128,1,123.499988147736,8|0,0:0|0:0,0:0:0:0:
136,16,128232,2,0,B|108:60|112:104|112:104|68:112,1,123.499988147736,4|0,0:3|0:0,0:0:0:0:
232,272,128661,5,4,0:3:0:0:
404,260,128875,1,4,0:3:0:0:
352,88,129090,1,4,0:3:0:0:
352,88,129518,2,0,P|315:93|289:108,1,61.7499940738681,4|8,0:3|0:3,0:3:0:0:
240,244,129732,2,0,P|276:238|302:223,1,61.7499940738681,4|8,0:3|0:3,0:3:0:0:
352,88,129947,2,0,B|344:32|344:32|304:88|256:120|184:132,1,242.249992461205
144,140,130375,6,0,L|20:129,1,123.499988147736,4|0,1:1|0:0,0:0:0:0:
196,224,130804,2,0,L|319:234,1,123.499988147736,0|0,0:0|1:0,0:0:0:0:
232,56,131232,2,0,P|172:100|136:152,1,123.499988147736,8|0,0:0|0:0,0:0:0:0:
36,316,131661,1,4,0:3:0:0:
36,268,131768,1,0,0:0:0:0:
64,224,131875,1,0,0:0:0:0:
244,140,132090,5,4,0:3:0:0:
108,288,132304,1,4,0:3:0:0:
320,348,132518,1,4,0:3:0:0:
428,212,132732,1,0,0:0:0:0:
428,212,132947,2,0,B|360:175|360:217|298:186,1,123.499988147736,8|0,0:0|0:0,0:0:0:0:
508,92,133375,2,0,B|500:140|500:140|468:108|416:108,1,123.499988147736
248,40,133804,5,4,0:3:0:0:
248,40,134018,1,0,0:0:0:0:
248,40,134232,2,0,L|251:0,4,30.8749970369341
472,44,134661,2,0,B|480:92|456:132|456:132|424:100,1,123.499988147736,8|0,0:0|0:0,0:0:0:0:
212,124,135090,2,0,B|244:136|276:128|276:128|296:156|300:192,1,123.499988147736,4|0,0:3|0:0,0:0:0:0:
320,376,135518,1,4,0:3:0:0:
228,204,135732,1,4,0:3:0:0:
436,280,135947,1,4,0:3:0:0:
436,280,136375,6,0,B|400:316|360:320|360:320|344:288,1,123.499988147736,10|0,0:0|0:0,0:0:0:0:
468,152,136804,1,4,0:3:0:0:
468,104,136911,1,8,0:3:0:0:
440,64,137018,1,4,0:3:0:0:
392,52,137125,1,8,0:3:0:0:
344,68,137232,5,4,1:1:0:0:
232,216,137446,1,0,0:0:0:0:
396,128,137660,1,0,0:0:0:0:
212,144,137875,1,0,0:0:0:0:
444,192,138090,2,0,P|476:124|452:72,1,123.499988147736,8|0,0:0|0:0,0:0:0:0:
252,208,138518,1,4,0:3:0:0:
204,220,138625,1,0,0:0:0:0:
160,200,138732,1,0,0:0:0:0:
396,128,138947,5,4,0:3:0:0:
212,144,139161,1,4,0:3:0:0:
368,268,139375,1,4,0:3:0:0:
192,360,139590,1,0,0:0:0:0:
272,264,139804,2,0,B|264:320|304:320|288:384,1,123.499988147736,8|0,0:0|0:0,0:0:0:0:
328,164,140232,2,0,B|264:128|200:168,1,123.499988147736
52,228,140661,5,4,0:3:0:0:
140,344,140875,1,0,0:0:0:0:
140,344,141090,2,0,L|136:379,4,30.8749970369341
100,136,141518,2,0,B|116:192|116:192|152:184|188:196,1,123.499988147736,8|0,0:0|0:0,0:0:0:0:
60,8,141947,2,0,B|8:28|0:72|0:72|44:68,1,123.499988147736,4|0,0:3|0:0,0:0:0:0:
228,100,142375,5,0,0:0:0:0:
268,128,142482,1,0,0:0:0:0:
288,172,142590,1,0,0:0:0:0:
204,324,142804,2,0,L|206:355,4,30.8749970369341,0|0|0|0|0,2:0|2:0|2:0|2:0|2:0,2:0:0:0:
116,176,143232,1,0,0:0:0:0:
116,176,143447,1,0,0:0:0:0:
288,172,143661,1,4,0:3:0:0:
336,180,143768,1,0,0:0:0:0:
376,207,143875,6,0,L|439:202,2,61.7499940738681,8|0|4,0:3|0:0|1:1,0:0:0:0:
