osu file format v14

[General]
AudioFilename: Aero Chord & Klaypex - Be Free.mp3
AudioLeadIn: 1700
PreviewTime: 39868
Countdown: 0
SampleSet: Soft
StackLeniency: 0.7
Mode: 0
LetterboxInBreaks: 0
WidescreenStoryboard: 0

[Editor]
Bookmarks: 13796,82367,89224
DistanceSpacing: 1.2
BeatDivisor: 4
GridSize: 4
TimelineZoom: 1.1

[Metadata]
Title:Be Free
TitleUnicode:Be Free
Artist:Aero Chord & Klaypex
ArtistUnicode:Aero Chord & Klaypex
Creator:Cagrux
Version:Easy
Source:
Tags:monstercat trap bounce bass electronic edm
BeatmapID:865094
BeatmapSetID:397760

[Difficulty]
HPDrainRate:2
CircleSize:3
OverallDifficulty:2.5
ApproachRate:2
SliderMultiplier:0.89999990463257
SliderTickRate:1

[Events]
//Background and Video events
0,0,"bg.jpg",0,0
//Break Periods
2,82575,87672
//Storyboard Layer 0 (Background)
//Storyboard Layer 1 (Fail)
//Storyboard Layer 2 (Pass)
//Storyboard Layer 3 (Foreground)
//Storyboard Sound Samples

[TimingPoints]
90,428.571428571429,4,2,0,45,1,0
90,-100,4,2,0,45,0,0
13804,-100,4,2,0,65,0,0
41232,-100,4,2,0,80,0,1
53232,-100,4,2,0,65,0,0
54947,-100,4,2,0,80,0,1
68661,-100,4,2,0,65,0,0
116661,-100,4,2,0,80,0,1
129947,-100,4,2,0,65,0,0
130375,-100,4,2,0,80,0,1
144090,-100,4,2,0,65,0,0

[Colours]
Combo1 : 167,79,255
Combo2 : 0,128,255
Combo3 : 0,255,255
Combo4 : 255,128,255

[HitObjects]
72,160,90,6,0,B|177:100|260:88|260:88|320:128,1,269.999971389771,0|2,0:0|0:0,0:0:0:0:
316,125,3518,6,0,B|262:84|206:68|126:72|126:72|146:140,1,269.999971389771,2|0,0:0|0:0,0:0:0:0:
146,244,5232,2,0,B|126:309|126:309|206:313|262:297|316:256,1,269.999971389771,2|0,0:0|0:0,0:0:0:0:
422,240,6947,6,0,B|414:200|390:180|390:180|402:112|342:44|262:72,1,269.999971389771,2|2,0:0|0:0,0:0:0:0:
298,160,10375,6,0,P|281:123|256:220,1,269.999971389771,2|0,0:0|0:0,0:0:0:0:
176,308,12090,2,0,B|101:289|45:179|103:85,1,269.999971389771,2|0,0:0|0:0,0:0:0:0:
201,35,13804,6,0,B|269:19|269:19|377:59|385:167,1,269.999971389771,2|2,0:0|0:0,0:0:0:0:
158,257,17232,6,0,B|78:145|78:145|142:145|206:105,1,269.999971389771,2|0,0:0|0:0,0:0:0:0:
310,106,18947,2,0,B|370:144|434:144|434:144|354:256,1,269.999971389771,2|0,0:0|0:0,0:0:0:0:
260,308,20661,6,0,B|193:304|193:304|232:200|164:200|204:104,1,269.999971389771,2|2,0:0|0:0,0:0:0:0:
336,112,24090,6,0,B|340:172|340:172|404:228|372:296|372:296|308:332,1,269.999971389771,2|0,0:0|0:0,0:0:0:0:
202,330,25804,2,0,B|140:295|140:295|108:227|172:171|172:171|176:111,1,269.999971389771,2|0,0:0|0:0,0:0:0:0:
264,48,27518,6,0,L|355:56,1,89.999990463257
432,132,28375,2,0,P|432:176|412:224,1,89.999990463257
308,232,29232,2,0,L|218:224,1,89.999990463257
131,159,30090,2,8,B|82:162|82:162|40:172,1,89.999990463257,0|8,0:0|0:3,0:0:0:0:
24,280,30947,6,0,L|114:288,1,89.999990463257
216,324,31804,2,0,L|306:316,1,89.999990463257
404,276,32661,2,0,P|408:231|395:188,1,89.999990463257
320,112,33518,2,0,P|279:92|234:90,1,89.999990463257,0|0,0:0|0:3,0:0:0:0:
136,136,34375,6,0,B|92:140|92:140|40:152,1,89.999990463257,8|8,0:0|0:0,0:0:0:0:
56,260,35232,1,8,0:0:0:0:
144,324,35661,1,8,0:0:0:0:
252,304,36090,2,0,L|256:208,1,89.999990463257,8|8,0:0|0:0,0:0:0:0:
364,232,36947,2,0,L|368:136,1,89.999990463257,8|8,0:0|0:0,0:0:0:0:
256,192,37804,12,0,39518,0:0:0:0:
148,300,41232,6,0,P|80:232|88:144,1,179.999980926514,4|8,1:1|0:0,0:0:0:0:
184,196,42518,1,4,0:3:0:0:
264,268,42947,2,0,P|284:228|288:176,2,89.999990463257,4|4|8,0:3|0:3|0:0,0:0:0:0:
160,80,44661,6,0,B|200:60|200:60|240:60|240:60|280:36|336:52,1,179.999980926514,4|8,0:3|0:0,0:0:0:0:
292,152,45947,1,4,0:3:0:0:
304,260,46375,2,4,P|256:256|212:224,1,89.999990463257,4|4,0:3|0:3,0:3:0:0:
140,160,47232,1,10,0:0:0:0:
336,68,48090,6,0,B|356:104|360:132|360:132|401:89|466:102,1,179.999980926514,4|8,1:1|0:0,0:0:0:0:
436,204,49375,1,4,0:3:0:0:
484,300,49804,2,4,P|428:312|384:296,1,89.999990463257,4|4,0:3|0:3,0:3:0:0:
332,220,50661,1,8,0:0:0:0:
152,120,51518,6,8,B|120:144|112:184|112:184|64:196|36:256,1,179.999980926514,4|8,0:3|0:0,0:0:0:0:
144,288,52804,1,4,0:3:0:0:
252,292,53232,2,0,B|250:240|218:210|218:210|256:180|256:124,1,179.999980926514,0|8,0:0|0:0,0:0:0:0:
452,48,54947,6,0,P|480:132|468:228,1,179.999980926514,4|8,1:1|0:0,0:0:0:0:
368,188,56232,1,4,0:3:0:0:
268,220,56661,2,0,B|224:216|224:216|176:216,2,89.999990463257,4|4|8,0:3|0:3|0:0,0:0:0:0:
352,288,57947,1,0,0:0:0:0:
256,336,58375,6,0,B|168:308|168:364|80:324,1,179.999980926514,4|8,0:3|0:0,0:0:0:0:
136,232,59661,1,4,0:3:0:0:
200,144,60090,2,0,P|160:128|104:128,2,89.999990463257,4|4|10,0:3|0:3|0:0,0:0:0:0:
304,176,61375,1,4,0:3:0:0:
408,204,61804,6,0,P|428:112|368:36,1,179.999980926514,4|8,1:1|0:0,0:0:0:0:
324,136,63090,1,4,0:3:0:0:
308,244,63518,2,0,P|340:288|376:308,2,89.999990463257,4|4|8,0:3|0:3|0:0,0:0:0:0:
288,136,64804,1,0,0:0:0:0:
180,124,65232,6,0,P|148:160|132:208,1,89.999990463257,4|0,0:3|0:0,0:0:0:0:
172,300,66090,2,0,L|263:297,1,89.999990463257,8|4,0:0|0:3,0:0:0:0:
364,260,66947,2,0,B|368:212|368:212|368:168,1,89.999990463257
336,68,67804,1,0,0:0:0:0:
236,28,68232,1,8,0:3:0:0:
168,112,68661,6,0,P|160:176|236:260,1,179.999980926514,4|8,1:1|0:0,0:0:0:0:
264,156,69947,1,4,0:3:0:0:
244,52,70375,2,0,P|300:56|332:76,1,89.999990463257,4|4,0:3|0:3,0:0:0:0:
420,132,71232,1,8,0:0:0:0:
356,220,71661,1,0,0:0:0:0:
252,252,72090,6,0,B|268:292|308:316|308:316|216:344,1,179.999980926514,4|8,0:3|0:0,0:0:0:0:
132,280,73375,1,4,0:3:0:0:
176,180,73804,2,4,P|220:152|264:148,1,89.999990463257,4|4,0:3|0:3,0:3:0:0:
252,252,74661,1,8,0:0:0:0:
100,96,75518,6,0,P|180:48|272:40,1,179.999980926514,4|8,1:1|0:0,0:0:0:0:
360,88,76804,2,0,L|452:84,2,89.999990463257,4|4|4,0:3|0:3|0:3,0:0:0:0:
268,140,78090,1,8,0:0:0:0:
392,316,78947,6,0,B|316:280|296:336|215:305,1,179.999980926514,4|8,0:3|0:0,0:0:0:0:
132,240,80232,1,4,0:3:0:0:
256,192,80661,12,0,82375,0:0:0:0:
243,61,89232,6,0,P|142:128|154:276,1,269.999971389771,2|2,0:0|0:0,0:0:0:0:
312,288,92661,6,0,B|380:276|380:276|380:160|308:96,1,269.999971389771,2|0,0:0|0:0,0:0:0:0:
204,96,94375,2,0,B|132:160|132:276|132:276|200:288,1,269.999971389771,2|0,0:0|0:0,0:0:0:0:
308,308,96090,6,0,B|368:176|276:176|336:40,1,269.999971389771,2|2,0:0|0:0,0:0:0:0:
132,240,99518,6,0,B|196:280|256:236|256:236|320:280|400:236,1,269.999971389771,2|0,0:0|0:0,0:0:0:0:
388,136,101232,2,0,B|321:99|257:143|257:143|200:100|132:136,1,269.999971389771,2|0,0:0|0:0,0:0:0:0:
192,228,102947,6,0,P|216:264|256:284,1,89.999990463257
364,284,103804,2,0,P|408:260|429:224,1,89.999990463257
432,120,104661,2,0,P|407:83|367:63,1,89.999990463257
260,64,105518,2,0,P|216:88|194:123,1,89.999990463257,0|8,0:0|0:3,0:0:0:0:
220,224,106375,6,0,P|194:260|154:280,1,89.999990463257
48,256,107232,2,0,L|44:160,1,89.999990463257
92,68,108090,1,0,0:0:0:0:
196,36,108518,1,0,0:0:0:0:
296,80,108947,2,0,B|340:88|340:88|385:88,1,89.999990463257,0|0,0:0|0:3,0:0:0:0:
440,184,109804,6,0,P|412:224|372:248,1,89.999990463257,8|8,0:0|0:0,0:0:0:0:
272,220,110661,2,0,L|176:216,1,89.999990463257,8|8,0:0|0:0,0:0:0:0:
76,188,111518,2,0,B|76:140|76:140|84:96,1,89.999990463257,8|8,0:0|0:0,0:0:0:0:
176,44,112375,1,8,0:0:0:0:
284,52,112804,1,8,0:0:0:0:
256,192,113232,12,0,114947,0:0:0:0:
280,204,116661,6,0,P|328:188|372:64,1,179.999980926514,4|8,1:1|0:0,0:0:0:0:
268,96,117947,1,4,0:3:0:0:
184,164,118375,2,4,P|173:200|185:260,1,89.999990463257,4|4,0:3|0:3,0:3:0:0:
264,312,119232,1,8,0:0:0:0:
368,276,119661,1,0,0:0:0:0:
432,188,120090,6,0,B|384:156|332:172,1,89.999990463257,4|0,0:3|0:0,0:0:0:0:
264,236,120947,2,0,L|168:227,2,89.999990463257,8|4|4,0:0|0:3|0:3,0:0:0:0:
368,264,122232,1,4,0:3:0:0:
444,188,122661,2,0,P|432:104|344:56,1,179.999980926514
248,56,123947,5,0,0:0:0:0:
144,88,124375,1,8,0:0:0:0:
68,164,124804,1,4,0:3:0:0:
136,248,125232,2,0,P|95:266|50:269,2,89.999990463257,4|4|8,0:3|0:3|0:0,0:0:0:0:
208,168,126518,1,0,0:0:0:0:
268,76,126947,6,0,L|368:84,1,89.999990463257,4|0,0:3|0:0,0:0:0:0:
464,72,127804,2,0,P|456:124|460:168,1,89.999990463257,8|4,0:0|0:3,0:0:0:0:
364,216,128661,2,4,B|356:172|356:172|308:168,1,89.999990463257,4|4,0:3|0:3,0:3:0:0:
204,156,129518,1,4,0:3:0:0:
60,320,130375,6,0,L|248:304,1,179.999980926514,4|8,1:1|0:0,0:0:0:0:
308,224,131661,1,4,0:3:0:0:
384,300,132090,2,4,B|408:264|408:264|416:216,1,89.999990463257,4|4,0:3|0:3,0:3:0:0:
356,128,132947,1,8,0:0:0:0:
164,32,133804,6,0,B|120:120|188:120|152:212,1,179.999980926514,4|8,0:3|0:0,0:0:0:0:
120,308,135090,1,4,0:3:0:0:
220,344,135518,2,4,B|264:352|264:352|312:336,1,89.999990463257,4|4,0:3|0:3,0:3:0:0:
256,240,136375,1,10,0:0:0:0:
108,80,137232,6,0,B|137:48|137:48|286:32,1,179.999980926514,4|8,1:1|0:0,0:0:0:0:
376,68,138518,1,4,0:3:0:0:
295,137,138947,2,0,P|328:164|392:172,2,89.999990463257,4|4|8,0:3|0:3|0:0,0:0:0:0:
104,32,140661,6,0,B|56:36|56:36|28:96|40:168,1,179.999980926514,4|8,0:3|0:0,0:0:0:0:
96,256,141947,1,4,0:3:0:0:
200,288,142375,2,0,P|252:288|296:276,1,89.999990463257
376,216,143232,2,0,L|468:212,2,89.999990463257,0|8|4,0:0|0:3|1:1,0:0:0:0:
