osu file format v14

[General]
AudioFilename: Adventure Club - Fade (feat Zak Waters).mp3
AudioLeadIn: 0
PreviewTime: 57911
Countdown: 0
SampleSet: Soft
StackLeniency: 0.5
Mode: 0
LetterboxInBreaks: 0
WidescreenStoryboard: 0

[Editor]
Bookmarks: 14976,88409,102737,131394,160050
DistanceSpacing: 1.1
BeatDivisor: 6
GridSize: 4
TimelineZoom: 1

[Metadata]
Title:Fade (feat. Zak Waters)
TitleUnicode:Fade (feat. Zak Waters)
Artist:Adventure Club
ArtistUnicode:Adventure Club
Creator:Come[Back]Home
Version:Strategas' Expert
Source:
Tags:electro cbh dubstep melodic wub Strategas Max -M4x Gero red blue dance
BeatmapID:1263323
BeatmapSetID:416426

[Difficulty]
HPDrainRate:6
CircleSize:3
OverallDifficulty:8.5
ApproachRate:9.4
SliderMultiplier:1.9
SliderTickRate:1

[Events]
//Background and Video events
0,0,"BG.jpg",0,0
//Break Periods
2,30573,44162
2,87887,89833
2,102215,115803
//Storyboard Layer 0 (Background)
//Storyboard Layer 1 (Fail)
//Storyboard Layer 2 (Pass)
//Storyboard Layer 3 (Foreground)
//Storyboard Sound Samples

[TimingPoints]
1717,447.761194029851,4,2,1,40,1,0
9328,-100,4,2,1,10,0,0
9776,-100,4,2,1,40,0,0
12911,-100,4,2,1,10,0,0
13358,-100,4,2,1,40,0,0
16045,-125,4,2,1,50,0,0
44702,-125,4,2,1,30,0,0
48284,-125,4,2,1,40,0,0
51866,-125,4,2,1,50,0,0
53657,-125,4,2,1,60,0,0
55448,-125,4,2,1,70,0,0
59030,-66.6666666666667,4,2,1,70,0,1
63060,-100,4,2,1,70,0,1
63508,-66.6666666666667,4,2,1,70,0,1
66194,-100,4,2,1,70,0,1
67090,-66.6666666666667,4,2,1,70,0,1
70224,-100,4,2,1,70,0,1
70672,-66.6666666666667,4,2,1,70,0,1
77388,-100,4,2,1,70,0,1
77836,-66.6666666666667,4,2,1,70,0,1
80522,-100,4,2,1,70,0,1
81418,-66.6666666666667,4,2,1,70,0,1
84552,-100,4,2,1,70,0,1
85000,-66.6666666666667,4,2,1,70,0,1
87687,-100,4,2,1,70,0,0
116343,-125,4,2,1,40,0,0
123508,-125,4,2,1,50,0,0
125299,-125,4,2,1,60,0,0
127090,-125,4,2,1,70,0,0
130672,-66.6666666666667,4,2,1,70,0,1
131119,-66.6666666666667,4,2,0,70,0,1
131194,-66.6666666666667,4,2,0,30,0,1
131269,-66.6666666666667,4,2,0,70,0,1
131344,-66.6666666666667,4,2,0,30,0,1
131418,-66.6666666666667,4,2,0,70,0,1
131493,-66.6666666666667,4,2,0,30,0,1
131567,-50,4,2,1,70,0,1
132463,-66.6666666666667,4,2,1,70,0,1
132761,-66.6666666666667,4,2,0,70,0,1
132836,-66.6666666666667,4,2,0,30,0,1
132911,-66.6666666666667,4,2,0,70,0,1
132986,-66.6666666666667,4,2,0,30,0,1
133060,-66.6666666666667,4,2,0,70,0,1
133135,-66.6666666666667,4,2,0,30,0,1
133209,-66.6666666666667,4,2,0,70,0,1
133284,-66.6666666666667,4,2,0,30,0,1
133358,-66.6666666666667,4,2,1,70,0,1
133508,-66.6666666666667,4,2,0,70,0,1
133583,-66.6666666666667,4,2,0,30,0,1
133657,-66.6666666666667,4,2,1,70,0,1
134702,-100,4,2,1,70,0,1
135149,-66.6666666666667,4,2,1,70,0,1
135224,-66.6666666666667,4,2,0,70,0,1
135746,-66.6666666666667,4,2,0,70,0,1
135821,-66.6666666666667,4,2,0,30,0,1
135896,-66.6666666666667,4,2,0,70,0,1
135971,-66.6666666666667,4,2,0,30,0,1
136045,-50,4,2,1,70,0,1
137836,-66.6666666666667,4,2,1,70,0,1
138433,-66.6666666666667,4,2,0,70,0,1
138508,-66.6666666666667,4,2,0,30,0,1
138582,-66.6666666666667,4,2,0,70,0,1
138657,-66.6666666666667,4,2,0,30,0,1
138731,-66.6666666666667,4,2,1,70,0,1
138881,-66.6666666666667,4,2,0,70,0,1
138956,-66.6666666666667,4,2,0,30,0,1
139030,-66.6666666666667,4,2,0,70,0,1
139105,-66.6666666666667,4,2,0,30,0,1
139179,-50,4,2,1,70,0,1
140224,-66.6666666666667,4,2,0,70,0,1
140522,-50,4,2,1,70,0,1
140672,-50,4,2,0,70,0,1
140747,-66.6666666666667,4,2,0,30,0,1
140821,-66.6666666666667,4,2,1,70,0,1
141418,-66.6666666666667,4,2,1,70,0,1
141866,-100,4,2,1,70,0,1
142314,-66.6666666666667,4,2,1,70,0,1
142463,-66.6666666666667,4,2,0,70,0,1
142538,-66.6666666666667,4,2,0,30,0,1
142612,-66.6666666666667,4,2,0,70,0,1
142687,-66.6666666666667,4,2,0,30,0,1
142761,-66.6666666666667,4,2,0,70,0,1
142911,-66.6666666666667,4,2,0,70,0,1
142986,-66.6666666666667,4,2,0,30,0,1
143060,-66.6666666666667,4,2,0,70,0,1
143135,-66.6666666666667,4,2,0,30,0,1
143209,-66.6666666666667,4,2,1,70,0,1
145299,-66.6666666666667,4,2,0,70,0,1
145374,-66.6666666666667,4,2,0,30,0,1
145448,-66.6666666666667,4,2,0,70,0,1
145597,-66.6666666666667,4,2,0,70,0,1
145672,-66.6666666666667,4,2,0,30,0,1
145746,-66.6666666666667,4,2,0,70,0,1
145821,-66.6666666666667,4,2,0,30,0,1
145896,-50,4,2,1,70,0,1
146791,-66.6666666666667,4,2,1,70,0,1
147388,-66.6666666666667,4,2,0,70,0,1
147463,-66.6666666666667,4,2,0,30,0,1
147537,-66.6666666666667,4,2,0,70,0,1
147612,-66.6666666666667,4,2,0,30,0,1
147687,-66.6666666666667,4,2,1,70,0,1
147836,-66.6666666666667,4,2,0,70,0,1
147911,-66.6666666666667,4,2,0,30,0,1
147985,-66.6666666666667,4,2,1,70,0,1
149030,-100,4,2,1,70,0,1
149478,-66.6666666666667,4,2,1,70,0,1
149627,-66.6666666666667,4,2,0,70,0,1
150075,-66.6666666666667,4,2,0,70,0,1
150150,-66.6666666666667,4,2,0,30,0,1
150224,-66.6666666666667,4,2,0,70,0,1
150299,-66.6666666666667,4,2,0,30,0,1
150373,-50,4,2,1,70,0,1
152164,-66.6666666666667,4,2,1,70,0,1
152761,-66.6666666666667,4,2,0,70,0,1
152836,-66.6666666666667,4,2,0,30,0,1
152911,-66.6666666666667,4,2,0,70,0,1
152986,-66.6666666666667,4,2,0,30,0,1
153060,-66.6666666666667,4,2,1,70,0,1
153209,-66.6666666666667,4,2,0,70,0,1
153284,-66.6666666666667,4,2,0,30,0,1
153358,-66.6666666666667,4,2,0,70,0,1
153433,-66.6666666666667,4,2,0,30,0,1
153508,-50,4,2,1,70,0,1
154403,-66.6666666666667,4,2,1,70,0,1
154552,-66.6666666666667,4,2,0,70,0,1
154851,-66.6666666666667,4,2,1,70,0,1
155000,-66.6666666666667,4,2,0,70,0,1
155075,-66.6666666666667,4,2,0,30,0,1
155149,-66.6666666666667,4,2,1,70,0,1
156194,-100,4,2,1,70,0,1
156642,-66.6666666666667,4,2,1,70,0,1
156791,-66.6666666666667,4,2,0,70,0,1
156866,-66.6666666666667,4,2,0,30,0,1
156940,-66.6666666666667,4,2,0,70,0,1
157015,-66.6666666666667,4,2,0,30,0,1
157090,-66.6666666666667,4,2,1,70,0,1
157239,-66.6666666666667,4,2,0,70,0,1
157314,-66.6666666666667,4,2,0,30,0,1
157388,-66.6666666666667,4,2,0,70,0,1
157463,-66.6666666666667,4,2,0,30,0,1
157537,-125,4,2,1,70,0,0
157985,-125,4,2,1,35,0,0
158433,-125,4,2,1,70,0,0
158881,-125,4,2,1,35,0,0
159328,-100,4,2,1,70,0,0

[Colours]
Combo1 : 192,192,192
Combo2 : 170,85,0
Combo3 : 128,128,128
Combo4 : 128,64,64

[HitObjects]
279,94,1717,5,2,1:2:0:0:
233,290,2612,1,8,0:0:0:0:
279,94,3955,5,2,0:0:0:0:
232,291,4403,1,8,0:0:0:0:
0,47,5299,5,2,1:2:0:0:
279,95,6194,1,8,0:0:0:0:
0,47,7537,5,2,0:0:0:0:
279,95,7985,1,8,0:0:0:0:
17,330,8881,6,0,B|220:382|182:247|410:332,1,380,2|8,1:2|0:0,0:0:0:0:
17,330,11119,5,2,0:0:0:0:
387,324,11567,1,8,0:0:0:0:
495,48,12463,6,0,B|292:-4|330:131|102:46,1,380,2|8,1:2|0:0,0:0:0:0:
489,47,14254,5,0,1:0:0:0:
472,192,14478,1,2,0:0:0:0:
472,192,14702,1,2,0:0:0:0:
124,53,15149,5,8,0:0:0:0:
89,200,15373,1,2,0:0:0:0:
87,212,15821,5,8,0:0:0:0:
418,105,16045,1,2,1:2:0:0:
416,117,16493,6,0,L|407:192,1,76
385,299,16940,2,0,P|329:268|236:292,1,152,8|0,0:0|0:0,0:0:0:0:
169,347,17612,1,2,0:0:0:0:
169,347,17836,1,2,0:0:0:0:
101,274,18060,5,0,0:0:0:0:
104,260,18172,1,0,0:0:0:0:
107,246,18284,1,2,0:0:0:0:
188,190,18508,1,0,0:0:0:0:
191,176,18619,1,0,0:0:0:0:
194,162,18731,2,0,B|125:138|125:138|20:154,1,152,8|0,0:0|0:0,0:0:0:0:
46,149,19403,1,0,0:0:0:0:
235,73,19627,6,0,P|285:71|381:114,1,152,2|0,1:2|0:0,0:0:0:0:
400,207,20299,1,0,0:0:0:0:
161,223,20522,2,0,P|227:188|303:185,1,152,8|0,0:0|0:0,0:0:0:0:
334,280,21194,1,2,0:0:0:0:
334,280,21418,1,2,0:0:0:0:
245,310,21642,5,0,0:0:0:0:
231,307,21754,1,0,0:0:0:0:
217,304,21866,1,2,0:0:0:0:
161,223,22090,1,0,0:0:0:0:
147,220,22202,1,0,0:0:0:0:
133,217,22314,1,8,0:0:0:0:
334,278,22537,1,2,0:0:0:0:
259,214,22761,1,0,0:0:0:0:
318,384,22985,1,8,0:0:0:0:
503,160,23209,6,0,B|498:110|498:110|436:160|436:160|454:335,1,304,2|8,1:2|0:0,0:0:0:0:
351,287,24328,1,0,0:0:0:0:
264,334,24552,1,0,0:0:0:0:
90,258,24776,1,2,0:0:0:0:
90,258,25000,1,2,0:0:0:0:
193,240,25224,5,0,0:0:0:0:
190,254,25336,1,0,0:0:0:0:
187,268,25448,1,2,0:0:0:0:
129,167,25672,1,0,0:0:0:0:
132,153,25784,1,0,0:0:0:0:
135,139,25896,2,0,P|175:128|296:170,1,152,8|0,0:0|0:0,0:0:0:0:
301,251,26567,1,0,0:0:0:0:
494,87,26791,6,0,B|421:66|421:66|346:83,1,152,2|0,1:2|0:0,0:0:0:0:
418,167,27463,1,0,0:0:0:0:
368,355,27687,1,8,0:0:0:0:
462,330,27911,1,0,0:0:0:0:
393,261,28134,1,0,0:0:0:0:
274,380,28358,1,2,0:0:0:0:
141,185,28582,6,0,L|267:195,1,114,2|0,1:2|0:0,0:0:0:0:
288,222,29030,1,2,0:0:0:0:
287,237,29142,1,0,0:0:0:0:
286,252,29254,1,0,0:0:0:0:
285,267,29366,1,0,0:0:0:0:
284,282,29478,1,8,0:0:0:0:
332,132,29702,1,2,0:0:0:0:
334,120,30149,5,8,0:0:0:0:
396,370,30373,1,2,1:2:0:0:
39,110,44702,6,0,L|217:103,1,152,2|0,0:0|0:0,0:0:0:0:
43,132,45597,2,0,L|221:125,1,152,2|0,0:0|0:0,0:0:0:0:
47,154,46493,2,0,L|225:147,1,152,2|0,0:0|0:0,0:0:0:0:
51,176,47388,2,0,L|229:169,1,152,2|0,0:0|0:0,0:0:0:0:
473,110,48284,5,2,0:0:0:0:
322,104,48731,1,2,0:0:0:0:
469,132,49179,1,2,0:0:0:0:
318,126,49627,1,2,0:0:0:0:
465,154,50075,1,2,0:0:0:0:
314,148,50522,1,2,0:0:0:0:
461,176,50970,1,2,0:0:0:0:
310,170,51418,1,2,0:0:0:0:
111,294,51866,6,0,L|100:367,2,50.6666666666667,2|0|0,0:0|0:0|0:0,0:0:0:0:
207,303,52314,2,0,L|196:376,2,50.6666666666667,2|0|0,0:0|0:0|0:0,0:0:0:0:
303,312,52761,2,0,L|292:385,2,50.6666666666667,2|0|0,0:0|0:0|0:0,0:0:0:0:
399,321,53209,2,0,L|388:394,2,50.6666666666667,2|0|0,0:0|0:0|0:0,0:0:0:0:
413,218,53657,6,0,L|424:145,2,50.6666666666667,2|0|0,0:0|0:0|0:0,0:0:0:0:
317,209,54105,1,2,0:0:0:0:
320,183,54254,1,0,0:0:0:0:
324,158,54403,1,0,0:0:0:0:
228,149,54552,2,0,L|220:199,2,50.6666666666667,2|0|0,0:0|0:0|0:0,0:0:0:0:
132,140,55000,1,2,0:0:0:0:
128,165,55149,1,0,0:0:0:0:
125,191,55299,1,0,0:0:0:0:
167,289,55448,5,2,0:0:0:0:
264,299,55597,1,2,0:0:0:0:
361,309,55746,1,2,0:0:0:0:
222,201,55896,5,2,0:0:0:0:
125,191,56045,1,2,0:0:0:0:
28,181,56194,1,2,0:0:0:0:
167,289,56343,5,2,0:0:0:0:
83,93,56493,1,2,0:0:0:0:
277,113,56642,1,2,0:0:0:0:
70,279,56791,5,2,0:0:0:0:
138,5,56940,1,2,0:0:0:0:
319,211,57090,1,2,0:0:0:0:
28,181,57239,5,2,0:0:0:0:
167,122,59030,6,0,B|227:108|227:108|279:122|279:122|382:104,1,190.000007247925,4|0,0:0|0:0,0:0:0:0:
337,220,59478,2,0,B|277:234|277:234|225:220|225:220|122:238,1,190.000007247925
221,328,59925,5,8,0:0:0:0:
325,345,60075,1,0,0:0:0:0:
429,362,60224,1,0,0:0:0:0:
328,321,60373,5,0,0:0:0:0:
224,304,60522,1,0,0:0:0:0:
120,287,60672,1,2,0:0:0:0:
258,100,60821,5,6,0:0:0:0:
331,297,60970,1,0,0:0:0:0:
123,263,61119,1,0,0:0:0:0:
362,117,61269,5,0,0:0:0:0:
435,314,61418,1,0,0:0:0:0:
227,280,61567,1,2,0:0:0:0:
512,242,61717,5,8,0:0:0:0:
191,180,61866,1,0,0:0:0:0:
512,242,62015,1,0,0:0:0:0:
191,180,62164,1,2,0:0:0:0:
512,242,62314,1,0,0:0:0:0:
191,180,62463,1,0,0:0:0:0:
405,364,62612,6,0,B|416:304|416:304|401:240|401:240|417:167,1,190.000007247925,6|0,0:0|0:0,0:0:0:0:
485,97,63060,2,0,L|502:9,2,63.3333333333333,0|0|0,0:0|0:0|0:0,0:0:0:0:
380,78,63508,5,8,0:0:0:0:
278,62,63657,1,0,0:0:0:0:
188,112,63806,1,0,0:0:0:0:
145,205,63955,1,0,0:0:0:0:
168,305,64105,1,0,0:0:0:0:
246,372,64254,1,2,0:0:0:0:
188,112,64403,5,6,0:0:0:0:
145,205,64552,1,0,0:0:0:0:
248,197,64702,1,0,0:0:0:0:
85,120,64851,5,0,0:0:0:0:
42,213,65000,1,0,0:0:0:0:
145,205,65149,1,2,0:0:0:0:
25,35,65299,5,8,0:0:0:0:
42,213,65448,1,0,0:0:0:0:
25,35,65597,1,0,0:0:0:0:
42,213,65746,1,2,0:0:0:0:
25,35,65896,1,0,0:0:0:0:
42,213,66045,1,0,0:0:0:0:
187,111,66194,6,0,B|250:123,2,63.3333333333333,6|0|0,0:0|0:0|0:0,0:0:0:0:
354,146,66642,2,0,B|416:157,2,63.3333333333333,0|0|0,0:0|0:0|0:0,0:0:0:0:
323,44,67090,5,8,0:0:0:0:
219,27,67239,1,0,0:0:0:0:
115,10,67388,1,0,0:0:0:0:
216,51,67537,5,0,0:0:0:0:
320,68,67687,1,0,0:0:0:0:
424,85,67836,1,0,0:0:0:0:
286,272,67985,5,6,0:0:0:0:
213,75,68134,1,0,0:0:0:0:
421,109,68284,1,0,0:0:0:0:
182,255,68433,5,0,0:0:0:0:
109,58,68582,1,0,0:0:0:0:
317,92,68731,1,0,0:0:0:0:
32,130,68881,5,8,0:0:0:0:
353,192,69030,1,0,0:0:0:0:
32,130,69179,1,0,0:0:0:0:
353,192,69328,1,0,0:0:0:0:
32,130,69478,1,0,0:0:0:0:
353,192,69627,1,2,0:0:0:0:
139,8,69776,6,0,B|128:68|128:68|143:132|143:132|127:205,1,190.000007247925,6|0,0:0|0:0,0:0:0:0:
236,67,70224,2,0,L|319:77,2,63.3333333333333,0|0|0,0:0|0:0|0:0,0:0:0:0:
400,96,70672,5,8,0:0:0:0:
353,192,70821,1,0,0:0:0:0:
309,290,70970,1,0,0:0:0:0:
314,303,71119,1,0,0:0:0:0:
319,316,71269,1,0,0:0:0:0:
324,329,71418,1,0,0:0:0:0:
221,106,71567,5,6,0:0:0:0:
226,93,71717,1,0,0:0:0:0:
231,80,71866,1,0,0:0:0:0:
236,67,72015,1,0,0:0:0:0:
241,54,72164,1,0,0:0:0:0:
345,32,72314,1,2,0:0:0:0:
291,327,72463,5,8,0:0:0:0:
189,300,72612,1,2,0:0:0:0:
87,273,72761,1,2,0:0:0:0:
440,79,72911,5,12,0:0:0:0:
413,181,73060,1,0,0:0:0:0:
386,283,73209,1,2,0:0:0:0:
175,106,73358,6,0,P|264:126|304:208,1,190.000007247925,2|0,0:0|0:0,0:0:0:0:
103,343,73806,2,0,P|119:252|200:209,1,190.000007247925,0|0,0:0|0:0,0:0:0:0:
205,315,74254,5,8,0:0:0:0:
222,320,74403,1,0,0:0:0:0:
239,325,74552,1,0,0:0:0:0:
341,295,74702,5,0,0:0:0:0:
358,290,74851,1,0,0:0:0:0:
375,285,75000,1,2,0:0:0:0:
200,209,75149,5,6,0:0:0:0:
112,267,75299,1,0,0:0:0:0:
205,315,75448,1,0,0:0:0:0:
107,161,75597,5,0,0:0:0:0:
19,219,75746,1,0,0:0:0:0:
112,267,75896,1,2,0:0:0:0:
195,103,76045,5,8,0:0:0:0:
205,315,76194,1,0,0:0:0:0:
19,219,76343,1,0,0:0:0:0:
195,103,76493,1,2,0:0:0:0:
205,315,76642,1,0,0:0:0:0:
19,219,76791,1,0,0:0:0:0:
294,303,76940,6,0,B|225:304|225:304|204:315|204:315|179:303|179:303|110:304,1,190.000007247925,6|0,0:0|0:0,0:0:0:0:
204,200,77388,2,0,L|206:132,2,63.3333333333333,0|0|0,0:0|0:0|0:0,0:0:0:0:
300,86,77836,5,8,0:0:0:0:
210,31,77985,1,0,0:0:0:0:
117,80,78134,1,0,0:0:0:0:
300,67,78284,5,0,0:0:0:0:
210,12,78433,1,0,0:0:0:0:
117,61,78582,1,2,0:0:0:0:
204,200,78731,5,6,0:0:0:0:
138,284,78881,1,0,0:0:0:0:
100,185,79030,1,0,0:0:0:0:
308,215,79179,5,0,0:0:0:0:
242,299,79328,1,0,0:0:0:0:
204,200,79478,1,2,0:0:0:0:
178,384,79627,5,8,0:0:0:0:
204,200,79776,1,0,0:0:0:0:
178,384,79925,1,0,0:0:0:0:
204,200,80075,1,2,0:0:0:0:
178,384,80224,1,0,0:0:0:0:
204,200,80373,1,0,0:0:0:0:
346,314,80522,6,0,L|433:323,2,63.3333333333333,6|0|0,0:0|0:0|0:0,0:0:0:0:
139,285,80970,2,0,L|52:276,2,63.3333333333333,0|0|0,0:0|0:0|0:0,0:0:0:0:
242,299,81418,5,8,0:0:0:0:
204,200,81567,1,0,0:0:0:0:
166,101,81717,1,0,0:0:0:0:
261,297,81866,5,0,0:0:0:0:
223,198,82015,1,0,0:0:0:0:
185,99,82164,1,0,0:0:0:0:
451,106,82314,5,6,0:0:0:0:
327,214,82463,1,0,0:0:0:0:
281,56,82612,1,0,0:0:0:0:
470,105,82761,5,0,0:0:0:0:
346,213,82911,1,0,0:0:0:0:
300,55,83060,1,0,0:0:0:0:
89,142,83209,5,8,0:0:0:0:
300,55,83358,1,0,0:0:0:0:
89,142,83508,1,0,0:0:0:0:
300,55,83657,1,0,0:0:0:0:
89,142,83806,1,0,0:0:0:0:
300,55,83955,1,2,0:0:0:0:
141,236,84105,6,0,B|204:252|204:252|327:228,1,190.000007247925,6|0,0:0|0:0,0:0:0:0:
373,132,84552,2,0,L|435:123,2,63.3333333333333,0|0|0,0:0|0:0|0:0,0:0:0:0:
210,51,85000,5,8,0:0:0:0:
266,141,85149,1,0,0:0:0:0:
217,238,85299,1,0,0:0:0:0:
108,243,85448,1,0,0:0:0:0:
50,151,85597,1,0,0:0:0:0:
101,55,85746,1,0,0:0:0:0:
217,238,85896,5,6,0:0:0:0:
306,295,86045,1,0,0:0:0:0:
403,246,86194,1,0,0:0:0:0:
408,137,86343,1,0,0:0:0:0:
316,79,86493,1,0,0:0:0:0:
220,130,86642,1,2,0:0:0:0:
495,194,86791,5,8,0:0:0:0:
311,189,86940,1,2,0:0:0:0:
408,137,87090,1,2,0:0:0:0:
219,241,87239,5,8,0:0:0:0:
403,246,87388,1,2,0:0:0:0:
306,298,87537,1,2,0:0:0:0:
316,79,87687,5,2,0:0:0:0:
424,158,90373,5,8,0:0:0:0:
409,164,90672,5,2,0:0:0:0:
102,219,90821,1,8,0:0:0:0:
86,225,91119,5,2,0:0:0:0:
306,255,91269,2,0,L|369:262,2,63.3333333333333,2|0|0,0:0|0:0|0:0,0:0:0:0:
217,312,91717,2,0,L|154:305,2,63.3333333333333,0|0|0,0:0|0:0|0:0,0:0:0:0:
238,174,92164,2,0,L|175:167,1,63.3333333333333,8|0,0:0|0:0,0:0:0:0:
23,218,92463,2,0,L|86:225,1,63.3333333333333,0|0,0:0|0:0,0:0:0:0:
104,88,92761,1,0,0:0:0:0:
103,73,92911,1,0,0:0:0:0:
102,58,93060,6,0,B|133:48|133:48|169:55,1,63.3333333333333,2|0,0:0|0:0,0:0:0:0:
244,121,93358,2,0,B|274:126|274:126|305:116,1,63.3333333333333,0|0,0:0|0:0,0:0:0:0:
459,42,93657,1,0,0:0:0:0:
460,57,93806,1,0,0:0:0:0:
461,72,93955,2,0,B|430:82|430:82|394:75,1,63.3333333333333,8|0,0:0|0:0,0:0:0:0:
315,12,94254,1,0,0:0:0:0:
389,268,94552,1,0,0:0:0:0:
373,281,94702,1,0,0:0:0:0:
353,287,94851,6,0,P|273:257|168:277,1,190,2|0,0:0|0:0,0:0:0:0:
160,285,95448,1,0,0:0:0:0:
152,298,95597,1,0,0:0:0:0:
53,190,95746,2,0,P|83:183|115:187,1,63.3333333333333,8|0,0:0|0:0,0:0:0:0:
276,160,96045,2,0,P|246:153|215:157,1,63.3333333333333,0|0,0:0|0:0,0:0:0:0:
139,84,96343,1,0,0:0:0:0:
123,82,96493,1,0,0:0:0:0:
241,53,96642,5,2,0:0:0:0:
214,157,96791,1,0,0:0:0:0:
139,84,96940,1,0,0:0:0:0:
317,129,97090,2,0,B|337:159|337:159|331:273,1,126.666666666667,0|0,0:0|0:0,0:0:0:0:
119,284,97537,2,0,L|125:220,1,63.3333333333333,8|0,0:0|0:0,0:0:0:0:
227,256,97836,2,0,L|220:319,1,63.3333333333333,0|0,0:0|0:0,0:0:0:0:
80,383,98134,1,0,0:0:0:0:
65,376,98284,1,0,0:0:0:0:
52,367,98433,6,0,P|29:344|16:316,2,63.3333333333333,2|0|0,0:0|0:0|0:0,0:0:0:0:
118,283,98881,2,0,P|105:255|83:233,2,63.3333333333333,0|0|0,0:0|0:0|0:0,0:0:0:0:
225,294,99328,2,0,P|253:280|275:258,1,63.3333333333333,8|0,0:0|0:0,0:0:0:0:
244,156,99627,2,0,P|216:169|194:192,1,63.3333333333333,0|0,0:0|0:0,0:0:0:0:
347,180,99925,1,0,0:0:0:0:
362,187,100075,1,0,0:0:0:0:
374,195,100224,6,0,P|396:217|409:245,1,63.3333333333333,2|0,0:0|0:0,0:0:0:0:
346,330,100522,2,0,P|324:308|311:280,1,63.3333333333333,0|0,0:0|0:0,0:0:0:0:
282,46,100821,1,0,0:0:0:0:
271,58,100970,1,0,0:0:0:0:
264,71,101119,2,0,P|253:100|254:132,1,63.3333333333333,8|0,0:0|0:0,0:0:0:0:
347,180,101418,2,0,P|357:150|356:118,1,63.3333333333333,0|0,0:0|0:0,0:0:0:0:
148,94,101717,5,0,0:0:0:0:
116,193,101866,1,0,0:0:0:0:
142,295,102015,1,2,1:2:0:0:
479,96,116343,6,0,L|328:103,1,152,2|0,0:0|0:0,0:0:0:0:
483,125,117239,2,0,L|332:132,1,152,2|0,0:0|0:0,0:0:0:0:
43,108,118134,6,0,B|96:92|96:92|178:108,1,101.333333333333,2|0,0:0|0:0,0:0:0:0:
157,108,118582,1,0,0:0:0:0:
50,214,119030,2,0,B|103:198|103:198|185:214,1,101.333333333333,2|0,0:0|0:0,0:0:0:0:
164,214,119478,1,0,0:0:0:0:
471,67,119925,6,0,B|487:120|487:120|471:202,1,101.333333333333,2|0,0:0|0:0,0:0:0:0:
472,173,120373,2,0,L|349:173,1,101.333333333333,2|0,0:0|0:0,0:0:0:0:
360,177,120821,2,0,B|376:230|376:230|360:312,1,101.333333333333,2|0,0:0|0:0,0:0:0:0:
360,285,121269,2,0,L|237:285,1,101.333333333333,2|0,0:0|0:0,0:0:0:0:
62,322,121717,6,0,B|46:269|46:269|62:187,1,101.333333333333,2|0,0:0|0:0,0:0:0:0:
61,216,122164,2,0,L|184:216,1,101.333333333333,2|0,0:0|0:0,0:0:0:0:
173,212,122612,2,0,B|157:159|157:159|173:77,1,101.333333333333,2|0,0:0|0:0,0:0:0:0:
173,104,123060,2,0,L|297:100,1,101.333333333333,2|0,0:0|0:0,0:0:0:0:
335,190,123508,6,0,L|328:256,2,50.6666666666667,2|0|0,0:0|0:0|0:0,0:0:0:0:
236,290,123955,2,0,L|229:356,2,50.6666666666667,2|0|0,0:0|0:0|0:0,0:0:0:0:
273,103,124403,2,0,L|279:53,2,50.6666666666667,2|0|0,0:0|0:0|0:0,0:0:0:0:
176,157,124851,2,0,L|170:207,2,50.6666666666667,2|0|0,0:0|0:0|0:0,0:0:0:0:
94,89,125299,5,2,0:0:0:0:
96,63,125448,1,0,0:0:0:0:
99,38,125597,1,0,0:0:0:0:
9,153,125746,2,0,L|2:219,2,50.6666666666667,2|0|0,0:0|0:0|0:0,0:0:0:0:
86,274,126194,1,2,0:0:0:0:
84,300,126343,1,0,0:0:0:0:
81,325,126493,1,0,0:0:0:0:
171,210,126642,2,0,L|178:144,2,50.6666666666667,2|0|0,0:0|0:0|0:0,0:0:0:0:
279,113,127090,5,2,0:0:0:0:
373,160,127239,1,2,0:0:0:0:
467,113,127388,1,2,0:0:0:0:
374,184,127537,5,2,0:0:0:0:
278,89,127687,1,2,0:0:0:0:
186,184,127836,1,2,0:0:0:0:
277,65,127985,5,2,0:0:0:0:
375,208,128134,1,2,0:0:0:0:
466,89,128284,1,2,0:0:0:0:
376,232,128433,5,2,0:0:0:0:
276,41,128582,1,2,0:0:0:0:
187,208,128731,1,2,0:0:0:0:
274,17,128881,5,2,0:0:0:0:
172,143,130672,6,0,B|240:142|240:142|267:149|267:149|296:142|296:142|363:141,1,190.000007247925,6|0,0:0|0:0,0:0:0:0:
368,247,131119,6,0,L|284:247,1,47.5000018119813,2|0,0:0|0:0,0:0:0:0:
243,35,131269,2,0,L|290:35,1,47.5000018119813,2|0,0:0|0:0,0:0:0:0:
215,248,131418,2,0,L|167:248,1,47.5000018119813,2|0,0:0|0:0,0:0:0:0:
5,50,131567,6,0,B|64:49|91:10|91:10|167:3|282:49,1,253.333333333333,8|0,0:0|0:0,0:0:0:0:
475,124,132015,2,0,B|399:92|323:99|323:99|296:138|237:139,1,253.333333333333,2|2,0:0|0:0,0:0:0:0:
370,298,132463,6,0,P|378:251|371:205,1,95.0000036239625,2|0,0:0|0:0,0:0:0:0:
242,34,132761,2,0,P|213:34|175:54,1,47.5000018119813,2|0,0:0|0:0,0:0:0:0:
238,138,132911,1,0,0:0:0:0:
89,41,133060,2,0,P|65:41|43:47,1,47.5000018119813,2|0,0:0|0:0,0:0:0:0:
93,182,133209,2,0,P|117:183|140:177,1,47.5000018119813,2|0,3:2|0:0,0:0:0:0:
332,89,133358,1,8,0:0:0:0:
268,240,133508,2,0,P|245:246|221:244,1,47.5000018119813,2|0,0:0|0:0,0:0:0:0:
238,138,133657,1,0,0:0:0:0:
140,313,133806,1,0,0:0:0:0:
239,122,133955,1,0,0:0:0:0:
342,319,134105,1,2,0:0:0:0:
512,90,134254,6,0,B|458:77|458:77|387:93|387:93|321:77,1,190.000007247925,2|0,0:0|0:0,0:0:0:0:
450,188,134702,2,0,L|471:273,2,63.3333333333333,0|0|0,0:0|0:0|0:0,0:0:0:0:
239,122,135149,6,0,L|153:115,1,47.5000018119813,8|0,0:0|0:0,0:0:0:0:
87,111,135299,1,2,0:0:0:0:
87,111,135373,1,2,0:0:0:0:
87,111,135448,1,2,0:0:0:0:
130,219,135597,1,0,0:0:0:0:
382,79,135746,2,0,L|335:76,1,47.5000018119813,2|0,0:0|0:0,0:0:0:0:
243,228,135896,2,0,L|290:231,1,47.5000018119813,2|0,0:0|0:0,0:0:0:0:
481,231,136045,6,0,B|433:192|366:211|366:211|308:258|243:228,1,253.333333333333,2|0,0:0|0:0,0:0:0:0:
55,146,136493,2,0,B|103:184|170:165|170:165|228:118|293:149,1,253.333333333333,0|2,0:0|0:0,0:0:0:0:
278,347,136940,6,0,P|249:291|243:228,1,126.666666666667,8|0,0:0|0:0,0:0:0:0:
379,60,137239,2,0,P|344:112|293:148,1,126.666666666667,0|0,0:0|0:0,0:0:0:0:
78,116,137537,2,0,P|140:119|197:145,1,126.666666666667,2|0,0:0|0:0,0:0:0:0:
426,236,137836,6,0,B|358:223|358:223|304:244|304:244|244:228,1,190.000007247925,2|0,0:0|0:0,0:0:0:0:
368,333,138284,1,0,0:0:0:0:
446,130,138433,6,0,L|382:117,1,47.5000018119813,2|0,0:0|0:0,0:0:0:0:
245,121,138582,2,0,L|292:131,1,47.5000018119813,2|0,0:0|0:0,0:0:0:0:
368,333,138731,1,8,0:0:0:0:
445,112,138881,6,0,L|381:99,1,47.5000018119813,2|0,0:0|0:0,0:0:0:0:
244,103,139030,2,0,L|290:112,1,47.5000018119813,2|0,0:0|0:0,0:0:0:0:
490,256,139179,6,0,P|397:225|229:255,1,253.333333333333,2|0,0:0|0:0,0:0:0:0:
44,348,139627,2,0,B|28:345|-2:356|-2:356|16:300|102:298|146:302|179:329,1,253.333333333333,2|0,0:0|0:0,0:0:0:0:
266,384,140075,1,0,0:0:0:0:
164,179,140224,1,2,0:0:0:0:
164,179,140299,1,2,0:0:0:0:
164,179,140373,1,2,0:0:0:0:
490,256,140522,5,8,0:0:0:0:
331,162,140672,2,0,P|300:153|268:150,1,63.3333333333333,2|0,0:0|0:0,0:0:0:0:
280,257,140821,1,0,0:0:0:0:
436,164,140970,1,0,0:0:0:0:
490,256,141119,1,0,0:0:0:0:
385,70,141269,1,2,0:0:0:0:
328,347,141418,6,0,B|423:350|423:350|425:357|425:357|523:364,1,190.000007247925,2|0,0:0|0:0,0:0:0:0:
490,256,141866,2,0,L|485:179,2,63.3333333333333,0|0|0,0:0|0:0|0:0,0:0:0:0:
271,242,142314,6,0,L|184:236,1,47.5000018119813,8|0,0:0|0:0,0:0:0:0:
337,66,142463,2,0,L|424:72,1,47.5000018119813,2|0,0:0|0:0,0:0:0:0:
490,256,142612,2,0,L|403:250,1,47.5000018119813,2|0,0:0|0:0,0:0:0:0:
361,179,142761,1,0,0:0:0:0:
328,347,142911,2,0,L|375:350,1,47.5000018119813,2|0,0:0|0:0,0:0:0:0:
223,238,143060,2,0,L|176:235,1,47.5000018119813,2|0,0:0|0:0,0:0:0:0:
49,363,143209,6,0,B|84:220|3:255|51:117|51:117|167:153|129:78|279:126,1,475.000018119813,2|2,0:0|0:0,0:0:0:0:
375,350,144105,1,8,0:0:0:0:
383,363,144403,5,2,0:0:0:0:
482,87,144552,1,8,0:0:0:0:
487,73,144851,5,2,0:0:0:0:
433,207,145000,2,0,B|386:218|386:218|336:204,1,95.0000036239625,2|0,0:0|0:0,0:0:0:0:
238,114,145299,6,0,L|285:112,1,47.5000018119813,2|0,0:0|0:0,0:0:0:0:
388,109,145448,1,0,0:0:0:0:
259,271,145597,2,0,L|211:272,1,47.5000018119813,2|0,0:0|0:0,0:0:0:0:
109,183,145746,2,0,L|157:182,1,47.5000018119813,2|0,0:0|0:0,0:0:0:0:
433,207,145896,6,0,B|375:320|375:320|258:271,1,253.333333333333,8|0,0:0|0:0,0:0:0:0:
502,119,146343,2,0,B|385:70|385:70|327:183,1,253.333333333333,2|2,0:0|0:0,0:0:0:0:
258,271,146791,6,0,B|179:272|179:272|164:265|164:265|151:272|151:272|49:273,1,190.000007247925,2|0,0:0|0:0,0:0:0:0:
125,166,147239,1,0,0:0:0:0:
206,377,147388,2,0,L|253:377,1,47.5000018119813,2|0,0:0|0:0,0:0:0:0:
327,182,147537,2,0,L|374:182,1,47.5000018119813,2|0,0:0|0:0,0:0:0:0:
462,374,147687,1,8,0:0:0:0:
512,128,147836,2,0,L|465:128,1,47.5000018119813,2|0,0:0|0:0,0:0:0:0:
374,182,147985,1,0,0:0:0:0:
467,234,148134,1,0,0:0:0:0:
374,76,148284,1,0,0:0:0:0:
261,262,148433,1,2,0:0:0:0:
93,112,148582,6,0,B|154:95|154:95|222:120|222:120|275:107,1,190.000007247925,2|0,0:0|0:0,0:0:0:0:
149,206,149030,2,0,L|143:287,2,63.3333333333333,0|0|0,0:0|0:0|0:0,0:0:0:0:
357,187,149478,6,0,L|402:174,1,47.5000018119813,8|0,0:0|0:0,0:0:0:0:
512,153,149627,1,2,0:0:0:0:
512,153,149702,1,2,0:0:0:0:
512,153,149776,1,2,0:0:0:0:
476,251,149925,1,0,0:0:0:0:
402,67,150075,2,0,L|447:54,1,47.5000018119813,2|0,0:0|0:0,0:0:0:0:
377,290,150224,2,0,L|331:302,1,47.5000018119813,2|0,0:0|0:0,0:0:0:0:
24,257,150373,6,0,B|83:215|140:240|140:240|150:309|227:324,1,253.333333333333,2|0,0:0|0:0,0:0:0:0:
447,286,150821,2,0,B|387:327|330:302|330:302|320:233|243:218,1,253.333333333333,0|2,0:0|0:0,0:0:0:0:
105,335,151269,6,0,P|167:344|226:323,1,126.666666666667,8|0,0:0|0:0,0:0:0:0:
295,108,151567,2,0,P|256:157|243:218,1,126.666666666667,0|0,0:0|0:0,0:0:0:0:
395,384,151866,2,0,P|372:326|325:285,1,126.666666666667,2|0,0:0|0:0,0:0:0:0:
62,226,152164,6,0,B|116:235|116:235|184:207|184:207|250:220,1,190.000007247925,2|0,0:0|0:0,0:0:0:0:
325,285,152612,1,0,0:0:0:0:
96,339,152761,6,0,L|50:331,1,47.5000018119813,2|0,0:0|0:0,0:0:0:0:
55,120,152911,2,0,L|102:129,1,47.5000018119813,2|0,0:0|0:0,0:0:0:0:
244,218,153060,1,8,0:0:0:0:
90,357,153209,6,0,L|44:349,1,47.5000018119813,2|0,0:0|0:0,0:0:0:0:
55,101,153358,2,0,L|102:110,1,47.5000018119813,2|0,0:0|0:0,0:0:0:0:
263,219,153508,6,0,B|331:247|455:239|455:239|417:231|401:217,1,253.333333333333,2|2,0:0|0:0,0:0:0:0:
261,81,153955,2,0,B|233:149|241:273|241:273|249:235|263:219,1,253.333333333333,2|0,0:0|0:0,0:0:0:0:
360,119,154403,5,0,0:0:0:0:
138,141,154552,1,2,0:0:0:0:
138,141,154627,1,2,0:0:0:0:
138,141,154702,1,2,0:0:0:0:
266,384,154851,1,8,0:0:0:0:
319,291,155000,2,0,P|298:283|274:278,1,47.5000018119813,2|0,0:0|0:0,0:0:0:0:
179,324,155149,1,0,0:0:0:0:
93,384,155299,1,0,0:0:0:0:
12,316,155448,1,0,0:0:0:0:
98,254,155597,1,2,0:0:0:0:
266,384,155746,6,0,B|362:383|362:383|379:275,1,190.000007247925,2|0,0:0|0:0,0:0:0:0:
285,215,156194,2,0,L|273:277,2,63.3333333333333,0|0|0,0:0|0:0|0:0,0:0:0:0:
396,45,156642,6,0,P|419:44|443:47,1,47.5000018119813,8|0,0:0|0:0,0:0:0:0:
506,225,156791,2,0,P|482:226|459:223,1,47.5000018119813,2|0,0:0|0:0,0:0:0:0:
265,109,156940,2,0,P|289:108|313:112,1,47.5000018119813,2|0,0:0|0:0,0:0:0:0:
376,290,157090,1,0,0:0:0:0:
138,180,157239,2,0,P|162:177|186:179,1,47.5000018119813,2|0,0:0|0:0,0:0:0:0:
300,362,157388,2,0,P|276:364|253:361,1,47.5000018119813,2|0,0:0|0:0,0:0:0:0:
143,283,157537,6,0,P|55:324|149:346,1,253.333333333333,2|0,0:0|0:0,0:0:0:0:
183,116,158433,2,0,P|277:138|189:179,1,253.333333333333,8|0,0:0|0:0,0:0:0:0:
137,14,159328,5,2,0:2:0:0:
