osu file format v14

[General]
AudioFilename: Adventure Club - Fade (feat Zak Waters).mp3
AudioLeadIn: 0
PreviewTime: 57911
Countdown: 0
SampleSet: Soft
StackLeniency: 0.7
Mode: 0
LetterboxInBreaks: 0
WidescreenStoryboard: 0

[Editor]
Bookmarks: 14976,88409,102737,160050
DistanceSpacing: 1.2
BeatDivisor: 3
GridSize: 4
TimelineZoom: 1

[Metadata]
Title:Fade (feat. Zak Waters)
TitleUnicode:Fade (feat. Zak Waters)
Artist:Adventure Club
ArtistUnicode:Adventure Club
Creator:Come[Back]Home
Version:Lost
Source:
Tags:electro cbh dubstep melodic wub Strategas Max -M4x Gero red blue dance
BeatmapID:902048
BeatmapSetID:416426

[Difficulty]
HPDrainRate:6.5
CircleSize:4.3
OverallDifficulty:9
ApproachRate:9.5
SliderMultiplier:2.2
SliderTickRate:1

[Events]
//Background and Video events
0,0,"BG.jpg",0,0
//Break Periods
2,30573,44177
2,102215,105371
//Storyboard Layer 0 (Background)
//Storyboard Layer 1 (Fail)
//Storyboard Layer 2 (Pass)
//Storyboard Layer 3 (Foreground)
//Storyboard Sound Samples

[TimingPoints]
1717,447.761194029851,4,2,0,70,1,0
2164,-133.333333333333,4,2,1,70,0,0
16045,-133.333333333333,4,2,1,50,0,0
30373,-166.666666666667,4,2,1,50,0,0
44702,-166.666666666667,4,2,1,30,0,0
48284,-166.666666666667,4,2,1,40,0,0
48731,-166.666666666667,4,2,1,40,0,0
49627,-166.666666666667,4,2,1,40,0,0
50522,-166.666666666667,4,2,1,40,0,0
51418,-166.666666666667,4,2,1,40,0,0
51866,-166.666666666667,4,2,1,50,0,0
52314,-142.857142857143,4,2,1,60,0,0
52761,-125,4,2,1,60,0,0
53209,-111.111111111111,4,2,1,60,0,0
53657,-100,4,2,1,60,0,0
54105,-90.9090909090909,4,2,1,60,0,0
54552,-83.3333333333333,4,2,1,60,0,0
55000,-76.9230769230769,4,2,1,60,0,0
55448,-76.9230769230769,4,2,1,70,0,0
59030,-76.9230769230769,4,2,1,70,0,1
59478,-66.6666666666667,4,2,1,70,0,1
62612,-76.9230769230769,4,2,1,70,0,1
63508,-66.6666666666667,4,2,1,70,0,1
66194,-100,4,2,1,70,0,1
67090,-66.6666666666667,4,2,1,70,0,1
69776,-76.9230769230769,4,2,1,70,0,1
70672,-66.6666666666667,4,2,1,70,0,1
73358,-76.9230769230769,4,2,1,70,0,1
73806,-66.6666666666667,4,2,1,70,0,1
76940,-76.9230769230769,4,2,1,70,0,1
77836,-66.6666666666667,4,2,1,70,0,1
80522,-100,4,2,1,70,0,1
81418,-66.6666666666667,4,2,1,70,0,1
84105,-76.9230769230769,4,2,1,70,0,1
85000,-66.6666666666667,4,2,1,70,0,1
87687,-100,4,2,1,30,0,0
88881,-100,4,2,1,50,0,0
89478,-100,4,2,1,30,0,0
90373,-100,4,2,1,55,0,0
91269,-83.3333333333333,4,2,1,55,0,0
100224,-83.3333333333333,4,2,1,40,0,0
101119,-83.3333333333333,4,2,1,25,0,0
105597,-125,4,2,1,30,0,0
116343,-100,4,2,1,40,0,0
123508,-100,4,2,1,50,0,0
125299,-83.3333333333333,4,2,1,60,0,0
126194,-71.4285714285714,4,2,1,60,0,0
127090,-71.4285714285714,4,2,1,70,0,0
130672,-76.9230769230769,4,2,1,70,0,1
131119,-58.8235294117647,4,2,1,70,0,1
131567,-76.9230769230769,4,2,1,70,0,1
132463,-58.8235294117647,4,2,1,70,0,1
134254,-76.9230769230769,4,2,1,70,0,1
135149,-58.8235294117647,4,2,1,70,0,1
136045,-76.9230769230769,4,2,1,70,0,1
138284,-58.8235294117647,4,2,1,70,0,1
141418,-76.9230769230769,4,2,1,70,0,1
145299,-58.8235294117647,4,2,1,70,0,1
145896,-76.9230769230769,4,2,1,70,0,1
146791,-58.8235294117647,4,2,1,70,0,1
148582,-76.9230769230769,4,2,1,70,0,1
149478,-58.8235294117647,4,2,1,70,0,1
150373,-76.9230769230769,4,2,1,70,0,1
152612,-58.8235294117647,4,2,1,70,0,1
155746,-76.9230769230769,4,2,1,70,0,1
157537,-100,4,2,1,70,0,1
157985,-100,4,2,1,5,0,1
158433,-100,4,2,1,70,0,1
158881,-100,4,2,1,5,0,1
159328,-100,4,2,1,70,0,0

[Colours]
Combo1 : 192,192,192
Combo2 : 170,85,0
Combo3 : 128,128,128
Combo4 : 128,64,64

[HitObjects]
104,323,16045,6,0,L|87:128,1,165.000006294251,2|0,0:0|0:0,0:0:0:0:
39,72,16717,1,0,0:0:0:0:
178,160,16940,1,8,0:0:0:0:
39,72,17164,1,0,0:0:0:0:
236,31,17388,1,0,0:0:0:0:
80,162,17612,1,2,0:0:0:0:
224,244,17836,6,0,L|329:226,1,82.5000031471254,2|0,0:0|0:0,0:0:0:0:
353,217,18172,1,0,0:0:0:0:
341,205,18284,1,2,0:0:0:0:
333,190,18396,1,0,0:0:0:0:
328,174,18508,1,0,0:0:0:0:
326,157,18619,1,0,0:0:0:0:
328,140,18731,1,8,0:0:0:0:
425,155,18955,1,0,0:0:0:0:
269,82,19179,1,0,0:0:0:0:
345,281,19403,1,0,0:0:0:0:
426,124,19627,6,0,L|251:157,1,165.000006294251,2|0,0:0|0:0,0:0:0:0:
168,182,20299,1,0,0:0:0:0:
341,337,20522,1,8,0:0:0:0:
186,196,20746,1,0,0:0:0:0:
250,369,20970,1,0,0:0:0:0:
287,171,21194,1,2,0:0:0:0:
477,244,21418,6,0,L|386:233,1,82.5000031471254,2|0,0:0|0:0,0:0:0:0:
345,232,21754,1,0,0:0:0:0:
350,247,21866,1,2,0:0:0:0:
352,263,21978,1,0,0:0:0:0:
351,279,22090,1,0,0:0:0:0:
346,294,22202,1,0,0:0:0:0:
341,309,22314,1,8,0:0:0:0:
251,349,22537,1,2,0:0:0:0:
263,171,22761,1,0,0:0:0:0:
417,316,22985,1,8,0:0:0:0:
208,243,23209,6,0,P|174:176|226:92,1,165.000006294251,2|0,0:0|0:0,0:0:0:0:
303,64,23881,1,0,0:0:0:0:
320,264,24105,1,8,0:0:0:0:
303,83,24328,1,0,0:0:0:0:
232,276,24552,1,0,0:0:0:0:
374,163,24776,1,2,0:0:0:0:
172,118,25000,6,0,P|178:167|201:206,1,82.5000031471254,2|0,0:0|0:0,0:0:0:0:
223,235,25336,1,0,0:0:0:0:
239,232,25448,1,2,0:0:0:0:
254,227,25560,1,0,0:0:0:0:
268,218,25672,1,0,0:0:0:0:
282,210,25784,1,0,0:0:0:0:
295,200,25896,2,0,B|395:220|395:220|361:154,1,165.000006294251,8|0,0:0|0:0,0:0:0:0:
329,72,26567,1,0,0:0:0:0:
234,270,26791,6,0,B|337:289|337:289|269:311,1,165.000006294251,2|0,0:0|0:0,0:0:0:0:
234,270,27463,1,0,0:0:0:0:
320,113,27687,1,8,0:0:0:0:
337,289,27911,1,0,0:0:0:0:
227,162,28134,1,0,0:0:0:0:
442,218,28358,1,2,0:0:0:0:
347,58,28582,6,0,L|255:70,1,82.5000031471254,2|0,0:0|0:0,0:0:0:0:
215,75,28918,1,0,0:0:0:0:
220,90,29030,1,2,0:0:0:0:
225,105,29142,1,0,0:0:0:0:
229,120,29254,1,0,0:0:0:0:
234,135,29366,1,0,0:0:0:0:
240,150,29478,1,8,0:0:0:0:
87,281,29702,5,2,0:0:0:0:
267,323,29925,1,0,0:0:0:0:
40,352,30149,1,2,0:0:0:0:
307,249,30373,1,2,0:0:0:0:
145,333,44702,6,0,L|135:181,1,131.99999597168,2|0,0:0|0:0,0:0:0:0:
403,218,45597,2,0,P|349:255|285:254,1,131.99999597168,2|0,0:0|0:0,0:0:0:0:
175,139,46493,6,0,B|190:54|190:54|211:100,1,131.99999597168,2|0,0:0|0:0,0:0:0:0:
297,226,47388,2,0,B|282:311|282:311|261:265,1,131.99999597168,2|0,0:0|0:0,0:0:0:0:
113,216,48284,6,0,P|37:228|-3:271,1,131.99999597168,2|2,0:0|0:0,0:0:0:0:
199,360,49179,2,0,P|134:349|86:305,1,131.99999597168,2|2,0:0|0:0,0:0:0:0:
234,118,50075,6,0,P|191:167|197:241,1,131.99999597168,2|2,0:0|0:0,0:0:0:0:
403,184,50970,2,0,L|263:194,1,131.99999597168,2|2,0:0|0:0,0:0:0:0:
297,13,51866,6,0,P|326:57|335:115,1,87.9999973144532,2|0,0:0|0:0,0:0:0:0:
164,160,52314,6,0,P|181:123|264:90,1,102.666663533529,2|0,0:0|0:0,0:0:0:0:
345,237,52761,6,0,P|281:226|253:168,1,117.333333333333,2|0,0:0|0:0,0:0:0:0:
331,17,53209,6,0,P|357:85|340:152,1,131.99999597168,2|0,0:0|0:0,0:0:0:0:
105,83,53657,6,0,B|158:88|158:88|205:77|205:77|266:85,1,146.666666666667,2|0,0:0|0:0,0:0:0:0:
272,248,54105,6,0,B|213:157|213:157|280:163,1,161.333338256836,2|0,0:0|0:0,0:0:0:0:
194,78,54552,6,0,P|144:135|223:147,1,175.999994628906,2|0,0:0|0:0,0:0:0:0:
87,41,55000,6,0,P|55:120|134:236,1,190.66665793864,2|0,0:0|0:0,0:0:0:0:
188,279,55448,5,2,0:0:0:0:
228,171,55597,1,2,0:0:0:0:
299,260,55746,1,2,0:0:0:0:
132,189,55896,5,2,0:0:0:0:
358,95,56045,1,2,0:0:0:0:
77,51,56194,1,2,0:0:0:0:
182,276,56343,5,2,0:0:0:0:
223,4,56493,1,2,0:0:0:0:
331,329,56642,1,2,0:0:0:0:
115,147,56791,5,2,0:0:0:0:
460,72,56940,1,2,0:0:0:0:
237,359,57090,1,2,0:0:0:0:
320,1,57239,5,2,0:0:0:0:
138,320,59030,6,0,B|206:248|206:248|182:129,1,190.66665793864,2|0,0:0|0:0,0:0:0:0:
187,158,59478,6,0,B|308:171|308:171|285:61,1,220.000008392334
170,12,59925,5,8,0:0:0:0:
246,271,60075,1,0,0:0:0:0:
53,18,60224,1,0,0:0:0:0:
330,168,60373,1,0,0:0:0:0:
116,246,60522,1,0,0:0:0:0:
264,36,60672,1,2,0:0:0:0:
383,253,60821,6,0,L|359:363,2,110.000004196167,6|0|0,0:0|0:0|0:0,0:0:0:0:
209,116,61269,2,0,L|233:226,1,110.000004196167
144,322,61567,1,2,0:0:0:0:
336,132,61717,5,8,0:0:0:0:
44,233,61866,1,0,0:0:0:0:
398,222,62015,1,0,0:0:0:0:
0,142,62164,1,6,0:0:0:0:
284,233,62314,1,0,0:0:0:0:
35,41,62463,1,0,0:0:0:0:
181,335,62612,6,0,P|131:245|174:145,1,190.66665793864,6|0,0:0|0:0,0:0:0:0:
242,91,63060,2,0,L|355:107,1,95.3333289693199
438,54,63358,1,0,0:0:0:0:
296,306,63508,6,0,L|276:188,1,110.000004196167,8|0,0:0|0:0,0:0:0:0:
248,68,63806,1,0,0:0:0:0:
67,282,63955,2,0,P|96:289|183:274,1,110.000004196167
110,161,64254,1,2,0:0:0:0:
346,57,64403,5,6,0:0:0:0:
239,327,64552,1,0,0:0:0:0:
223,11,64702,1,0,0:0:0:0:
410,212,64851,1,0,0:0:0:0:
76,158,65000,1,0,0:0:0:0:
459,107,65149,1,2,0:0:0:0:
270,345,65299,6,0,L|286:214,1,110.000004196167,8|0,0:0|0:0,0:0:0:0:
296,104,65597,1,0,0:0:0:0:
166,374,65746,2,0,L|182:243,1,110.000004196167,6|0,0:0|0:0,0:0:0:0:
191,132,66045,1,4,0:0:0:0:
345,332,66194,6,0,L|261:319,1,73.3333333333333,6|0,0:0|0:0,0:0:0:0:
185,308,66493,1,0,0:0:0:0:
333,163,66642,2,0,P|333:199|322:234,1,73.3333333333333
278,310,66940,1,0,0:0:0:0:
199,74,67090,6,0,P|198:110|234:181,2,110.000004196167,8|0|0,0:0|0:0|0:0,0:0:0:0:
444,279,67537,2,0,P|471:231|475:177,1,110.000004196167
456,45,67836,1,0,0:0:0:0:
214,168,67985,5,6,0:0:0:0:
395,350,68134,1,0,0:0:0:0:
279,48,68284,1,0,0:0:0:0:
284,314,68433,1,0,0:0:0:0:
393,80,68582,1,0,0:0:0:0:
178,281,68731,1,0,0:0:0:0:
461,162,68881,6,0,L|443:282,1,110.000004196167,8|0,0:0|0:0,0:0:0:0:
335,197,69179,1,0,0:0:0:0:
322,328,69328,1,4,0:0:0:0:
444,270,69478,1,0,0:0:0:0:
216,246,69627,1,2,0:0:0:0:
348,27,69776,6,0,B|335:90|335:90|344:167|344:167|327:246,1,190.66665793864,6|0,0:0|0:0,0:0:0:0:
300,324,70224,2,0,P|196:345|160:334,1,95.3333289693199
94,343,70522,1,0,0:0:0:0:
215,164,70672,6,0,P|244:198|194:186,1,110.000004196167,8|0,0:0|0:0,0:0:0:0:
90,129,70970,1,0,0:0:0:0:
311,119,71119,2,0,P|334:171|319:248,1,110.000004196167
285,347,71418,1,0,0:0:0:0:
213,44,71567,5,6,0:0:0:0:
173,370,71717,1,0,0:0:0:0:
132,98,71866,1,0,0:0:0:0:
213,282,72015,2,0,P|258:256|328:257,1,110.000004196167
441,292,72314,1,2,0:0:0:0:
236,171,72463,6,0,L|258:60,1,110.000004196167,8|2,0:0|0:0,0:0:0:0:
359,145,72761,1,2,0:0:0:0:
0,148,72911,2,0,L|223:111,1,220.000008392334,12|6,0:0|0:0,0:0:0:0:
303,317,73358,6,0,P|180:295|162:239,1,190.66665793864,2|0,0:0|0:0,0:0:0:0:
162,245,73806,6,0,P|237:151|181:60,1,220.000008392334
79,17,74254,5,8,0:0:0:0:
345,113,74403,1,0,0:0:0:0:
22,159,74552,1,0,0:0:0:0:
311,118,74702,1,0,0:0:0:0:
186,351,74851,1,0,0:0:0:0:
168,60,75000,1,2,0:0:0:0:
354,283,75149,6,0,B|447:273|447:273|414:252,2,110.000004196167,6|0|0,0:0|0:0|0:0,0:0:0:0:
222,301,75597,1,0,0:0:0:0:
340,90,75746,2,0,B|348:76|348:76|358:169,1,110.000004196167,0|2,0:0|0:0,0:0:0:0:
228,140,76045,5,8,0:0:0:0:
432,117,76194,1,0,0:0:0:0:
151,73,76343,1,0,0:0:0:0:
386,209,76493,1,6,0:0:0:0:
74,143,76642,1,0,0:0:0:0:
391,23,76791,1,0,0:0:0:0:
261,309,76940,6,0,B|218:217|218:217|266:116,1,190.66665793864,6|0,0:0|0:0,0:0:0:0:
370,125,77388,2,0,L|323:219,1,95.3333289693199
378,313,77687,1,0,0:0:0:0:
256,136,77836,6,0,L|153:81,1,110.000004196167,8|0,0:0|0:0,0:0:0:0:
38,31,78134,1,0,0:0:0:0:
150,252,78284,1,0,0:0:0:0:
222,5,78433,1,0,0:0:0:0:
56,153,78582,1,2,0:0:0:0:
284,234,78731,6,0,B|313:188|313:188|253:213,2,110.000004196167,6|0|0,0:0|0:0|0:0,0:0:0:0:
102,80,79179,2,0,B|73:34|73:34|127:64,1,110.000004196167
219,150,79478,1,2,0:0:0:0:
32,289,79627,5,8,0:0:0:0:
282,351,79776,1,0,0:0:0:0:
67,298,79925,1,0,0:0:0:0:
377,247,80075,1,6,0:0:0:0:
94,115,80224,1,0,0:0:0:0:
164,364,80373,1,4,0:0:0:0:
311,111,80522,6,0,L|304:26,1,73.3333333333333,6|0,0:0|0:0,0:0:0:0:
221,9,80821,1,0,0:0:0:0:
402,67,80970,2,0,P|443:63|478:75,1,73.3333333333333
434,151,81269,1,0,0:0:0:0:
226,209,81418,6,0,L|215:83,2,110.000004196167,8|0|0,0:0|0:0|0:0,0:0:0:0:
367,43,81866,2,0,P|323:88|308:152,1,110.000004196167
322,262,82164,1,0,0:0:0:0:
74,171,82314,5,6,0:0:0:0:
282,252,82463,1,0,0:0:0:0:
130,53,82612,1,0,0:0:0:0:
199,327,82761,1,0,0:0:0:0:
256,12,82911,1,0,0:0:0:0:
82,334,83060,1,0,0:0:0:0:
361,143,83209,6,0,L|483:170,1,110.000004196167,8|0,0:0|0:0,0:0:0:0:
496,296,83508,1,0,0:0:0:0:
269,196,83657,2,0,P|256:134|284:74,1,110.000004196167,4|0,0:0|0:0,0:0:0:0:
380,18,83955,1,2,0:0:0:0:
331,277,84105,6,0,B|239:316|238:261|133:300,1,190.66665793864,6|0,0:0|0:0,0:0:0:0:
242,107,84552,2,0,P|265:147|266:205,1,95.3333289693199
153,182,84851,1,0,0:0:0:0:
362,129,85000,6,0,L|485:140,1,110.000004196167,8|0,0:0|0:0,0:0:0:0:
392,245,85299,1,0,0:0:0:0:
265,207,85448,2,0,L|255:97,1,110.000004196167
348,3,85746,1,0,0:0:0:0:
97,136,85896,5,6,0:0:0:0:
315,283,86045,1,0,0:0:0:0:
18,202,86194,1,0,0:0:0:0:
388,210,86343,1,0,0:0:0:0:
81,284,86493,1,0,0:0:0:0:
345,120,86642,1,2,0:0:0:0:
150,348,86791,5,8,0:0:0:0:
272,52,86940,1,2,0:0:0:0:
272,52,87090,1,2,0:0:0:0:
416,376,87239,5,12,0:0:0:0:
102,106,87388,1,2,0:0:0:0:
102,106,87537,1,6,0:0:0:0:
488,184,87687,6,0,L|394:195,1,73.3333333333333,2|0,0:0|0:0,0:0:0:0:
355,257,87985,2,0,L|130:293,1,220
180,99,88582,6,0,P|204:137|207:187,1,73.3333333333333
34,293,88881,2,0,P|42:257|62:227,1,73.3333333333333
125,289,89179,1,0,0:0:0:0:
125,289,89328,1,0,0:0:0:0:
302,225,89478,6,0,L|383:221,1,73.3333333333333
462,213,89776,1,0,0:0:0:0:
274,71,89925,2,0,P|220:89|191:114,1,73.3333333333333
143,160,90224,1,0,0:0:0:0:
283,362,90373,5,8,0:0:0:0:
143,160,90672,5,2,0:0:0:0:
283,362,90821,1,8,0:0:0:0:
143,160,91119,5,2,0:0:0:0:
431,253,91269,2,0,L|441:157,1,87.9999973144532,2|0,0:0|0:0,0:0:0:0:
231,22,91567,2,0,P|219:144|336:183,1,263.99999194336
155,71,92164,6,0,P|175:167|253:230,1,175.999994628906,8|0,0:0|0:0,0:0:0:0:
329,253,92612,1,0,0:0:0:0:
110,355,92761,2,0,P|108:315|120:263,1,87.9999973144532
297,332,93060,6,0,L|210:321,1,87.9999973144532,2|0,0:0|0:0,0:0:0:0:
461,234,93358,2,0,L|373:245,1,87.9999973144532
299,169,93657,1,0,0:0:0:0:
299,169,93806,1,0,0:0:0:0:
419,295,93955,6,0,L|430:382,1,87.9999973144532,8|0,0:0|0:0,0:0:0:0:
493,104,94254,2,0,L|481:191,1,87.9999973144532
390,137,94552,1,0,0:0:0:0:
390,137,94702,1,0,0:0:0:0:
202,159,94851,6,0,L|290:172,1,87.9999973144532,2|0,0:0|0:0,0:0:0:0:
231,259,95149,1,0,0:0:0:0:
222,3,95299,2,0,P|247:41|254:86,1,87.9999973144532
148,79,95597,1,0,0:0:0:0:
338,171,95746,6,0,L|522:152,1,175.999994628906,8|0,0:0|0:0,0:0:0:0:
440,75,96194,1,0,0:0:0:0:
396,259,96343,2,0,L|407:357,1,87.9999973144532
224,285,96642,6,0,P|260:310|303:320,1,87.9999973144532,2|0,0:0|0:0,0:0:0:0:
305,214,96940,1,0,0:0:0:0:
126,65,97090,2,0,P|83:74|47:99,1,87.9999973144532
5,195,97388,1,0,0:0:0:0:
161,349,97537,6,0,B|195:268|195:268|172:172,1,175.999994628906,8|0,0:0|0:0,0:0:0:0:
142,81,97985,1,0,0:0:0:0:
292,248,98134,2,0,L|255:344,1,87.9999973144532
461,252,98433,6,0,P|459:222|421:146,1,87.9999973144532,2|0,0:0|0:0,0:0:0:0:
365,92,98731,1,0,0:0:0:0:
124,285,98881,2,0,P|173:282|236:260,1,87.9999973144532
309,236,99179,1,0,0:0:0:0:
129,32,99328,6,0,P|107:115|150:189,1,175.999994628906,8|0,0:0|0:0,0:0:0:0:
206,98,99776,1,0,0:0:0:0:
306,129,99925,1,0,0:0:0:0:
396,72,100075,1,0,0:0:0:0:
466,150,100224,6,0,B|449:287|449:287|426:240,1,175.999994628906,2|0,0:0|0:0,0:0:0:0:
364,170,100672,1,0,0:0:0:0:
291,246,100821,2,0,L|330:358,1,87.9999973144532
260,131,101119,6,0,L|228:327,1,175.999994628906,8|0,0:0|0:0,0:0:0:0:
129,333,101567,1,0,0:0:0:0:
349,223,101717,2,0,P|386:217|458:172,1,87.9999973144532
296,14,102015,5,2,0:0:0:0:
126,325,105896,6,0,L|110:173,1,117.333333333333
105,138,106343,1,0,0:0:0:0:
383,236,106791,2,0,P|332:263|274:264,1,117.333333333333
203,255,107239,1,0,0:0:0:0:
318,66,107388,6,0,P|325:124|307:180,1,117.333333333333
128,103,107985,2,0,P|158:100|187:105,1,58.6666666666667
154,294,108284,2,0,P|135:239|151:184,1,117.333333333333
338,215,108881,2,0,P|311:227|283:232,1,58.6666666666667
212,232,109179,1,0,0:0:0:0:
271,104,109478,6,0,L|421:116,1,117.333333333333
457,119,109925,1,0,0:0:0:0:
300,261,110373,2,0,L|158:246,1,117.333333333333
113,239,110821,1,0,0:0:0:0:
281,111,111269,6,0,B|277:38|277:38|235:77,1,117.333333333333
203,125,111717,1,0,0:0:0:0:
321,299,112164,2,0,L|453:291,1,117.333333333333
493,248,112612,1,0,0:0:0:0:
401,57,113060,6,0,P|384:117|396:183,1,117.333333333333
407,239,113508,1,0,0:0:0:0:
218,334,113955,2,0,B|148:327|148:327|103:291,1,117.333333333333
67,241,114403,1,0,0:0:0:0:
106,70,114552,6,0,L|113:188,1,117.333333333333
241,180,115149,2,0,L|237:122,1,58.6666666666667
90,173,115448,2,0,L|97:291,1,117.333333333333
331,250,116045,2,0,L|327:192,1,58.6666666666667
395,310,116343,5,2,0:0:0:0:
220,284,116642,2,0,L|65:299,1,146.666666666667
6,241,117090,1,0,0:0:0:0:
87,208,117239,2,0,L|176:200,1,73.3333333333333,2|0,0:0|0:0,0:0:0:0:
247,191,117537,2,0,B|327:184|327:184|368:112,1,146.666666666667
391,43,117985,1,0,0:0:0:0:
451,106,118134,2,0,L|463:180,1,73.3333333333333,2|0,0:0|0:0,0:0:0:0:
373,376,118433,6,0,L|391:230,1,146.666666666667
352,150,118881,1,0,0:0:0:0:
300,221,119030,2,0,L|207:229,1,73.3333333333333,2|0,0:0|0:0,0:0:0:0:
164,288,119328,2,0,P|142:249|187:149,1,146.666666666667
253,121,119776,1,0,0:0:0:0:
172,158,119925,6,0,L|93:145,1,73.3333333333333,2|0,0:0|0:0,0:0:0:0:
253,121,120224,2,0,L|409:108,1,146.666666666667
487,101,120672,1,0,0:0:0:0:
444,177,120821,2,0,L|431:259,1,73.3333333333333,2|0,0:0|0:0,0:0:0:0:
324,368,121119,2,0,L|312:295,1,73.3333333333333,0|2,0:0|0:0,0:0:0:0:
300,207,121418,1,0,0:0:0:0:
228,258,121567,1,0,0:0:0:0:
232,24,121717,6,0,L|216:170,1,146.666666666667,2|0,0:0|0:0,0:0:0:0:
132,196,122164,1,2,0:0:0:0:
62,141,122314,2,0,L|75:55,1,73.3333333333333
284,103,122612,2,0,P|218:130|149:111,1,146.666666666667,2|0,0:0|0:0,0:0:0:0:
215,52,123060,1,2,0:0:0:0:
320,173,123209,2,0,P|281:195|237:200,1,73.3333333333333
90,110,123508,5,2,0:0:0:0:
118,193,123657,1,0,0:0:0:0:
31,176,123806,1,0,0:0:0:0:
174,124,123955,5,2,0:0:0:0:
198,209,124105,1,0,0:0:0:0:
259,146,124254,1,0,0:0:0:0:
118,193,124403,6,0,P|119:223|147:273,1,73.3333333333333,2|0,0:0|0:0,0:0:0:0:
198,325,124702,1,0,0:0:0:0:
416,175,124851,6,0,P|387:168|330:174,1,73.3333333333333,2|0,0:0|0:0,0:0:0:0:
259,193,125149,1,0,0:0:0:0:
370,370,125299,6,0,P|379:335|373:277,1,87.9999973144532,2|0,0:0|0:0,0:0:0:0:
350,181,125597,1,0,0:0:0:0:
104,343,125746,6,0,L|196:329,1,87.9999973144532,2|0,0:0|0:0,0:0:0:0:
295,308,126045,1,0,0:0:0:0:
161,67,126194,6,0,L|145:182,1,102.666663533529,2|0,0:0|0:0,0:0:0:0:
127,294,126493,1,0,0:0:0:0:
480,95,126642,6,0,L|359:114,1,102.666663533529,2|0,0:0|0:0,0:0:0:0:
253,129,126941,1,0,0:0:0:0:
333,221,127090,5,2,0:0:0:0:
294,17,127239,1,2,0:0:0:0:
236,280,127388,1,2,0:0:0:0:
428,129,127537,5,2,0:0:0:0:
142,80,127687,1,2,0:0:0:0:
498,42,127836,1,2,0:0:0:0:
345,322,127985,5,2,0:0:0:0:
286,24,128134,1,2,0:0:0:0:
447,365,128284,1,2,0:0:0:0:
119,213,128433,5,2,0:0:0:0:
470,134,128582,1,2,0:0:0:0:
30,122,128731,1,2,0:0:0:0:
302,354,128881,5,2,0:0:0:0:
154,333,130672,6,0,B|113:224|113:224|138:131,1,190.66665793864,2|0,0:0|0:0,0:0:0:0:
271,206,131119,6,0,L|407:186,1,124.666669044495
476,61,131418,1,0,0:0:0:0:
214,141,131567,6,0,P|183:207|269:297,1,190.66665793864,8|0,0:0|0:0,0:0:0:0:
361,289,132015,2,0,L|470:276,1,95.3333289693199,2|0,0:0|0:0,0:0:0:0:
506,174,132314,1,2,0:0:0:0:
369,4,132463,6,0,L|400:202,1,187.000003566742,2|0,0:0|0:0,0:0:0:0:
411,262,132761,1,0,0:0:0:0:
135,147,132911,1,0,0:0:0:0:
323,374,133060,1,0,0:0:0:0:
203,27,133209,1,2,0:0:0:0:
192,347,133358,6,0,B|125:322|125:322|186:311,1,124.666669044495,8|0,0:0|0:0,0:0:0:0:
325,284,133657,1,0,0:0:0:0:
229,169,133806,1,0,0:0:0:0:
287,379,133955,1,0,0:0:0:0:
386,96,134105,1,2,0:0:0:0:
124,203,134254,6,0,L|332:182,1,190.66665793864,2|0,0:0|0:0,0:0:0:0:
395,265,134702,2,0,P|420:222|426:174,1,95.3333289693199
365,80,135000,1,0,0:0:0:0:
284,355,135149,6,0,P|259:312|259:230,1,124.666669044495,8|0,0:0|0:0,0:0:0:0:
282,168,135373,1,0,0:0:0:0:
282,168,135448,1,0,0:0:0:0:
512,238,135597,2,0,P|469:263|387:263,1,124.666669044495
427,118,135896,1,2,0:0:0:0:
168,63,136045,6,0,L|193:261,1,190.66665793864,2|0,0:0|0:0,0:0:0:0:
264,341,136493,2,0,L|365:323,1,95.3333289693199
467,355,136791,1,2,0:0:0:0:
324,172,136940,6,0,P|349:140|341:179,1,95.3333289693199,8|0,0:0|0:0,0:0:0:0:
173,294,137239,2,0,P|120:283|84:258,1,95.3333289693199
253,101,137537,2,0,P|291:66|347:54,1,95.3333289693199,2|0,0:0|0:0,0:0:0:0:
465,286,137836,2,0,B|335:258|335:258|266:277,1,190.66665793864,2|0,0:0|0:0,0:0:0:0:
151,351,138284,6,0,L|169:207,1,124.666669044495
51,131,138582,1,0,0:0:0:0:
331,61,138731,1,8,0:0:0:0:
159,287,138881,1,0,0:0:0:0:
178,5,139030,1,0,0:0:0:0:
347,239,139179,2,0,B|328:349|328:349|287:196,1,249.333338088989,2|0,0:0|0:0,0:0:0:0:
168,130,139627,6,0,B|224:325|224:325|117:287,1,311.666672611237,2|0,0:0|0:0,0:0:0:0:
49,267,140075,1,0,0:0:0:0:
285,114,140224,1,0,0:0:0:0:
285,114,140299,1,0,0:0:0:0:
285,114,140373,1,0,0:0:0:0:
174,358,140522,5,8,0:0:0:0:
213,22,140672,1,0,0:0:0:0:
276,378,140821,1,0,0:0:0:0:
212,53,140970,1,0,0:0:0:0:
374,335,141119,1,0,0:0:0:0:
46,202,141269,1,2,0:0:0:0:
395,145,141418,6,0,L|371:352,1,190.66665793864,2|0,0:0|0:0,0:0:0:0:
292,252,141866,2,0,L|274:147,1,95.3333289693199
255,45,142164,1,0,0:0:0:0:
103,182,142314,5,8,0:0:0:0:
255,45,142463,1,0,0:0:0:0:
166,275,142612,1,0,0:0:0:0:
141,60,142761,1,0,0:0:0:0:
282,252,142911,1,0,0:0:0:0:
40,100,143060,1,2,0:0:0:0:
236,345,143209,6,0,P|172:248|368:193,1,381.33331587728,2|0,0:0|0:0,0:0:0:0:
419,276,143955,1,2,0:0:0:0:
482,180,144105,6,0,L|470:72,1,95.3333289693199,8|0,0:0|0:0,0:0:0:0:
390,4,144403,1,2,0:0:0:0:
303,208,144552,2,0,L|292:302,1,95.3333289693199,8|0,0:0|0:0,0:0:0:0:
192,359,144851,1,2,0:0:0:0:
172,246,145000,6,0,L|157:143,1,95.3333289693199,2|0,0:0|0:0,0:0:0:0:
428,165,145299,6,0,L|305:182,1,124.666669044495
247,44,145597,1,0,0:0:0:0:
302,318,145746,1,0,0:0:0:0:
45,258,145896,6,0,L|246:225,1,190.66665793864,8|0,0:0|0:0,0:0:0:0:
328,165,146343,2,0,B|381:155|381:155|435:107,1,95.3333289693199,2|0,0:0|0:0,0:0:0:0:
483,37,146642,1,2,0:0:0:0:
484,293,146791,6,0,B|344:272|344:272|218:303,1,249.333338088989,2|0,0:0|0:0,0:0:0:0:
98,350,147239,1,0,0:0:0:0:
172,95,147388,1,0,0:0:0:0:
106,317,147537,1,2,0:0:0:0:
79,36,147687,5,8,0:0:0:0:
307,206,147836,1,0,0:0:0:0:
114,284,147985,1,0,0:0:0:0:
274,65,148134,1,0,0:0:0:0:
315,366,148284,1,0,0:0:0:0:
120,124,148433,1,2,0:0:0:0:
382,237,148582,6,0,B|263:260|263:260|179:235,1,190.66665793864,2|0,0:0|0:0,0:0:0:0:
85,211,149030,2,0,L|95:311,1,95.3333289693199
193,362,149328,1,0,0:0:0:0:
270,233,149478,6,0,L|256:95,1,124.666669044495,8|0,0:0|0:0,0:0:0:0:
248,34,149702,1,0,0:0:0:0:
248,34,149776,1,0,0:0:0:0:
141,139,149925,1,0,0:0:0:0:
370,163,150075,1,0,0:0:0:0:
139,25,150224,1,2,0:0:0:0:
240,317,150373,6,0,L|220:117,1,190.66665793864,2|0,0:0|0:0,0:0:0:0:
470,130,150821,2,0,P|405:196|379:201,1,95.3333289693199
297,229,151119,1,2,0:0:0:0:
316,9,151269,6,0,P|360:61|375:97,1,95.3333289693199,8|0,0:0|0:0,0:0:0:0:
163,207,151567,2,0,P|185:165|218:130,1,95.3333289693199
381,309,151866,2,0,P|339:286|304:253,1,95.3333289693199,2|0,0:0|0:0,0:0:0:0:
169,97,152164,2,0,P|174:148|136:286,1,190.66665793864,2|0,0:0|0:0,0:0:0:0:
381,309,152612,6,0,P|339:286|287:213,1,124.666669044495
221,12,152911,1,0,0:0:0:0:
448,176,153060,1,8,0:0:0:0:
242,265,153209,1,0,0:0:0:0:
444,361,153358,1,0,0:0:0:0:
337,54,153508,2,0,B|350:233|350:233|315:340,1,249.333338088989,2|2,0:0|0:0,0:0:0:0:
186,347,153955,6,0,P|118:325|236:284,1,311.666672611237,2|0,0:0|0:0,0:0:0:0:
264,332,154403,1,0,0:0:0:0:
343,98,154552,1,0,0:0:0:0:
343,98,154627,1,0,0:0:0:0:
343,98,154702,1,0,0:0:0:0:
411,361,154851,5,8,0:0:0:0:
142,277,155000,1,0,0:0:0:0:
468,280,155149,1,0,0:0:0:0:
96,363,155299,1,0,0:0:0:0:
441,286,155448,1,0,0:0:0:0:
123,356,155597,1,2,0:0:0:0:
327,91,155746,6,0,L|301:289,1,190.66665793864,2|0,0:0|0:0,0:0:0:0:
206,344,156194,2,0,L|198:235,1,95.3333289693199
184,134,156493,1,0,0:0:0:0:
302,280,156642,5,8,0:0:0:0:
81,158,156791,1,0,0:0:0:0:
270,271,156940,1,0,0:0:0:0:
111,48,157090,1,0,0:0:0:0:
183,337,157239,1,0,0:0:0:0:
292,11,157388,1,2,0:0:0:0:
66,262,157537,6,0,P|128:249|70:27,1,366.666666666667,2|0,0:0|0:0,0:0:0:0:
446,262,158433,2,0,P|384:249|456:27,1,366.666666666667,8|0,0:0|0:0,0:0:0:0:
256,356,159328,5,2,0:0:0:0:
256,192,159403,12,0,162911,0:0:0:0:
